osu file format v14

[General]
AudioFilename: audio.mp3
AudioLeadIn: 0
PreviewTime: 103156
Countdown: 0
SampleSet: Normal
StackLeniency: 0.7
Mode: 1
LetterboxInBreaks: 0
WidescreenStoryboard: 1

[Editor]
DistanceSpacing: 1.2
BeatDivisor: 6
GridSize: 32
TimelineZoom: 3.899999

[Metadata]
Title:Cursed Metamorph (Cut Ver.)
TitleUnicode:Cursed Metamorph (Cut Ver.)
Artist:Sot-C
ArtistUnicode:Sot-C
Creator:uone
Version:komasy's Inner Oni
Source:
Tags:komasy electronic instrumental Expert Global Taiko Showdown 2022 egts grand finals gf fm1 forced mod 1 custom map デカくなりたいコンピ dekaku naritai compilation Southern Cross full flavor hardcore
BeatmapID:3949378
BeatmapSetID:1859250

[Difficulty]
HPDrainRate:6.5
CircleSize:3
OverallDifficulty:6.5
ApproachRate:9
SliderMultiplier:1.4
SliderTickRate:1

[Events]
//Background and Video events
0,0,"bg.jpg",0,0
//Break Periods
2,86749,92806
//Storyboard Layer 0 (Background)
//Storyboard Layer 1 (Fail)
//Storyboard Layer 2 (Pass)
//Storyboard Layer 3 (Foreground)
//Storyboard Layer 4 (Overlay)
//Storyboard Sound Samples

[TimingPoints]
835,214.285714285714,4,1,0,20,1,0
835,-200,4,1,0,20,0,0
7209,-133.333333333333,4,1,0,60,0,0
11107,-133.333331802148,4,1,0,60,0,0
11428,-132.91028446405,4,1,0,60,0,0
11857,-128.262046547139,4,1,0,63,0,0
12178,-119.640475607084,4,1,0,67,0,0
12393,-111.326547437,4,1,0,73,0,0
12500,-106.580074829491,4,1,0,76,0,0
12607,-101.534996307941,4,1,0,80,0,0
12660,-98.952976894352,4,1,0,82,0,0
12714,-96.281043544421,4,1,0,85,0,0
12768,-93.579124174869,4,1,0,87,0,0
12821,-90.909090909091,4,1,0,90,0,0
13933,-90.909090909091,4,1,0,60,0,0
14495,-100,4,1,0,60,0,0
15352,-111.111111111111,4,1,0,60,0,0
16183,-125,4,1,0,80,0,0
23093,-111.111111111111,4,1,0,90,0,0
26535,-111.051140197004,4,1,0,90,0,0
26589,-110.247823174816,4,1,0,90,0,0
26643,-109.456044686793,4,1,0,90,0,0
26750,-107.920272751115,4,1,0,90,0,0
26857,-106.427001163843,4,1,0,90,0,0
26964,-104.974489795918,4,1,0,90,0,0
27018,-104.256397263745,4,1,0,90,0,0
27071,-103.561092236064,4,1,0,90,0,0
27178,-102.185249565433,4,1,0,90,0,0
27285,-100.845484621983,4,1,0,90,0,0
27393,-99.528358930947,4,1,0,90,0,0
27446,-98.894496515261,4,1,0,90,0,0
27500,-98.256924546323,4,1,0,90,0,0
27607,-97.017564540846,4,1,0,90,0,0
27660,-96.415182755389,4,1,0,90,0,0
27714,-95.80908032596,4,1,0,90,0,0
27821,-94.630332298494,4,1,0,90,0,0
27875,-94.046394697749,4,1,0,90,0,0
27928,-93.480236256247,4,1,0,90,0,0
28035,-92.357760071821,4,1,0,90,0,0
28089,-91.801450083659,4,1,0,90,0,0
28143,-91.251801751857,4,1,0,90,0,0
28196,-90.718694885362,4,1,0,90,0,0
28250,-90.181897874206,4,1,0,90,0,0
28357,-89.136791941947,4,1,0,90,0,0
28464,-88.115631691649,4,1,0,90,0,0
28571,-87.117603472002,4,1,0,90,0,0
28678,-86.141930081641,4,1,0,90,0,0
28785,-85.187868750647,4,1,0,90,0,0
28893,-84.246084553178,4,1,0,90,0,0
29000,-83.333333333333,4,1,0,90,0,0
29067,-83.333333333333,4,1,0,50,0,0
29174,-100,4,1,0,50,0,0
29924,-111.111111111111,4,1,0,80,0,0
42714,-111.206452720096,4,1,0,80,0,0
42821,-113.286713286713,4,1,0,77,0,0
42928,-115.446285408872,4,1,0,73,0,0
43035,-117.689792953142,4,1,0,70,0,0
43143,-120.044460911449,4,1,0,67,0,0
43250,-122.472122472122,4,1,0,63,0,0
43357,-125,4,1,0,60,0,0
43638,-111.111111111111,4,1,0,80,0,0
47495,-125,4,1,0,60,0,0
48245,-111.111111111111,4,1,0,80,0,0
49893,-111.225540679712,4,1,0,80,0,0
50000,-113.732097725358,4,1,0,80,0,0
50107,-116.354234001293,4,1,0,80,0,0
50214,-119.10013233348,4,1,0,80,0,0
50321,-121.978766659137,4,1,0,80,0,0
50375,-123.485021724217,4,1,0,80,0,0
50428,-125,4,1,0,80,0,0
50495,-111.111111111111,4,1,0,80,0,0
55571,-111.111111305774,4,1,0,80,0,0
55785,-111.142631864381,4,1,0,80,0,0
56107,-111.592129049904,4,1,0,80,0,0
56428,-113.087028008069,4,1,0,80,0,0
56750,-116.385848481558,4,1,0,80,0,0
56959,-119.969064884979,4,1,0,80,0,0
57031,-121.551849963947,4,1,0,80,0,0
57102,-123.320903123524,4,1,0,80,0,0
57174,-125.351564588599,4,1,0,80,0,0
57245,-127.616647002249,4,1,0,80,0,0
57317,-130.214990092998,4,1,0,80,0,0
57388,-133.115231912085,4,1,0,90,0,0
57406,-133.115231912085,4,1,0,90,0,1
60781,-111.111111111111,4,1,0,90,0,1
60834,-111.111111111111,4,1,0,90,0,0
63406,-111.499159229078,4,1,0,90,0,0
63513,-113.86302093653,4,1,0,90,0,0
63727,-118.904752051866,4,1,0,90,0,0
63821,-121.263276359288,4,1,0,90,0,0
63875,-122.660974742085,4,1,0,90,0,0
63928,-124.064478986759,4,1,0,90,0,0
63982,-125.527886995777,4,1,0,90,0,0
64035,-126.998158379374,4,1,0,90,0,0
64143,-130.103388423515,4,1,0,90,0,0
64250,-133.333333333333,4,1,0,90,0,0
64263,-133.333333333333,4,1,0,90,0,1
67638,-111.111111111111,4,1,0,90,0,1
67692,-111.111111111111,4,1,0,90,0,0
71495,-133.333333333333,4,1,0,90,0,0
71549,-133.333333333333,4,1,0,90,0,1
72834,-133.333333333333,4,1,0,90,0,0
73263,-133.333333333333,4,1,0,90,0,1
74495,-111.111111111111,4,1,0,90,0,1
74549,-111.111111111111,4,1,0,90,0,0
77107,-111.111111111111,4,1,0,90,0,0
77388,-117.655134541461,4,1,0,90,0,0
77535,-121.224980550251,4,1,0,90,0,0
77674,-125.018234865062,4,1,0,90,0,0
77817,-129.027401385125,4,1,0,90,0,0
77964,-133.333333333333,4,1,0,90,0,0
77977,-133.333333333333,4,1,0,90,0,1
79263,-133.333333333333,4,1,0,90,0,0
79692,-125,4,1,0,90,0,1
80977,-125,4,1,0,90,0,0
81352,-111.111111111111,4,1,0,90,0,0
83107,-111.111111111111,4,1,0,90,0,0
83214,-110.345937248592,4,1,0,90,0,0
83428,-108.839866687827,4,1,0,90,0,0
83535,-108.105551877424,4,1,0,90,0,0
83750,-106.66625190531,4,1,0,90,0,0
83857,-105.960878835635,4,1,0,90,0,0
84071,-104.57775473482,4,1,0,90,0,0
84178,-103.893349492501,4,1,0,90,0,0
84393,-102.563335626477,4,1,0,90,0,0
84500,-101.911017326953,4,1,0,90,0,0
84821,-100.00291638718,4,1,0,90,0,0
84928,-99.376901898276,4,1,0,90,0,0
85143,-98.159333581427,4,1,0,90,0,0
85250,-97.56166955928,4,1,0,90,0,0
85464,-96.387912860155,4,1,0,90,0,0
85571,-95.811562211853,4,1,0,90,0,0
85785,-94.674066097904,4,1,0,90,0,0
85893,-94.117969972278,4,1,0,90,0,0
86107,-93.025148530968,4,1,0,90,0,0
86214,-92.488199595415,4,1,0,90,0,0
86535,-90.909090909091,4,1,0,90,0,0
86602,-100,4,1,0,50,0,0
88209,-104.166666666667,4,1,0,50,0,0
89067,-108.695652173913,4,1,0,50,0,0
89924,-113.636363636364,4,1,0,50,0,0
90781,-119.047619047619,4,1,0,50,0,0
91638,-125,4,1,0,50,0,0
92495,-133.333333333333,4,1,0,50,0,0
93352,-142.857142857143,4,1,0,60,0,0
93393,-133.333333321216,4,1,0,60,0,0
93500,-133.333197146508,4,1,0,60,0,0
93607,-133.3323151863,4,1,0,61,0,0
93714,-133.329975003611,4,1,0,61,0,0
93928,-133.318071277543,4,1,0,62,0,0
94143,-133.291628492876,4,1,0,63,0,0
94357,-133.24519483993,4,1,0,64,0,0
94571,-133.173040802694,4,1,0,65,0,0
94678,-133.125567878287,4,1,0,66,0,0
94785,-133.069572252096,4,1,0,66,0,0
94893,-133.003711481304,4,1,0,66,0,0
95000,-132.928518876805,4,1,0,67,0,0
95107,-132.842755139959,4,1,0,67,0,0
95214,-132.745755102709,4,1,0,68,0,0
95321,-132.636863132279,4,1,0,68,0,0
95428,-132.515434287153,4,1,0,69,0,0
95643,-132.230993163166,4,1,0,70,0,0
95857,-131.890160313291,4,1,0,71,0,0
95910,-131.79630729717,4,1,0,71,0,0
95964,-131.696685811433,4,1,0,71,0,0
96071,-131.487094498037,4,1,0,71,0,0
96285,-131.017446405038,4,1,0,72,0,0
96393,-130.75386209471,4,1,0,73,0,0
96500,-130.474510923523,4,1,0,73,0,0
96607,-130.176595079224,4,1,0,74,0,0
96714,-129.859700845442,4,1,0,74,0,0
96821,-129.523442564881,4,1,0,75,0,0
96928,-129.167463901942,4,1,0,75,0,0
97035,-128.79143905412,4,1,0,76,0,0
97143,-128.391272768197,4,1,0,76,0,0
97250,-127.974112299548,4,1,0,76,0,0
97357,-127.536120638503,4,1,0,77,0,0
97571,-126.5969090724,4,1,0,78,0,0
97678,-126.095411397861,4,1,0,78,0,0
97785,-125.572528344316,4,1,0,79,0,0
98000,-124.457069511869,4,1,0,80,0,0
98107,-123.869703081887,4,1,0,80,0,0
98214,-123.260993891896,4,1,0,81,0,0
98321,-122.631048093631,4,1,0,81,0,0
98428,-121.980009932373,4,1,0,81,0,0
98535,-121.308061492272,4,1,0,82,0,0
98643,-120.608852236099,4,1,0,82,0,0
98750,-119.895589116986,4,1,0,83,0,0
98857,-119.162187349782,4,1,0,83,0,0
98964,-118.408975478686,4,1,0,84,0,0
99071,-117.636316610693,4,1,0,84,0,0
99285,-116.034276785297,4,1,0,85,0,0
99393,-115.197957889726,4,1,0,86,0,0
99500,-114.351631874143,4,1,0,86,0,0
99607,-113.488157512068,4,1,0,87,0,0
99714,-112.608079844412,4,1,0,87,0,0
99821,-111.711968954351,4,1,0,87,0,0
99928,-110.800418251976,4,1,0,88,0,0
100035,-109.874042695892,4,1,0,88,0,0
100143,-108.924621746839,4,1,0,89,0,0
100250,-107.9703949604,4,1,0,89,0,0
100357,-107.003305279115,4,1,0,90,0,0
100464,-106.024035276368,4,1,0,90,0,0
100571,-105.033279563947,4,1,0,91,0,0
100678,-104.031742843901,4,1,0,91,0,0
100785,-103.020137966909,4,1,0,92,0,0
100893,-101.989600567895,4,1,0,92,0,0
101000,-100.959943726959,4,1,0,92,0,0
101107,-99.922393837943,4,1,0,93,0,0
101214,-98.877677377505,4,1,0,93,0,0
101321,-97.826519658295,4,1,0,94,0,0
101428,-96.769643109042,4,1,0,94,0,0
101535,-95.70776561717,4,1,0,95,0,0
101643,-94.631616765875,4,1,0,95,0,0
101750,-93.561834801444,4,1,0,96,0,0
101857,-92.489169236724,4,1,0,96,0,0
101964,-91.414304553019,4,1,0,97,0,0
102018,-90.871228262639,4,1,0,97,0,0
102071,-90.337913506499,4,1,0,97,0,0
102178,-89.260655943386,4,1,0,97,0,0
102232,-88.716869551543,4,1,0,98,0,0
102285,-88.183177703621,4,1,0,98,0,0
102393,-87.096047447085,4,1,0,98,0,0
102446,-86.562893836093,4,1,0,99,0,0
102500,-86.020016832838,4,1,0,99,0,0
102607,-84.945614915618,4,1,0,99,0,0
102660,-84.414217203646,4,1,0,100,0,0
102714,-83.873422175951,4,1,0,100,0,0
102768,-83.333333333333,4,1,0,100,0,0
102834,-83.333333333333,4,1,0,50,0,0
103035,-111.034837823923,4,1,0,80,0,0
103089,-110.01530351981,4,1,0,80,0,0
103196,-108.049432197729,4,1,0,80,0,0
103250,-107.083747103608,4,1,0,80,0,0
103357,-105.220361034315,4,1,0,80,0,0
103410,-104.321186713963,4,1,0,80,0,0
103464,-103.420716112532,4,1,0,80,0,0
103571,-101.681596731102,4,1,0,80,0,0
103638,-100.622083981337,4,1,0,100,0,0
103678,-100,4,1,0,100,0,0
103692,-100,4,1,0,100,0,1
116964,-103.442728442728,4,1,0,100,0,1
116977,-103.442728442728,4,1,0,100,0,0
117071,-105.254542478311,4,1,0,100,0,0
117125,-106.193228736581,4,1,0,100,0,0
117232,-108.103564223268,4,1,0,100,0,0
117285,-109.093993892094,4,1,0,100,0,0
117393,-111.111111111111,4,1,0,100,0,0
120393,-111.253854059609,4,1,0,100,0,0
120486,-113.977362463806,4,1,0,100,0,0
120567,-116.460462614309,4,1,0,100,0,0
120660,-119.448275862069,4,1,0,100,0,0
120741,-122.178329571106,4,1,0,100,0,0
120821,-100,4,1,0,100,0,0
120834,-100,4,1,0,100,0,1
123821,-102.036931277365,4,1,0,100,0,1
123834,-102.036931277365,4,1,0,100,0,0
123928,-104.178814382896,4,1,0,100,0,0
123982,-105.263157894737,4,1,0,100,0,0
124089,-107.522567703109,4,1,0,100,0,0
124143,-108.700060839586,4,1,0,100,0,0
124250,-111.111111111111,4,1,0,100,0,0
127250,-108.700060839586,4,1,0,100,0,0
127357,-106.391425168718,4,1,0,100,0,0
127464,-104.178814382896,4,1,0,100,0,0
127571,-102.056359482102,4,1,0,100,0,0
127678,-100,4,1,0,100,0,0
127692,-100,4,1,0,100,0,1
130732,-98.790532791158,4,1,0,100,0,1
130785,-97.710632154275,4,1,0,100,0,1
130839,-96.634370219276,4,1,0,100,0,1
130893,-95.581559568244,4,1,0,100,0,1
130946,-94.570316398842,4,1,0,100,0,1
131000,-93.56176557717,4,1,0,100,0,1
131053,-92.592592592593,4,1,0,100,0,1
131120,-100,4,1,0,100,0,0
131334,-100,4,1,0,100,0,1
137321,-100,4,1,0,100,0,1
137428,-101.692234698719,4,1,0,100,0,1
137643,-105.271774721676,4,1,0,100,0,1
137857,-109.093993892094,4,1,0,100,0,1
137964,-111.111111111111,4,1,0,100,0,1
141352,-100,4,1,0,100,0,1
142049,-100,4,1,0,100,0,0
142209,-95.238095238095,4,1,0,100,0,0
142263,-95.238095238095,4,1,0,100,0,1
142906,-95.238095238095,4,1,0,100,0,0
143067,-90.909090909091,4,1,0,100,0,0
143120,-90.909090909091,4,1,0,100,0,1
144071,-90.909090909091,4,1,0,100,0,1
144178,-93.771256437664,4,1,0,100,0,1
144500,-103.451972555746,4,1,0,100,0,1
144821,-115.361625821877,4,1,0,100,0,1
144834,-115.361625821877,4,1,0,90,0,0
145035,-125,4,1,0,90,0,0
148209,-95.238095238095,4,1,0,100,0,0
148263,-100,4,1,0,100,0,1
155120,-100,4,1,0,100,0,0
155281,-95.238095238095,4,1,0,100,0,0
155334,-95.238095238095,4,1,0,100,0,1
159192,-95.238095238095,4,1,0,100,0,0
159352,-90.909090909091,4,1,0,100,0,0
159406,-90.909090909091,4,1,0,100,0,1
160049,-100,4,1,0,100,0,0
160209,-86.95652173913,4,1,0,100,0,0
160263,-86.95652173913,4,1,0,100,0,1
161107,-87.066309782334,4,1,0,100,0,1
161214,-89.484065192567,4,1,0,100,0,1
161268,-90.755948620762,4,1,0,100,0,1
161321,-92.039933799584,4,1,0,100,0,1
161428,-94.746098043526,4,1,0,100,0,1
161535,-97.616216522281,4,1,0,100,0,1
161643,-100.695052859062,4,1,0,100,0,1
161750,-103.943084529121,4,1,0,100,0,1
161857,-107.407638153386,4,1,0,100,0,1
161964,-111.111111111111,4,1,0,100,0,1
161977,-111.111111111111,4,1,0,100,0,0
162031,-116.279069767442,4,1,0,60,0,0
162781,-119.047619047619,4,1,0,57,0,0
163638,-121.951219512195,4,1,0,54,0,0
164495,-125,4,1,0,51,0,0
165352,-128.205128205128,4,1,0,48,0,0
166209,-131.578947368421,4,1,0,45,0,0
167067,-135.135135135135,4,1,0,42,0,0
167924,-138.888888888889,4,1,0,39,0,0
168781,-142.857142857143,4,1,0,40,0,0
168821,-142.857142857143,4,1,0,40,0,0
169143,-142.846581566634,4,1,0,40,0,0
169250,-142.832169471063,4,1,0,40,0,0
169678,-142.657599948347,4,1,0,40,0,0
169785,-142.573416280442,4,1,0,40,0,0
170000,-142.340548601564,4,1,0,40,0,0
170107,-142.187468376574,4,1,0,40,0,0
170321,-141.797348969135,4,1,0,41,0,0
170428,-141.553798478941,4,1,0,41,0,0
170535,-141.278988524122,4,1,0,41,0,0
170643,-140.968942473043,4,1,0,41,0,0
170857,-140.236108613146,4,1,0,42,0,0
170964,-139.810058672293,4,1,0,42,0,0
171071,-139.342267334894,4,1,0,42,0,0
171285,-138.270858766376,4,1,0,43,0,0
171393,-137.669959504155,4,1,0,43,0,0
171500,-137.022818636156,4,1,0,44,0,0
171607,-136.328692188698,4,1,0,44,0,0
171821,-134.797336685714,4,1,0,45,0,0
171928,-133.951406572904,4,1,0,46,0,0
172035,-133.06482040594,4,1,0,46,0,0
172089,-132.607828163591,4,1,0,46,0,0
172143,-132.130096475665,4,1,0,47,0,0
172196,-131.649362439016,4,1,0,47,0,0
172250,-131.147540983607,4,1,0,48,0,0
172464,-129.041059181165,4,1,0,49,0,0
172678,-126.740268681975,4,1,0,51,0,0
172785,-125.528959809059,4,1,0,52,0,0
172893,-124.275342165618,4,1,0,53,0,0
173000,-122.980899689651,4,1,0,54,0,0
173053,-122.312638744971,4,1,0,54,0,0
173107,-121.647256528824,4,1,0,55,0,0
173214,-120.276166791111,4,1,0,56,0,0
173321,-118.869503443174,4,1,0,57,0,0
173482,-116.690287161414,4,1,0,59,0,0
173535,-115.943573708916,4,1,0,59,0,0
173643,-114.44217111725,4,1,0,61,0,0
173750,-112.913651949092,4,1,0,62,0,0
173803,-112.132675197309,4,1,0,63,0,0
173857,-111.360296899028,4,1,0,64,0,0
173910,-110.567665869401,4,1,0,65,0,0
173964,-109.78442847589,4,1,0,65,0,0
174071,-108.188397792717,4,1,0,67,0,0
174178,-106.559412679901,4,1,0,69,0,0
174339,-104.117972675892,4,1,0,71,0,0
174393,-103.287600096112,4,1,0,72,0,0
174500,-101.63446952651,4,1,0,74,0,0
174607,-99.972944683609,4,1,0,76,0,0
174768,-97.462052089361,4,1,0,79,0,0
174821,-96.633729389235,4,1,0,80,0,0
174928,-94.94477189821,4,1,0,82,0,0
175035,-93.271803096306,4,1,0,85,0,0
175143,-91.601205088149,4,1,0,87,0,0
175196,-90.775190320309,4,1,0,88,0,0
175250,-89.934914272306,4,1,0,89,0,0
175357,-88.274782780632,4,1,0,92,0,0
175464,-86.62257445584,4,1,0,95,0,0
175518,-85.792291786577,4,1,0,96,0,0
175571,-84.979961671579,4,1,0,97,0,0
175678,-76.9230769230769,4,1,0,80,0,0

[HitObjects]
352,96,7692,5,8,0:0:0:0:
352,96,8013,5,8,0:0:0:0:
352,96,8442,5,8,0:0:0:0:
352,96,8763,5,8,0:0:0:0:
352,96,9406,5,8,0:0:0:0:
352,96,9727,5,8,0:0:0:0:
352,96,10156,5,8,0:0:0:0:
352,96,10477,5,8,0:0:0:0:
352,96,11120,5,8,0:0:0:0:
352,96,11442,5,8,0:0:0:0:
352,96,11870,5,8,0:0:0:0:
352,96,12192,5,8,0:0:0:0:
160,96,12406,5,0,0:0:0:0:
160,96,12513,5,0,0:0:0:0:
352,96,12620,5,8,0:0:0:0:
352,96,12674,5,8,0:0:0:0:
352,96,12727,5,8,0:0:0:0:
352,96,12781,5,8,0:0:0:0:
160,288,12834,5,4,0:0:0:0:
160,96,13049,5,0,0:0:0:0:
352,288,13156,5,12,0:0:0:0:
352,96,13370,5,8,0:0:0:0:
160,288,13584,5,4,0:0:0:0:
352,96,13799,5,8,0:0:0:0:
160,288,13906,5,4,0:0:0:0:
256,192,14013,12,0,15942,0:0:0:0:
160,288,16263,5,4,0:0:0:0:
160,96,16584,5,0,0:0:0:0:
352,96,16906,5,8,0:0:0:0:
160,96,17120,5,0,0:0:0:0:
160,96,17549,5,0,0:0:0:0:
160,96,17977,5,0,0:0:0:0:
160,96,18299,5,0,0:0:0:0:
352,96,18620,5,8,0:0:0:0:
160,96,18834,5,0,0:0:0:0:
352,96,19049,5,8,0:0:0:0:
160,96,19263,5,0,0:0:0:0:
352,96,19370,5,8,0:0:0:0:
160,96,19692,5,0,0:0:0:0:
160,96,20013,5,0,0:0:0:0:
352,96,20334,5,8,0:0:0:0:
160,96,20549,5,0,0:0:0:0:
160,96,20977,5,0,0:0:0:0:
160,96,21406,5,0,0:0:0:0:
160,96,21727,5,0,0:0:0:0:
352,96,22049,5,8,0:0:0:0:
160,96,22263,5,0,0:0:0:0:
352,96,22477,5,8,0:0:0:0:
160,96,22692,5,0,0:0:0:0:
352,96,22799,5,8,0:0:0:0:
160,96,22906,5,0,0:0:0:0:
160,96,22959,5,0,0:0:0:0:
160,96,23013,5,0,0:0:0:0:
352,288,23120,5,12,0:0:0:0:
160,96,23334,5,0,0:0:0:0:
352,96,23442,5,8,0:0:0:0:
160,96,23549,5,0,0:0:0:0:
160,96,23656,5,0,0:0:0:0:
352,96,23763,5,8,0:0:0:0:
160,96,23977,5,0,0:0:0:0:
352,96,24192,5,8,0:0:0:0:
160,96,24299,5,0,0:0:0:0:
352,96,24406,5,8,0:0:0:0:
352,96,24513,5,8,0:0:0:0:
160,96,24620,5,0,0:0:0:0:
352,96,24727,5,8,0:0:0:0:
160,96,24834,5,0,0:0:0:0:
160,96,25049,5,0,0:0:0:0:
352,96,25156,5,8,0:0:0:0:
160,96,25263,5,0,0:0:0:0:
160,96,25370,5,0,0:0:0:0:
352,96,25477,5,8,0:0:0:0:
160,96,25692,5,0,0:0:0:0:
352,96,25906,5,8,0:0:0:0:
352,96,26013,5,8,0:0:0:0:
160,96,26120,5,0,0:0:0:0:
352,96,26227,5,8,0:0:0:0:
160,96,26334,5,0,0:0:0:0:
160,96,26442,5,0,0:0:0:0:
352,96,26549,5,8,0:0:0:0:
160,96,26602,5,0,0:0:0:0:
160,96,26656,5,0,0:0:0:0:
352,96,26763,5,8,0:0:0:0:
160,96,26870,5,0,0:0:0:0:
352,96,26977,5,8,0:0:0:0:
160,96,27031,5,0,0:0:0:0:
160,96,27084,5,0,0:0:0:0:
352,96,27192,5,8,0:0:0:0:
160,96,27299,5,0,0:0:0:0:
352,96,27406,5,8,0:0:0:0:
352,96,27459,5,8,0:0:0:0:
160,96,27513,5,0,0:0:0:0:
352,96,27620,5,8,0:0:0:0:
352,96,27674,5,8,0:0:0:0:
160,96,27727,5,0,0:0:0:0:
352,96,27834,5,8,0:0:0:0:
352,96,27888,5,8,0:0:0:0:
160,96,27942,5,0,0:0:0:0:
352,96,28049,5,8,0:0:0:0:
352,96,28102,5,8,0:0:0:0:
352,96,28156,5,8,0:0:0:0:
352,96,28209,5,8,0:0:0:0:
160,96,28263,5,0,0:0:0:0:
160,96,28370,5,0,0:0:0:0:
160,96,28477,5,0,0:0:0:0:
160,96,28584,5,0,0:0:0:0:
352,96,28692,5,8,0:0:0:0:
352,96,28799,5,8,0:0:0:0:
352,96,28906,5,8,0:0:0:0:
352,96,29013,5,8,0:0:0:0:
352,96,29335,5,8,0:0:0:0:
352,96,29389,5,8,0:0:0:0:
352,96,29496,5,8,0:0:0:0:
352,96,29549,5,8,0:0:0:0:
352,96,29656,5,8,0:0:0:0:
352,96,29709,5,8,0:0:0:0:
160,96,29763,5,0,0:0:0:0:
160,288,29977,5,4,0:0:0:0:
160,288,30192,5,4,0:0:0:0:
352,96,30406,5,8,0:0:0:0:
352,96,30513,5,8,0:0:0:0:
352,96,30727,5,8,0:0:0:0:
352,96,30834,5,8,0:0:0:0:
160,96,30942,5,0,0:0:0:0:
160,96,31156,5,0,0:0:0:0:
160,96,31209,5,0,0:0:0:0:
352,96,31263,5,8,0:0:0:0:
160,96,31370,5,0,0:0:0:0:
352,96,31477,5,8,0:0:0:0:
160,96,31584,5,0,0:0:0:0:
160,96,31799,5,0,0:0:0:0:
352,96,31852,5,8,0:0:0:0:
352,96,31906,5,8,0:0:0:0:
160,96,32013,5,0,0:0:0:0:
352,96,32120,5,8,0:0:0:0:
352,96,32227,5,8,0:0:0:0:
160,96,32334,5,0,0:0:0:0:
352,96,32442,5,8,0:0:0:0:
352,96,32549,5,8,0:0:0:0:
160,96,32656,5,0,0:0:0:0:
352,96,32763,5,8,0:0:0:0:
160,96,32870,5,0,0:0:0:0:
352,96,32977,5,8,0:0:0:0:
352,96,33063,5,8,0:0:0:0:
352,96,33149,5,8,0:0:0:0:
352,96,33234,5,8,0:0:0:0:
352,96,33320,5,8,0:0:0:0:
160,288,33406,5,4,0:0:0:0:
160,288,33620,5,4,0:0:0:0:
352,96,33834,5,8,0:0:0:0:
352,96,33906,5,8,0:0:0:0:
352,96,33977,5,8,0:0:0:0:
352,96,34049,5,8,0:0:0:0:
352,96,34120,5,8,0:0:0:0:
352,96,34192,5,8,0:0:0:0:
352,96,34263,5,8,0:0:0:0:
352,96,34334,5,8,0:0:0:0:
352,96,34406,5,8,0:0:0:0:
160,96,34477,5,0,0:0:0:0:
160,96,34584,5,0,0:0:0:0:
352,96,34692,5,8,0:0:0:0:
352,96,34906,5,8,0:0:0:0:
160,96,35013,5,0,0:0:0:0:
160,96,35227,5,0,0:0:0:0:
352,96,35281,5,8,0:0:0:0:
352,96,35334,5,8,0:0:0:0:
160,96,35442,5,0,0:0:0:0:
352,96,35549,5,8,0:0:0:0:
352,96,35656,5,8,0:0:0:0:
160,96,35763,5,0,0:0:0:0:
352,96,35870,5,8,0:0:0:0:
160,96,35924,5,0,0:0:0:0:
352,96,35977,5,8,0:0:0:0:
160,96,36084,5,0,0:0:0:0:
352,96,36192,5,8,0:0:0:0:
160,288,36834,5,4,0:0:0:0:
160,288,37049,5,4,0:0:0:0:
352,96,37263,5,8,0:0:0:0:
352,96,37370,5,8,0:0:0:0:
352,96,37584,5,8,0:0:0:0:
352,96,37692,5,8,0:0:0:0:
160,96,37799,5,0,0:0:0:0:
352,96,37906,5,8,0:0:0:0:
352,96,37959,5,8,0:0:0:0:
352,96,38013,5,8,0:0:0:0:
160,96,38120,5,0,0:0:0:0:
160,96,38227,5,0,0:0:0:0:
160,96,38281,5,0,0:0:0:0:
352,96,38334,5,8,0:0:0:0:
160,96,38442,5,0,0:0:0:0:
160,96,38656,5,0,0:0:0:0:
352,96,38709,5,8,0:0:0:0:
352,96,38763,5,8,0:0:0:0:
160,96,38870,5,0,0:0:0:0:
352,96,38977,5,8,0:0:0:0:
352,96,39084,5,8,0:0:0:0:
160,96,39192,5,0,0:0:0:0:
352,96,39299,5,8,0:0:0:0:
352,96,39406,5,8,0:0:0:0:
160,96,39513,5,0,0:0:0:0:
352,96,39620,5,8,0:0:0:0:
160,96,39727,5,0,0:0:0:0:
352,96,39834,5,8,0:0:0:0:
352,96,39920,5,8,0:0:0:0:
352,96,40006,5,8,0:0:0:0:
352,96,40092,5,8,0:0:0:0:
352,96,40177,5,8,0:0:0:0:
160,288,40263,5,4,0:0:0:0:
160,288,40477,5,4,0:0:0:0:
352,96,40692,5,8,0:0:0:0:
352,96,40763,5,8,0:0:0:0:
352,96,40834,5,8,0:0:0:0:
352,96,40906,5,8,0:0:0:0:
352,96,40977,5,8,0:0:0:0:
352,96,41049,5,8,0:0:0:0:
352,96,41120,5,8,0:0:0:0:
352,96,41192,5,8,0:0:0:0:
352,96,41263,5,8,0:0:0:0:
160,96,41334,5,0,0:0:0:0:
160,96,41442,5,0,0:0:0:0:
352,96,41549,5,8,0:0:0:0:
352,96,41763,5,8,0:0:0:0:
160,96,41870,5,0,0:0:0:0:
160,96,42084,5,0,0:0:0:0:
352,96,42138,5,8,0:0:0:0:
352,96,42192,5,8,0:0:0:0:
160,96,42299,5,0,0:0:0:0:
352,96,42406,5,8,0:0:0:0:
352,96,42513,5,8,0:0:0:0:
160,96,42620,5,0,0:0:0:0:
352,96,42727,5,8,0:0:0:0:
352,96,42834,5,8,0:0:0:0:
352,96,42942,5,8,0:0:0:0:
352,96,43049,5,8,0:0:0:0:
352,96,43156,5,8,0:0:0:0:
352,96,43263,5,8,0:0:0:0:
352,96,43370,5,8,0:0:0:0:
160,288,43692,5,4,0:0:0:0:
160,288,43906,5,4,0:0:0:0:
160,288,44120,5,4,0:0:0:0:
352,96,44334,5,8,0:0:0:0:
160,96,44442,5,0,0:0:0:0:
160,96,44495,5,0,0:0:0:0:
352,96,44549,5,8,0:0:0:0:
160,96,44656,5,0,0:0:0:0:
160,96,44870,5,0,0:0:0:0:
352,96,44977,5,8,0:0:0:0:
352,96,45084,5,8,0:0:0:0:
352,96,45138,5,8,0:0:0:0:
352,96,45192,5,8,0:0:0:0:
160,96,45299,5,0,0:0:0:0:
160,96,45513,5,0,0:0:0:0:
352,96,45567,5,8,0:0:0:0:
352,96,45620,5,8,0:0:0:0:
160,96,45727,5,0,0:0:0:0:
352,96,45834,5,8,0:0:0:0:
352,96,45942,5,8,0:0:0:0:
352,96,45995,5,8,0:0:0:0:
160,96,46049,5,0,0:0:0:0:
352,96,46156,5,8,0:0:0:0:
352,96,46263,5,8,0:0:0:0:
352,96,46317,5,8,0:0:0:0:
160,96,46370,5,0,0:0:0:0:
352,96,46477,5,8,0:0:0:0:
160,96,46584,5,0,0:0:0:0:
352,96,46692,5,8,0:0:0:0:
352,96,46777,5,8,0:0:0:0:
352,96,46863,5,8,0:0:0:0:
352,96,46949,5,8,0:0:0:0:
352,96,47034,5,8,0:0:0:0:
160,288,47120,5,4,0:0:0:0:
160,288,47334,5,4,0:0:0:0:
256,192,47549,12,0,48192,0:0:0:0:
160,96,48299,5,0,0:0:0:0:
352,96,48406,5,8,0:0:0:0:
352,96,48513,5,8,0:0:0:0:
352,96,48567,5,8,0:0:0:0:
352,96,48620,5,8,0:0:0:0:
160,96,48727,5,0,0:0:0:0:
160,96,48942,5,0,0:0:0:0:
352,96,48995,5,8,0:0:0:0:
352,96,49049,5,8,0:0:0:0:
160,96,49156,5,0,0:0:0:0:
352,96,49263,5,8,0:0:0:0:
352,96,49370,5,8,0:0:0:0:
352,96,49424,5,8,0:0:0:0:
160,96,49477,5,0,0:0:0:0:
352,96,49584,5,8,0:0:0:0:
352,96,49692,5,8,0:0:0:0:
352,96,49745,5,8,0:0:0:0:
160,96,49799,5,0,0:0:0:0:
352,96,49906,5,8,0:0:0:0:
352,96,50013,5,8,0:0:0:0:
352,96,50120,5,8,0:0:0:0:
352,96,50227,5,8,0:0:0:0:
352,96,50334,5,8,0:0:0:0:
352,96,50388,5,8,0:0:0:0:
352,96,50442,5,8,0:0:0:0:
160,288,50549,5,4,0:0:0:0:
160,288,50764,5,4,0:0:0:0:
352,96,50978,5,8,0:0:0:0:
352,96,51085,5,8,0:0:0:0:
352,96,51299,5,8,0:0:0:0:
352,96,51407,5,8,0:0:0:0:
160,96,51514,5,0,0:0:0:0:
352,96,51621,5,8,0:0:0:0:
352,96,51674,5,8,0:0:0:0:
352,96,51728,5,8,0:0:0:0:
160,96,51835,5,0,0:0:0:0:
160,96,51942,5,0,0:0:0:0:
160,96,51996,5,0,0:0:0:0:
352,96,52049,5,8,0:0:0:0:
160,96,52157,5,0,0:0:0:0:
160,96,52371,5,0,0:0:0:0:
352,96,52424,5,8,0:0:0:0:
352,96,52478,5,8,0:0:0:0:
160,96,52585,5,0,0:0:0:0:
352,96,52692,5,8,0:0:0:0:
352,96,52799,5,8,0:0:0:0:
352,96,52852,5,8,0:0:0:0:
160,96,52907,5,0,0:0:0:0:
352,96,53014,5,8,0:0:0:0:
352,96,53121,5,8,0:0:0:0:
352,96,53174,5,8,0:0:0:0:
160,96,53228,5,0,0:0:0:0:
352,96,53335,5,8,0:0:0:0:
160,96,53442,5,0,0:0:0:0:
352,96,53549,5,8,0:0:0:0:
352,96,53635,5,8,0:0:0:0:
352,96,53721,5,8,0:0:0:0:
352,96,53807,5,8,0:0:0:0:
352,96,53892,5,8,0:0:0:0:
160,288,53978,5,4,0:0:0:0:
160,96,54192,5,0,0:0:0:0:
160,96,54299,5,0,0:0:0:0:
352,96,54406,5,8,0:0:0:0:
160,96,54459,5,0,0:0:0:0:
160,96,54513,5,0,0:0:0:0:
352,288,54620,5,12,0:0:0:0:
352,96,54834,5,8,0:0:0:0:
160,96,54942,5,0,0:0:0:0:
160,96,54995,5,0,0:0:0:0:
352,96,55049,5,8,0:0:0:0:
160,288,55156,5,4,0:0:0:0:
352,96,55370,5,8,0:0:0:0:
352,96,55424,5,8,0:0:0:0:
352,96,55477,5,8,0:0:0:0:
160,288,55584,5,4,0:0:0:0:
352,288,55799,5,12,0:0:0:0:
352,288,56120,5,12,0:0:0:0:
160,288,56442,5,4,0:0:0:0:
352,288,56763,5,12,0:0:0:0:
160,96,56977,5,0,0:0:0:0:
160,96,57049,5,0,0:0:0:0:
160,96,57120,5,0,0:0:0:0:
352,96,57192,5,8,0:0:0:0:
352,96,57263,5,8,0:0:0:0:
352,96,57334,5,8,0:0:0:0:
160,288,57406,5,4,0:0:0:0:
160,96,57834,5,0,0:0:0:0:
352,96,57942,5,8,0:0:0:0:
352,96,58156,5,8,0:0:0:0:
352,96,58209,5,8,0:0:0:0:
160,96,58263,5,0,0:0:0:0:
352,96,58370,5,8,0:0:0:0:
352,96,58584,5,8,0:0:0:0:
160,96,58692,5,0,0:0:0:0:
160,96,58799,5,0,0:0:0:0:
352,96,58906,5,8,0:0:0:0:
352,96,59013,5,8,0:0:0:0:
160,96,59120,5,0,0:0:0:0:
160,96,59549,5,0,0:0:0:0:
352,96,59656,5,8,0:0:0:0:
352,96,59870,5,8,0:0:0:0:
352,96,59924,5,8,0:0:0:0:
160,96,59977,5,0,0:0:0:0:
352,96,60084,5,8,0:0:0:0:
352,96,60299,5,8,0:0:0:0:
160,96,60406,5,0,0:0:0:0:
352,96,60513,5,8,0:0:0:0:
352,96,60620,5,8,0:0:0:0:
352,96,60727,5,8,0:0:0:0:
160,288,60834,5,4,0:0:0:0:
352,96,61263,5,8,0:0:0:0:
160,96,61477,5,0,0:0:0:0:
352,96,61584,5,8,0:0:0:0:
160,96,61692,5,0,0:0:0:0:
352,96,61799,5,8,0:0:0:0:
160,96,62013,5,0,0:0:0:0:
160,96,62067,5,0,0:0:0:0:
352,96,62120,5,8,0:0:0:0:
160,96,62334,5,0,0:0:0:0:
352,96,62442,5,8,0:0:0:0:
160,96,62549,5,0,0:0:0:0:
352,96,62763,5,8,0:0:0:0:
160,96,62870,5,0,0:0:0:0:
352,96,62978,5,8,0:0:0:0:
352,96,63084,5,8,0:0:0:0:
352,96,63192,5,8,0:0:0:0:
160,96,63299,5,0,0:0:0:0:
352,96,63407,5,8,0:0:0:0:
160,96,63514,5,0,0:0:0:0:
352,96,63728,5,8,0:0:0:0:
160,96,63834,5,0,0:0:0:0:
160,96,63888,5,0,0:0:0:0:
160,96,63942,5,0,0:0:0:0:
160,96,63995,5,0,0:0:0:0:
352,96,64049,5,8,0:0:0:0:
352,96,64156,5,8,0:0:0:0:
160,288,64263,5,4,0:0:0:0:
160,96,64691,5,0,0:0:0:0:
352,96,64799,5,8,0:0:0:0:
352,96,65013,5,8,0:0:0:0:
352,96,65066,5,8,0:0:0:0:
160,96,65120,5,0,0:0:0:0:
352,96,65227,5,8,0:0:0:0:
352,96,65441,5,8,0:0:0:0:
160,96,65549,5,0,0:0:0:0:
160,96,65656,5,0,0:0:0:0:
352,96,65763,5,8,0:0:0:0:
352,96,65870,5,8,0:0:0:0:
160,96,65977,5,0,0:0:0:0:
160,96,66406,5,0,0:0:0:0:
352,96,66513,5,8,0:0:0:0:
352,96,66727,5,8,0:0:0:0:
352,96,66781,5,8,0:0:0:0:
160,96,66834,5,0,0:0:0:0:
352,96,66941,5,8,0:0:0:0:
352,96,67156,5,8,0:0:0:0:
160,96,67263,5,0,0:0:0:0:
352,96,67370,5,8,0:0:0:0:
352,96,67477,5,8,0:0:0:0:
352,96,67584,5,8,0:0:0:0:
160,288,67691,5,4,0:0:0:0:
352,96,67906,5,8,0:0:0:0:
160,96,68120,5,0,0:0:0:0:
352,96,68227,5,8,0:0:0:0:
160,96,68334,5,0,0:0:0:0:
160,96,68388,5,0,0:0:0:0:
352,96,68442,5,8,0:0:0:0:
160,96,68549,5,0,0:0:0:0:
352,96,68763,5,8,0:0:0:0:
160,96,68977,5,0,0:0:0:0:
160,96,69192,5,0,0:0:0:0:
352,96,69299,5,8,0:0:0:0:
160,96,69406,5,0,0:0:0:0:
160,96,69513,5,0,0:0:0:0:
352,96,69620,5,8,0:0:0:0:
160,96,69834,5,0,0:0:0:0:
352,96,70049,5,8,0:0:0:0:
352,96,70156,5,8,0:0:0:0:
160,96,70263,5,0,0:0:0:0:
160,96,70370,5,0,0:0:0:0:
352,96,70477,5,8,0:0:0:0:
160,96,70584,5,0,0:0:0:0:
160,96,70638,5,0,0:0:0:0:
160,96,70692,5,0,0:0:0:0:
160,96,70799,5,0,0:0:0:0:
352,96,70906,5,8,0:0:0:0:
352,96,71013,5,8,0:0:0:0:
160,288,71549,5,4,0:0:0:0:
352,96,71656,5,8,0:0:0:0:
352,96,71870,5,8,0:0:0:0:
352,96,71924,5,8,0:0:0:0:
160,96,71977,5,0,0:0:0:0:
352,96,72084,5,8,0:0:0:0:
352,96,72299,5,8,0:0:0:0:
160,96,72406,5,0,0:0:0:0:
160,96,72513,5,0,0:0:0:0:
352,96,72620,5,8,0:0:0:0:
352,96,72727,5,8,0:0:0:0:
160,96,72834,5,0,0:0:0:0:
160,96,73049,5,0,0:0:0:0:
160,288,73263,5,4,0:0:0:0:
352,96,73370,5,8,0:0:0:0:
352,96,73584,5,8,0:0:0:0:
352,96,73638,5,8,0:0:0:0:
160,96,73692,5,0,0:0:0:0:
352,96,73799,5,8,0:0:0:0:
352,96,74013,5,8,0:0:0:0:
160,96,74120,5,0,0:0:0:0:
352,96,74227,5,8,0:0:0:0:
352,96,74334,5,8,0:0:0:0:
352,96,74442,5,8,0:0:0:0:
160,288,74549,5,4,0:0:0:0:
352,96,74977,5,8,0:0:0:0:
160,96,75192,5,0,0:0:0:0:
352,96,75406,5,8,0:0:0:0:
352,96,75593,5,8,0:0:0:0:
352,96,75647,5,8,0:0:0:0:
352,96,75781,5,8,0:0:0:0:
160,96,75834,5,0,0:0:0:0:
352,96,75977,5,8,0:0:0:0:
352,96,76156,5,8,0:0:0:0:
160,96,76263,5,0,0:0:0:0:
352,96,76549,5,8,0:0:0:0:
160,96,76692,5,0,0:0:0:0:
160,96,76870,5,0,0:0:0:0:
352,96,77120,5,8,0:0:0:0:
160,96,77406,5,0,0:0:0:0:
352,96,77549,5,8,0:0:0:0:
160,96,77692,5,0,0:0:0:0:
160,96,77834,5,0,0:0:0:0:
160,288,77977,5,4,0:0:0:0:
160,96,78406,5,0,0:0:0:0:
352,96,78513,5,8,0:0:0:0:
352,96,78727,5,8,0:0:0:0:
352,96,78781,5,8,0:0:0:0:
160,96,78834,5,0,0:0:0:0:
352,96,78942,5,8,0:0:0:0:
352,96,79156,5,8,0:0:0:0:
160,288,79692,5,4,0:0:0:0:
160,96,80013,5,0,0:0:0:0:
160,96,80120,5,0,0:0:0:0:
352,96,80227,5,8,0:0:0:0:
160,96,80334,5,0,0:0:0:0:
352,96,80442,5,8,0:0:0:0:
160,96,80549,5,0,0:0:0:0:
160,96,80656,5,0,0:0:0:0:
160,96,80870,5,0,0:0:0:0:
352,288,81406,5,12,0:0:0:0:
160,288,81727,5,4,0:0:0:0:
160,96,82049,5,0,0:0:0:0:
352,288,82156,5,12,0:0:0:0:
352,96,82370,5,8,0:0:0:0:
160,96,82477,5,0,0:0:0:0:
352,288,82584,5,12,0:0:0:0:
160,288,82799,5,4,0:0:0:0:
352,288,83120,5,12,0:0:0:0:
352,288,83227,5,12,0:0:0:0:
160,288,83442,5,4,0:0:0:0:
160,288,83549,5,4,0:0:0:0:
352,288,83763,5,12,0:0:0:0:
352,288,83870,5,12,0:0:0:0:
160,288,84084,5,4,0:0:0:0:
160,288,84192,5,4,0:0:0:0:
352,288,84406,5,12,0:0:0:0:
352,288,84513,5,12,0:0:0:0:
160,288,84834,5,4,0:0:0:0:
160,288,84942,5,4,0:0:0:0:
352,288,85156,5,12,0:0:0:0:
352,288,85263,5,12,0:0:0:0:
160,288,85477,5,4,0:0:0:0:
160,288,85584,5,4,0:0:0:0:
352,288,85799,5,12,0:0:0:0:
352,288,85906,5,12,0:0:0:0:
160,288,86120,5,4,0:0:0:0:
160,288,86227,5,4,0:0:0:0:
352,288,86549,5,12,0:0:0:0:
160,96,93406,5,0,0:0:0:0:
160,96,93513,5,0,0:0:0:0:
352,96,93620,5,8,0:0:0:0:
160,96,93727,5,0,0:0:0:0:
160,96,93942,5,0,0:0:0:0:
160,96,94156,5,0,0:0:0:0:
352,96,94370,5,8,0:0:0:0:
160,96,94584,5,0,0:0:0:0:
352,96,94692,5,8,0:0:0:0:
352,96,94799,5,8,0:0:0:0:
160,96,94906,5,0,0:0:0:0:
352,96,95013,5,8,0:0:0:0:
160,96,95120,5,0,0:0:0:0:
160,96,95227,5,0,0:0:0:0:
160,96,95334,5,0,0:0:0:0:
352,96,95442,5,8,0:0:0:0:
160,96,95656,5,0,0:0:0:0:
352,96,95870,5,8,0:0:0:0:
352,96,95924,5,8,0:0:0:0:
352,96,95977,5,8,0:0:0:0:
160,96,96084,5,0,0:0:0:0:
160,96,96299,5,0,0:0:0:0:
352,96,96406,5,8,0:0:0:0:
352,96,96513,5,8,0:0:0:0:
160,96,96620,5,0,0:0:0:0:
352,96,96727,5,8,0:0:0:0:
160,96,96834,5,0,0:0:0:0:
352,96,96942,5,8,0:0:0:0:
352,96,97049,5,8,0:0:0:0:
352,96,97156,5,8,0:0:0:0:
160,96,97263,5,0,0:0:0:0:
352,96,97370,5,8,0:0:0:0:
352,96,97584,5,8,0:0:0:0:
160,96,97692,5,0,0:0:0:0:
352,96,97799,5,8,0:0:0:0:
352,96,98013,5,8,0:0:0:0:
160,96,98120,5,0,0:0:0:0:
352,96,98227,5,8,0:0:0:0:
352,96,98334,5,8,0:0:0:0:
352,96,98442,5,8,0:0:0:0:
160,96,98549,5,0,0:0:0:0:
160,96,98656,5,0,0:0:0:0:
352,96,98763,5,8,0:0:0:0:
352,96,98870,5,8,0:0:0:0:
160,96,98977,5,0,0:0:0:0:
352,96,99084,5,8,0:0:0:0:
352,96,99299,5,8,0:0:0:0:
160,96,99406,5,0,0:0:0:0:
160,96,99513,5,0,0:0:0:0:
352,96,99620,5,8,0:0:0:0:
352,96,99727,5,8,0:0:0:0:
160,96,99834,5,0,0:0:0:0:
352,96,99942,5,8,0:0:0:0:
352,96,100049,5,8,0:0:0:0:
352,96,100156,5,8,0:0:0:0:
160,96,100263,5,0,0:0:0:0:
160,96,100370,5,0,0:0:0:0:
352,96,100477,5,8,0:0:0:0:
160,96,100584,5,0,0:0:0:0:
352,96,100692,5,8,0:0:0:0:
352,96,100799,5,8,0:0:0:0:
160,96,100906,5,0,0:0:0:0:
352,96,101013,5,8,0:0:0:0:
160,96,101120,5,0,0:0:0:0:
352,96,101227,5,8,0:0:0:0:
160,96,101334,5,0,0:0:0:0:
160,96,101442,5,0,0:0:0:0:
352,96,101549,5,8,0:0:0:0:
352,96,101656,5,8,0:0:0:0:
160,96,101763,5,0,0:0:0:0:
352,96,101870,5,8,0:0:0:0:
160,96,101977,5,0,0:0:0:0:
160,96,102031,5,0,0:0:0:0:
160,96,102084,5,0,0:0:0:0:
352,96,102192,5,8,0:0:0:0:
160,96,102245,5,0,0:0:0:0:
160,96,102299,5,0,0:0:0:0:
352,96,102406,5,8,0:0:0:0:
352,96,102459,5,8,0:0:0:0:
160,96,102513,5,0,0:0:0:0:
352,96,102620,5,8,0:0:0:0:
352,96,102674,5,8,0:0:0:0:
352,96,102727,5,8,0:0:0:0:
352,96,102781,5,8,0:0:0:0:
352,96,103049,5,8,0:0:0:0:
352,96,103102,5,8,0:0:0:0:
352,96,103209,5,8,0:0:0:0:
352,96,103263,5,8,0:0:0:0:
352,96,103370,5,8,0:0:0:0:
352,96,103424,5,8,0:0:0:0:
160,96,103477,5,0,0:0:0:0:
352,96,103584,5,8,0:0:0:0:
160,288,103692,5,4,0:0:0:0:
160,96,103906,5,0,0:0:0:0:
352,96,104013,5,8,0:0:0:0:
160,96,104120,5,0,0:0:0:0:
352,96,104227,5,8,0:0:0:0:
160,96,104281,5,0,0:0:0:0:
160,96,104334,5,0,0:0:0:0:
352,96,104442,5,8,0:0:0:0:
160,96,104549,5,0,0:0:0:0:
160,96,104602,5,0,0:0:0:0:
352,96,104656,5,8,0:0:0:0:
160,96,104763,5,0,0:0:0:0:
160,96,104977,5,0,0:0:0:0:
160,96,105084,5,0,0:0:0:0:
352,96,105192,5,8,0:0:0:0:
352,96,105299,5,8,0:0:0:0:
160,96,105406,5,0,0:0:0:0:
352,96,105513,5,8,0:0:0:0:
352,96,105567,5,8,0:0:0:0:
160,96,105620,5,0,0:0:0:0:
352,96,105727,5,8,0:0:0:0:
160,96,105834,5,0,0:0:0:0:
160,96,105888,5,0,0:0:0:0:
352,96,105942,5,8,0:0:0:0:
160,96,106049,5,0,0:0:0:0:
352,96,106156,5,8,0:0:0:0:
160,96,106209,5,0,0:0:0:0:
160,96,106263,5,0,0:0:0:0:
160,96,106370,5,0,0:0:0:0:
352,96,106477,5,8,0:0:0:0:
160,96,106692,5,0,0:0:0:0:
160,96,106799,5,0,0:0:0:0:
352,96,106906,5,8,0:0:0:0:
352,96,107013,5,8,0:0:0:0:
160,96,107120,5,0,0:0:0:0:
160,96,107334,5,0,0:0:0:0:
352,96,107441,5,8,0:0:0:0:
160,96,107548,5,0,0:0:0:0:
352,96,107655,5,8,0:0:0:0:
160,96,107709,5,0,0:0:0:0:
160,96,107762,5,0,0:0:0:0:
352,96,107870,5,8,0:0:0:0:
160,96,107977,5,0,0:0:0:0:
160,96,108030,5,0,0:0:0:0:
352,96,108084,5,8,0:0:0:0:
160,96,108191,5,0,0:0:0:0:
160,96,108405,5,0,0:0:0:0:
160,96,108512,5,0,0:0:0:0:
352,96,108620,5,8,0:0:0:0:
352,96,108727,5,8,0:0:0:0:
160,96,108834,5,0,0:0:0:0:
352,96,108941,5,8,0:0:0:0:
352,96,108995,5,8,0:0:0:0:
160,96,109048,5,0,0:0:0:0:
352,96,109155,5,8,0:0:0:0:
160,96,109262,5,0,0:0:0:0:
160,96,109316,5,0,0:0:0:0:
352,96,109370,5,8,0:0:0:0:
160,96,109477,5,0,0:0:0:0:
352,96,109584,5,8,0:0:0:0:
352,96,109637,5,8,0:0:0:0:
160,96,109691,5,0,0:0:0:0:
160,96,109798,5,0,0:0:0:0:
352,96,109905,5,8,0:0:0:0:
160,96,110120,5,0,0:0:0:0:
160,96,110227,5,0,0:0:0:0:
352,96,110334,5,8,0:0:0:0:
352,96,110441,5,8,0:0:0:0:
160,288,110548,5,4,0:0:0:0:
352,96,110763,5,8,0:0:0:0:
160,96,110870,5,0,0:0:0:0:
352,96,110977,5,8,0:0:0:0:
352,96,111031,5,8,0:0:0:0:
160,96,111084,5,0,0:0:0:0:
352,96,111191,5,8,0:0:0:0:
160,96,111299,5,0,0:0:0:0:
352,96,111352,5,8,0:0:0:0:
160,96,111406,5,0,0:0:0:0:
352,96,111513,5,8,0:0:0:0:
160,96,111620,5,0,0:0:0:0:
160,96,111834,5,0,0:0:0:0:
160,96,111941,5,0,0:0:0:0:
352,96,112049,5,8,0:0:0:0:
352,96,112156,5,8,0:0:0:0:
160,96,112263,5,0,0:0:0:0:
160,96,112370,5,0,0:0:0:0:
160,96,112424,5,0,0:0:0:0:
352,96,112477,5,8,0:0:0:0:
160,96,112584,5,0,0:0:0:0:
352,96,112691,5,8,0:0:0:0:
160,96,112745,5,0,0:0:0:0:
352,96,112799,5,8,0:0:0:0:
160,96,112906,5,0,0:0:0:0:
352,96,113013,5,8,0:0:0:0:
160,96,113066,5,0,0:0:0:0:
160,96,113120,5,0,0:0:0:0:
160,96,113227,5,0,0:0:0:0:
352,96,113334,5,8,0:0:0:0:
160,96,113549,5,0,0:0:0:0:
160,96,113656,5,0,0:0:0:0:
352,96,113763,5,8,0:0:0:0:
352,96,113870,5,8,0:0:0:0:
160,96,113977,5,0,0:0:0:0:
352,96,114191,5,8,0:0:0:0:
160,96,114298,5,0,0:0:0:0:
352,96,114405,5,8,0:0:0:0:
352,96,114459,5,8,0:0:0:0:
160,96,114512,5,0,0:0:0:0:
352,96,114619,5,8,0:0:0:0:
160,96,114727,5,0,0:0:0:0:
352,96,114781,5,8,0:0:0:0:
160,96,114834,5,0,0:0:0:0:
352,96,114941,5,8,0:0:0:0:
160,96,115048,5,0,0:0:0:0:
160,96,115262,5,0,0:0:0:0:
160,96,115369,5,0,0:0:0:0:
352,96,115477,5,8,0:0:0:0:
352,96,115584,5,8,0:0:0:0:
160,96,115691,5,0,0:0:0:0:
352,96,115798,5,8,0:0:0:0:
352,96,115852,5,8,0:0:0:0:
352,96,115905,5,8,0:0:0:0:
160,96,116012,5,0,0:0:0:0:
160,96,116119,5,0,0:0:0:0:
352,96,116227,5,8,0:0:0:0:
352,96,116334,5,8,0:0:0:0:
160,96,116441,5,0,0:0:0:0:
352,96,116494,5,8,0:0:0:0:
352,96,116548,5,8,0:0:0:0:
160,96,116655,5,0,0:0:0:0:
352,96,116762,5,8,0:0:0:0:
352,96,116977,5,8,0:0:0:0:
160,96,117084,5,0,0:0:0:0:
352,96,117138,5,8,0:0:0:0:
160,96,117245,5,0,0:0:0:0:
352,96,117299,5,8,0:0:0:0:
160,288,117406,5,4,0:0:0:0:
160,288,117620,5,4,0:0:0:0:
352,96,117834,5,8,0:0:0:0:
352,96,117942,5,8,0:0:0:0:
352,96,118156,5,8,0:0:0:0:
352,96,118263,5,8,0:0:0:0:
160,96,118370,5,0,0:0:0:0:
352,96,118477,5,8,0:0:0:0:
352,96,118531,5,8,0:0:0:0:
352,96,118584,5,8,0:0:0:0:
160,96,118692,5,0,0:0:0:0:
160,96,118799,5,0,0:0:0:0:
352,96,118906,5,8,0:0:0:0:
160,96,119013,5,0,0:0:0:0:
160,96,119227,5,0,0:0:0:0:
352,96,119281,5,8,0:0:0:0:
352,96,119334,5,8,0:0:0:0:
160,96,119442,5,0,0:0:0:0:
352,96,119549,5,8,0:0:0:0:
352,96,119656,5,8,0:0:0:0:
352,96,119709,5,8,0:0:0:0:
160,96,119763,5,0,0:0:0:0:
352,96,119870,5,8,0:0:0:0:
352,96,119977,5,8,0:0:0:0:
352,96,120031,5,8,0:0:0:0:
160,96,120084,5,0,0:0:0:0:
352,96,120192,5,8,0:0:0:0:
160,96,120406,5,0,0:0:0:0:
352,96,120492,5,8,0:0:0:0:
352,96,120577,5,8,0:0:0:0:
352,96,120663,5,8,0:0:0:0:
352,96,120749,5,8,0:0:0:0:
160,288,120834,5,4,0:0:0:0:
352,96,120995,5,8,0:0:0:0:
160,96,121049,5,0,0:0:0:0:
352,96,121156,5,8,0:0:0:0:
160,96,121263,5,0,0:0:0:0:
160,96,121317,5,0,0:0:0:0:
352,96,121370,5,8,0:0:0:0:
160,96,121477,5,0,0:0:0:0:
352,96,121584,5,8,0:0:0:0:
352,96,121638,5,8,0:0:0:0:
160,96,121692,5,0,0:0:0:0:
352,96,121799,5,8,0:0:0:0:
160,96,121906,5,0,0:0:0:0:
352,96,121959,5,8,0:0:0:0:
352,96,122067,5,8,0:0:0:0:
160,96,122120,5,0,0:0:0:0:
352,96,122227,5,8,0:0:0:0:
160,96,122334,5,0,0:0:0:0:
160,96,122388,5,0,0:0:0:0:
352,96,122442,5,8,0:0:0:0:
160,96,122549,5,0,0:0:0:0:
352,96,122656,5,8,0:0:0:0:
352,96,122709,5,8,0:0:0:0:
160,96,122763,5,0,0:0:0:0:
160,96,122817,5,0,0:0:0:0:
352,96,122870,5,8,0:0:0:0:
160,96,122977,5,0,0:0:0:0:
160,96,123084,5,0,0:0:0:0:
352,96,123138,5,8,0:0:0:0:
160,96,123192,5,0,0:0:0:0:
160,96,123299,5,0,0:0:0:0:
352,96,123352,5,8,0:0:0:0:
352,96,123406,5,8,0:0:0:0:
160,96,123513,5,0,0:0:0:0:
352,96,123620,5,8,0:0:0:0:
160,96,123727,5,0,0:0:0:0:
352,96,123834,5,8,0:0:0:0:
160,96,123942,5,0,0:0:0:0:
352,96,123995,5,8,0:0:0:0:
160,96,124102,5,0,0:0:0:0:
352,96,124156,5,8,0:0:0:0:
160,288,124263,5,4,0:0:0:0:
160,288,124477,5,4,0:0:0:0:
352,96,124692,5,8,0:0:0:0:
352,96,124763,5,8,0:0:0:0:
352,96,124834,5,8,0:0:0:0:
352,96,124906,5,8,0:0:0:0:
352,96,124977,5,8,0:0:0:0:
352,96,125049,5,8,0:0:0:0:
352,96,125120,5,8,0:0:0:0:
352,96,125192,5,8,0:0:0:0:
352,96,125263,5,8,0:0:0:0:
160,96,125334,5,0,0:0:0:0:
160,96,125442,5,0,0:0:0:0:
352,96,125549,5,8,0:0:0:0:
352,96,125763,5,8,0:0:0:0:
160,96,125870,5,0,0:0:0:0:
160,96,126084,5,0,0:0:0:0:
352,96,126138,5,8,0:0:0:0:
352,96,126192,5,8,0:0:0:0:
160,96,126299,5,0,0:0:0:0:
352,96,126406,5,8,0:0:0:0:
352,96,126513,5,8,0:0:0:0:
352,96,126567,5,8,0:0:0:0:
160,96,126620,5,0,0:0:0:0:
352,96,126727,5,8,0:0:0:0:
352,96,126834,5,8,0:0:0:0:
352,96,126888,5,8,0:0:0:0:
160,96,126942,5,0,0:0:0:0:
352,96,127049,5,8,0:0:0:0:
352,96,127156,5,8,0:0:0:0:
160,96,127263,5,0,0:0:0:0:
352,96,127370,5,8,0:0:0:0:
352,96,127477,5,8,0:0:0:0:
352,96,127584,5,8,0:0:0:0:
160,288,127692,5,4,0:0:0:0:
352,96,127853,5,8,0:0:0:0:
160,96,127907,5,0,0:0:0:0:
352,96,128014,5,8,0:0:0:0:
160,96,128121,5,0,0:0:0:0:
160,96,128175,5,0,0:0:0:0:
352,96,128228,5,8,0:0:0:0:
160,96,128335,5,0,0:0:0:0:
352,96,128442,5,8,0:0:0:0:
352,96,128496,5,8,0:0:0:0:
160,96,128550,5,0,0:0:0:0:
352,96,128657,5,8,0:0:0:0:
160,96,128764,5,0,0:0:0:0:
352,96,128817,5,8,0:0:0:0:
352,96,128925,5,8,0:0:0:0:
160,96,128978,5,0,0:0:0:0:
352,96,129085,5,8,0:0:0:0:
160,96,129192,5,0,0:0:0:0:
352,96,129246,5,8,0:0:0:0:
160,96,129300,5,0,0:0:0:0:
160,288,129514,5,4,0:0:0:0:
352,96,129727,5,8,0:0:0:0:
160,288,129834,5,4,0:0:0:0:
352,96,129942,5,8,0:0:0:0:
160,288,130156,5,4,0:0:0:0:
352,96,130370,5,8,0:0:0:0:
160,288,130477,5,4,0:0:0:0:
160,96,130692,5,0,0:0:0:0:
160,96,130745,5,0,0:0:0:0:
352,96,130799,5,8,0:0:0:0:
352,96,130852,5,8,0:0:0:0:
160,96,130906,5,0,0:0:0:0:
160,96,130959,5,0,0:0:0:0:
352,96,131013,5,8,0:0:0:0:
352,96,131067,5,8,0:0:0:0:
352,288,131334,5,12,0:0:0:0:
160,96,131549,5,0,0:0:0:0:
352,96,131656,5,8,0:0:0:0:
352,96,131709,5,8,0:0:0:0:
160,96,131763,5,0,0:0:0:0:
352,96,131870,5,8,0:0:0:0:
160,96,131977,5,0,0:0:0:0:
352,96,132084,5,8,0:0:0:0:
160,96,132138,5,0,0:0:0:0:
352,96,132192,5,8,0:0:0:0:
160,96,132299,5,0,0:0:0:0:
352,96,132406,5,8,0:0:0:0:
160,96,132513,5,0,0:0:0:0:
160,96,132567,5,0,0:0:0:0:
352,96,132620,5,8,0:0:0:0:
160,96,132727,5,0,0:0:0:0:
352,96,132834,5,8,0:0:0:0:
352,96,133049,5,8,0:0:0:0:
160,96,133156,5,0,0:0:0:0:
160,96,133209,5,0,0:0:0:0:
160,96,133263,5,0,0:0:0:0:
352,96,133370,5,8,0:0:0:0:
160,96,133477,5,0,0:0:0:0:
352,96,133584,5,8,0:0:0:0:
160,96,133638,5,0,0:0:0:0:
160,96,133692,5,0,0:0:0:0:
352,96,133799,5,8,0:0:0:0:
160,96,133906,5,0,0:0:0:0:
160,96,134013,5,0,0:0:0:0:
160,96,134067,5,0,0:0:0:0:
352,96,134120,5,8,0:0:0:0:
352,96,134227,5,8,0:0:0:0:
160,96,134334,5,0,0:0:0:0:
160,96,134442,5,0,0:0:0:0:
352,96,134549,5,8,0:0:0:0:
352,96,134763,5,8,0:0:0:0:
160,96,134870,5,0,0:0:0:0:
160,96,134924,5,0,0:0:0:0:
160,96,134977,5,0,0:0:0:0:
352,96,135084,5,8,0:0:0:0:
160,96,135191,5,0,0:0:0:0:
352,96,135298,5,8,0:0:0:0:
160,96,135352,5,0,0:0:0:0:
160,96,135405,5,0,0:0:0:0:
352,96,135512,5,8,0:0:0:0:
160,96,135566,5,0,0:0:0:0:
352,96,135620,5,8,0:0:0:0:
160,96,135727,5,0,0:0:0:0:
352,96,135834,5,8,0:0:0:0:
160,96,135941,5,0,0:0:0:0:
160,96,135995,5,0,0:0:0:0:
352,96,136048,5,8,0:0:0:0:
352,96,136155,5,8,0:0:0:0:
160,96,136262,5,0,0:0:0:0:
352,96,136370,5,8,0:0:0:0:
352,96,136477,5,8,0:0:0:0:
160,96,136584,5,0,0:0:0:0:
160,96,136638,5,0,0:0:0:0:
160,96,136692,5,0,0:0:0:0:
352,96,136798,5,8,0:0:0:0:
160,96,136905,5,0,0:0:0:0:
352,96,137012,5,8,0:0:0:0:
160,96,137066,5,0,0:0:0:0:
160,96,137120,5,0,0:0:0:0:
352,96,137227,5,8,0:0:0:0:
160,288,137334,5,4,0:0:0:0:
352,288,137441,5,12,0:0:0:0:
352,288,137656,5,12,0:0:0:0:
352,288,137870,5,12,0:0:0:0:
160,288,137977,5,4,0:0:0:0:
352,96,138192,5,8,0:0:0:0:
352,96,138299,5,8,0:0:0:0:
160,96,138406,5,0,0:0:0:0:
352,96,138513,5,8,0:0:0:0:
352,96,138727,5,8,0:0:0:0:
160,96,138835,5,0,0:0:0:0:
352,96,138942,5,8,0:0:0:0:
352,96,139049,5,8,0:0:0:0:
352,96,139156,5,8,0:0:0:0:
160,96,139263,5,0,0:0:0:0:
160,96,139370,5,0,0:0:0:0:
352,96,139477,5,8,0:0:0:0:
352,96,139584,5,8,0:0:0:0:
160,96,139692,5,0,0:0:0:0:
352,96,139906,5,8,0:0:0:0:
352,96,140013,5,8,0:0:0:0:
160,96,140120,5,0,0:0:0:0:
352,96,140227,5,8,0:0:0:0:
352,96,140442,5,8,0:0:0:0:
352,96,140495,5,8,0:0:0:0:
160,96,140549,5,0,0:0:0:0:
352,96,140656,5,8,0:0:0:0:
352,96,140763,5,8,0:0:0:0:
160,96,140977,5,0,0:0:0:0:
352,96,141084,5,8,0:0:0:0:
352,96,141192,5,8,0:0:0:0:
352,96,141299,5,8,0:0:0:0:
160,96,141406,5,0,0:0:0:0:
160,96,141459,5,0,0:0:0:0:
160,96,141513,5,0,0:0:0:0:
352,96,141620,5,8,0:0:0:0:
160,96,141727,5,0,0:0:0:0:
160,96,141781,5,0,0:0:0:0:
160,96,141834,5,0,0:0:0:0:
160,96,141888,5,0,0:0:0:0:
352,96,141942,5,8,0:0:0:0:
160,96,141995,5,0,0:0:0:0:
160,96,142263,5,0,0:0:0:0:
160,96,142317,5,0,0:0:0:0:
352,96,142370,5,8,0:0:0:0:
352,96,142477,5,8,0:0:0:0:
160,96,142584,5,0,0:0:0:0:
160,96,142638,5,0,0:0:0:0:
352,96,142692,5,8,0:0:0:0:
160,96,142745,5,0,0:0:0:0:
352,96,142799,5,8,0:0:0:0:
160,96,142852,5,0,0:0:0:0:
160,96,143120,5,0,0:0:0:0:
352,96,143174,5,8,0:0:0:0:
352,96,143227,5,8,0:0:0:0:
352,96,143334,5,8,0:0:0:0:
160,96,143442,5,0,0:0:0:0:
352,96,143495,5,8,0:0:0:0:
352,96,143549,5,8,0:0:0:0:
160,96,143602,5,0,0:0:0:0:
352,96,143656,5,8,0:0:0:0:
352,96,143763,5,8,0:0:0:0:
160,96,143870,5,0,0:0:0:0:
352,96,143924,5,8,0:0:0:0:
352,96,143977,5,8,0:0:0:0:
160,96,144084,5,0,0:0:0:0:
352,288,144192,5,12,0:0:0:0:
352,288,144513,5,12,0:0:0:0:
160,288,144834,5,4,0:0:0:0:
352,96,145049,5,8,0:0:0:0:
352,96,145156,5,8,0:0:0:0:
160,96,145477,5,0,0:0:0:0:
352,96,145692,5,8,0:0:0:0:
352,96,145799,5,8,0:0:0:0:
352,96,146013,5,8,0:0:0:0:
352,96,146120,5,8,0:0:0:0:
352,96,146334,5,8,0:0:0:0:
160,288,146549,5,4,0:0:0:0:
352,96,146763,5,8,0:0:0:0:
352,96,146870,5,8,0:0:0:0:
160,96,147192,5,0,0:0:0:0:
352,96,147406,5,8,0:0:0:0:
160,96,147513,5,0,0:0:0:0:
352,96,147620,5,8,0:0:0:0:
352,96,147727,5,8,0:0:0:0:
160,288,148263,5,4,0:0:0:0:
352,96,148477,5,8,0:0:0:0:
160,96,148584,5,0,0:0:0:0:
160,96,148692,5,0,0:0:0:0:
352,96,148799,5,8,0:0:0:0:
160,96,148906,5,0,0:0:0:0:
352,96,149013,5,8,0:0:0:0:
160,96,149067,5,0,0:0:0:0:
160,96,149120,5,0,0:0:0:0:
352,96,149227,5,8,0:0:0:0:
160,96,149334,5,0,0:0:0:0:
160,96,149442,5,0,0:0:0:0:
160,96,149495,5,0,0:0:0:0:
160,96,149549,5,0,0:0:0:0:
160,96,149656,5,0,0:0:0:0:
160,96,149709,5,0,0:0:0:0:
352,96,149763,5,8,0:0:0:0:
160,96,149977,5,0,0:0:0:0:
160,96,150031,5,0,0:0:0:0:
160,96,150084,5,0,0:0:0:0:
160,96,150138,5,0,0:0:0:0:
352,96,150192,5,8,0:0:0:0:
160,96,150299,5,0,0:0:0:0:
160,96,150406,5,0,0:0:0:0:
352,96,150513,5,8,0:0:0:0:
160,96,150620,5,0,0:0:0:0:
352,96,150727,5,8,0:0:0:0:
160,96,150781,5,0,0:0:0:0:
160,96,150834,5,0,0:0:0:0:
160,96,150888,5,0,0:0:0:0:
352,96,150942,5,8,0:0:0:0:
352,96,150995,5,8,0:0:0:0:
160,96,151049,5,0,0:0:0:0:
352,96,151156,5,8,0:0:0:0:
160,96,151263,5,0,0:0:0:0:
352,96,151370,5,8,0:0:0:0:
160,96,151477,5,0,0:0:0:0:
352,96,151531,5,8,0:0:0:0:
352,96,151584,5,8,0:0:0:0:
352,96,151638,5,8,0:0:0:0:
160,96,151692,5,0,0:0:0:0:
160,96,151799,5,0,0:0:0:0:
352,96,151906,5,8,0:0:0:0:
160,96,152013,5,0,0:0:0:0:
160,96,152120,5,0,0:0:0:0:
352,96,152227,5,8,0:0:0:0:
160,96,152334,5,0,0:0:0:0:
352,96,152442,5,8,0:0:0:0:
160,96,152495,5,0,0:0:0:0:
160,96,152549,5,0,0:0:0:0:
352,96,152656,5,8,0:0:0:0:
160,96,152763,5,0,0:0:0:0:
160,96,152870,5,0,0:0:0:0:
160,96,152924,5,0,0:0:0:0:
160,96,152977,5,0,0:0:0:0:
160,96,153084,5,0,0:0:0:0:
160,96,153138,5,0,0:0:0:0:
352,96,153192,5,8,0:0:0:0:
352,96,153245,5,8,0:0:0:0:
160,96,153299,5,0,0:0:0:0:
160,96,153352,5,0,0:0:0:0:
352,96,153406,5,8,0:0:0:0:
160,96,153513,5,0,0:0:0:0:
160,96,153567,5,0,0:0:0:0:
160,96,153620,5,0,0:0:0:0:
160,96,153674,5,0,0:0:0:0:
352,96,153727,5,8,0:0:0:0:
160,96,153834,5,0,0:0:0:0:
352,96,153942,5,8,0:0:0:0:
160,96,154049,5,0,0:0:0:0:
352,96,154156,5,8,0:0:0:0:
160,96,154370,5,0,0:0:0:0:
160,96,154477,5,0,0:0:0:0:
352,96,154584,5,8,0:0:0:0:
160,96,154692,5,0,0:0:0:0:
160,96,154745,5,0,0:0:0:0:
160,96,154799,5,0,0:0:0:0:
352,96,154906,5,8,0:0:0:0:
160,96,155013,5,0,0:0:0:0:
352,288,155334,5,12,0:0:0:0:
352,96,155549,5,8,0:0:0:0:
160,96,155602,5,0,0:0:0:0:
160,96,155656,5,0,0:0:0:0:
160,96,155709,5,0,0:0:0:0:
352,96,155763,5,8,0:0:0:0:
352,96,155817,5,8,0:0:0:0:
160,96,155870,5,0,0:0:0:0:
160,96,155924,5,0,0:0:0:0:
352,96,155977,5,8,0:0:0:0:
352,96,156084,5,8,0:0:0:0:
160,96,156192,5,0,0:0:0:0:
160,96,156245,5,0,0:0:0:0:
160,96,156299,5,0,0:0:0:0:
160,96,156352,5,0,0:0:0:0:
352,96,156406,5,8,0:0:0:0:
352,96,156513,5,8,0:0:0:0:
160,96,156620,5,0,0:0:0:0:
160,96,156674,5,0,0:0:0:0:
160,96,156727,5,0,0:0:0:0:
160,96,156781,5,0,0:0:0:0:
352,96,156834,5,8,0:0:0:0:
160,96,156942,5,0,0:0:0:0:
352,96,157049,5,8,0:0:0:0:
352,96,157102,5,8,0:0:0:0:
160,96,157156,5,0,0:0:0:0:
352,96,157263,5,8,0:0:0:0:
352,96,157316,5,8,0:0:0:0:
160,96,157370,5,0,0:0:0:0:
352,96,157477,5,8,0:0:0:0:
352,96,157531,5,8,0:0:0:0:
352,96,157584,5,8,0:0:0:0:
352,96,157638,5,8,0:0:0:0:
160,96,157692,5,0,0:0:0:0:
352,96,157799,5,8,0:0:0:0:
352,96,157906,5,8,0:0:0:0:
352,96,158013,5,8,0:0:0:0:
160,96,158120,5,0,0:0:0:0:
160,96,158227,5,0,0:0:0:0:
160,96,158334,5,0,0:0:0:0:
160,96,158442,5,0,0:0:0:0:
352,96,158549,5,8,0:0:0:0:
160,96,158602,5,0,0:0:0:0:
160,96,158656,5,0,0:0:0:0:
160,96,158709,5,0,0:0:0:0:
160,96,158763,5,0,0:0:0:0:
352,96,158870,5,8,0:0:0:0:
160,96,158924,5,0,0:0:0:0:
160,96,158977,5,0,0:0:0:0:
160,96,159031,5,0,0:0:0:0:
160,96,159084,5,0,0:0:0:0:
352,96,159406,5,8,0:0:0:0:
352,96,159459,5,8,0:0:0:0:
160,96,159513,5,0,0:0:0:0:
160,96,159567,5,0,0:0:0:0:
160,96,159620,5,0,0:0:0:0:
352,96,159727,5,8,0:0:0:0:
352,96,159781,5,8,0:0:0:0:
160,96,159834,5,0,0:0:0:0:
160,96,159888,5,0,0:0:0:0:
160,96,159942,5,0,0:0:0:0:
352,96,160263,5,8,0:0:0:0:
352,96,160317,5,8,0:0:0:0:
352,96,160370,5,8,0:0:0:0:
352,96,160424,5,8,0:0:0:0:
160,96,160477,5,0,0:0:0:0:
352,96,160584,5,8,0:0:0:0:
352,96,160638,5,8,0:0:0:0:
352,96,160692,5,8,0:0:0:0:
352,96,160745,5,8,0:0:0:0:
160,96,160799,5,0,0:0:0:0:
160,96,160852,5,0,0:0:0:0:
352,96,160906,5,8,0:0:0:0:
352,96,161013,5,8,0:0:0:0:
352,96,161067,5,8,0:0:0:0:
160,96,161120,5,0,0:0:0:0:
352,96,161227,5,8,0:0:0:0:
352,96,161281,5,8,0:0:0:0:
352,96,161334,5,8,0:0:0:0:
352,96,161442,5,8,0:0:0:0:
160,96,161549,5,0,0:0:0:0:
160,96,161656,5,0,0:0:0:0:
352,96,161763,5,8,0:0:0:0:
352,96,161870,5,8,0:0:0:0:
160,288,161977,5,4,0:0:0:0:
256,192,162084,12,0,168406,0:0:0:0:
160,96,168834,5,0,0:0:0:0:
160,96,169156,5,0,0:0:0:0:
352,96,169263,5,8,0:0:0:0:
352,96,169692,5,8,0:0:0:0:
160,96,169799,5,0,0:0:0:0:
160,96,170013,5,0,0:0:0:0:
352,96,170120,5,8,0:0:0:0:
160,96,170334,5,0,0:0:0:0:
352,96,170442,5,8,0:0:0:0:
160,96,170549,5,0,0:0:0:0:
160,96,170656,5,0,0:0:0:0:
160,96,170870,5,0,0:0:0:0:
352,96,170977,5,8,0:0:0:0:
160,96,171084,5,0,0:0:0:0:
160,96,171299,5,0,0:0:0:0:
352,96,171406,5,8,0:0:0:0:
160,96,171513,5,0,0:0:0:0:
352,96,171620,5,8,0:0:0:0:
160,96,171834,5,0,0:0:0:0:
352,96,171942,5,8,0:0:0:0:
160,96,172049,5,0,0:0:0:0:
352,96,172102,5,8,0:0:0:0:
160,96,172156,5,0,0:0:0:0:
352,96,172209,5,8,0:0:0:0:
160,96,172263,5,0,0:0:0:0:
352,96,172477,5,8,0:0:0:0:
352,96,172692,5,8,0:0:0:0:
160,96,172799,5,0,0:0:0:0:
352,96,172906,5,8,0:0:0:0:
352,96,173013,5,8,0:0:0:0:
352,96,173067,5,8,0:0:0:0:
352,96,173120,5,8,0:0:0:0:
160,96,173227,5,0,0:0:0:0:
352,96,173334,5,8,0:0:0:0:
352,96,173495,5,8,0:0:0:0:
160,96,173549,5,0,0:0:0:0:
352,96,173656,5,8,0:0:0:0:
160,96,173763,5,0,0:0:0:0:
352,96,173817,5,8,0:0:0:0:
160,96,173870,5,0,0:0:0:0:
352,96,173924,5,8,0:0:0:0:
160,96,173977,5,0,0:0:0:0:
160,96,174084,5,0,0:0:0:0:
352,96,174192,5,8,0:0:0:0:
160,96,174352,5,0,0:0:0:0:
160,96,174406,5,0,0:0:0:0:
160,96,174513,5,0,0:0:0:0:
352,96,174620,5,8,0:0:0:0:
352,96,174781,5,8,0:0:0:0:
160,96,174834,5,0,0:0:0:0:
160,96,174942,5,0,0:0:0:0:
352,96,175049,5,8,0:0:0:0:
160,96,175156,5,0,0:0:0:0:
352,96,175209,5,8,0:0:0:0:
160,96,175263,5,0,0:0:0:0:
352,96,175370,5,8,0:0:0:0:
160,96,175477,5,0,0:0:0:0:
160,96,175531,5,0,0:0:0:0:
160,96,175584,5,0,0:0:0:0:
352,288,175692,5,12,0:0:0:0:
