osu file format v14

[General]
AudioFilename: audio.mp3
AudioLeadIn: 0
PreviewTime: 103156
Countdown: 0
SampleSet: Normal
StackLeniency: 0.7
Mode: 1
LetterboxInBreaks: 0
WidescreenStoryboard: 1

[Editor]
DistanceSpacing: 1.2
BeatDivisor: 4
GridSize: 32
TimelineZoom: 3.899999

[Metadata]
Title:Cursed Metamorph (Cut Ver.)
TitleUnicode:Cursed Metamorph (Cut Ver.)
Artist:Sot-C
ArtistUnicode:Sot-C
Creator:uone
Version:Inner Oni
Source:
Tags:komasy electronic instrumental Expert Global Taiko Showdown 2022 egts grand finals gf fm1 forced mod 1 custom map デカくなりたいコンピ dekaku naritai compilation Southern Cross full flavor hardcore
BeatmapID:4043094
BeatmapSetID:1859250

[Difficulty]
HPDrainRate:6
CircleSize:3
OverallDifficulty:6
ApproachRate:9
SliderMultiplier:1.4
SliderTickRate:1

[Events]
//Background and Video events
0,0,"bg.jpg",0,0
//Break Periods
2,86749,92806
//Storyboard Layer 0 (Background)
//Storyboard Layer 1 (Fail)
//Storyboard Layer 2 (Pass)
//Storyboard Layer 3 (Foreground)
//Storyboard Layer 4 (Overlay)
//Storyboard Sound Samples

[TimingPoints]
835,214.285714285714,4,1,0,60,1,0
835,-125,4,1,0,60,0,0
7227,-111.111111111111,4,1,0,70,0,0
12808,-95.238095238095,4,1,0,100,0,0
13933,-66.666666666667,4,1,0,60,0,0
13986,-95.238095238095,4,1,0,60,0,0
16227,-111.111111111111,4,1,0,80,0,0
23084,-111.111111111111,4,1,0,100,0,0
23334,-110.23737782024,4,1,0,100,0,0
23442,-109.801625064051,4,1,0,100,0,0
23549,-109.373291042327,4,1,0,100,0,0
23656,-108.948285880302,4,1,0,100,0,0
23763,-108.526570922114,4,1,0,100,0,0
23870,-108.108108108108,4,1,0,100,0,0
23977,-107.692859963384,4,1,0,100,0,0
24192,-106.868053576518,4,1,0,100,0,0
24299,-106.462259129139,4,1,0,100,0,0
24406,-106.059534752174,4,1,0,100,0,0
24513,-105.659845736625,4,1,0,100,0,0
24620,-105.263157894737,4,1,0,100,0,0
24727,-104.86943755025,4,1,0,100,0,0
24834,-104.478651528871,4,1,0,100,0,0
25049,-103.702167375298,4,1,0,100,0,0
25156,-103.320016531203,4,1,0,100,0,0
25263,-102.940671859452,4,1,0,100,0,0
25370,-102.564102564103,4,1,0,100,0,0
25477,-102.190278298191,4,1,0,100,0,0
25584,-101.81916915558,4,1,0,100,0,0
25692,-101.447315027729,4,1,0,100,0,0
25906,-100.718458336131,4,1,0,100,0,0
26013,-100.357943331215,4,1,0,100,0,0
26120,-100,4,1,0,100,0,0
26227,-99.644600923373,4,1,0,100,0,0
26334,-99.291719070629,4,1,0,100,0,0
26549,-98.590160701962,4,1,0,100,0,0
26656,-98.244694786482,4,1,0,100,0,0
26763,-97.901641484189,4,1,0,100,0,0
26870,-97.560975609756,4,1,0,100,0,0
26977,-97.222672327187,4,1,0,100,0,0
27031,-97.052829089968,4,1,0,100,0,0
27084,-96.88670714378,4,1,0,100,0,0
27192,-96.549948506694,4,1,0,100,0,0
27406,-95.889535255386,4,1,0,100,0,0
27513,-95.562705061638,4,1,0,100,0,0
27567,-95.398607180335,4,1,0,100,0,0
27620,-95.238095238095,4,1,0,100,0,0
27727,-94.915683234726,4,1,0,100,0,0
27834,-94.595446805827,4,1,0,100,0,0
27942,-94.274401357551,4,1,0,100,0,0
28049,-93.958470356103,4,1,0,100,0,0
28263,-93.332918520362,4,1,0,100,0,0
28370,-93.023255813953,4,1,0,100,0,0
28477,-92.715641128658,4,1,0,100,0,0
28584,-92.410054213898,4,1,0,100,0,0
28692,-92.103647304433,4,1,0,100,0,0
28799,-91.802074726889,4,1,0,100,0,0
28906,-91.502470566705,4,1,0,100,0,0
29013,-91.204815614264,4,1,0,100,0,0
29120,-105.263157894737,4,1,0,100,0,0
29977,-90.909090909091,4,1,0,100,0,0
30406,-105.263157894737,4,1,0,100,0,0
33406,-90.909090909091,4,1,0,100,0,0
33834,-105.263157894737,4,1,0,100,0,0
36834,-90.909090909091,4,1,0,100,0,0
37263,-105.263157894737,4,1,0,100,0,0
40263,-90.909090909091,4,1,0,100,0,0
40692,-105.263157894737,4,1,0,100,0,0
43692,-90.909090909091,4,1,0,100,0,0
44334,-105.263157894737,4,1,0,100,0,0
47120,-90.909090909091,4,1,0,100,0,0
47522,-66.666666666667,4,1,0,60,0,0
47576,-105.263157894737,4,1,0,60,0,0
48218,-105.263157894737,4,1,0,100,0,0
50549,-90.909090909091,4,1,0,100,0,0
50977,-105.263157894737,4,1,0,100,0,0
55799,-104.712553773954,4,1,0,100,0,0
56013,-103.628447024673,4,1,0,100,0,0
56120,-103.094768253357,4,1,0,100,0,0
56334,-102.043733028441,4,1,0,100,0,0
56442,-101.521399118442,4,1,0,100,0,0
56549,-101.009148354239,4,1,0,100,0,0
56656,-100.502041007836,4,1,0,100,0,0
56763,-100,4,1,0,100,0,0
56977,-105.263157894737,4,1,0,100,0,0
57406,-105.263157894737,4,1,0,100,0,1
57834,-104.5759609518,4,1,0,100,0,1
57942,-104.403971492965,4,1,0,100,0,1
58156,-104.064843204517,4,1,0,100,0,1
58263,-103.896103896104,4,1,0,100,0,1
58370,-103.727910917453,4,1,0,100,0,1
58584,-103.393153370532,4,1,0,100,0,1
58692,-103.225029359511,4,1,0,100,0,1
58906,-102.893504622404,4,1,0,100,0,1
58959,-102.811726775137,4,1,0,100,0,1
59013,-102.728539534605,4,1,0,100,0,1
59120,-102.564102564103,4,1,0,100,0,1
59334,-102.236802863108,4,1,0,100,0,1
59442,-102.072415435922,4,1,0,100,0,1
59549,-101.910070605723,4,1,0,100,0,1
59763,-101.586925276712,4,1,0,100,0,1
59870,-101.426119888751,4,1,0,100,0,1
59977,-101.26582278481,4,1,0,100,0,1
60084,-101.106031558767,4,1,0,100,0,1
60192,-100.945257516417,4,1,0,100,0,1
60299,-100.786475560456,4,1,0,100,0,1
60406,-100.628192332531,4,1,0,100,0,1
60513,-100.470405486599,4,1,0,100,0,1
60567,-100.390962470531,4,1,0,100,0,1
60620,-100.313112691306,4,1,0,100,0,1
60834,-100,4,1,0,100,0,0
61156,-111.111111111111,4,1,0,100,0,0
64263,-111.111111111111,4,1,0,100,0,1
64692,-104.574565416285,4,1,0,100,0,1
64799,-104.404220013092,4,1,0,100,0,1
65013,-104.065188692129,4,1,0,100,0,1
65120,-103.896497394255,4,1,0,100,0,1
65227,-103.728352113741,4,1,0,100,0,1
65442,-103.392130257802,4,1,0,100,0,1
65549,-103.225612234147,4,1,0,100,0,1
65763,-102.894180132331,4,1,0,100,0,1
65977,-102.564869513198,4,1,0,100,0,1
66192,-102.236135957066,4,1,0,100,0,1
66299,-102.073317754923,4,1,0,100,0,1
66406,-101.911017326953,4,1,0,100,0,1
66513,-101.749232207237,4,1,0,100,0,1
66620,-101.587959945488,4,1,0,100,0,1
66727,-101.427198106929,4,1,0,100,0,1
66834,-101.266944272172,4,1,0,100,0,1
67049,-100.946465107379,4,1,0,100,0,1
67156,-100.787725589325,4,1,0,100,0,1
67263,-100.629484527006,4,1,0,100,0,1
67370,-100.471739576313,4,1,0,100,0,1
67477,-100.314488407811,4,1,0,100,0,1
67584,-100.157728706625,4,1,0,100,0,1
67692,-100,4,1,0,100,0,0
67906,-105.610154348563,4,1,0,100,0,0
68013,-105.784511888414,4,1,0,100,0,0
68120,-105.959446092977,4,1,0,100,0,0
68334,-106.311055977671,4,1,0,100,0,0
68442,-106.489391444814,4,1,0,100,0,0
68549,-106.666666666667,4,1,0,100,0,0
68656,-106.844533100611,4,1,0,100,0,0
68763,-107.022993709121,4,1,0,100,0,0
68977,-107.381709399032,4,1,0,100,0,0
69084,-107.561970505177,4,1,0,100,0,0
69192,-107.744531053558,4,1,0,100,0,0
69299,-107.926013380559,4,1,0,100,0,0
69406,-108.108108108108,4,1,0,100,0,0
69513,-108.290818341205,4,1,0,100,0,0
69620,-108.474147205873,4,1,0,100,0,0
69834,-108.842673440229,4,1,0,100,0,0
69942,-109.029611017461,4,1,0,100,0,0
70049,-109.215452011151,4,1,0,100,0,0
70156,-109.401927618561,4,1,0,100,0,0
70263,-109.58904109589,4,1,0,100,0,0
70477,-109.965194796863,4,1,0,100,0,0
70584,-110.154241645244,4,1,0,100,0,0
70638,-110.249895474866,4,1,0,100,0,0
70692,-110.345715573296,4,1,0,100,0,0
70799,-110.536074163644,4,1,0,100,0,0
70906,-110.727090668303,4,1,0,100,0,0
71013,-110.918768503988,4,1,0,100,0,0
71120,-111.111111111111,4,1,0,100,0,0
71549,-105.286343612335,4,1,0,100,0,1
71656,-105.088203739205,4,1,0,100,0,1
71870,-104.694152897268,4,1,0,100,0,1
71977,-104.498233586344,4,1,0,100,0,1
72299,-103.913043478261,4,1,0,100,0,1
72406,-103.720034023643,4,1,0,100,0,1
72620,-103.336158143235,4,1,0,100,0,1
72834,-102.955113293702,4,1,0,100,0,0
73049,-102.575107296137,4,1,0,100,0,0
73263,-102.199644225506,4,1,0,100,0,1
73370,-102.012941558109,4,1,0,100,0,1
73584,-101.641575231777,4,1,0,100,0,1
73692,-101.45518143073,4,1,0,100,0,1
73906,-101.087857614157,4,1,0,100,0,1
73977,-100.96657541654,4,1,0,100,0,1
74049,-100.84388185654,4,1,0,100,0,1
74120,-100.723184032636,4,1,0,100,0,1
74334,-100.361132107164,4,1,0,100,0,1
74549,-100,4,1,0,100,0,0
74977,-111.111111111111,4,1,0,100,0,0
77977,-105.263157894737,4,1,0,100,0,1
78406,-104.476832262446,4,1,0,100,0,1
78513,-104.282536151279,4,1,0,100,0,1
78727,-103.896103896104,4,1,0,100,0,1
78834,-103.703959762864,4,1,0,100,0,1
79156,-103.12999535915,4,1,0,100,0,1
79263,-102.940671859452,4,1,0,100,0,0
79477,-102.564102564103,4,1,0,100,0,0
79692,-102.188537852338,4,1,0,100,0,1
79906,-101.817441327699,4,1,0,100,0,1
80013,-101.632901958127,4,1,0,100,0,1
80120,-101.449030316352,4,1,0,100,0,1
80334,-101.083275772024,4,1,0,100,0,1
80549,-100.718458336131,4,1,0,100,0,1
80656,-100.537877645403,4,1,0,100,0,1
80870,-100.178651929274,4,1,0,100,0,1
80977,-100,4,1,0,100,0,0
81406,-105.263157894737,4,1,0,100,0,0
83120,-100,4,1,0,100,0,0
84834,-95.238095238095,4,1,0,100,0,0
86602,-111.111111111111,4,1,0,60,0,0
93352,-111.111111111111,4,1,0,80,0,0
93620,-110.692355558686,4,1,0,80,0,0
93834,-110.27674456687,4,1,0,80,0,0
94049,-109.862322513736,4,1,0,80,0,0
94156,-109.657233911395,4,1,0,80,0,0
94263,-109.452909592222,4,1,0,80,0,0
94370,-109.249345291896,4,1,0,80,0,0
94477,-109.04653677776,4,1,0,80,0,0
94692,-108.641292448808,4,1,0,80,0,0
94799,-108.440733136649,4,1,0,80,0,0
94906,-108.24091295263,4,1,0,80,0,0
95120,-107.843473685415,4,1,0,80,0,0
95334,-107.448942377826,4,1,0,80,0,0
95442,-107.250927126704,4,1,0,80,0,0
95549,-107.055463768856,4,1,0,80,0,0
95763,-106.666666666667,4,1,0,80,0,0
95870,-106.47332520215,4,1,0,80,0,0
95977,-106.280683361797,4,1,0,80,0,0
96084,-106.088737354983,4,1,0,80,0,0
96192,-105.895699250823,4,1,0,80,0,0
96406,-105.515265466917,4,1,0,80,0,0
96513,-105.326071777685,4,1,0,80,0,0
96620,-105.137555339957,4,1,0,80,0,0
96727,-104.949712523724,4,1,0,80,0,0
96834,-104.762539724871,4,1,0,80,0,0
97049,-104.388456151423,4,1,0,80,0,0
97263,-104.018756033651,4,1,0,80,0,0
97370,-103.834886230974,4,1,0,80,0,0
97477,-103.651665319899,4,1,0,80,0,0
97584,-103.469089871487,4,1,0,80,0,0
97692,-103.285459186468,4,1,0,80,0,0
97799,-103.104170425901,4,1,0,80,0,0
97906,-102.923516953778,4,1,0,80,0,0
98120,-102.564102564103,4,1,0,80,0,0
98227,-102.385335049167,4,1,0,80,0,0
98334,-102.20718962751,4,1,0,80,0,0
98442,-102.028006839383,4,1,0,80,0,0
98549,-101.851101640442,4,1,0,80,0,0
98763,-101.499125285964,4,1,0,80,0,0
98870,-101.324047803284,4,1,0,80,0,0
98977,-101.149573268532,4,1,0,80,0,0
99192,-100.800804011504,4,1,0,80,0,0
99299,-100.62812528351,4,1,0,80,0,0
99406,-100.456037164898,4,1,0,80,0,0
99513,-100.284536630767,4,1,0,80,0,0
99620,-100.113620676839,4,1,0,80,0,0
99834,-99.773530594535,4,1,0,80,0,0
99942,-99.60277214334,4,1,0,80,0,0
100049,-99.43417021299,4,1,0,80,0,0
100227,-99.098672973328,4,1,0,100,0,0
100370,-98.931771915465,4,1,0,100,0,0
100477,-98.765432098765,4,1,0,100,0,0
100584,-98.599650697037,4,1,0,100,0,0
100692,-98.432883348472,4,1,0,100,0,0
100799,-98.26821552717,4,1,0,100,0,0
100852,-98.186854958811,4,1,0,100,0,0
100906,-98.104097729496,4,1,0,100,0,0
101013,-97.940527204259,4,1,0,100,0,0
101120,-97.777501218589,4,1,0,100,0,0
101227,-97.615017057779,4,1,0,100,0,0
101281,-97.533220572185,4,1,0,100,0,0
101334,-97.453072025139,4,1,0,100,0,0
101442,-97.29015747219,4,1,0,100,0,0
101549,-97.12928765331,4,1,0,100,0,0
101656,-96.968948954509,4,1,0,100,0,0
101763,-96.80913874984,4,1,0,100,0,0
101977,-96.491093405384,4,1,0,100,0,0
102084,-96.332853099551,4,1,0,100,0,0
102138,-96.253190403267,4,1,0,100,0,0
102192,-96.173659352654,4,1,0,100,0,0
102299,-96.016457636353,4,1,0,100,0,0
102406,-95.859768993005,4,1,0,100,0,0
102459,-95.782346098556,4,1,0,100,0,0
102513,-95.703590914859,4,1,0,100,0,0
102567,-95.624965134618,4,1,0,100,0,0
102620,-95.547920910482,4,1,0,100,0,0
102727,-95.392756504626,4,1,0,100,0,0
102834,-111.111111111111,4,1,0,100,0,0
103692,-100,4,1,0,100,0,1
116977,-100,4,1,0,100,0,0
117406,-90.909090909091,4,1,0,100,0,0
117834,-105.263157894737,4,1,0,100,0,0
120834,-100,4,1,0,100,0,1
123834,-100,4,1,0,100,0,0
124263,-90.909090909091,4,1,0,100,0,0
124692,-105.263157894737,4,1,0,100,0,0
127129,-105.263157894737,4,1,0,60,0,0
127504,-105.263157894737,4,1,0,100,0,0
127692,-100,4,1,0,100,0,1
131120,-100,4,1,0,100,0,0
131334,-100,4,1,0,100,0,1
142049,-100,4,1,0,100,0,0
142263,-100,4,1,0,100,0,1
142906,-100,4,1,0,100,0,0
143120,-100,4,1,0,100,0,1
144834,-100,4,1,0,100,0,0
144870,-100.630961115187,4,1,0,80,0,0
145156,-100.947951012718,4,1,0,80,0,0
145477,-101.911017326953,4,1,0,80,0,0
145692,-102.5664034458,4,1,0,80,0,0
145799,-102.895723930983,4,1,0,80,0,0
146013,-103.56075020386,4,1,0,80,0,0
146120,-103.896497394255,4,1,0,80,0,0
146334,-104.574565416285,4,1,0,80,0,0
146549,-105.264773599386,4,1,0,80,0,0
146763,-105.960878835635,4,1,0,80,0,0
146870,-106.312395361816,4,1,0,80,0,0
146977,-106.66625190531,4,1,0,80,0,0
147192,-107.384441939121,4,1,0,80,0,0
147406,-108.108960211867,4,1,0,80,0,0
147513,-108.474897978552,4,1,0,80,0,0
147620,-108.843321482986,4,1,0,80,0,0
147727,-109.214256139122,4,1,0,80,0,0
147834,-109.587727708533,4,1,0,80,0,0
148227,-109.587727708533,4,1,0,100,0,0
148263,-105.263157894737,4,1,0,100,0,1
155120,-105.263157894737,4,1,0,100,0,0
155334,-95.238095238095,4,1,0,100,0,1
155442,-95.390686427226,4,1,0,100,0,1
155495,-95.465748136711,4,1,0,100,0,1
155549,-95.54234769688,4,1,0,100,0,1
155656,-95.694491985772,4,1,0,100,0,1
155763,-95.847121605104,4,1,0,100,0,1
155870,-96.000238880843,4,1,0,100,0,1
155924,-96.077698916698,4,1,0,100,0,1
155977,-96.153846153846,4,1,0,100,0,1
156084,-96.307945779975,4,1,0,100,0,1
156192,-96.463987278155,4,1,0,100,0,1
156299,-96.619083395943,4,1,0,100,0,1
156352,-96.696091553002,4,1,0,100,0,1
156406,-96.774679048207,4,1,0,100,0,1
156513,-96.930776652195,4,1,0,100,0,1
156620,-97.087378640777,4,1,0,100,0,1
156834,-97.402105582065,4,1,0,100,0,1
156942,-97.561715750982,4,1,0,100,0,1
157049,-97.720364741641,4,1,0,100,0,1
157156,-97.879530543589,4,1,0,100,0,1
157209,-97.958561852529,4,1,0,100,0,1
157263,-98.039215686275,4,1,0,100,0,1
157370,-98.19942271568,4,1,0,100,0,1
157477,-98.360154194456,4,1,0,100,0,1
157531,-98.44147095747,4,1,0,100,0,1
157584,-98.521412702061,4,1,0,100,0,1
157638,-98.602996426983,4,1,0,100,0,1
157692,-98.684715379775,4,1,0,100,0,1
157799,-98.847040737894,4,1,0,100,0,1
157906,-99.009900990099,4,1,0,100,0,1
158013,-99.173298784626,4,1,0,100,0,1
158120,-99.337236787221,4,1,0,100,0,1
158227,-99.501717681285,4,1,0,100,0,1
158334,-99.666744168023,4,1,0,100,0,1
158549,-100,4,1,0,100,0,1
159192,-100,4,1,0,100,0,0
159406,-100,4,1,0,100,0,1
160049,-100,4,1,0,100,0,0
160263,-100,4,1,0,100,0,1
161977,-100,4,1,0,100,0,0
162031,-66.666666666667,4,1,0,60,0,0
162834,-111.111111111111,4,1,0,60,0,0
168861,-111.111111111111,4,1,0,80,0,0
169906,-110.454520351245,4,1,0,80,0,0
170120,-109.805644010102,4,1,0,80,0,0
170442,-108.843537414966,4,1,0,80,0,0
170549,-108.527552432374,4,1,0,80,0,0
170656,-108.213396818526,4,1,0,80,0,0
170870,-107.590510516972,4,1,0,80,0,0
170977,-107.281748692504,4,1,0,80,0,0
171084,-106.974753958066,4,1,0,80,0,0
171299,-106.363177068099,4,1,0,80,0,0
171406,-106.061409556133,4,1,0,80,0,0
171620,-105.462982493145,4,1,0,80,0,0
171727,-105.166294202708,4,1,0,80,0,0
171834,-104.871270515442,4,1,0,80,0,0
171942,-104.575163398693,4,1,0,80,0,0
172156,-103.993344425957,4,1,0,80,0,0
172263,-103.704855979881,4,1,0,80,0,0
172477,-103.132654376692,4,1,0,80,0,0
172692,-102.564102564103,4,1,0,80,0,0
172799,-102.283478661109,4,1,0,80,0,0
172906,-102.004386188606,4,1,0,80,0,0
173120,-101.450745662981,4,1,0,80,0,0
173334,-100.903082589173,4,1,0,80,0,0
173442,-100.62893081761,4,1,0,80,0,0
173549,-100.358782647966,4,1,0,80,0,0
173656,-100.090081072966,4,1,0,80,0,0
173870,-99.556971476928,4,1,0,80,0,0
173977,-99.292540647884,4,1,0,80,0,0
174192,-98.765432098765,4,1,0,80,0,0
174406,-98.246303482831,4,1,0,80,0,0
174513,-97.988780284657,4,1,0,80,0,0
174620,-97.73260359656,4,1,0,80,0,0
174727,-97.477762885342,4,1,0,80,0,0
174834,-97.224247727383,4,1,0,80,0,0
174942,-96.969696969697,4,1,0,80,0,0
175049,-96.718814227338,4,1,0,80,0,0
175156,-96.469226316805,4,1,0,80,0,0
175209,-96.346075101766,4,1,0,80,0,0
175263,-96.220923239758,4,1,0,80,0,0
175370,-95.973895100533,4,1,0,80,0,0
175477,-95.728132104822,4,1,0,80,0,0
175531,-95.604579459356,4,1,0,80,0,0
175584,-95.483624558388,4,1,0,80,0,0
175692,-95.238095238095,4,1,0,80,0,0

[HitObjects]
256,192,835,5,0,0:0:0:0:
256,192,1156,1,8,0:0:0:0:
256,192,1584,1,0,0:0:0:0:
256,192,1906,1,8,0:0:0:0:
256,192,2549,1,0,0:0:0:0:
256,192,2870,1,8,0:0:0:0:
256,192,3299,1,8,0:0:0:0:
256,192,3620,1,0,0:0:0:0:
256,192,4263,1,0,0:0:0:0:
256,192,4584,1,8,0:0:0:0:
256,192,5013,1,8,0:0:0:0:
256,192,5334,1,8,0:0:0:0:
256,192,5977,1,0,0:0:0:0:
256,192,6299,1,8,0:0:0:0:
256,192,6727,1,8,0:0:0:0:
256,192,7049,1,0,0:0:0:0:
256,192,7263,1,0,0:0:0:0:
256,192,7370,1,8,0:0:0:0:
256,192,7477,1,8,0:0:0:0:
256,192,7584,1,8,0:0:0:0:
256,192,7692,1,0,0:0:0:0:
256,192,8013,1,8,0:0:0:0:
256,192,8227,1,8,0:0:0:0:
256,192,8442,1,0,0:0:0:0:
256,192,8656,1,0,0:0:0:0:
256,192,8763,1,8,0:0:0:0:
256,192,8977,1,0,0:0:0:0:
256,192,9084,1,0,0:0:0:0:
256,192,9192,1,8,0:0:0:0:
256,192,9299,1,8,0:0:0:0:
256,192,9406,1,0,0:0:0:0:
256,192,9727,1,0,0:0:0:0:
256,192,9942,1,8,0:0:0:0:
256,192,10156,1,8,0:0:0:0:
256,192,10209,1,8,0:0:0:0:
256,192,10263,1,0,0:0:0:0:
256,192,10370,1,0,0:0:0:0:
256,192,10477,1,8,0:0:0:0:
256,192,10692,1,0,0:0:0:0:
256,192,10799,1,8,0:0:0:0:
256,192,10906,1,8,0:0:0:0:
256,192,11013,1,8,0:0:0:0:
256,192,11120,1,0,0:0:0:0:
256,192,11442,1,8,0:0:0:0:
256,192,11656,1,8,0:0:0:0:
256,192,11870,1,0,0:0:0:0:
256,192,12084,1,0,0:0:0:0:
256,192,12192,1,8,0:0:0:0:
256,192,12406,1,0,0:0:0:0:
256,192,12513,1,0,0:0:0:0:
256,192,12620,1,8,0:0:0:0:
256,192,12674,1,8,0:0:0:0:
256,192,12727,1,8,0:0:0:0:
256,192,12834,1,4,0:0:0:0:
256,192,13049,1,8,0:0:0:0:
256,192,13156,1,4,0:0:0:0:
256,192,13370,1,8,0:0:0:0:
256,192,13584,1,4,0:0:0:0:
256,192,13799,1,8,0:0:0:0:
256,192,13906,1,4,0:0:0:0:
256,192,13959,12,4,15942,0:0:0:0:
256,192,16263,5,4,0:0:0:0:
256,192,16584,1,0,0:0:0:0:
256,192,16906,1,8,0:0:0:0:
256,192,17334,1,8,0:0:0:0:
256,192,17549,1,0,0:0:0:0:
256,192,17763,1,8,0:0:0:0:
256,192,17977,1,0,0:0:0:0:
256,192,18299,1,0,0:0:0:0:
256,192,18620,1,8,0:0:0:0:
256,192,18834,1,0,0:0:0:0:
256,192,19049,1,0,0:0:0:0:
256,192,19263,1,0,0:0:0:0:
256,192,19370,1,8,0:0:0:0:
256,192,19692,1,0,0:0:0:0:
256,192,20013,1,0,0:0:0:0:
256,192,20334,1,8,0:0:0:0:
256,192,20763,1,8,0:0:0:0:
256,192,20977,1,0,0:0:0:0:
256,192,21192,1,8,0:0:0:0:
256,192,21406,1,0,0:0:0:0:
256,192,21727,1,0,0:0:0:0:
256,192,22049,1,8,0:0:0:0:
256,192,22263,1,0,0:0:0:0:
256,192,22477,1,0,0:0:0:0:
256,192,22692,1,0,0:0:0:0:
256,192,22799,1,8,0:0:0:0:
256,192,22906,1,8,0:0:0:0:
256,192,23013,1,8,0:0:0:0:
256,192,23120,1,4,0:0:0:0:
256,192,23334,1,8,0:0:0:0:
256,192,23442,1,8,0:0:0:0:
256,192,23549,1,0,0:0:0:0:
256,192,23656,1,8,0:0:0:0:
256,192,23763,1,0,0:0:0:0:
256,192,23870,1,8,0:0:0:0:
256,192,23977,1,0,0:0:0:0:
256,192,24192,1,8,0:0:0:0:
256,192,24299,1,0,0:0:0:0:
256,192,24406,1,8,0:0:0:0:
256,192,24513,1,8,0:0:0:0:
256,192,24620,1,0,0:0:0:0:
256,192,24727,1,8,0:0:0:0:
256,192,24834,1,0,0:0:0:0:
256,192,25049,1,8,0:0:0:0:
256,192,25156,1,0,0:0:0:0:
256,192,25263,1,8,0:0:0:0:
256,192,25370,1,8,0:0:0:0:
256,192,25477,1,0,0:0:0:0:
256,192,25584,1,8,0:0:0:0:
256,192,25692,1,0,0:0:0:0:
256,192,25799,1,0,0:0:0:0:
256,192,25906,1,8,0:0:0:0:
256,192,26013,1,8,0:0:0:0:
256,192,26120,1,0,0:0:0:0:
256,192,26227,1,0,0:0:0:0:
256,192,26334,1,8,0:0:0:0:
256,192,26549,1,0,0:0:0:0:
256,192,26656,1,0,0:0:0:0:
256,192,26763,1,8,0:0:0:0:
256,192,26870,1,0,0:0:0:0:
256,192,26977,1,8,0:0:0:0:
256,192,27031,1,8,0:0:0:0:
256,192,27084,1,0,0:0:0:0:
256,192,27192,1,8,0:0:0:0:
256,192,27299,1,8,0:0:0:0:
256,192,27406,1,0,0:0:0:0:
256,192,27513,1,0,0:0:0:0:
256,192,27567,1,0,0:0:0:0:
256,192,27620,1,8,0:0:0:0:
256,192,27727,1,8,0:0:0:0:
256,192,27834,1,0,0:0:0:0:
256,192,27888,1,0,0:0:0:0:
256,192,27942,1,0,0:0:0:0:
256,192,27995,1,0,0:0:0:0:
256,192,28049,1,8,0:0:0:0:
256,192,28263,1,0,0:0:0:0:
256,192,28370,1,0,0:0:0:0:
256,192,28477,1,0,0:0:0:0:
256,192,28584,1,0,0:0:0:0:
256,192,28692,1,8,0:0:0:0:
256,192,28799,1,8,0:0:0:0:
256,192,28906,1,8,0:0:0:0:
256,192,29013,1,8,0:0:0:0:
256,192,29334,1,8,0:0:0:0:
256,192,29495,1,8,0:0:0:0:
256,192,29656,1,8,0:0:0:0:
256,192,29763,1,0,0:0:0:0:
256,192,29870,1,8,0:0:0:0:
256,192,29977,1,4,0:0:0:0:
256,192,30192,1,4,0:0:0:0:
256,192,30406,1,8,0:0:0:0:
256,192,30513,1,8,0:0:0:0:
256,192,30620,1,8,0:0:0:0:
256,192,30727,1,8,0:0:0:0:
256,192,30781,1,8,0:0:0:0:
256,192,30834,1,8,0:0:0:0:
256,192,30942,1,0,0:0:0:0:
256,192,31156,1,8,0:0:0:0:
256,192,31263,1,0,0:0:0:0:
256,192,31370,1,0,0:0:0:0:
256,192,31477,1,8,0:0:0:0:
256,192,31584,1,0,0:0:0:0:
256,192,31799,1,0,0:0:0:0:
256,192,31852,1,0,0:0:0:0:
256,192,31906,1,8,0:0:0:0:
256,192,32013,1,0,0:0:0:0:
256,192,32120,1,8,0:0:0:0:
256,192,32227,1,8,0:0:0:0:
256,192,32334,1,0,0:0:0:0:
256,192,32442,1,8,0:0:0:0:
256,192,32549,1,8,0:0:0:0:
256,192,32656,1,0,0:0:0:0:
256,192,32763,1,8,0:0:0:0:
256,192,33406,1,4,0:0:0:0:
256,192,33620,1,4,0:0:0:0:
256,192,33834,1,8,0:0:0:0:
256,192,33906,1,8,0:0:0:0:
256,192,33977,1,8,0:0:0:0:
256,192,34049,1,8,0:0:0:0:
256,192,34192,1,8,0:0:0:0:
256,192,34263,1,8,0:0:0:0:
256,192,34334,1,8,0:0:0:0:
256,192,34406,1,8,0:0:0:0:
256,192,34477,1,0,0:0:0:0:
256,192,34584,1,8,0:0:0:0:
256,192,34799,1,0,0:0:0:0:
256,192,34906,1,8,0:0:0:0:
256,192,35013,1,0,0:0:0:0:
256,192,35227,1,0,0:0:0:0:
256,192,35281,1,0,0:0:0:0:
256,192,35334,1,8,0:0:0:0:
256,192,35442,1,0,0:0:0:0:
256,192,35549,1,8,0:0:0:0:
256,192,35656,1,8,0:0:0:0:
256,192,35763,1,0,0:0:0:0:
256,192,35870,1,8,0:0:0:0:
256,192,35977,1,8,0:0:0:0:
256,192,36084,1,0,0:0:0:0:
256,192,36192,1,8,0:0:0:0:
256,192,36834,1,4,0:0:0:0:
256,192,37049,1,4,0:0:0:0:
256,192,37263,1,8,0:0:0:0:
256,192,37370,1,8,0:0:0:0:
256,192,37477,1,8,0:0:0:0:
256,192,37584,1,8,0:0:0:0:
256,192,37638,1,8,0:0:0:0:
256,192,37692,1,8,0:0:0:0:
256,192,37799,1,0,0:0:0:0:
256,192,38013,1,8,0:0:0:0:
256,192,38120,1,8,0:0:0:0:
256,192,38227,1,0,0:0:0:0:
256,192,38334,1,8,0:0:0:0:
256,192,38442,1,0,0:0:0:0:
256,192,38656,1,0,0:0:0:0:
256,192,38709,1,8,0:0:0:0:
256,192,38763,1,8,0:0:0:0:
256,192,38870,1,0,0:0:0:0:
256,192,38977,1,8,0:0:0:0:
256,192,39084,1,8,0:0:0:0:
256,192,39192,1,0,0:0:0:0:
256,192,39299,1,8,0:0:0:0:
256,192,39406,1,8,0:0:0:0:
256,192,39513,1,0,0:0:0:0:
256,192,39620,1,8,0:0:0:0:
256,192,40263,1,4,0:0:0:0:
256,192,40477,1,4,0:0:0:0:
256,192,40692,1,8,0:0:0:0:
256,192,40763,1,8,0:0:0:0:
256,192,40834,1,8,0:0:0:0:
256,192,40906,1,0,0:0:0:0:
256,192,41049,1,8,0:0:0:0:
256,192,41120,1,8,0:0:0:0:
256,192,41192,1,8,0:0:0:0:
256,192,41263,1,8,0:0:0:0:
256,192,41334,1,0,0:0:0:0:
256,192,41442,1,8,0:0:0:0:
256,192,41656,1,0,0:0:0:0:
256,192,41763,1,8,0:0:0:0:
256,192,41870,1,0,0:0:0:0:
256,192,42084,1,0,0:0:0:0:
256,192,42138,1,8,0:0:0:0:
256,192,42192,1,8,0:0:0:0:
256,192,42299,1,0,0:0:0:0:
256,192,42406,1,8,0:0:0:0:
256,192,42513,1,8,0:0:0:0:
256,192,42620,1,0,0:0:0:0:
256,192,42727,1,8,0:0:0:0:
256,192,42942,1,8,0:0:0:0:
256,192,43049,1,8,0:0:0:0:
256,192,43156,1,8,0:0:0:0:
256,192,43263,1,8,0:0:0:0:
256,192,43370,1,8,0:0:0:0:
256,192,43692,1,4,0:0:0:0:
256,192,43906,1,4,0:0:0:0:
256,192,44120,1,4,0:0:0:0:
256,192,44334,1,8,0:0:0:0:
256,192,44442,1,8,0:0:0:0:
256,192,44495,1,8,0:0:0:0:
256,192,44549,1,8,0:0:0:0:
256,192,44656,1,0,0:0:0:0:
256,192,44870,1,8,0:0:0:0:
256,192,44977,1,0,0:0:0:0:
256,192,45084,1,0,0:0:0:0:
256,192,45192,1,8,0:0:0:0:
256,192,45299,1,0,0:0:0:0:
256,192,45513,1,0,0:0:0:0:
256,192,45567,1,0,0:0:0:0:
256,192,45620,1,8,0:0:0:0:
256,192,45727,1,0,0:0:0:0:
256,192,45834,1,8,0:0:0:0:
256,192,45942,1,8,0:0:0:0:
256,192,45995,1,8,0:0:0:0:
256,192,46049,1,0,0:0:0:0:
256,192,46156,1,8,0:0:0:0:
256,192,46263,1,8,0:0:0:0:
256,192,46370,1,0,0:0:0:0:
256,192,46477,1,8,0:0:0:0:
256,192,47120,1,4,0:0:0:0:
256,192,47334,1,4,0:0:0:0:
256,192,47549,12,0,48192,0:0:0:0:
256,192,48299,5,8,0:0:0:0:
256,192,48406,1,0,0:0:0:0:
256,192,48513,1,0,0:0:0:0:
256,192,48620,1,8,0:0:0:0:
256,192,48727,1,0,0:0:0:0:
256,192,48942,1,0,0:0:0:0:
256,192,48995,1,0,0:0:0:0:
256,192,49049,1,8,0:0:0:0:
256,192,49156,1,0,0:0:0:0:
256,192,49263,1,8,0:0:0:0:
256,192,49370,1,8,0:0:0:0:
256,192,49424,1,8,0:0:0:0:
256,192,49477,1,0,0:0:0:0:
256,192,49584,1,8,0:0:0:0:
256,192,49692,1,8,0:0:0:0:
256,192,49799,1,0,0:0:0:0:
256,192,49906,1,8,0:0:0:0:
256,192,50549,1,4,0:0:0:0:
256,192,50763,1,4,0:0:0:0:
256,192,50977,1,8,0:0:0:0:
256,192,51084,1,8,0:0:0:0:
256,192,51192,1,8,0:0:0:0:
256,192,51245,1,8,0:0:0:0:
256,192,51299,1,8,0:0:0:0:
256,192,51406,1,8,0:0:0:0:
256,192,51513,1,0,0:0:0:0:
256,192,51727,1,0,0:0:0:0:
256,192,51834,1,8,0:0:0:0:
256,192,51942,1,8,0:0:0:0:
256,192,52049,1,8,0:0:0:0:
256,192,52156,1,0,0:0:0:0:
256,192,52370,1,0,0:0:0:0:
256,192,52424,1,8,0:0:0:0:
256,192,52477,1,8,0:0:0:0:
256,192,52584,1,0,0:0:0:0:
256,192,52692,1,8,0:0:0:0:
256,192,52799,1,8,0:0:0:0:
256,192,52852,1,8,0:0:0:0:
256,192,52906,1,0,0:0:0:0:
256,192,53013,1,8,0:0:0:0:
256,192,53120,1,8,0:0:0:0:
256,192,53227,1,0,0:0:0:0:
256,192,53334,1,8,0:0:0:0:
256,192,53977,1,4,0:0:0:0:
256,192,54192,1,0,0:0:0:0:
256,192,54299,1,0,0:0:0:0:
256,192,54406,1,8,0:0:0:0:
256,192,54513,1,8,0:0:0:0:
256,192,54620,1,4,0:0:0:0:
256,192,54834,1,8,0:0:0:0:
256,192,54942,1,8,0:0:0:0:
256,192,55049,1,8,0:0:0:0:
256,192,55156,1,4,0:0:0:0:
256,192,55370,1,8,0:0:0:0:
256,192,55424,1,8,0:0:0:0:
256,192,55477,1,8,0:0:0:0:
256,192,55584,1,4,0:0:0:0:
256,192,55799,1,4,0:0:0:0:
256,192,56013,1,0,0:0:0:0:
256,192,56120,1,12,0:0:0:0:
256,192,56334,1,0,0:0:0:0:
256,192,56442,1,12,0:0:0:0:
256,192,56656,1,8,0:0:0:0:
256,192,56763,1,0,0:0:0:0:
256,192,56977,1,0,0:0:0:0:
256,192,57192,1,8,0:0:0:0:
256,192,57299,1,8,0:0:0:0:
256,192,57406,1,4,0:0:0:0:
256,192,57834,1,0,0:0:0:0:
256,192,57942,1,8,0:0:0:0:
256,192,58156,1,8,0:0:0:0:
256,192,58263,1,0,0:0:0:0:
256,192,58370,1,8,0:0:0:0:
256,192,58584,1,8,0:0:0:0:
256,192,58692,1,0,0:0:0:0:
256,192,58906,1,8,0:0:0:0:
256,192,58959,1,8,0:0:0:0:
256,192,59013,1,8,0:0:0:0:
256,192,59120,1,0,0:0:0:0:
256,192,59334,1,8,0:0:0:0:
256,192,59442,1,8,0:0:0:0:
256,192,59549,1,0,0:0:0:0:
256,192,59763,1,0,0:0:0:0:
256,192,59870,1,8,0:0:0:0:
256,192,59977,1,0,0:0:0:0:
256,192,60084,1,0,0:0:0:0:
256,192,60192,1,8,0:0:0:0:
256,192,60299,1,8,0:0:0:0:
256,192,60406,1,8,0:0:0:0:
256,192,60513,1,0,0:0:0:0:
256,192,60567,1,0,0:0:0:0:
256,192,60620,1,8,0:0:0:0:
256,192,60834,1,4,0:0:0:0:
256,192,61156,1,0,0:0:0:0:
256,192,61263,1,8,0:0:0:0:
256,192,61477,1,0,0:0:0:0:
256,192,61584,1,8,0:0:0:0:
256,192,61799,1,8,0:0:0:0:
256,192,61906,1,0,0:0:0:0:
256,192,62013,1,0,0:0:0:0:
256,192,62120,1,8,0:0:0:0:
256,192,62334,1,0,0:0:0:0:
256,192,62442,1,8,0:0:0:0:
256,192,62549,1,0,0:0:0:0:
256,192,62763,1,8,0:0:0:0:
256,192,62977,1,8,0:0:0:0:
256,192,63084,1,8,0:0:0:0:
256,192,63192,1,8,0:0:0:0:
256,192,63406,1,12,0:0:0:0:
256,192,63727,1,12,0:0:0:0:
256,192,64049,1,8,0:0:0:0:
256,192,64156,1,8,0:0:0:0:
256,192,64263,1,4,0:0:0:0:
256,192,64692,1,0,0:0:0:0:
256,192,64799,1,8,0:0:0:0:
256,192,65013,1,8,0:0:0:0:
256,192,65120,1,0,0:0:0:0:
256,192,65227,1,8,0:0:0:0:
256,192,65442,1,8,0:0:0:0:
256,192,65549,1,0,0:0:0:0:
256,192,65763,1,8,0:0:0:0:
256,192,65977,1,0,0:0:0:0:
256,192,66192,1,8,0:0:0:0:
256,192,66299,1,8,0:0:0:0:
256,192,66406,1,0,0:0:0:0:
256,192,66513,1,0,0:0:0:0:
256,192,66620,1,8,0:0:0:0:
256,192,66727,1,8,0:0:0:0:
256,192,66834,1,0,0:0:0:0:
256,192,67049,1,0,0:0:0:0:
256,192,67156,1,0,0:0:0:0:
256,192,67263,1,8,0:0:0:0:
256,192,67370,1,8,0:0:0:0:
256,192,67477,1,8,0:0:0:0:
256,192,67584,1,8,0:0:0:0:
256,192,67692,1,4,0:0:0:0:
256,192,67906,1,0,0:0:0:0:
256,192,68013,1,8,0:0:0:0:
256,192,68120,1,0,0:0:0:0:
256,192,68334,1,8,0:0:0:0:
256,192,68442,1,8,0:0:0:0:
256,192,68549,1,0,0:0:0:0:
256,192,68656,1,0,0:0:0:0:
256,192,68763,1,8,0:0:0:0:
256,192,68977,1,0,0:0:0:0:
256,192,69084,1,0,0:0:0:0:
256,192,69192,1,8,0:0:0:0:
256,192,69299,1,8,0:0:0:0:
256,192,69406,1,0,0:0:0:0:
256,192,69513,1,0,0:0:0:0:
256,192,69620,1,8,0:0:0:0:
256,192,69834,1,0,0:0:0:0:
256,192,69942,1,8,0:0:0:0:
256,192,70049,1,0,0:0:0:0:
256,192,70156,1,8,0:0:0:0:
256,192,70263,1,0,0:0:0:0:
256,192,70477,1,8,0:0:0:0:
256,192,70584,1,8,0:0:0:0:
256,192,70638,1,8,0:0:0:0:
256,192,70692,1,0,0:0:0:0:
256,192,70799,1,0,0:0:0:0:
256,192,70906,1,8,0:0:0:0:
256,192,71013,1,8,0:0:0:0:
256,192,71549,1,4,0:0:0:0:
256,192,71656,1,8,0:0:0:0:
256,192,71870,1,8,0:0:0:0:
256,192,71977,1,4,0:0:0:0:
256,192,72299,1,8,0:0:0:0:
256,192,72406,1,4,0:0:0:0:
256,192,72620,1,8,0:0:0:0:
256,192,72834,1,0,0:0:0:0:
256,192,73049,1,0,0:0:0:0:
256,192,73263,1,4,0:0:0:0:
256,192,73370,1,8,0:0:0:0:
256,192,73584,1,8,0:0:0:0:
256,192,73692,1,4,0:0:0:0:
256,192,73906,1,8,0:0:0:0:
256,192,73977,1,8,0:0:0:0:
256,192,74049,1,8,0:0:0:0:
256,192,74120,1,0,0:0:0:0:
256,192,74334,1,8,0:0:0:0:
256,192,74549,1,4,0:0:0:0:
256,192,74977,1,8,0:0:0:0:
256,192,75192,1,8,0:0:0:0:
256,192,75406,1,0,0:0:0:0:
256,192,75593,1,8,0:0:0:0:
256,192,75647,1,8,0:0:0:0:
256,192,75781,1,8,0:0:0:0:
256,192,75977,1,8,0:0:0:0:
256,192,76156,1,8,0:0:0:0:
256,192,76263,1,0,0:0:0:0:
256,192,76549,1,8,0:0:0:0:
256,192,76692,1,8,0:0:0:0:
256,192,76871,1,8,0:0:0:0:
256,192,77120,1,0,0:0:0:0:
256,192,77406,1,0,0:0:0:0:
256,192,77549,1,8,0:0:0:0:
256,192,77692,1,0,0:0:0:0:
256,192,77834,1,0,0:0:0:0:
256,192,77977,1,4,0:0:0:0:
256,192,78406,1,4,0:0:0:0:
256,192,78513,1,8,0:0:0:0:
256,192,78727,1,8,0:0:0:0:
256,192,78834,1,4,0:0:0:0:
256,192,79156,1,8,0:0:0:0:
256,192,79263,1,0,0:0:0:0:
256,192,79477,1,0,0:0:0:0:
256,192,79692,1,4,0:0:0:0:
256,192,79906,1,8,0:0:0:0:
256,192,80013,1,8,0:0:0:0:
256,192,80120,1,4,0:0:0:0:
256,192,80334,1,4,0:0:0:0:
256,192,80549,1,4,0:0:0:0:
256,192,80656,1,4,0:0:0:0:
256,192,80870,1,4,0:0:0:0:
256,192,80977,1,8,0:0:0:0:
256,192,81406,1,4,0:0:0:0:
256,192,81727,1,4,0:0:0:0:
256,192,82156,1,4,0:0:0:0:
256,192,82584,1,12,0:0:0:0:
256,192,82799,1,4,0:0:0:0:
256,192,83120,1,12,0:0:0:0:
256,192,83227,1,12,0:0:0:0:
256,192,83442,1,12,0:0:0:0:
256,192,83549,1,4,0:0:0:0:
256,192,83763,1,4,0:0:0:0:
256,192,83870,1,12,0:0:0:0:
256,192,84084,1,12,0:0:0:0:
256,192,84192,1,12,0:0:0:0:
256,192,84406,1,4,0:0:0:0:
256,192,84513,1,4,0:0:0:0:
256,192,84834,1,12,0:0:0:0:
256,192,84942,1,12,0:0:0:0:
256,192,85156,1,12,0:0:0:0:
256,192,85263,1,4,0:0:0:0:
256,192,85477,1,4,0:0:0:0:
256,192,85584,1,12,0:0:0:0:
256,192,85799,1,12,0:0:0:0:
256,192,85906,1,12,0:0:0:0:
256,192,86120,1,12,0:0:0:0:
256,192,86227,1,12,0:0:0:0:
256,192,86549,1,4,0:0:0:0:
256,192,93406,5,0,0:0:0:0:
256,192,93620,1,8,0:0:0:0:
256,192,93834,1,0,0:0:0:0:
256,192,94049,1,8,0:0:0:0:
256,192,94156,1,0,0:0:0:0:
256,192,94370,1,0,0:0:0:0:
256,192,94477,1,8,0:0:0:0:
256,192,94692,1,0,0:0:0:0:
256,192,94799,1,0,0:0:0:0:
256,192,94906,1,8,0:0:0:0:
256,192,95120,1,0,0:0:0:0:
256,192,95334,1,8,0:0:0:0:
256,192,95442,1,8,0:0:0:0:
256,192,95549,1,0,0:0:0:0:
256,192,95763,1,8,0:0:0:0:
256,192,95870,1,0,0:0:0:0:
256,192,96084,1,0,0:0:0:0:
256,192,96192,1,8,0:0:0:0:
256,192,96406,1,0,0:0:0:0:
256,192,96513,1,0,0:0:0:0:
256,192,96620,1,8,0:0:0:0:
256,192,96727,1,8,0:0:0:0:
256,192,96834,1,0,0:0:0:0:
256,192,97049,1,8,0:0:0:0:
256,192,97263,1,0,0:0:0:0:
256,192,97370,1,0,0:0:0:0:
256,192,97477,1,8,0:0:0:0:
256,192,97584,1,0,0:0:0:0:
256,192,97799,1,0,0:0:0:0:
256,192,97906,1,8,0:0:0:0:
256,192,98120,1,0,0:0:0:0:
256,192,98227,1,0,0:0:0:0:
256,192,98334,1,8,0:0:0:0:
256,192,98442,1,8,0:0:0:0:
256,192,98549,1,0,0:0:0:0:
256,192,98763,1,8,0:0:0:0:
256,192,98870,1,8,0:0:0:0:
256,192,98977,1,0,0:0:0:0:
256,192,99192,1,8,0:0:0:0:
256,192,99299,1,0,0:0:0:0:
256,192,99513,1,0,0:0:0:0:
256,192,99620,1,8,0:0:0:0:
256,192,99834,1,0,0:0:0:0:
256,192,99942,1,8,0:0:0:0:
256,192,100049,1,8,0:0:0:0:
256,192,100263,1,0,0:0:0:0:
256,192,100370,1,0,0:0:0:0:
256,192,100477,1,8,0:0:0:0:
256,192,100584,1,0,0:0:0:0:
256,192,100692,1,8,0:0:0:0:
256,192,100799,1,8,0:0:0:0:
256,192,100852,1,8,0:0:0:0:
256,192,100906,1,0,0:0:0:0:
256,192,101013,1,8,0:0:0:0:
256,192,101120,1,0,0:0:0:0:
256,192,101227,1,0,0:0:0:0:
256,192,101281,1,0,0:0:0:0:
256,192,101334,1,8,0:0:0:0:
256,192,101442,1,0,0:0:0:0:
256,192,101549,1,8,0:0:0:0:
256,192,101656,1,8,0:0:0:0:
256,192,101763,1,0,0:0:0:0:
256,192,101977,1,0,0:0:0:0:
256,192,102084,1,8,0:0:0:0:
256,192,102138,1,8,0:0:0:0:
256,192,102192,1,8,0:0:0:0:
256,192,102299,1,8,0:0:0:0:
256,192,102406,1,0,0:0:0:0:
256,192,102459,1,0,0:0:0:0:
256,192,102513,1,0,0:0:0:0:
256,192,102567,1,0,0:0:0:0:
256,192,102620,1,8,0:0:0:0:
256,192,102727,1,8,0:0:0:0:
256,192,103049,1,8,0:0:0:0:
256,192,103209,1,8,0:0:0:0:
256,192,103370,1,8,0:0:0:0:
256,192,103477,1,0,0:0:0:0:
256,192,103692,1,4,0:0:0:0:
256,192,103906,1,8,0:0:0:0:
256,192,104013,1,8,0:0:0:0:
256,192,104067,1,8,0:0:0:0:
256,192,104120,1,0,0:0:0:0:
256,192,104227,1,0,0:0:0:0:
256,192,104334,1,8,0:0:0:0:
256,192,104442,1,0,0:0:0:0:
256,192,104656,1,0,0:0:0:0:
256,192,104763,1,8,0:0:0:0:
256,192,104977,1,0,0:0:0:0:
256,192,105084,1,0,0:0:0:0:
256,192,105138,1,0,0:0:0:0:
256,192,105192,1,8,0:0:0:0:
256,192,105299,1,8,0:0:0:0:
256,192,105406,1,0,0:0:0:0:
256,192,105620,1,8,0:0:0:0:
256,192,105727,1,8,0:0:0:0:
256,192,105834,1,0,0:0:0:0:
256,192,105942,1,8,0:0:0:0:
256,192,106049,1,8,0:0:0:0:
256,192,106156,1,0,0:0:0:0:
256,192,106209,1,0,0:0:0:0:
256,192,106263,1,0,0:0:0:0:
256,192,106370,1,0,0:0:0:0:
256,192,106477,1,8,0:0:0:0:
256,192,106692,1,0,0:0:0:0:
256,192,106799,1,8,0:0:0:0:
256,192,106906,1,8,0:0:0:0:
256,192,107013,1,8,0:0:0:0:
256,192,107120,1,0,0:0:0:0:
256,192,107334,1,8,0:0:0:0:
256,192,107442,1,0,0:0:0:0:
256,192,107549,1,8,0:0:0:0:
256,192,107656,1,0,0:0:0:0:
256,192,107709,1,0,0:0:0:0:
256,192,107763,1,8,0:0:0:0:
256,192,107870,1,8,0:0:0:0:
256,192,107977,1,0,0:0:0:0:
256,192,108084,1,0,0:0:0:0:
256,192,108192,1,8,0:0:0:0:
256,192,108406,1,8,0:0:0:0:
256,192,108513,1,8,0:0:0:0:
256,192,108567,1,8,0:0:0:0:
256,192,108620,1,8,0:0:0:0:
256,192,108727,1,8,0:0:0:0:
256,192,108834,1,0,0:0:0:0:
256,192,109049,1,8,0:0:0:0:
256,192,109156,1,8,0:0:0:0:
256,192,109263,1,0,0:0:0:0:
256,192,109370,1,8,0:0:0:0:
256,192,109477,1,0,0:0:0:0:
256,192,109584,1,8,0:0:0:0:
256,192,109638,1,8,0:0:0:0:
256,192,109692,1,0,0:0:0:0:
256,192,109799,1,0,0:0:0:0:
256,192,109906,1,8,0:0:0:0:
256,192,110120,1,0,0:0:0:0:
256,192,110227,1,0,0:0:0:0:
256,192,110334,1,8,0:0:0:0:
256,192,110549,1,4,0:0:0:0:
256,192,110763,1,8,0:0:0:0:
256,192,110870,1,8,0:0:0:0:
256,192,110924,1,8,0:0:0:0:
256,192,110977,1,0,0:0:0:0:
256,192,111084,1,0,0:0:0:0:
256,192,111192,1,8,0:0:0:0:
256,192,111299,1,0,0:0:0:0:
256,192,111513,1,0,0:0:0:0:
256,192,111620,1,8,0:0:0:0:
256,192,111834,1,0,0:0:0:0:
256,192,111942,1,0,0:0:0:0:
256,192,112049,1,8,0:0:0:0:
256,192,112156,1,8,0:0:0:0:
256,192,112263,1,0,0:0:0:0:
256,192,112477,1,8,0:0:0:0:
256,192,112584,1,8,0:0:0:0:
256,192,112692,1,0,0:0:0:0:
256,192,112799,1,8,0:0:0:0:
256,192,112906,1,0,0:0:0:0:
256,192,113013,1,8,0:0:0:0:
256,192,113067,1,8,0:0:0:0:
256,192,113120,1,0,0:0:0:0:
256,192,113227,1,0,0:0:0:0:
256,192,113334,1,8,0:0:0:0:
256,192,113549,1,0,0:0:0:0:
256,192,113656,1,8,0:0:0:0:
256,192,113763,1,8,0:0:0:0:
256,192,113870,1,8,0:0:0:0:
256,192,113977,1,0,0:0:0:0:
256,192,114192,1,8,0:0:0:0:
256,192,114299,1,8,0:0:0:0:
256,192,114352,1,8,0:0:0:0:
256,192,114406,1,0,0:0:0:0:
256,192,114513,1,0,0:0:0:0:
256,192,114620,1,8,0:0:0:0:
256,192,114727,1,0,0:0:0:0:
256,192,114942,1,0,0:0:0:0:
256,192,115049,1,8,0:0:0:0:
256,192,115156,1,0,0:0:0:0:
256,192,115209,1,0,0:0:0:0:
256,192,115263,1,8,0:0:0:0:
256,192,115370,1,8,0:0:0:0:
256,192,115477,1,8,0:0:0:0:
256,192,115584,1,8,0:0:0:0:
256,192,115692,1,4,0:0:0:0:
256,192,115906,1,8,0:0:0:0:
256,192,116013,1,4,0:0:0:0:
256,192,116227,1,8,0:0:0:0:
256,192,116442,1,4,0:0:0:0:
256,192,116656,1,0,0:0:0:0:
256,192,116763,1,8,0:0:0:0:
256,192,116977,1,8,0:0:0:0:
256,192,117138,1,8,0:0:0:0:
256,192,117299,1,8,0:0:0:0:
256,192,117406,1,4,0:0:0:0:
256,192,117620,1,4,0:0:0:0:
256,192,117834,1,8,0:0:0:0:
256,192,117942,1,8,0:0:0:0:
256,192,118049,1,8,0:0:0:0:
256,192,118156,1,8,0:0:0:0:
256,192,118209,1,8,0:0:0:0:
256,192,118263,1,8,0:0:0:0:
256,192,118370,1,0,0:0:0:0:
256,192,118477,1,0,0:0:0:0:
256,192,118531,1,0,0:0:0:0:
256,192,118584,1,8,0:0:0:0:
256,192,118692,1,0,0:0:0:0:
256,192,118799,1,8,0:0:0:0:
256,192,118906,1,8,0:0:0:0:
256,192,119013,1,0,0:0:0:0:
256,192,119227,1,0,0:0:0:0:
256,192,119281,1,0,0:0:0:0:
256,192,119334,1,8,0:0:0:0:
256,192,119442,1,0,0:0:0:0:
256,192,119549,1,8,0:0:0:0:
256,192,119656,1,8,0:0:0:0:
256,192,119709,1,8,0:0:0:0:
256,192,119763,1,0,0:0:0:0:
256,192,119870,1,8,0:0:0:0:
256,192,119977,1,8,0:0:0:0:
256,192,120084,1,0,0:0:0:0:
256,192,120192,1,8,0:0:0:0:
256,192,120834,1,4,0:0:0:0:
256,192,121049,1,8,0:0:0:0:
256,192,121156,1,8,0:0:0:0:
256,192,121209,1,8,0:0:0:0:
256,192,121263,1,0,0:0:0:0:
256,192,121370,1,0,0:0:0:0:
256,192,121477,1,8,0:0:0:0:
256,192,121584,1,0,0:0:0:0:
256,192,121799,1,0,0:0:0:0:
256,192,121906,1,8,0:0:0:0:
256,192,122013,1,8,0:0:0:0:
256,192,122120,1,0,0:0:0:0:
256,192,122227,1,0,0:0:0:0:
256,192,122281,1,0,0:0:0:0:
256,192,122334,1,8,0:0:0:0:
256,192,122549,1,0,0:0:0:0:
256,192,122656,1,8,0:0:0:0:
256,192,122763,1,8,0:0:0:0:
256,192,122870,1,8,0:0:0:0:
256,192,122977,1,0,0:0:0:0:
256,192,123084,1,8,0:0:0:0:
256,192,123138,1,8,0:0:0:0:
256,192,123192,1,8,0:0:0:0:
256,192,123299,1,4,0:0:0:0:
256,192,123513,1,4,0:0:0:0:
256,192,123727,1,4,0:0:0:0:
256,192,123834,1,8,0:0:0:0:
256,192,123995,1,8,0:0:0:0:
256,192,124156,1,8,0:0:0:0:
256,192,124263,1,4,0:0:0:0:
256,192,124477,1,4,0:0:0:0:
256,192,124692,1,8,0:0:0:0:
256,192,124763,1,8,0:0:0:0:
256,192,124834,1,8,0:0:0:0:
256,192,124906,1,8,0:0:0:0:
256,192,125049,1,8,0:0:0:0:
256,192,125120,1,8,0:0:0:0:
256,192,125192,1,8,0:0:0:0:
256,192,125263,1,8,0:0:0:0:
256,192,125334,1,0,0:0:0:0:
256,192,125442,1,8,0:0:0:0:
256,192,125656,1,0,0:0:0:0:
256,192,125763,1,8,0:0:0:0:
256,192,125870,1,0,0:0:0:0:
256,192,126084,1,0,0:0:0:0:
256,192,126138,1,8,0:0:0:0:
256,192,126192,1,8,0:0:0:0:
256,192,126299,1,0,0:0:0:0:
256,192,126406,1,8,0:0:0:0:
256,192,126513,1,8,0:0:0:0:
256,192,126567,1,8,0:0:0:0:
256,192,126620,1,0,0:0:0:0:
256,192,126727,1,8,0:0:0:0:
256,192,126834,1,8,0:0:0:0:
256,192,126942,1,0,0:0:0:0:
256,192,127049,1,8,0:0:0:0:
256,192,127156,12,0,127477,0:0:0:0:
256,192,127692,5,4,0:0:0:0:
256,192,127906,1,8,0:0:0:0:
256,192,128013,1,8,0:0:0:0:
256,192,128067,1,8,0:0:0:0:
256,192,128120,1,0,0:0:0:0:
256,192,128227,1,0,0:0:0:0:
256,192,128334,1,8,0:0:0:0:
256,192,128442,1,0,0:0:0:0:
256,192,128656,1,0,0:0:0:0:
256,192,128763,1,8,0:0:0:0:
256,192,128870,1,0,0:0:0:0:
256,192,128977,1,8,0:0:0:0:
256,192,129031,1,8,0:0:0:0:
256,192,129084,1,0,0:0:0:0:
256,192,129138,1,0,0:0:0:0:
256,192,129192,1,8,0:0:0:0:
256,192,129299,1,8,0:0:0:0:
256,192,129513,1,4,0:0:0:0:
256,192,129727,1,8,0:0:0:0:
256,192,129834,1,4,0:0:0:0:
256,192,130049,1,8,0:0:0:0:
256,192,130156,1,4,0:0:0:0:
256,192,130370,1,8,0:0:0:0:
256,192,130477,1,4,0:0:0:0:
256,192,130692,1,0,0:0:0:0:
256,192,130799,1,0,0:0:0:0:
256,192,130906,1,8,0:0:0:0:
256,192,130959,1,8,0:0:0:0:
256,192,131013,1,8,0:0:0:0:
256,192,131067,1,8,0:0:0:0:
256,192,131120,1,8,0:0:0:0:
256,192,131334,1,12,0:0:0:0:
256,192,131549,1,0,0:0:0:0:
256,192,131656,1,8,0:0:0:0:
256,192,131763,1,0,0:0:0:0:
256,192,131870,1,0,0:0:0:0:
256,192,132084,1,8,0:0:0:0:
256,192,132192,1,0,0:0:0:0:
256,192,132299,1,8,0:0:0:0:
256,192,132406,1,0,0:0:0:0:
256,192,132513,1,8,0:0:0:0:
256,192,132567,1,8,0:0:0:0:
256,192,132620,1,8,0:0:0:0:
256,192,132727,1,8,0:0:0:0:
256,192,132834,1,0,0:0:0:0:
256,192,133049,1,8,0:0:0:0:
256,192,133156,1,8,0:0:0:0:
256,192,133209,1,8,0:0:0:0:
256,192,133263,1,0,0:0:0:0:
256,192,133370,1,8,0:0:0:0:
256,192,133477,1,0,0:0:0:0:
256,192,133584,1,0,0:0:0:0:
256,192,133799,1,8,0:0:0:0:
256,192,133906,1,0,0:0:0:0:
256,192,134013,1,8,0:0:0:0:
256,192,134120,1,0,0:0:0:0:
256,192,134227,1,0,0:0:0:0:
256,192,134281,1,0,0:0:0:0:
256,192,134334,1,8,0:0:0:0:
256,192,134442,1,8,0:0:0:0:
256,192,134549,1,0,0:0:0:0:
256,192,134763,1,8,0:0:0:0:
256,192,134870,1,8,0:0:0:0:
256,192,134977,1,0,0:0:0:0:
256,192,135084,1,8,0:0:0:0:
256,192,135138,1,8,0:0:0:0:
256,192,135192,1,0,0:0:0:0:
256,192,135299,1,0,0:0:0:0:
256,192,135513,1,8,0:0:0:0:
256,192,135620,1,0,0:0:0:0:
256,192,135727,1,8,0:0:0:0:
256,192,135834,1,0,0:0:0:0:
256,192,135942,1,8,0:0:0:0:
256,192,135995,1,8,0:0:0:0:
256,192,136049,1,8,0:0:0:0:
256,192,136156,1,8,0:0:0:0:
256,192,136263,1,0,0:0:0:0:
256,192,136477,1,8,0:0:0:0:
256,192,136584,1,8,0:0:0:0:
256,192,136638,1,8,0:0:0:0:
256,192,136692,1,0,0:0:0:0:
256,192,136799,1,8,0:0:0:0:
256,192,136906,1,0,0:0:0:0:
256,192,137013,1,0,0:0:0:0:
256,192,137067,1,8,0:0:0:0:
256,192,137120,1,0,0:0:0:0:
256,192,137334,1,4,0:0:0:0:
256,192,137442,1,4,0:0:0:0:
256,192,137656,1,4,0:0:0:0:
256,192,137870,1,4,0:0:0:0:
256,192,137977,1,4,0:0:0:0:
256,192,138192,1,8,0:0:0:0:
256,192,138406,1,4,0:0:0:0:
256,192,138513,1,8,0:0:0:0:
256,192,138727,1,8,0:0:0:0:
256,192,138834,1,4,0:0:0:0:
256,192,139156,1,8,0:0:0:0:
256,192,139263,1,4,0:0:0:0:
256,192,139477,1,8,0:0:0:0:
256,192,139584,1,8,0:0:0:0:
256,192,139692,1,4,0:0:0:0:
256,192,139906,1,8,0:0:0:0:
256,192,140120,1,4,0:0:0:0:
256,192,140227,1,8,0:0:0:0:
256,192,140442,1,8,0:0:0:0:
256,192,140549,1,4,0:0:0:0:
256,192,140763,1,0,0:0:0:0:
256,192,140870,1,8,0:0:0:0:
256,192,140977,1,4,0:0:0:0:
256,192,141192,1,8,0:0:0:0:
256,192,141406,1,0,0:0:0:0:
256,192,141513,1,0,0:0:0:0:
256,192,141567,1,0,0:0:0:0:
256,192,141620,1,8,0:0:0:0:
256,192,141727,1,0,0:0:0:0:
256,192,141834,1,8,0:0:0:0:
256,192,141888,1,8,0:0:0:0:
256,192,141942,1,0,0:0:0:0:
256,192,141995,1,0,0:0:0:0:
256,192,142263,1,0,0:0:0:0:
256,192,142370,1,8,0:0:0:0:
256,192,142424,1,8,0:0:0:0:
256,192,142477,1,8,0:0:0:0:
256,192,142584,1,0,0:0:0:0:
256,192,142692,1,8,0:0:0:0:
256,192,142745,1,8,0:0:0:0:
256,192,142799,1,0,0:0:0:0:
256,192,142852,1,0,0:0:0:0:
256,192,143120,1,0,0:0:0:0:
256,192,143227,1,8,0:0:0:0:
256,192,143281,1,8,0:0:0:0:
256,192,143334,1,8,0:0:0:0:
256,192,143442,1,0,0:0:0:0:
256,192,143549,1,8,0:0:0:0:
256,192,143602,1,8,0:0:0:0:
256,192,143656,1,0,0:0:0:0:
256,192,143709,1,0,0:0:0:0:
256,192,143763,1,8,0:0:0:0:
256,192,143870,1,4,0:0:0:0:
256,192,144084,1,8,0:0:0:0:
256,192,144192,1,4,0:0:0:0:
256,192,144406,1,8,0:0:0:0:
256,192,144513,1,4,0:0:0:0:
256,192,144727,1,8,0:0:0:0:
256,192,144834,1,4,0:0:0:0:
256,192,145049,1,0,0:0:0:0:
256,192,145156,1,8,0:0:0:0:
256,192,145477,1,0,0:0:0:0:
256,192,145692,1,0,0:0:0:0:
256,192,145799,1,8,0:0:0:0:
256,192,146013,1,8,0:0:0:0:
256,192,146120,1,0,0:0:0:0:
256,192,146334,1,0,0:0:0:0:
256,192,146549,1,4,0:0:0:0:
256,192,146763,1,0,0:0:0:0:
256,192,146870,1,8,0:0:0:0:
256,192,146977,1,8,0:0:0:0:
256,192,147192,1,8,0:0:0:0:
256,192,147406,1,8,0:0:0:0:
256,192,147513,1,8,0:0:0:0:
256,192,147620,1,8,0:0:0:0:
256,192,147727,1,0,0:0:0:0:
256,192,147834,1,8,0:0:0:0:
256,192,148263,1,4,0:0:0:0:
256,192,148477,1,0,0:0:0:0:
256,192,148584,1,0,0:0:0:0:
256,192,148692,1,8,0:0:0:0:
256,192,148799,1,8,0:0:0:0:
256,192,148906,1,0,0:0:0:0:
256,192,149013,1,8,0:0:0:0:
256,192,149067,1,8,0:0:0:0:
256,192,149120,1,8,0:0:0:0:
256,192,149227,1,8,0:0:0:0:
256,192,149334,1,0,0:0:0:0:
256,192,149442,1,8,0:0:0:0:
256,192,149495,1,8,0:0:0:0:
256,192,149549,1,0,0:0:0:0:
256,192,149656,1,0,0:0:0:0:
256,192,149763,1,8,0:0:0:0:
256,192,149977,1,0,0:0:0:0:
256,192,150084,1,8,0:0:0:0:
256,192,150192,1,0,0:0:0:0:
256,192,150299,1,0,0:0:0:0:
256,192,150406,1,8,0:0:0:0:
256,192,150513,1,8,0:0:0:0:
256,192,150620,1,0,0:0:0:0:
256,192,150727,1,8,0:0:0:0:
256,192,150781,1,8,0:0:0:0:
256,192,150834,1,0,0:0:0:0:
256,192,150888,1,0,0:0:0:0:
256,192,150942,1,8,0:0:0:0:
256,192,151049,1,0,0:0:0:0:
256,192,151156,1,8,0:0:0:0:
256,192,151370,1,8,0:0:0:0:
256,192,151477,1,0,0:0:0:0:
256,192,151531,1,0,0:0:0:0:
256,192,151584,1,8,0:0:0:0:
256,192,151692,1,0,0:0:0:0:
256,192,151906,1,0,0:0:0:0:
256,192,152013,1,8,0:0:0:0:
256,192,152120,1,0,0:0:0:0:
256,192,152227,1,0,0:0:0:0:
256,192,152334,1,0,0:0:0:0:
256,192,152442,1,8,0:0:0:0:
256,192,152495,1,8,0:0:0:0:
256,192,152549,1,8,0:0:0:0:
256,192,152656,1,8,0:0:0:0:
256,192,152763,1,0,0:0:0:0:
256,192,152870,1,8,0:0:0:0:
256,192,152924,1,8,0:0:0:0:
256,192,152977,1,0,0:0:0:0:
256,192,153084,1,0,0:0:0:0:
256,192,153192,1,8,0:0:0:0:
256,192,153406,1,8,0:0:0:0:
256,192,153513,1,0,0:0:0:0:
256,192,153567,1,0,0:0:0:0:
256,192,153620,1,8,0:0:0:0:
256,192,153727,1,0,0:0:0:0:
256,192,153834,1,8,0:0:0:0:
256,192,153888,1,8,0:0:0:0:
256,192,153942,1,0,0:0:0:0:
256,192,154049,1,0,0:0:0:0:
256,192,154156,1,8,0:0:0:0:
256,192,154370,1,0,0:0:0:0:
256,192,154477,1,0,0:0:0:0:
256,192,154584,1,8,0:0:0:0:
256,192,154799,1,0,0:0:0:0:
256,192,154906,1,8,0:0:0:0:
256,192,154959,1,8,0:0:0:0:
256,192,155013,1,0,0:0:0:0:
256,192,155334,1,8,0:0:0:0:
256,192,155442,1,8,0:0:0:0:
256,192,155495,1,8,0:0:0:0:
256,192,155549,1,8,0:0:0:0:
256,192,155656,1,8,0:0:0:0:
256,192,155763,1,0,0:0:0:0:
256,192,155870,1,0,0:0:0:0:
256,192,155924,1,0,0:0:0:0:
256,192,155977,1,8,0:0:0:0:
256,192,156084,1,8,0:0:0:0:
256,192,156192,1,0,0:0:0:0:
256,192,156299,1,8,0:0:0:0:
256,192,156352,1,8,0:0:0:0:
256,192,156406,1,0,0:0:0:0:
256,192,156513,1,0,0:0:0:0:
256,192,156620,1,8,0:0:0:0:
256,192,156834,1,8,0:0:0:0:
256,192,156942,1,8,0:0:0:0:
256,192,157049,1,0,0:0:0:0:
256,192,157156,1,0,0:0:0:0:
256,192,157209,1,0,0:0:0:0:
256,192,157263,1,8,0:0:0:0:
256,192,157370,1,8,0:0:0:0:
256,192,157477,1,0,0:0:0:0:
256,192,157531,1,0,0:0:0:0:
256,192,157584,1,8,0:0:0:0:
256,192,157638,1,8,0:0:0:0:
256,192,157692,1,0,0:0:0:0:
256,192,157799,1,0,0:0:0:0:
256,192,157906,1,8,0:0:0:0:
256,192,158013,1,8,0:0:0:0:
256,192,158120,1,0,0:0:0:0:
256,192,158227,1,0,0:0:0:0:
256,192,158334,1,8,0:0:0:0:
256,192,158549,1,0,0:0:0:0:
256,192,158602,1,0,0:0:0:0:
256,192,158656,1,0,0:0:0:0:
256,192,158763,1,8,0:0:0:0:
256,192,158870,1,0,0:0:0:0:
256,192,158924,1,0,0:0:0:0:
256,192,158977,1,0,0:0:0:0:
256,192,159084,1,8,0:0:0:0:
256,192,159192,1,0,0:0:0:0:
256,192,159406,1,8,0:0:0:0:
256,192,159459,1,8,0:0:0:0:
256,192,159513,1,0,0:0:0:0:
256,192,159620,1,8,0:0:0:0:
256,192,159727,1,8,0:0:0:0:
256,192,159781,1,8,0:0:0:0:
256,192,159834,1,0,0:0:0:0:
256,192,159942,1,8,0:0:0:0:
256,192,160049,1,0,0:0:0:0:
256,192,160263,1,8,0:0:0:0:
256,192,160317,1,8,0:0:0:0:
256,192,160370,1,8,0:0:0:0:
256,192,160477,1,0,0:0:0:0:
256,192,160584,1,8,0:0:0:0:
256,192,160638,1,8,0:0:0:0:
256,192,160692,1,8,0:0:0:0:
256,192,160799,1,0,0:0:0:0:
256,192,160906,1,8,0:0:0:0:
256,192,160959,1,8,0:0:0:0:
256,192,161013,1,0,0:0:0:0:
256,192,161067,1,0,0:0:0:0:
256,192,161227,1,8,0:0:0:0:
256,192,161334,1,8,0:0:0:0:
256,192,161442,1,8,0:0:0:0:
256,192,161549,1,0,0:0:0:0:
256,192,161763,1,8,0:0:0:0:
256,192,161977,1,4,0:0:0:0:
256,192,162084,12,0,168834,0:0:0:0:
256,192,169692,5,0,0:0:0:0:
256,192,169906,1,0,0:0:0:0:
256,192,170120,1,8,0:0:0:0:
256,192,170442,1,8,0:0:0:0:
256,192,170549,1,0,0:0:0:0:
256,192,170656,1,0,0:0:0:0:
256,192,170870,1,8,0:0:0:0:
256,192,170977,1,8,0:0:0:0:
256,192,171084,1,0,0:0:0:0:
256,192,171299,1,8,0:0:0:0:
256,192,171406,1,0,0:0:0:0:
256,192,171620,1,8,0:0:0:0:
256,192,171727,1,0,0:0:0:0:
256,192,171834,1,0,0:0:0:0:
256,192,171942,1,8,0:0:0:0:
256,192,172156,1,8,0:0:0:0:
256,192,172263,1,0,0:0:0:0:
256,192,172477,1,8,0:0:0:0:
256,192,172692,1,0,0:0:0:0:
256,192,172799,1,0,0:0:0:0:
256,192,172906,1,8,0:0:0:0:
256,192,173120,1,0,0:0:0:0:
256,192,173334,1,8,0:0:0:0:
256,192,173442,1,0,0:0:0:0:
256,192,173549,1,0,0:0:0:0:
256,192,173656,1,8,0:0:0:0:
256,192,173870,1,8,0:0:0:0:
256,192,173977,1,0,0:0:0:0:
256,192,174192,1,8,0:0:0:0:
256,192,174406,1,0,0:0:0:0:
256,192,174513,1,0,0:0:0:0:
256,192,174620,1,8,0:0:0:0:
256,192,174727,1,8,0:0:0:0:
256,192,174834,1,0,0:0:0:0:
256,192,174942,1,0,0:0:0:0:
256,192,175049,1,8,0:0:0:0:
256,192,175156,1,8,0:0:0:0:
256,192,175209,1,8,0:0:0:0:
256,192,175263,1,0,0:0:0:0:
256,192,175370,1,8,0:0:0:0:
256,192,175477,1,0,0:0:0:0:
256,192,175531,1,0,0:0:0:0:
256,192,175584,1,0,0:0:0:0:
256,192,175692,1,8,0:0:0:0:
