osu file format v14

[General]
AudioFilename: audio.mp3
AudioLeadIn: 0
PreviewTime: 57917
Countdown: 0
SampleSet: Normal
StackLeniency: 0.7
Mode: 1
LetterboxInBreaks: 0
WidescreenStoryboard: 1

[Editor]
Bookmarks: 15801
DistanceSpacing: 1.3
BeatDivisor: 8
GridSize: 32
TimelineZoom: 4.599998

[Metadata]
Title:smile was so beautiful
TitleUnicode:smile was so beautiful
Artist:Sorry about my face
ArtistUnicode:Sorry about my face
Creator:D3kuu
Version:muzukashii
Source:
Tags:electronic instrumental goheegy lime717 say me ambient breakcore depressive experimental genjuro
BeatmapID:2363954
BeatmapSetID:994721

[Difficulty]
HPDrainRate:6
CircleSize:5
OverallDifficulty:5
ApproachRate:5
SliderMultiplier:2.8
SliderTickRate:1

[Events]
//Background and Video events
0,0,"MOSHED-2020-3-24-4-54-55.jpg",0,-120
//Break Periods
//Storyboard Layer 0 (Background)
//Storyboard Layer 1 (Fail)
//Storyboard Layer 2 (Pass)
//Storyboard Layer 3 (Foreground)
//Storyboard Layer 4 (Overlay)
//Storyboard Sound Samples

[TimingPoints]
-6,461.538461538462,4,1,0,60,1,0
51,-125,4,1,0,60,0,0
29532,-125,4,1,0,80,0,0
44532,-125,4,1,0,60,0,0
59070,-125,4,1,0,80,0,1
88609,-125,4,1,0,80,0,0

[HitObjects]
256,192,13147,12,0,14647,0:0:0:0:
148,15,14763,5,0,0:0:0:0:
286,129,14994,1,0,0:0:0:0:
371,12,15224,1,8,0:0:0:0:
324,239,15455,1,0,0:0:0:0:
446,184,15686,1,8,0:0:0:0:
372,215,15801,1,0,0:0:0:0:
371,12,15917,1,0,0:0:0:0:
148,15,16147,1,0,0:0:0:0:
371,12,16609,5,8,0:0:0:0:
363,237,16840,1,0,0:0:0:0:
401,140,17070,1,8,0:0:0:0:
359,270,17301,1,0,0:0:0:0:
371,12,17532,1,8,0:0:0:0:
265,209,17647,1,0,0:0:0:0:
371,12,17763,1,0,0:0:0:0:
420,150,17994,1,8,0:0:0:0:
481,138,18455,1,8,0:0:0:0:
351,244,18686,1,0,0:0:0:0:
311,146,18917,1,8,0:0:0:0:
450,135,19147,1,0,0:0:0:0:
446,184,19378,1,8,0:0:0:0:
413,230,19494,1,0,0:0:0:0:
371,12,19609,1,0,0:0:0:0:
402,228,19840,1,8,0:0:0:0:
309,226,20070,1,0,0:0:0:0:
354,129,20301,1,8,0:0:0:0:
354,129,20532,1,8,0:0:0:0:
354,129,20647,1,0,0:0:0:0:
421,148,20763,1,8,0:0:0:0:
506,242,20994,1,0,0:0:0:0:
446,184,21224,1,8,0:0:0:0:
295,281,21340,1,0,0:0:0:0:
371,12,21455,1,0,0:0:0:0:
452,165,21686,1,0,0:0:0:0:
337,159,22147,1,0,0:0:0:0:
416,148,22378,1,8,0:0:0:0:
325,175,22494,1,0,0:0:0:0:
326,182,22609,1,8,0:0:0:0:
475,148,22840,1,0,0:0:0:0:
446,184,23070,1,8,0:0:0:0:
111,171,23186,1,0,0:0:0:0:
371,12,23301,1,0,0:0:0:0:
378,201,23359,1,0,0:0:0:0:
378,201,23417,1,0,0:0:0:0:
421,131,23532,1,8,0:0:0:0:
276,149,23647,1,0,0:0:0:0:
421,131,23763,1,8,0:0:0:0:
401,92,23994,1,8,0:0:0:0:
460,163,24455,1,8,0:0:0:0:
341,298,24686,1,0,0:0:0:0:
381,173,24917,1,8,0:0:0:0:
317,176,25147,1,0,0:0:0:0:
327,127,25378,1,8,0:0:0:0:
447,166,25609,1,0,0:0:0:0:
437,219,25840,1,0,0:0:0:0:
383,136,26301,1,0,0:0:0:0:
326,311,26532,1,0,0:0:0:0:
434,160,26763,1,8,0:0:0:0:
470,167,26994,1,0,0:0:0:0:
294,140,27224,1,0,0:0:0:0:
335,259,27340,1,8,0:0:0:0:
335,259,27455,1,8,0:0:0:0:
438,131,27686,1,0,0:0:0:0:
395,162,28147,1,8,0:0:0:0:
409,198,28378,1,0,0:0:0:0:
409,198,28494,1,0,0:0:0:0:
431,165,28609,1,8,0:0:0:0:
326,239,28840,1,0,0:0:0:0:
390,158,29070,1,8,0:0:0:0:
462,142,29532,1,0,0:0:0:0:
360,170,29763,1,0,0:0:0:0:
269,155,29878,1,8,0:0:0:0:
396,171,29994,1,0,0:0:0:0:
309,254,30109,1,0,0:0:0:0:
332,158,30224,1,8,0:0:0:0:
431,144,30340,1,8,0:0:0:0:
423,144,30455,1,0,0:0:0:0:
434,156,30686,1,8,0:0:0:0:
398,159,30917,1,8,0:0:0:0:
326,275,31032,1,0,0:0:0:0:
328,295,31147,1,0,0:0:0:0:
441,132,31378,1,8,0:0:0:0:
368,97,31609,5,0,0:0:0:0:
433,125,31724,1,0,0:0:0:0:
330,186,31840,1,8,0:0:0:0:
326,282,31955,1,0,0:0:0:0:
463,151,32070,1,0,0:0:0:0:
446,149,32186,1,8,0:0:0:0:
421,143,32301,1,8,0:0:0:0:
454,147,32532,1,0,0:0:0:0:
457,137,32763,1,0,0:0:0:0:
305,130,32820,1,0,0:0:0:0:
305,130,32878,1,0,0:0:0:0:
305,130,32994,1,0,0:0:0:0:
330,258,33109,1,0,0:0:0:0:
232,106,33224,1,8,0:0:0:0:
504,148,33455,1,0,0:0:0:0:
426,150,33570,1,0,0:0:0:0:
426,150,33686,1,8,0:0:0:0:
414,166,33917,1,0,0:0:0:0:
213,108,34032,5,8,0:0:0:0:
441,163,34147,1,8,0:0:0:0:
337,120,34263,1,8,0:0:0:0:
323,113,34378,1,0,0:0:0:0:
466,160,34609,1,8,0:0:0:0:
383,93,35070,1,8,0:0:0:0:
427,151,35301,1,8,0:0:0:0:
427,151,35417,1,0,0:0:0:0:
341,158,35532,1,8,0:0:0:0:
330,97,35647,1,8,0:0:0:0:
339,188,35763,1,0,0:0:0:0:
339,188,35878,1,8,0:0:0:0:
374,168,35994,1,8,0:0:0:0:
203,43,36109,1,0,0:0:0:0:
400,100,36224,5,0,0:0:0:0:
428,166,36455,1,0,0:0:0:0:
343,278,36513,1,0,0:0:0:0:
343,278,36570,1,0,0:0:0:0:
492,153,36686,1,0,0:0:0:0:
382,269,36801,1,8,0:0:0:0:
313,143,36917,1,0,0:0:0:0:
437,152,37147,1,0,0:0:0:0:
437,152,37263,1,0,0:0:0:0:
451,135,37378,1,8,0:0:0:0:
355,170,37609,1,0,0:0:0:0:
397,154,37724,1,8,0:0:0:0:
433,145,37840,1,8,0:0:0:0:
397,154,37955,1,0,0:0:0:0:
359,139,38070,1,0,0:0:0:0:
455,143,38128,1,0,0:0:0:0:
454,143,38186,1,0,0:0:0:0:
412,161,38301,1,8,0:0:0:0:
299,135,38532,1,0,0:0:0:0:
466,164,38647,1,0,0:0:0:0:
409,138,38763,1,8,0:0:0:0:
370,178,39224,1,8,0:0:0:0:
482,160,39340,1,0,0:0:0:0:
414,154,39455,1,8,0:0:0:0:
437,173,39570,1,8,0:0:0:0:
319,100,39686,5,0,0:0:0:0:
406,162,39917,1,0,0:0:0:0:
421,168,40032,1,0,0:0:0:0:
397,222,40147,1,8,0:0:0:0:
361,156,40378,1,0,0:0:0:0:
398,193,40609,1,8,0:0:0:0:
441,148,41070,1,8,0:0:0:0:
417,151,41301,1,0,0:0:0:0:
366,138,41532,1,8,0:0:0:0:
270,164,41590,1,8,0:0:0:0:
270,164,41647,1,8,0:0:0:0:
449,145,41763,1,8,0:0:0:0:
377,252,41878,1,8,0:0:0:0:
421,155,41994,1,0,0:0:0:0:
366,154,42224,1,8,0:0:0:0:
377,167,42455,1,0,0:0:0:0:
414,168,42686,1,8,0:0:0:0:
414,168,42801,1,8,0:0:0:0:
368,149,42917,1,0,0:0:0:0:
378,291,43147,1,0,0:0:0:0:
378,291,43263,1,0,0:0:0:0:
381,157,43378,1,8,0:0:0:0:
393,135,43494,1,0,0:0:0:0:
393,135,43609,1,0,0:0:0:0:
393,135,43724,1,0,0:0:0:0:
451,164,43840,1,8,0:0:0:0:
440,207,44070,1,8,0:0:0:0:
326,124,44186,1,8,0:0:0:0:
216,217,44301,1,0,0:0:0:0:
416,155,44763,1,8,0:0:0:0:
442,145,44994,1,8,0:0:0:0:
442,145,45224,1,8,0:0:0:0:
365,200,45686,1,8,0:0:0:0:
415,166,46147,1,0,0:0:0:0:
451,160,46609,1,0,0:0:0:0:
403,224,46840,1,0,0:0:0:0:
461,162,46955,1,8,0:0:0:0:
426,136,47070,1,0,0:0:0:0:
401,148,47532,1,8,0:0:0:0:
317,178,47590,1,8,0:0:0:0:
317,178,47647,1,8,0:0:0:0:
388,138,47763,1,0,0:0:0:0:
388,138,47878,1,0,0:0:0:0:
351,108,47994,1,8,0:0:0:0:
426,164,48455,1,8,0:0:0:0:
367,147,48917,1,0,0:0:0:0:
403,160,49378,1,8,0:0:0:0:
461,178,49494,1,8,0:0:0:0:
444,149,49609,1,0,0:0:0:0:
435,163,49840,1,8,0:0:0:0:
473,158,50070,1,8,0:0:0:0:
421,112,50301,1,0,0:0:0:0:
343,207,50532,1,0,0:0:0:0:
466,144,50763,1,8,0:0:0:0:
409,146,51224,5,8,0:0:0:0:
434,139,51455,1,0,0:0:0:0:
289,171,51686,1,0,0:0:0:0:
419,203,52147,1,8,0:0:0:0:
480,158,52263,1,0,0:0:0:0:
480,158,52378,1,8,0:0:0:0:
449,107,52609,1,0,0:0:0:0:
456,138,53070,1,8,0:0:0:0:
366,147,53301,1,0,0:0:0:0:
421,122,53532,1,8,0:0:0:0:
430,150,53994,1,8,0:0:0:0:
454,167,54224,1,0,0:0:0:0:
451,141,54340,1,8,0:0:0:0:
431,158,54455,1,0,0:0:0:0:
466,237,54686,1,8,0:0:0:0:
403,168,54917,1,0,0:0:0:0:
456,153,55147,1,8,0:0:0:0:
456,153,55263,1,8,0:0:0:0:
376,159,55378,1,0,0:0:0:0:
454,168,55840,1,8,0:0:0:0:
416,150,56070,1,0,0:0:0:0:
466,171,56301,1,8,0:0:0:0:
393,203,56763,1,8,0:0:0:0:
475,151,57224,1,8,0:0:0:0:
436,129,57455,1,0,0:0:0:0:
436,129,57570,1,0,0:0:0:0:
213,182,57686,5,8,0:0:0:0:
446,230,57917,1,0,0:0:0:0:
476,166,58147,1,8,0:0:0:0:
174,164,58609,1,8,0:0:0:0:
446,147,59070,1,0,0:0:0:0:
199,98,59128,1,0,0:0:0:0:
199,98,59186,1,0,0:0:0:0:
388,178,59301,1,8,0:0:0:0:
435,165,59416,1,0,0:0:0:0:
436,133,59532,1,8,0:0:0:0:
428,151,59647,1,8,0:0:0:0:
428,151,59705,1,8,0:0:0:0:
428,151,59763,1,8,0:0:0:0:
472,118,59878,1,0,0:0:0:0:
499,145,59993,1,8,0:0:0:0:
473,139,60108,1,8,0:0:0:0:
237,109,60224,1,0,0:0:0:0:
415,151,60455,1,0,0:0:0:0:
371,152,60570,1,8,0:0:0:0:
268,69,60686,1,8,0:0:0:0:
426,157,60917,1,0,0:0:0:0:
377,246,61032,1,8,0:0:0:0:
330,186,61147,1,8,0:0:0:0:
375,135,61205,1,8,0:0:0:0:
463,151,61262,1,8,0:0:0:0:
239,38,61378,1,0,0:0:0:0:
446,149,61494,1,8,0:0:0:0:
496,146,61724,1,8,0:0:0:0:
454,147,61840,1,8,0:0:0:0:
328,213,61955,1,0,0:0:0:0:
214,171,62070,1,0,0:0:0:0:
398,169,62301,1,8,0:0:0:0:
504,148,62763,1,8,0:0:0:0:
426,150,62994,1,0,0:0:0:0:
438,165,63109,1,0,0:0:0:0:
436,149,63224,1,8,0:0:0:0:
457,157,63340,1,8,0:0:0:0:
441,163,63455,1,0,0:0:0:0:
341,60,63513,1,0,0:0:0:0:
419,172,63570,1,0,0:0:0:0:
361,125,63686,1,8,0:0:0:0:
406,227,63801,1,8,0:0:0:0:
216,155,63917,1,0,0:0:0:0:
423,168,63974,1,0,0:0:0:0:
423,168,64032,1,0,0:0:0:0:
263,125,64147,1,8,0:0:0:0:
185,188,64378,1,0,0:0:0:0:
427,151,64608,1,8,0:0:0:0:
427,151,64724,1,8,0:0:0:0:
301,148,64782,1,8,0:0:0:0:
409,153,64840,1,8,0:0:0:0:
339,188,64955,1,0,0:0:0:0:
339,188,65070,1,8,0:0:0:0:
374,168,65301,1,0,0:0:0:0:
400,100,65532,5,8,0:0:0:0:
428,166,65763,1,0,0:0:0:0:
348,263,65820,1,0,0:0:0:0:
428,166,65878,1,0,0:0:0:0:
492,153,65994,1,8,0:0:0:0:
313,143,66224,1,8,0:0:0:0:
403,140,66282,1,8,0:0:0:0:
403,135,66340,1,8,0:0:0:0:
268,140,66455,1,0,0:0:0:0:
303,135,66917,1,8,0:0:0:0:
259,125,67032,1,8,0:0:0:0:
311,117,67147,1,0,0:0:0:0:
225,52,67205,1,0,0:0:0:0:
225,52,67263,1,0,0:0:0:0:
359,139,67378,1,0,0:0:0:0:
135,168,67609,1,0,0:0:0:0:
346,155,67724,1,8,0:0:0:0:
410,156,67840,1,0,0:0:0:0:
309,200,67897,1,0,0:0:0:0:
309,200,67955,1,0,0:0:0:0:
466,164,68070,1,8,0:0:0:0:
301,211,68186,1,0,0:0:0:0:
453,99,68301,1,8,0:0:0:0:
289,169,68532,1,0,0:0:0:0:
345,188,68647,1,8,0:0:0:0:
312,168,68763,1,0,0:0:0:0:
369,208,68878,1,0,0:0:0:0:
347,147,68994,1,0,0:0:0:0:
397,222,69224,1,8,0:0:0:0:
427,187,69455,1,8,0:0:0:0:
377,224,69570,1,8,0:0:0:0:
361,156,69685,1,0,0:0:0:0:
388,216,69801,1,0,0:0:0:0:
398,193,69916,1,8,0:0:0:0:
462,142,70147,1,0,0:0:0:0:
462,142,70263,1,0,0:0:0:0:
441,148,70378,1,8,0:0:0:0:
299,150,70436,1,8,0:0:0:0:
299,150,70494,1,8,0:0:0:0:
417,151,70609,1,8,0:0:0:0:
286,163,71070,1,8,0:0:0:0:
349,205,71128,1,8,0:0:0:0:
377,252,71186,1,8,0:0:0:0:
421,155,71301,1,0,0:0:0:0:
484,144,71417,1,8,0:0:0:0:
393,121,71532,1,0,0:0:0:0:
387,155,71763,1,8,0:0:0:0:
348,251,71820,1,8,0:0:0:0:
348,251,71878,1,8,0:0:0:0:
377,147,71994,1,0,0:0:0:0:
387,155,72224,1,0,0:0:0:0:
387,155,72282,1,0,0:0:0:0:
387,155,72340,1,0,0:0:0:0:
378,291,72455,1,8,0:0:0:0:
406,168,72686,1,8,0:0:0:0:
393,135,72917,1,8,0:0:0:0:
416,151,73032,1,8,0:0:0:0:
461,157,73147,1,0,0:0:0:0:
291,179,73378,1,0,0:0:0:0:
435,165,73840,1,8,0:0:0:0:
361,173,74070,1,8,0:0:0:0:
435,165,74301,1,0,0:0:0:0:
450,178,74417,5,0,0:0:0:0:
448,178,74474,1,0,0:0:0:0:
276,160,74532,1,0,0:0:0:0:
423,144,74763,1,8,0:0:0:0:
408,133,74994,1,8,0:0:0:0:
473,139,75109,1,0,0:0:0:0:
465,133,75224,1,8,0:0:0:0:
297,151,75455,1,0,0:0:0:0:
423,144,75513,1,0,0:0:0:0:
427,138,75570,1,0,0:0:0:0:
441,132,75686,1,8,0:0:0:0:
426,157,75917,1,0,0:0:0:0:
440,177,76378,1,0,0:0:0:0:
266,164,76494,1,0,0:0:0:0:
421,143,76609,1,8,0:0:0:0:
454,147,76840,1,0,0:0:0:0:
287,200,76955,1,0,0:0:0:0:
457,137,77070,1,8,0:0:0:0:
400,246,77186,1,0,0:0:0:0:
278,145,77301,1,8,0:0:0:0:
232,106,77532,1,8,0:0:0:0:
493,160,77763,1,8,0:0:0:0:
299,151,77994,1,0,0:0:0:0:
338,158,78109,1,8,0:0:0:0:
342,133,78340,1,8,0:0:0:0:
441,163,78455,1,0,0:0:0:0:
361,125,78686,1,0,0:0:0:0:
466,160,78917,1,8,0:0:0:0:
364,154,78974,1,8,0:0:0:0:
364,154,79032,1,8,0:0:0:0:
412,122,79147,1,0,0:0:0:0:
383,93,79378,1,8,0:0:0:0:
341,158,79840,1,0,0:0:0:0:
355,141,79955,1,0,0:0:0:0:
339,188,80070,1,0,0:0:0:0:
237,163,80128,1,0,0:0:0:0:
237,163,80186,1,0,0:0:0:0:
374,168,80301,1,8,0:0:0:0:
345,258,80359,1,8,0:0:0:0:
345,258,80417,1,8,0:0:0:0:
358,177,80532,1,0,0:0:0:0:
329,184,80763,1,0,0:0:0:0:
492,153,80994,1,8,0:0:0:0:
313,143,81224,1,0,0:0:0:0:
399,237,81340,1,0,0:0:0:0:
341,135,81397,1,0,0:0:0:0:
254,174,81455,1,0,0:0:0:0:
451,135,81686,1,8,0:0:0:0:
258,91,81801,1,8,0:0:0:0:
355,170,81917,1,0,0:0:0:0:
397,154,82032,1,8,0:0:0:0:
433,145,82147,1,8,0:0:0:0:
359,139,82378,1,0,0:0:0:0:
450,173,82609,1,8,0:0:0:0:
391,142,82840,1,0,0:0:0:0:
391,142,82897,1,0,0:0:0:0:
391,142,82955,1,0,0:0:0:0:
376,128,83070,1,8,0:0:0:0:
303,121,83301,1,0,0:0:0:0:
342,160,83532,1,8,0:0:0:0:
409,153,83994,1,8,0:0:0:0:
397,222,84224,1,0,0:0:0:0:
427,187,84455,1,0,0:0:0:0:
369,141,84513,1,0,0:0:0:0:
369,141,84570,1,0,0:0:0:0:
448,176,84686,1,8,0:0:0:0:
452,143,84801,5,0,0:0:0:0:
398,193,84916,1,8,0:0:0:0:
386,185,85147,1,8,0:0:0:0:
430,149,85205,1,8,0:0:0:0:
430,149,85263,1,8,0:0:0:0:
441,148,85378,1,8,0:0:0:0:
319,240,85494,1,0,0:0:0:0:
355,140,85551,1,0,0:0:0:0:
417,151,85609,1,0,0:0:0:0:
417,151,85724,1,0,0:0:0:0:
461,141,85840,1,8,0:0:0:0:
430,136,86070,1,0,0:0:0:0:
421,155,86301,1,8,0:0:0:0:
372,152,86532,1,8,0:0:0:0:
377,167,86763,1,0,0:0:0:0:
441,155,86994,5,8,0:0:0:0:
441,155,87109,1,8,0:0:0:0:
368,149,87224,1,8,0:0:0:0:
378,291,87455,1,0,0:0:0:0:
312,131,87513,1,0,0:0:0:0:
184,151,87570,1,0,0:0:0:0:
384,221,87686,1,8,0:0:0:0:
393,135,87917,1,0,0:0:0:0:
451,164,88147,1,8,0:0:0:0:
320,118,88378,1,8,0:0:0:0:
408,117,88436,1,8,0:0:0:0:
326,157,88494,1,8,0:0:0:0:
197,156,88609,1,0,0:0:0:0:
