osu file format v14

[General]
AudioFilename: audio.mp3
AudioLeadIn: 0
PreviewTime: 57917
Countdown: 0
SampleSet: Normal
StackLeniency: 0.7
Mode: 1
LetterboxInBreaks: 0
WidescreenStoryboard: 0

[Editor]
Bookmarks: 15801
DistanceSpacing: 1.3
BeatDivisor: 12
GridSize: 32
TimelineZoom: 4.599998

[Metadata]
Title:smile was so beautiful
TitleUnicode:smile was so beautiful
Artist:Sorry about my face
ArtistUnicode:Sorry about my face
Creator:D3kuu
Version:heartbeat
Source:
Tags:electronic instrumental goheegy lime717 say me ambient breakcore depressive experimental genjuro
BeatmapID:2079973
BeatmapSetID:994721

[Difficulty]
HPDrainRate:6
CircleSize:5
OverallDifficulty:6.5
ApproachRate:5
SliderMultiplier:2.8
SliderTickRate:1

[Events]
//Background and Video events
0,0,"MOSHED-2020-3-24-4-54-55.jpg",0,-120
//Break Periods
//Storyboard Layer 0 (Background)
//Storyboard Layer 1 (Fail)
//Storyboard Layer 2 (Pass)
//Storyboard Layer 3 (Foreground)
//Storyboard Layer 4 (Overlay)
//Storyboard Sound Samples

[TimingPoints]
-6,461.538461538462,4,1,0,60,1,0
51,-200,4,1,0,60,0,0
14763,-142.857142857143,4,1,0,60,0,0
14994,-142.05191145052,4,1,0,60,0,0
15109,-141.652690267894,4,1,0,60,0,0
15224,-141.255507199087,4,1,0,60,0,0
15455,-140.468180445425,4,1,0,60,0,0
15570,-140.077799209681,4,1,0,60,0,0
15686,-139.689581811299,4,1,0,60,0,0
15801,-139.303510309156,4,1,0,60,0,0
15917,-138.919566959926,4,1,0,60,0,0
16147,-138.15780384355,4,1,0,60,0,0
16378,-137.404538197088,4,1,0,60,0,0
16609,-136.659441937503,4,1,0,60,0,0
16840,-135.922382882479,4,1,0,60,0,0
16955,-135.556826777353,4,1,0,60,0,0
17070,-135.193048914197,4,1,0,60,0,0
17301,-134.471680936353,4,1,0,60,0,0
17417,-134.11387609219,4,1,0,60,0,0
17532,-133.757970303055,4,1,0,60,0,0
17647,-133.403948490067,4,1,0,60,0,0
17763,-133.051795733561,4,1,0,60,0,0
17994,-132.352863321845,4,1,0,60,0,0
18224,-131.661408987734,4,1,0,60,0,0
18340,-131.318384048493,4,1,0,60,0,0
18397,-131.147540983607,4,1,0,60,0,0
18455,-130.977141869201,4,1,0,60,0,0
18686,-130.299950486019,4,1,0,60,0,0
18801,-129.963973986411,4,1,0,60,0,0
18917,-129.629557613209,4,1,0,60,0,0
19147,-128.966194091543,4,1,0,60,0,0
19263,-128.637051844591,4,1,0,60,0,0
19378,-128.309585367575,4,1,0,60,0,0
19494,-127.983781895158,4,1,0,60,0,0
19609,-127.659628791331,4,1,0,60,0,0
19840,-127.016062451258,4,1,0,60,0,0
20070,-126.379112060359,4,1,0,60,0,0
20301,-125.748518053715,4,1,0,60,0,0
20417,-125.435575034307,4,1,0,60,0,0
20532,-125.124185754361,4,1,0,60,0,0
20647,-124.814338671227,4,1,0,60,0,0
20763,-124.505867338998,4,1,0,60,0,0
20994,-123.893783381631,4,1,0,60,0,0
21109,-123.589992671113,4,1,0,60,0,0
21224,-123.287688121601,4,1,0,60,0,0
21340,-122.986858854131,4,1,0,60,0,0
21455,-122.687494095664,4,1,0,60,0,0
21686,-122.092966468388,4,1,0,60,0,0
21917,-121.504320693644,4,1,0,60,0,0
22147,-120.921323749915,4,1,0,60,0,0
22378,-120.343894713533,4,1,0,60,0,0
22494,-120.057099156359,4,1,0,60,0,0
22609,-119.771810746166,4,1,0,60,0,0
22840,-119.205282224466,4,1,0,60,0,0
22955,-118.92402300942,4,1,0,60,0,0
23070,-118.644087905778,4,1,0,60,0,0
23186,-118.365467585025,4,1,0,60,0,0
23301,-118.08815280607,4,1,0,60,0,0
23359,-117.949982130578,4,1,0,60,0,0
23417,-117.811995617394,4,1,0,60,0,0
23474,-117.674470053024,4,1,0,60,0,0
23532,-117.537265189928,4,1,0,60,0,0
23647,-117.263813090863,4,1,0,60,0,0
23763,-116.99163041876,4,1,0,60,0,0
23994,-116.451038161005,4,1,0,60,0,0
24224,-115.915418837183,4,1,0,60,0,0
24340,-115.649318883336,4,1,0,60,0,0
24455,-115.384571005934,4,1,0,60,0,0
24686,-114.858695090365,4,1,0,60,0,0
24801,-114.597550591954,4,1,0,60,0,0
24917,-114.337590884093,4,1,0,60,0,0
25032,-114.078807922089,4,1,0,60,0,0
25147,-113.821193733916,4,1,0,60,0,0
25378,-113.30931175924,4,1,0,60,0,0
25609,-112.802140533419,4,1,0,60,0,0
25840,-112.299489261923,4,1,0,60,0,0
26070,-111.801297789465,4,1,0,60,0,0
26186,-111.553731528096,4,1,0,60,0,0
26244,-111.430421173563,4,1,0,60,0,0
26301,-111.30738313003,4,1,0,60,0,0
26532,-110.817936104594,4,1,0,60,0,0
26647,-110.574823218501,4,1,0,60,0,0
26763,-110.332774681718,4,1,0,60,0,0
26878,-110.091783519921,4,1,0,60,0,0
26994,-109.851842819589,4,1,0,60,0,0
27224,-109.374965820323,4,1,0,60,0,0
27340,-109.138136138911,4,1,0,60,0,0
27455,-108.902329856445,4,1,0,60,0,0
27570,-108.667540353691,4,1,0,60,0,0
27686,-108.433761068376,4,1,0,60,0,0
27801,-108.200985494576,4,1,0,60,0,0
27917,-107.969207182112,4,1,0,60,0,0
28147,-107.508501234735,4,1,0,60,0,0
28263,-107.27967704526,4,1,0,60,0,0
28378,-107.051824858932,4,1,0,60,0,0
28494,-106.824938495542,4,1,0,60,0,0
28551,-106.711855580443,4,1,0,60,0,0
28609,-106.59901182716,4,1,0,60,0,0
28724,-106.374038777592,4,1,0,60,0,0
28840,-106.150013321827,4,1,0,60,0,0
29070,-105.704669609485,4,1,0,60,0,0
29301,-105.263157894737,4,1,0,60,0,0
29532,-100,4,1,0,80,0,0
44301,-100,4,1,0,60,0,0
44532,-100.345892290726,4,1,0,60,0,0
44763,-100.694185716328,4,1,0,60,0,0
44994,-101.044905366394,4,1,0,60,0,0
45224,-101.398076681282,4,1,0,60,0,0
45455,-101.753725458273,4,1,0,60,0,0
45570,-101.932539007034,4,1,0,60,0,0
45686,-102.111877857856,4,1,0,60,0,0
45917,-102.472560410136,4,1,0,60,0,0
46147,-102.83580002139,4,1,0,60,0,0
46378,-103.201623980755,4,1,0,60,0,0
46609,-103.570059967065,4,1,0,60,0,0
46840,-103.941136055829,4,1,0,60,0,0
46955,-104.127727235336,4,1,0,60,0,0
47070,-104.314880726365,4,1,0,60,0,0
47186,-104.502817395957,4,1,0,60,0,0
47301,-104.691322869087,4,1,0,60,0,0
47532,-105.070602191142,4,1,0,60,0,0
47590,-105.165741208144,4,1,0,60,0,0
47647,-105.261163472692,4,1,0,60,0,0
47705,-105.356759057521,4,1,0,60,0,0
47763,-105.452528435274,4,1,0,60,0,0
47820,-105.548360675636,4,1,0,60,0,0
47878,-105.644478861068,4,1,0,60,0,0
47936,-105.740772267156,4,1,0,60,0,0
47994,-105.837241373471,4,1,0,60,0,0
48224,-106.224771616741,4,1,0,60,0,0
48455,-106.615150226077,4,1,0,60,0,0
48686,-107.008408720757,4,1,0,60,0,0
48917,-107.404579086825,4,1,0,60,0,0
49032,-107.603708454208,4,1,0,60,0,0
49147,-107.803693785764,4,1,0,60,0,0
49378,-108.205785763365,4,1,0,60,0,0
49494,-108.407899900482,4,1,0,60,0,0
49609,-108.61088845879,4,1,0,60,0,0
49724,-108.882646283835,4,1,0,60,0,0
49840,-109.019035813843,4,1,0,60,0,0
50070,-109.430262282453,4,1,0,60,0,0
50186,-109.636980992237,4,1,0,60,0,0
50301,-109.844602840362,4,1,0,60,0,0
50359,-109.948708927285,4,1,0,60,0,0
50532,-110.262092995049,4,1,0,60,0,0
50590,-110.366992322872,4,1,0,60,0,0
50763,-110.682768795871,4,1,0,60,0,0
50994,-111.106666844437,4,1,0,60,0,0
51224,-111.533824305228,4,1,0,60,0,0
51455,-111.964278916454,4,1,0,60,0,0
51686,-112.398069001175,4,1,0,60,0,0
51801,-112.616290396871,4,1,0,60,0,0
51917,-112.835233478665,4,1,0,60,0,0
52147,-113.275811876063,4,1,0,60,0,0
52263,-113.497458224423,4,1,0,60,0,0
52378,-113.719844340277,4,1,0,60,0,0
52609,-114.167371650187,4,1,0,60,0,0
52840,-114.618435229122,4,1,0,60,0,0
52955,-114.845372190882,4,1,0,60,0,0
53070,-115.073077157649,4,1,0,60,0,0
53301,-115.531340186652,4,1,0,60,0,0
53417,-115.838882015782,4,1,0,60,0,0
53532,-115.993402295277,4,1,0,60,0,0
53763,-116.459039608884,4,1,0,60,0,0
53994,-116.928430446292,4,1,0,60,0,0
54109,-117.164479010569,4,1,0,60,0,0
54224,-117.401620377164,4,1,0,60,0,0
54340,-117.639585249878,4,1,0,60,0,0
54455,-117.87865571181,4,1,0,60,0,0
54686,-118.359583516298,4,1,0,60,0,0
54917,-118.844451627931,4,1,0,60,0,0
55147,-119.333308671116,4,1,0,60,0,0
55263,-119.579176960441,4,1,0,60,0,0
55378,-119.826204073612,4,1,0,60,0,0
55609,-120.323188083191,4,1,0,60,0,0
55724,-120.656807396745,4,1,0,60,0,0
55840,-120.82431178472,4,1,0,60,0,0
56070,-121.329627117657,4,1,0,60,0,0
56301,-121.839186894002,4,1,0,60,0,0
56532,-122.353044816697,4,1,0,60,0,0
56763,-122.871255498489,4,1,0,60,0,0
56994,-123.393874481283,4,1,0,60,0,0
57224,-123.920958255986,4,1,0,60,0,0
57455,-124.452564282861,4,1,0,60,0,0
57570,-124.720159142923,4,1,0,60,0,0
57686,-124.988751012409,4,1,0,60,0,0
57917,-111.111111111111,4,1,0,60,0,0
58032,-109.89010989011,4,1,0,60,0,0
58147,-108.695652173913,4,1,0,60,0,0
58263,-107.52688172043,4,1,0,60,0,0
58378,-106.382978723404,4,1,0,80,0,0
58436,-105.820105820106,4,1,0,80,0,0
58494,-105.263157894737,4,1,0,80,0,0
58551,-104.712041884817,4,1,0,80,0,0
58609,-104.166666666667,4,1,0,80,0,0
58667,-103.626943005181,4,1,0,80,0,0
58724,-103.092783505155,4,1,0,80,0,0
58782,-102.564102564103,4,1,0,80,0,0
58840,-102.040816326531,4,1,0,80,0,0
58897,-101.522842639594,4,1,0,80,0,0
58955,-101.010101010101,4,1,0,80,0,0
58994,-100.671174721871,4,1,0,80,0,0
59032,-100.334414603875,4,1,0,80,0,0
59070,-100,4,1,0,80,0,1
88609,-100,4,1,0,80,0,0

[HitObjects]
256,192,13147,12,0,14647,0:0:0:0:
148,15,14763,5,0,0:0:0:0:
148,15,14994,1,8,0:0:0:0:
148,15,15109,1,0,0:0:0:0:
371,12,15224,1,8,0:0:0:0:
148,15,15455,1,0,0:0:0:0:
492,167,15570,1,8,0:0:0:0:
446,184,15686,1,8,0:0:0:0:
372,215,15801,1,0,0:0:0:0:
371,12,15917,1,0,0:0:0:0:
148,15,16147,1,0,0:0:0:0:
371,12,16378,1,8,0:0:0:0:
371,12,16609,5,8,0:0:0:0:
148,19,16840,1,0,0:0:0:0:
236,133,16955,1,0,0:0:0:0:
401,140,17070,1,8,0:0:0:0:
339,148,17301,1,0,0:0:0:0:
265,209,17417,1,0,0:0:0:0:
371,12,17532,1,8,0:0:0:0:
265,209,17647,1,0,0:0:0:0:
371,12,17763,1,0,0:0:0:0:
420,150,17994,1,8,0:0:0:0:
431,163,18224,1,0,0:0:0:0:
272,202,18340,1,0,0:0:0:0:
272,202,18397,1,0,0:0:0:0:
481,138,18455,1,8,0:0:0:0:
311,146,18686,1,8,0:0:0:0:
311,146,18801,1,0,0:0:0:0:
311,146,18917,1,8,0:0:0:0:
450,135,19147,1,0,0:0:0:0:
471,171,19263,1,8,0:0:0:0:
446,184,19378,1,8,0:0:0:0:
413,230,19494,1,0,0:0:0:0:
371,12,19609,1,0,0:0:0:0:
402,228,19840,1,8,0:0:0:0:
403,157,20070,1,0,0:0:0:0:
354,129,20301,1,8,0:0:0:0:
354,129,20417,1,0,0:0:0:0:
354,129,20532,1,8,0:0:0:0:
354,129,20647,1,0,0:0:0:0:
421,148,20763,1,8,0:0:0:0:
506,242,20994,1,0,0:0:0:0:
445,248,21109,1,0,0:0:0:0:
446,184,21224,1,8,0:0:0:0:
295,281,21340,1,0,0:0:0:0:
371,12,21455,1,0,0:0:0:0:
452,165,21686,1,0,0:0:0:0:
366,138,21917,1,8,0:0:0:0:
337,159,22147,1,0,0:0:0:0:
416,148,22378,1,8,0:0:0:0:
325,175,22494,1,0,0:0:0:0:
326,182,22609,1,8,0:0:0:0:
475,148,22840,1,0,0:0:0:0:
349,268,22955,1,0,0:0:0:0:
446,184,23070,1,8,0:0:0:0:
405,127,23186,1,0,0:0:0:0:
371,12,23301,1,0,0:0:0:0:
378,201,23359,1,0,0:0:0:0:
378,201,23417,1,0,0:0:0:0:
378,201,23474,1,0,0:0:0:0:
421,131,23532,1,8,0:0:0:0:
276,149,23647,1,0,0:0:0:0:
421,131,23763,1,8,0:0:0:0:
401,92,23994,1,8,0:0:0:0:
437,132,24224,1,8,0:0:0:0:
437,132,24340,1,0,0:0:0:0:
460,163,24455,1,8,0:0:0:0:
254,180,24686,1,0,0:0:0:0:
254,180,24801,1,0,0:0:0:0:
381,173,24917,1,8,0:0:0:0:
276,188,25032,1,0,0:0:0:0:
317,176,25147,1,0,0:0:0:0:
327,127,25378,1,8,0:0:0:0:
447,166,25609,1,0,0:0:0:0:
437,219,25840,1,0,0:0:0:0:
440,138,26070,1,8,0:0:0:0:
440,138,26186,1,8,0:0:0:0:
440,138,26244,1,8,0:0:0:0:
383,136,26301,1,0,0:0:0:0:
461,212,26532,1,0,0:0:0:0:
367,140,26647,1,8,0:0:0:0:
434,160,26763,1,8,0:0:0:0:
330,196,26878,1,0,0:0:0:0:
470,167,26994,1,0,0:0:0:0:
294,140,27224,1,0,0:0:0:0:
335,259,27340,1,8,0:0:0:0:
335,259,27455,1,8,0:0:0:0:
335,259,27570,1,8,0:0:0:0:
438,131,27686,1,0,0:0:0:0:
302,157,27801,1,0,0:0:0:0:
431,136,27917,1,8,0:0:0:0:
395,162,28147,1,8,0:0:0:0:
409,198,28263,1,0,0:0:0:0:
409,198,28378,1,0,0:0:0:0:
409,198,28494,1,0,0:0:0:0:
178,128,28551,1,0,0:0:0:0:
431,165,28609,1,8,0:0:0:0:
338,180,28724,1,0,0:0:0:0:
449,127,28840,1,0,0:0:0:0:
390,158,29070,1,8,0:0:0:0:
366,228,29301,1,8,0:0:0:0:
462,142,29532,1,0,0:0:0:0:
397,99,29647,1,8,0:0:0:0:
164,88,29705,1,8,0:0:0:0:
360,170,29763,1,0,0:0:0:0:
269,155,29878,1,8,0:0:0:0:
396,171,29994,1,0,0:0:0:0:
474,156,30109,1,8,0:0:0:0:
419,147,30167,1,0,0:0:0:0:
332,158,30224,1,8,0:0:0:0:
431,144,30340,1,8,0:0:0:0:
429,101,30397,1,8,0:0:0:0:
423,144,30455,1,0,0:0:0:0:
414,126,30513,1,8,0:0:0:0:
270,115,30570,1,0,0:0:0:0:
474,156,30628,1,0,0:0:0:0:
434,156,30686,1,8,0:0:0:0:
418,152,30801,1,0,0:0:0:0:
465,133,30917,1,8,0:0:0:0:
248,102,31032,1,8,0:0:0:0:
415,151,31147,1,0,0:0:0:0:
184,152,31205,1,8,0:0:0:0:
184,152,31263,1,0,0:0:0:0:
441,132,31378,1,0,0:0:0:0:
261,113,31494,1,8,0:0:0:0:
372,149,31609,1,8,0:0:0:0:
308,170,31667,1,8,0:0:0:0:
377,246,31724,1,0,0:0:0:0:
330,186,31840,1,8,0:0:0:0:
319,213,31897,1,0,0:0:0:0:
463,151,31955,1,8,0:0:0:0:
463,151,32013,1,8,0:0:0:0:
463,151,32070,1,0,0:0:0:0:
446,149,32186,1,8,0:0:0:0:
292,151,32244,1,0,0:0:0:0:
421,143,32301,1,8,0:0:0:0:
496,146,32417,1,0,0:0:0:0:
200,67,32474,1,0,0:0:0:0:
454,147,32532,1,0,0:0:0:0:
328,213,32647,1,0,0:0:0:0:
457,137,32763,1,0,0:0:0:0:
317,277,32820,1,0,0:0:0:0:
367,237,32878,1,8,0:0:0:0:
279,124,32936,1,8,0:0:0:0:
398,169,32994,1,0,0:0:0:0:
443,159,33051,1,8,0:0:0:0:
314,188,33109,1,0,0:0:0:0:
395,161,33167,1,0,0:0:0:0:
232,106,33224,1,8,0:0:0:0:
481,136,33340,1,8,0:0:0:0:
480,136,33397,1,8,0:0:0:0:
504,148,33455,1,0,0:0:0:0:
426,150,33570,1,0,0:0:0:0:
421,138,33628,1,0,0:0:0:0:
426,150,33686,1,8,0:0:0:0:
414,166,33917,1,0,0:0:0:0:
213,108,34032,5,8,0:0:0:0:
299,161,34090,1,0,0:0:0:0:
441,163,34147,1,8,0:0:0:0:
337,120,34263,1,8,0:0:0:0:
269,151,34320,1,8,0:0:0:0:
323,113,34378,1,0,0:0:0:0:
500,159,34494,1,0,0:0:0:0:
466,160,34609,1,8,0:0:0:0:
239,119,34724,1,0,0:0:0:0:
263,125,34840,1,0,0:0:0:0:
180,188,34897,1,8,0:0:0:0:
187,188,34955,1,0,0:0:0:0:
191,185,35013,1,0,0:0:0:0:
383,93,35070,1,8,0:0:0:0:
444,154,35186,1,0,0:0:0:0:
427,151,35301,1,8,0:0:0:0:
427,151,35417,1,0,0:0:0:0:
341,158,35532,1,8,0:0:0:0:
303,136,35647,1,8,0:0:0:0:
221,109,35705,1,8,0:0:0:0:
339,188,35763,1,0,0:0:0:0:
389,106,35820,1,0,0:0:0:0:
380,99,35878,1,0,0:0:0:0:
374,168,35994,1,8,0:0:0:0:
203,43,36109,1,0,0:0:0:0:
177,69,36167,1,0,0:0:0:0:
400,100,36224,5,8,0:0:0:0:
234,126,36340,1,8,0:0:0:0:
428,166,36455,1,0,0:0:0:0:
428,166,36513,1,8,0:0:0:0:
428,166,36570,1,8,0:0:0:0:
428,166,36628,1,8,0:0:0:0:
492,153,36686,1,0,0:0:0:0:
382,269,36801,1,8,0:0:0:0:
313,143,36917,1,0,0:0:0:0:
301,78,36974,1,8,0:0:0:0:
399,237,37032,1,0,0:0:0:0:
354,104,37090,1,8,0:0:0:0:
399,237,37147,1,8,0:0:0:0:
388,224,37263,1,0,0:0:0:0:
451,135,37378,1,8,0:0:0:0:
208,135,37436,1,0,0:0:0:0:
258,91,37494,1,8,0:0:0:0:
282,136,37551,1,8,0:0:0:0:
355,170,37609,1,0,0:0:0:0:
397,154,37724,1,8,0:0:0:0:
508,167,37782,1,0,0:0:0:0:
433,145,37840,1,8,0:0:0:0:
397,154,37897,1,0,0:0:0:0:
397,154,37955,1,0,0:0:0:0:
388,142,38013,1,8,0:0:0:0:
359,139,38070,1,0,0:0:0:0:
412,161,38186,1,0,0:0:0:0:
405,151,38244,1,0,0:0:0:0:
412,161,38301,1,8,0:0:0:0:
346,155,38417,1,8,0:0:0:0:
410,156,38532,1,0,0:0:0:0:
359,118,38647,1,8,0:0:0:0:
466,164,38763,1,0,0:0:0:0:
466,151,38820,1,8,0:0:0:0:
444,157,38878,1,0,0:0:0:0:
444,157,38936,1,0,0:0:0:0:
405,151,38994,1,8,0:0:0:0:
431,97,39109,1,0,0:0:0:0:
370,178,39224,1,8,0:0:0:0:
185,75,39282,5,8,0:0:0:0:
371,246,39340,1,0,0:0:0:0:
429,142,39397,1,0,0:0:0:0:
414,154,39455,1,8,0:0:0:0:
390,127,39570,1,8,0:0:0:0:
370,148,39628,1,0,0:0:0:0:
426,153,39686,1,0,0:0:0:0:
323,184,39744,1,8,0:0:0:0:
396,164,39801,1,0,0:0:0:0:
397,222,39859,1,8,0:0:0:0:
397,222,39917,1,0,0:0:0:0:
421,168,40032,1,8,0:0:0:0:
421,168,40090,1,8,0:0:0:0:
406,162,40147,1,0,0:0:0:0:
377,224,40263,1,8,0:0:0:0:
361,156,40378,1,0,0:0:0:0:
460,217,40494,1,0,0:0:0:0:
398,193,40609,1,8,0:0:0:0:
392,153,40667,1,8,0:0:0:0:
467,133,40724,1,0,0:0:0:0:
485,149,40782,1,8,0:0:0:0:
462,142,40840,1,0,0:0:0:0:
462,142,40955,1,0,0:0:0:0:
441,148,41070,1,8,0:0:0:0:
317,168,41128,1,0,0:0:0:0:
258,82,41186,1,8,0:0:0:0:
417,151,41301,1,0,0:0:0:0:
417,151,41417,1,0,0:0:0:0:
190,61,41474,1,0,0:0:0:0:
366,138,41532,1,8,0:0:0:0:
366,138,41590,1,0,0:0:0:0:
348,151,41647,1,8,0:0:0:0:
348,149,41705,1,0,0:0:0:0:
449,145,41763,1,8,0:0:0:0:
377,252,41878,1,8,0:0:0:0:
364,148,41936,1,8,0:0:0:0:
421,155,41994,1,0,0:0:0:0:
348,177,42051,1,8,0:0:0:0:
310,122,42109,1,0,0:0:0:0:
366,154,42224,1,8,0:0:0:0:
261,174,42340,1,8,0:0:0:0:
377,167,42455,1,0,0:0:0:0:
167,175,42570,1,0,0:0:0:0:
437,137,42686,1,8,0:0:0:0:
357,131,42744,5,0,0:0:0:0:
437,137,42801,1,8,0:0:0:0:
303,150,42859,1,8,0:0:0:0:
368,149,42917,1,0,0:0:0:0:
397,177,42974,1,0,0:0:0:0:
378,291,43032,1,8,0:0:0:0:
378,291,43147,1,0,0:0:0:0:
378,291,43263,1,0,0:0:0:0:
425,156,43320,1,0,0:0:0:0:
381,157,43378,1,8,0:0:0:0:
328,105,43436,1,0,0:0:0:0:
393,135,43494,1,0,0:0:0:0:
393,135,43551,1,8,0:0:0:0:
393,135,43609,1,0,0:0:0:0:
393,135,43724,1,0,0:0:0:0:
451,164,43840,1,8,0:0:0:0:
400,163,43955,1,0,0:0:0:0:
400,163,44013,1,0,0:0:0:0:
440,207,44070,1,8,0:0:0:0:
326,124,44186,1,8,0:0:0:0:
216,217,44301,1,0,0:0:0:0:
416,155,44532,1,0,0:0:0:0:
411,146,44763,1,8,0:0:0:0:
442,145,44994,1,8,0:0:0:0:
442,145,45224,1,8,0:0:0:0:
362,239,45455,1,0,0:0:0:0:
362,239,45570,1,0,0:0:0:0:
365,200,45686,1,8,0:0:0:0:
303,137,45917,1,0,0:0:0:0:
415,166,46147,1,8,0:0:0:0:
440,146,46378,1,0,0:0:0:0:
451,160,46609,1,8,0:0:0:0:
403,224,46840,1,0,0:0:0:0:
461,162,46955,1,8,0:0:0:0:
426,136,47070,1,0,0:0:0:0:
380,124,47186,1,0,0:0:0:0:
433,169,47301,1,8,0:0:0:0:
401,148,47532,1,8,0:0:0:0:
317,178,47590,1,8,0:0:0:0:
317,178,47647,1,8,0:0:0:0:
317,178,47705,1,8,0:0:0:0:
388,138,47763,1,0,0:0:0:0:
388,138,47820,1,0,0:0:0:0:
388,138,47878,1,0,0:0:0:0:
389,138,47936,1,0,0:0:0:0:
351,108,47994,1,8,0:0:0:0:
467,148,48224,1,0,0:0:0:0:
426,164,48455,1,8,0:0:0:0:
396,112,48686,1,8,0:0:0:0:
367,147,48917,1,0,0:0:0:0:
245,97,49032,1,8,0:0:0:0:
448,122,49147,1,0,0:0:0:0:
403,160,49378,1,8,0:0:0:0:
461,178,49494,1,8,0:0:0:0:
444,149,49609,1,0,0:0:0:0:
281,161,49724,1,0,0:0:0:0:
435,163,49840,1,8,0:0:0:0:
473,158,50070,1,8,0:0:0:0:
473,158,50186,1,8,0:0:0:0:
421,112,50301,1,0,0:0:0:0:
391,147,50359,1,0,0:0:0:0:
343,207,50532,1,0,0:0:0:0:
343,207,50590,1,0,0:0:0:0:
466,144,50763,1,8,0:0:0:0:
406,152,50994,1,0,0:0:0:0:
409,146,51224,5,8,0:0:0:0:
434,139,51455,1,0,0:0:0:0:
289,171,51686,1,0,0:0:0:0:
289,171,51801,1,0,0:0:0:0:
428,166,51917,1,0,0:0:0:0:
419,203,52147,1,8,0:0:0:0:
480,158,52263,1,0,0:0:0:0:
480,158,52378,1,8,0:0:0:0:
449,107,52609,1,0,0:0:0:0:
419,177,52840,1,0,0:0:0:0:
271,204,52955,1,0,0:0:0:0:
456,138,53070,1,8,0:0:0:0:
366,147,53301,1,0,0:0:0:0:
265,167,53417,1,0,0:0:0:0:
421,122,53532,1,8,0:0:0:0:
347,110,53763,1,0,0:0:0:0:
430,150,53994,1,8,0:0:0:0:
246,50,54109,1,8,0:0:0:0:
454,167,54224,1,0,0:0:0:0:
451,141,54340,1,8,0:0:0:0:
431,158,54455,1,0,0:0:0:0:
466,237,54686,1,8,0:0:0:0:
403,168,54917,1,0,0:0:0:0:
456,153,55147,1,8,0:0:0:0:
456,153,55263,1,8,0:0:0:0:
376,159,55378,1,0,0:0:0:0:
221,235,55609,1,0,0:0:0:0:
227,235,55724,1,0,0:0:0:0:
454,168,55840,1,8,0:0:0:0:
416,150,56070,1,0,0:0:0:0:
466,171,56301,1,8,0:0:0:0:
347,139,56532,1,0,0:0:0:0:
393,203,56763,1,8,0:0:0:0:
487,128,56994,1,0,0:0:0:0:
475,151,57224,1,8,0:0:0:0:
436,129,57455,1,0,0:0:0:0:
436,129,57570,1,0,0:0:0:0:
213,182,57686,5,8,0:0:0:0:
446,230,57917,1,0,0:0:0:0:
281,226,58032,5,0,0:0:0:0:
476,166,58147,1,8,0:0:0:0:
357,124,58263,1,0,0:0:0:0:
248,181,58378,1,0,0:0:0:0:
406,163,58436,1,0,0:0:0:0:
406,163,58494,1,0,0:0:0:0:
265,104,58551,1,0,0:0:0:0:
174,164,58609,1,8,0:0:0:0:
246,126,58667,1,0,0:0:0:0:
246,126,58724,1,0,0:0:0:0:
246,126,58782,1,0,0:0:0:0:
418,235,58840,1,8,0:0:0:0:
418,235,58897,1,8,0:0:0:0:
418,235,58955,1,8,0:0:0:0:
418,235,58994,1,8,0:0:0:0:
418,235,59032,1,8,0:0:0:0:
446,147,59070,1,0,0:0:0:0:
165,234,59128,1,0,0:0:0:0:
458,153,59185,1,8,0:0:0:0:
380,120,59244,1,8,0:0:0:0:
435,165,59301,1,0,0:0:0:0:
368,151,59359,1,0,0:0:0:0:
388,178,59416,1,8,0:0:0:0:
199,130,59474,1,0,0:0:0:0:
436,133,59532,1,8,0:0:0:0:
312,162,59647,1,8,0:0:0:0:
332,127,59705,1,8,0:0:0:0:
423,144,59762,1,0,0:0:0:0:
317,177,59820,1,0,0:0:0:0:
472,118,59878,1,8,0:0:0:0:
240,133,59936,1,0,0:0:0:0:
499,145,59993,1,8,0:0:0:0:
473,139,60108,1,8,0:0:0:0:
237,109,60167,1,0,0:0:0:0:
237,109,60224,1,0,0:0:0:0:
337,175,60340,1,0,0:0:0:0:
415,151,60455,1,0,0:0:0:0:
339,157,60570,1,8,0:0:0:0:
338,155,60628,1,8,0:0:0:0:
310,148,60686,1,0,0:0:0:0:
426,157,60801,1,0,0:0:0:0:
426,157,60917,1,0,0:0:0:0:
377,246,61032,1,8,0:0:0:0:
330,186,61147,1,0,0:0:0:0:
283,223,61205,1,8,0:0:0:0:
463,151,61262,1,0,0:0:0:0:
264,119,61320,1,0,0:0:0:0:
239,38,61378,1,8,0:0:0:0:
421,143,61493,1,8,0:0:0:0:
446,149,61608,1,0,0:0:0:0:
496,146,61724,1,8,0:0:0:0:
414,142,61782,1,0,0:0:0:0:
454,147,61840,1,8,0:0:0:0:
328,213,61955,1,8,0:0:0:0:
214,171,62013,1,8,0:0:0:0:
214,171,62070,1,0,0:0:0:0:
379,133,62128,1,0,0:0:0:0:
335,194,62186,1,0,0:0:0:0:
398,169,62301,1,8,0:0:0:0:
352,97,62359,1,0,0:0:0:0:
314,188,62416,1,8,0:0:0:0:
295,90,62474,1,8,0:0:0:0:
232,106,62532,1,0,0:0:0:0:
481,136,62647,1,0,0:0:0:0:
504,148,62763,1,8,0:0:0:0:
426,150,62994,1,0,0:0:0:0:
438,165,63109,1,0,0:0:0:0:
436,149,63224,1,8,0:0:0:0:
362,209,63282,1,0,0:0:0:0:
436,149,63340,1,8,0:0:0:0:
441,163,63455,1,0,0:0:0:0:
208,171,63513,1,8,0:0:0:0:
337,120,63570,1,0,0:0:0:0:
337,120,63628,1,0,0:0:0:0:
361,125,63686,1,8,0:0:0:0:
406,227,63801,1,8,0:0:0:0:
211,157,63859,1,0,0:0:0:0:
216,155,63917,1,8,0:0:0:0:
216,155,63974,1,8,0:0:0:0:
386,79,64032,1,8,0:0:0:0:
301,117,64090,1,8,0:0:0:0:
263,125,64147,1,0,0:0:0:0:
451,102,64263,1,8,0:0:0:0:
197,143,64320,1,8,0:0:0:0:
261,148,64378,1,0,0:0:0:0:
261,148,64436,1,8,0:0:0:0:
444,154,64493,1,0,0:0:0:0:
427,151,64608,1,8,0:0:0:0:
427,151,64724,1,8,0:0:0:0:
409,153,64840,1,8,0:0:0:0:
409,152,64897,1,8,0:0:0:0:
339,188,64955,1,0,0:0:0:0:
339,188,65070,1,8,0:0:0:0:
339,188,65185,1,8,0:0:0:0:
374,168,65301,1,0,0:0:0:0:
412,183,65359,1,8,0:0:0:0:
301,175,65417,1,0,0:0:0:0:
301,175,65474,1,0,0:0:0:0:
400,100,65532,5,8,0:0:0:0:
499,149,65647,1,8,0:0:0:0:
237,217,65705,1,0,0:0:0:0:
428,166,65763,1,0,0:0:0:0:
428,166,65820,1,8,0:0:0:0:
428,166,65878,1,0,0:0:0:0:
492,153,65994,1,8,0:0:0:0:
134,150,66051,1,0,0:0:0:0:
382,269,66109,1,8,0:0:0:0:
313,143,66224,1,0,0:0:0:0:
103,169,66282,1,8,0:0:0:0:
281,175,66340,1,0,0:0:0:0:
281,175,66378,1,0,0:0:0:0:
281,175,66417,1,0,0:0:0:0:
281,175,66455,1,0,0:0:0:0:
388,224,66570,1,0,0:0:0:0:
451,135,66686,1,8,0:0:0:0:
258,91,66801,1,8,0:0:0:0:
237,102,66859,1,0,0:0:0:0:
303,135,66917,1,8,0:0:0:0:
397,154,67032,1,8,0:0:0:0:
308,172,67090,1,0,0:0:0:0:
433,145,67147,1,0,0:0:0:0:
216,184,67205,1,0,0:0:0:0:
376,136,67263,1,8,0:0:0:0:
376,136,67320,1,0,0:0:0:0:
359,139,67378,1,0,0:0:0:0:
383,139,67494,1,0,0:0:0:0:
450,173,67551,1,0,0:0:0:0:
135,168,67609,1,8,0:0:0:0:
164,160,67667,1,0,0:0:0:0:
346,155,67724,1,8,0:0:0:0:
346,155,67782,1,8,0:0:0:0:
410,156,67840,1,0,0:0:0:0:
480,143,67897,1,8,0:0:0:0:
410,156,67955,1,0,0:0:0:0:
466,164,68070,1,8,0:0:0:0:
301,211,68186,1,0,0:0:0:0:
301,211,68244,1,0,0:0:0:0:
453,99,68301,1,8,0:0:0:0:
431,97,68417,1,0,0:0:0:0:
385,149,68474,1,8,0:0:0:0:
370,178,68532,1,8,0:0:0:0:
136,88,68590,1,8,0:0:0:0:
205,188,68647,1,0,0:0:0:0:
312,168,68763,1,0,0:0:0:0:
414,131,68820,1,0,0:0:0:0:
390,127,68878,1,8,0:0:0:0:
339,199,68936,1,8,0:0:0:0:
426,153,68994,1,0,0:0:0:0:
397,222,69109,1,0,0:0:0:0:
397,222,69167,1,0,0:0:0:0:
397,222,69224,1,8,0:0:0:0:
335,284,69340,1,8,0:0:0:0:
232,245,69397,1,0,0:0:0:0:
427,187,69455,1,8,0:0:0:0:
377,224,69570,1,8,0:0:0:0:
361,156,69685,1,0,0:0:0:0:
460,217,69801,1,8,0:0:0:0:
398,193,69916,1,8,0:0:0:0:
467,133,70032,1,0,0:0:0:0:
485,149,70090,1,8,0:0:0:0:
462,142,70147,1,0,0:0:0:0:
462,142,70263,1,0,0:0:0:0:
441,148,70378,1,8,0:0:0:0:
391,142,70436,1,8,0:0:0:0:
391,142,70494,1,0,0:0:0:0:
391,142,70551,1,0,0:0:0:0:
417,151,70609,1,8,0:0:0:0:
417,151,70724,1,0,0:0:0:0:
417,151,70782,1,0,0:0:0:0:
461,141,70840,1,0,0:0:0:0:
228,72,70897,1,8,0:0:0:0:
430,136,70955,1,0,0:0:0:0:
223,161,71013,1,0,0:0:0:0:
286,163,71070,1,8,0:0:0:0:
377,252,71186,1,8,0:0:0:0:
334,186,71244,1,8,0:0:0:0:
421,155,71301,1,0,0:0:0:0:
484,144,71417,1,8,0:0:0:0:
393,121,71532,1,0,0:0:0:0:
371,378,71647,1,8,0:0:0:0:
387,155,71763,1,8,0:0:0:0:
387,155,71820,1,0,0:0:0:0:
387,155,71878,1,8,0:0:0:0:
387,155,71936,1,8,0:0:0:0:
377,147,71994,1,0,0:0:0:0:
437,137,72109,1,8,0:0:0:0:
368,149,72224,1,0,0:0:0:0:
203,137,72282,1,8,0:0:0:0:
378,291,72340,1,0,0:0:0:0:
378,291,72397,1,0,0:0:0:0:
378,291,72455,1,8,0:0:0:0:
378,291,72570,1,0,0:0:0:0:
384,221,72686,1,8,0:0:0:0:
393,135,72801,1,8,0:0:0:0:
393,135,72859,1,0,0:0:0:0:
393,135,72917,1,8,0:0:0:0:
416,151,73032,1,8,0:0:0:0:
461,157,73090,1,0,0:0:0:0:
461,157,73147,1,0,0:0:0:0:
468,159,73205,1,8,0:0:0:0:
243,39,73263,1,0,0:0:0:0:
291,179,73378,1,0,0:0:0:0:
386,134,73436,1,8,0:0:0:0:
386,134,73494,1,8,0:0:0:0:
417,142,73551,1,0,0:0:0:0:
336,208,73609,1,8,0:0:0:0:
255,89,73724,5,0,0:0:0:0:
255,89,73782,1,0,0:0:0:0:
435,165,73840,1,8,0:0:0:0:
446,147,74070,1,8,0:0:0:0:
435,165,74301,1,8,0:0:0:0:
368,151,74359,1,0,0:0:0:0:
388,178,74417,1,0,0:0:0:0:
246,221,74474,1,0,0:0:0:0:
436,133,74532,1,8,0:0:0:0:
431,144,74647,1,8,0:0:0:0:
470,152,74705,1,0,0:0:0:0:
423,144,74763,1,8,0:0:0:0:
159,163,74878,1,0,0:0:0:0:
159,163,74936,1,0,0:0:0:0:
417,131,74994,1,8,0:0:0:0:
473,139,75109,1,0,0:0:0:0:
465,133,75224,1,8,0:0:0:0:
385,151,75340,1,8,0:0:0:0:
415,151,75455,1,0,0:0:0:0:
417,158,75570,1,0,0:0:0:0:
417,158,75628,1,0,0:0:0:0:
441,132,75686,1,8,0:0:0:0:
426,157,75917,1,0,0:0:0:0:
325,141,76032,5,8,0:0:0:0:
330,186,76147,1,8,0:0:0:0:
181,160,76205,1,0,0:0:0:0:
463,151,76263,1,8,0:0:0:0:
446,151,76320,1,8,0:0:0:0:
239,38,76378,1,0,0:0:0:0:
446,149,76494,1,8,0:0:0:0:
466,130,76551,1,0,0:0:0:0:
421,143,76609,1,8,0:0:0:0:
496,146,76724,1,8,0:0:0:0:
414,142,76782,1,0,0:0:0:0:
454,147,76840,1,0,0:0:0:0:
328,213,76955,1,0,0:0:0:0:
259,95,77013,1,0,0:0:0:0:
457,137,77070,1,8,0:0:0:0:
423,144,77128,1,8,0:0:0:0:
335,194,77186,1,0,0:0:0:0:
398,169,77301,1,0,0:0:0:0:
432,192,77359,1,8,0:0:0:0:
314,188,77417,1,0,0:0:0:0:
492,140,77474,1,0,0:0:0:0:
232,106,77532,1,8,0:0:0:0:
339,215,77763,1,0,0:0:0:0:
426,150,77994,1,8,0:0:0:0:
438,165,78109,1,8,0:0:0:0:
439,165,78167,1,0,0:0:0:0:
436,149,78224,1,8,0:0:0:0:
436,149,78340,1,8,0:0:0:0:
228,154,78397,1,0,0:0:0:0:
441,163,78455,1,0,0:0:0:0:
357,253,78513,1,0,0:0:0:0:
337,120,78570,1,8,0:0:0:0:
337,120,78628,1,8,0:0:0:0:
361,125,78686,1,0,0:0:0:0:
406,227,78801,1,0,0:0:0:0:
466,160,78917,1,8,0:0:0:0:
451,141,78974,1,8,0:0:0:0:
441,165,79032,1,8,0:0:0:0:
441,165,79090,1,8,0:0:0:0:
412,122,79147,1,0,0:0:0:0:
321,91,79263,1,0,0:0:0:0:
345,136,79320,1,0,0:0:0:0:
383,93,79378,1,8,0:0:0:0:
287,224,79436,1,0,0:0:0:0:
285,135,79494,1,0,0:0:0:0:
285,135,79551,1,0,0:0:0:0:
467,152,79609,1,8,0:0:0:0:
388,49,79647,1,8,0:0:0:0:
388,49,79686,1,8,0:0:0:0:
412,122,79724,1,0,0:0:0:0:
341,158,79782,1,0,0:0:0:0:
360,96,79840,1,8,0:0:0:0:
339,188,79955,1,8,0:0:0:0:
339,188,80070,1,0,0:0:0:0:
435,131,80128,1,0,0:0:0:0:
339,188,80186,1,0,0:0:0:0:
305,162,80244,1,0,0:0:0:0:
374,168,80301,1,8,0:0:0:0:
301,175,80417,1,8,0:0:0:0:
383,127,80474,1,8,0:0:0:0:
400,100,80532,5,0,0:0:0:0:
499,149,80647,1,8,0:0:0:0:
428,166,80763,1,0,0:0:0:0:
428,166,80878,1,0,0:0:0:0:
492,153,80994,1,8,0:0:0:0:
425,125,81051,1,8,0:0:0:0:
361,378,81109,1,8,0:0:0:0:
382,269,81167,1,8,0:0:0:0:
313,143,81224,1,0,0:0:0:0:
371,182,81282,1,8,0:0:0:0:
399,237,81340,1,0,0:0:0:0:
287,126,81378,1,0,0:0:0:0:
287,126,81417,1,0,0:0:0:0:
274,134,81455,1,8,0:0:0:0:
451,135,81686,1,8,0:0:0:0:
258,91,81801,1,8,0:0:0:0:
355,170,81917,1,0,0:0:0:0:
397,154,82032,1,8,0:0:0:0:
508,167,82090,1,0,0:0:0:0:
433,145,82147,1,8,0:0:0:0:
463,162,82205,1,8,0:0:0:0:
403,169,82263,1,0,0:0:0:0:
376,136,82320,1,8,0:0:0:0:
359,139,82378,1,0,0:0:0:0:
383,139,82494,1,0,0:0:0:0:
341,160,82551,1,0,0:0:0:0:
450,173,82609,1,8,0:0:0:0:
418,160,82724,1,8,0:0:0:0:
418,160,82782,1,8,0:0:0:0:
410,156,82840,1,0,0:0:0:0:
390,146,82897,1,0,0:0:0:0:
335,97,82955,1,0,0:0:0:0:
335,97,83013,1,0,0:0:0:0:
376,128,83070,1,8,0:0:0:0:
336,264,83186,1,0,0:0:0:0:
361,154,83244,1,0,0:0:0:0:
337,164,83301,1,8,0:0:0:0:
201,66,83417,1,8,0:0:0:0:
203,192,83474,1,0,0:0:0:0:
342,160,83532,1,8,0:0:0:0:
247,158,83590,1,8,0:0:0:0:
337,164,83647,1,0,0:0:0:0:
312,168,83763,1,8,0:0:0:0:
355,155,83820,1,8,0:0:0:0:
234,121,83878,1,0,0:0:0:0:
255,122,83936,1,0,0:0:0:0:
409,153,83994,1,8,0:0:0:0:
397,222,84108,1,0,0:0:0:0:
374,141,84167,1,8,0:0:0:0:
397,222,84224,1,0,0:0:0:0:
335,284,84339,1,0,0:0:0:0:
427,187,84455,1,0,0:0:0:0:
421,111,84513,1,8,0:0:0:0:
377,224,84570,1,0,0:0:0:0:
377,224,84628,1,0,0:0:0:0:
361,156,84686,1,8,0:0:0:0:
460,217,84801,1,8,0:0:0:0:
174,177,84859,1,0,0:0:0:0:
398,193,84916,1,8,0:0:0:0:
467,133,85031,1,0,0:0:0:0:
485,149,85089,1,8,0:0:0:0:
462,142,85147,1,0,0:0:0:0:
464,195,85205,1,8,0:0:0:0:
462,142,85262,1,0,0:0:0:0:
436,186,85320,1,0,0:0:0:0:
441,148,85378,1,8,0:0:0:0:
319,240,85436,1,8,0:0:0:0:
319,240,85494,1,0,0:0:0:0:
319,240,85551,1,8,0:0:0:0:
417,151,85609,1,0,0:0:0:0:
417,151,85724,1,0,0:0:0:0:
417,151,85782,1,0,0:0:0:0:
461,141,85840,1,8,0:0:0:0:
223,167,85897,1,8,0:0:0:0:
430,136,85955,1,0,0:0:0:0:
430,136,86070,1,0,0:0:0:0:
377,230,86128,1,8,0:0:0:0:
377,252,86186,1,0,0:0:0:0:
292,207,86244,1,0,0:0:0:0:
421,155,86301,1,8,0:0:0:0:
285,111,86417,1,8,0:0:0:0:
142,164,86532,1,8,0:0:0:0:
372,230,86647,1,8,0:0:0:0:
377,167,86763,1,0,0:0:0:0:
384,202,86820,1,8,0:0:0:0:
384,202,86878,1,8,0:0:0:0:
384,202,86936,1,8,0:0:0:0:
437,137,86994,1,0,0:0:0:0:
437,137,87109,1,0,0:0:0:0:
377,160,87167,1,0,0:0:0:0:
368,149,87224,1,8,0:0:0:0:
465,174,87282,1,0,0:0:0:0:
426,156,87340,1,8,0:0:0:0:
425,156,87397,1,8,0:0:0:0:
378,291,87455,1,0,0:0:0:0:
383,148,87513,1,0,0:0:0:0:
378,291,87570,1,0,0:0:0:0:
413,161,87628,1,0,0:0:0:0:
384,221,87686,1,8,0:0:0:0:
342,139,87744,1,8,0:0:0:0:
393,135,87801,1,0,0:0:0:0:
393,135,87859,1,8,0:0:0:0:
393,135,87917,1,0,0:0:0:0:
393,135,88032,1,0,0:0:0:0:
451,164,88147,1,8,0:0:0:0:
420,157,88263,1,8,0:0:0:0:
341,156,88320,1,0,0:0:0:0:
320,118,88378,1,8,0:0:0:0:
326,157,88436,1,8,0:0:0:0:
326,157,88494,1,8,0:0:0:0:
326,157,88551,1,8,0:0:0:0:
197,156,88609,1,0,0:0:0:0:
