osu file format v14

[General]
AudioFilename: audio.mp3
AudioLeadIn: 0
PreviewTime: 57917
Countdown: 0
SampleSet: Normal
StackLeniency: 0.7
Mode: 1
LetterboxInBreaks: 0
WidescreenStoryboard: 1

[Editor]
Bookmarks: 15801
DistanceSpacing: 1.3
BeatDivisor: 2
GridSize: 32
TimelineZoom: 4.599998

[Metadata]
Title:smile was so beautiful
TitleUnicode:smile was so beautiful
Artist:Sorry about my face
ArtistUnicode:Sorry about my face
Creator:D3kuu
Version:futsuu
Source:
Tags:electronic instrumental goheegy lime717 say me ambient breakcore depressive experimental genjuro
BeatmapID:2363951
BeatmapSetID:994721

[Difficulty]
HPDrainRate:7
CircleSize:5
OverallDifficulty:4.5
ApproachRate:5
SliderMultiplier:2.8
SliderTickRate:1

[Events]
//Background and Video events
0,0,"MOSHED-2020-3-24-4-54-55.jpg",0,-120
//Break Periods
//Storyboard Layer 0 (Background)
//Storyboard Layer 1 (Fail)
//Storyboard Layer 2 (Pass)
//Storyboard Layer 3 (Foreground)
//Storyboard Layer 4 (Overlay)
//Storyboard Sound Samples

[TimingPoints]
-6,461.538461538462,4,1,0,60,1,0
15,-125,4,1,0,60,0,0
29532,-125,4,1,0,80,0,0
44532,-125,4,1,0,60,0,0
59070,-125,4,1,0,80,0,1
88609,-125,4,1,0,80,0,0

[HitObjects]
256,192,13147,12,0,14647,0:0:0:0:
148,15,14763,5,0,0:0:0:0:
371,12,15224,1,8,0:0:0:0:
446,184,15686,1,8,0:0:0:0:
371,12,15917,1,0,0:0:0:0:
148,15,16147,1,0,0:0:0:0:
371,12,16609,5,8,0:0:0:0:
401,140,17070,1,8,0:0:0:0:
371,12,17532,1,8,0:0:0:0:
371,12,17763,1,0,0:0:0:0:
420,150,17994,1,8,0:0:0:0:
481,138,18455,1,8,0:0:0:0:
311,146,18917,1,8,0:0:0:0:
256,160,19609,1,0,0:0:0:0:
402,228,19840,1,8,0:0:0:0:
354,129,20301,1,8,0:0:0:0:
446,184,21224,1,8,0:0:0:0:
371,12,21455,1,0,0:0:0:0:
452,165,21686,1,0,0:0:0:0:
337,159,22147,1,0,0:0:0:0:
416,148,22378,1,8,0:0:0:0:
326,182,22609,1,8,0:0:0:0:
446,184,23070,1,8,0:0:0:0:
371,12,23301,1,0,0:0:0:0:
378,201,23417,1,0,0:0:0:0:
421,131,23532,1,8,0:0:0:0:
421,131,23763,1,8,0:0:0:0:
401,92,23994,1,8,0:0:0:0:
381,173,24917,1,8,0:0:0:0:
317,176,25147,1,0,0:0:0:0:
327,127,25378,1,8,0:0:0:0:
437,219,25840,1,0,0:0:0:0:
383,136,26301,1,0,0:0:0:0:
434,160,26763,1,8,0:0:0:0:
470,167,26994,1,0,0:0:0:0:
294,140,27224,1,0,0:0:0:0:
438,131,27686,1,0,0:0:0:0:
409,198,28378,1,0,0:0:0:0:
431,165,28609,1,8,0:0:0:0:
390,158,29070,1,8,0:0:0:0:
462,142,29532,1,0,0:0:0:0:
477,151,29763,1,0,0:0:0:0:
426,153,29878,1,8,0:0:0:0:
396,171,29994,1,0,0:0:0:0:
385,189,30224,1,0,0:0:0:0:
423,144,30455,1,8,0:0:0:0:
398,159,30917,1,8,0:0:0:0:
441,132,31378,1,8,0:0:0:0:
459,149,31609,1,0,0:0:0:0:
488,152,31724,1,0,0:0:0:0:
330,186,31840,1,8,0:0:0:0:
357,126,32070,1,0,0:0:0:0:
421,143,32301,1,8,0:0:0:0:
457,137,32763,1,0,0:0:0:0:
241,133,32878,1,0,0:0:0:0:
241,133,32994,1,0,0:0:0:0:
232,106,33224,1,8,0:0:0:0:
426,150,33686,1,8,0:0:0:0:
405,160,33917,1,0,0:0:0:0:
441,163,34147,1,8,0:0:0:0:
357,226,34378,1,0,0:0:0:0:
466,160,34609,1,8,0:0:0:0:
383,93,35070,1,8,0:0:0:0:
366,227,35763,1,0,0:0:0:0:
374,168,35994,1,8,0:0:0:0:
466,158,36109,1,0,0:0:0:0:
225,148,36224,1,0,0:0:0:0:
428,166,36455,1,0,0:0:0:0:
492,153,36686,1,0,0:0:0:0:
313,143,36917,1,0,0:0:0:0:
451,135,37378,1,8,0:0:0:0:
325,166,37609,1,0,0:0:0:0:
433,145,37840,1,8,0:0:0:0:
290,133,37955,1,0,0:0:0:0:
77,151,38070,1,0,0:0:0:0:
412,161,38301,1,8,0:0:0:0:
466,164,38763,1,0,0:0:0:0:
450,146,39455,1,8,0:0:0:0:
319,100,39686,5,0,0:0:0:0:
397,222,39917,1,8,0:0:0:0:
166,126,40032,1,8,0:0:0:0:
406,162,40147,1,0,0:0:0:0:
398,193,40609,1,8,0:0:0:0:
366,138,41532,1,8,0:0:0:0:
449,145,41763,1,8,0:0:0:0:
421,155,41994,1,0,0:0:0:0:
377,167,42455,1,0,0:0:0:0:
378,291,43147,1,0,0:0:0:0:
378,291,43263,1,0,0:0:0:0:
381,157,43378,1,8,0:0:0:0:
393,135,43609,1,0,0:0:0:0:
451,164,43840,1,8,0:0:0:0:
387,160,44070,1,8,0:0:0:0:
213,69,44186,1,8,0:0:0:0:
216,217,44301,1,0,0:0:0:0:
201,152,44763,1,0,0:0:0:0:
360,162,44994,1,8,0:0:0:0:
442,145,45224,1,8,0:0:0:0:
415,166,46147,1,0,0:0:0:0:
451,160,46609,1,0,0:0:0:0:
345,140,46840,1,0,0:0:0:0:
426,136,47070,1,0,0:0:0:0:
401,148,47532,1,8,0:0:0:0:
317,178,47647,1,8,0:0:0:0:
388,138,47763,1,0,0:0:0:0:
351,108,47994,1,8,0:0:0:0:
426,164,48455,1,8,0:0:0:0:
403,160,49378,1,8,0:0:0:0:
444,149,49609,1,0,0:0:0:0:
435,163,49840,1,8,0:0:0:0:
421,112,50301,1,0,0:0:0:0:
331,270,50532,1,0,0:0:0:0:
466,144,50763,1,8,0:0:0:0:
478,168,51224,1,8,0:0:0:0:
289,171,51686,1,0,0:0:0:0:
419,203,52147,1,8,0:0:0:0:
480,158,52378,1,8,0:0:0:0:
449,107,52609,1,0,0:0:0:0:
456,138,53070,1,8,0:0:0:0:
331,255,53301,1,0,0:0:0:0:
421,122,53532,1,8,0:0:0:0:
430,150,53994,1,8,0:0:0:0:
430,150,54686,1,8,0:0:0:0:
403,168,54917,1,0,0:0:0:0:
376,159,55378,1,0,0:0:0:0:
454,168,55840,1,8,0:0:0:0:
384,192,56070,5,0,0:0:0:0:
466,171,56301,1,8,0:0:0:0:
408,162,56763,1,8,0:0:0:0:
475,151,57224,1,8,0:0:0:0:
475,151,57686,1,8,0:0:0:0:
446,230,57917,1,0,0:0:0:0:
476,166,58147,1,8,0:0:0:0:
174,164,58609,1,8,0:0:0:0:
446,147,59070,1,0,0:0:0:0:
435,165,59301,1,0,0:0:0:0:
349,249,59417,1,8,0:0:0:0:
436,133,59532,1,8,0:0:0:0:
365,130,59763,5,8,0:0:0:0:
499,145,59993,1,8,0:0:0:0:
237,109,60224,1,0,0:0:0:0:
415,151,60455,1,0,0:0:0:0:
354,160,60570,1,8,0:0:0:0:
270,151,60686,1,0,0:0:0:0:
426,157,60917,1,0,0:0:0:0:
330,186,61147,1,8,0:0:0:0:
239,38,61378,1,0,0:0:0:0:
301,66,61494,1,8,0:0:0:0:
496,146,61724,1,8,0:0:0:0:
454,147,61840,1,8,0:0:0:0:
214,171,62070,1,0,0:0:0:0:
234,31,62301,1,8,0:0:0:0:
504,148,62763,1,8,0:0:0:0:
426,150,62994,1,0,0:0:0:0:
436,149,63224,1,8,0:0:0:0:
312,93,63455,1,0,0:0:0:0:
361,125,63686,1,8,0:0:0:0:
220,156,63917,1,0,0:0:0:0:
423,168,64032,1,8,0:0:0:0:
263,125,64147,1,8,0:0:0:0:
185,188,64378,1,0,0:0:0:0:
427,151,64608,1,8,0:0:0:0:
250,38,64724,5,8,0:0:0:0:
352,234,64955,1,0,0:0:0:0:
339,188,65070,1,8,0:0:0:0:
356,234,65301,1,0,0:0:0:0:
400,100,65532,5,8,0:0:0:0:
291,88,66224,1,8,0:0:0:0:
268,140,66455,1,0,0:0:0:0:
303,135,66917,1,8,0:0:0:0:
350,167,67147,1,0,0:0:0:0:
428,140,67378,1,8,0:0:0:0:
135,168,67609,1,0,0:0:0:0:
346,155,67724,1,8,0:0:0:0:
410,156,67840,1,0,0:0:0:0:
466,164,68070,1,8,0:0:0:0:
453,99,68301,1,8,0:0:0:0:
312,168,68763,1,0,0:0:0:0:
389,168,68994,1,0,0:0:0:0:
397,222,69224,1,8,0:0:0:0:
427,187,69455,1,8,0:0:0:0:
377,224,69570,1,8,0:0:0:0:
398,193,69801,1,8,0:0:0:0:
360,150,69916,1,0,0:0:0:0:
462,142,70147,1,0,0:0:0:0:
224,64,70840,1,0,0:0:0:0:
286,163,71070,1,8,0:0:0:0:
421,155,71301,1,0,0:0:0:0:
484,144,71417,1,8,0:0:0:0:
393,121,71532,1,0,0:0:0:0:
387,155,71763,1,8,0:0:0:0:
377,147,71994,1,0,0:0:0:0:
345,239,72455,1,0,0:0:0:0:
327,50,72686,1,8,0:0:0:0:
393,135,72917,1,8,0:0:0:0:
461,157,73147,1,0,0:0:0:0:
243,39,73263,1,0,0:0:0:0:
291,179,73378,1,0,0:0:0:0:
225,28,73609,5,8,0:0:0:0:
435,165,73840,1,8,0:0:0:0:
435,165,74301,1,0,0:0:0:0:
331,254,74532,1,0,0:0:0:0:
423,144,74763,1,8,0:0:0:0:
343,142,75455,1,0,0:0:0:0:
441,132,75686,1,8,0:0:0:0:
330,186,76147,1,8,0:0:0:0:
452,170,76378,5,8,0:0:0:0:
430,182,76494,1,0,0:0:0:0:
421,143,76609,1,8,0:0:0:0:
457,137,77070,1,8,0:0:0:0:
280,156,77301,1,8,0:0:0:0:
232,106,77532,1,8,0:0:0:0:
426,150,77994,1,8,0:0:0:0:
410,170,78224,1,0,0:0:0:0:
359,168,78340,1,8,0:0:0:0:
441,163,78455,1,0,0:0:0:0:
361,125,78686,1,0,0:0:0:0:
466,160,78917,1,8,0:0:0:0:
346,243,79032,1,8,0:0:0:0:
343,146,79147,1,0,0:0:0:0:
383,93,79378,1,8,0:0:0:0:
341,158,79840,1,0,0:0:0:0:
321,224,79955,5,0,0:0:0:0:
339,188,80070,1,0,0:0:0:0:
374,168,80301,1,8,0:0:0:0:
428,166,80763,1,0,0:0:0:0:
294,132,80994,1,8,0:0:0:0:
313,143,81224,1,0,0:0:0:0:
339,169,81340,1,0,0:0:0:0:
339,169,81455,1,0,0:0:0:0:
451,135,81686,1,8,0:0:0:0:
359,139,82378,1,0,0:0:0:0:
450,173,82609,1,8,0:0:0:0:
391,142,82840,1,8,0:0:0:0:
391,142,82955,1,8,0:0:0:0:
376,128,83070,1,8,0:0:0:0:
342,160,83532,1,8,0:0:0:0:
312,168,83763,1,8,0:0:0:0:
234,121,83878,1,0,0:0:0:0:
320,128,83994,5,8,0:0:0:0:
397,222,84224,1,0,0:0:0:0:
427,187,84455,1,0,0:0:0:0:
190,113,84917,1,8,0:0:0:0:
422,184,85032,1,0,0:0:0:0:
361,157,85147,1,8,0:0:0:0:
441,148,85378,1,8,0:0:0:0:
417,151,85609,1,0,0:0:0:0:
417,151,85724,1,0,0:0:0:0:
461,141,85840,1,8,0:0:0:0:
430,136,86070,1,0,0:0:0:0:
421,155,86301,1,8,0:0:0:0:
377,167,86763,1,0,0:0:0:0:
328,151,86994,1,8,0:0:0:0:
333,160,87109,1,8,0:0:0:0:
368,149,87224,1,8,0:0:0:0:
434,168,87455,1,0,0:0:0:0:
330,162,87570,1,0,0:0:0:0:
384,221,87686,1,8,0:0:0:0:
393,135,87917,1,0,0:0:0:0:
451,164,88147,1,8,0:0:0:0:
320,118,88378,1,8,0:0:0:0:
373,137,88494,1,8,0:0:0:0:
197,156,88609,1,0,0:0:0:0:
