osu file format v14

[General]
AudioFilename: audio.mp3
AudioLeadIn: 0
PreviewTime: 47684
Countdown: 1
SampleSet: Soft
StackLeniency: 0.7
Mode: 1
LetterboxInBreaks: 0
WidescreenStoryboard: 0

[Editor]
Bookmarks: 24827,30541,36255,41969,47684,53398,59112,64827,70541,81969,87684,93398,99112,104827,110541,116255,121969,127684,133398,139112,144827,150541
DistanceSpacing: 2.2
BeatDivisor: 4
GridSize: 32
TimelineZoom: 3.1

[Metadata]
Title:161914
TitleUnicode:161914
Artist:Sorry about my face
ArtistUnicode:Sorry about my face
Creator:vrnl
Version:inner oni
Source:
Tags:is cuimhin liom breakcore russian
BeatmapID:1744890
BeatmapSetID:832971

[Difficulty]
HPDrainRate:6
CircleSize:6
OverallDifficulty:6
ApproachRate:6
SliderMultiplier:1.6
SliderTickRate:1

[Events]
//Background and Video events
0,0,"a2713157602_16anime.jpg",0,-50
//Break Periods
//Storyboard Layer 0 (Background)
//Storyboard Layer 1 (Fail)
//Storyboard Layer 2 (Pass)
//Storyboard Layer 3 (Foreground)
//Storyboard Sound Samples

[TimingPoints]
1970,357.142857142857,4,2,0,35,1,0
24782,-100,4,1,0,85,0,0
47684,-100,4,1,0,90,0,1
70541,-100,4,1,0,80,0,0
70898,-100,4,1,0,70,0,0
81969,-100,4,1,0,80,0,0
93398,-100,4,1,0,85,0,0
104827,-100,4,1,0,90,0,1
139112,-100,4,2,0,40,0,0
144827,-100,4,2,0,35,0,0

[HitObjects]
163,85,1970,5,2,0:0:0:0:
259,183,4112,1,2,0:0:0:0:
259,183,4827,1,0,0:0:0:0:
169,172,6969,1,0,0:0:0:0:
169,172,7684,1,2,0:0:0:0:
169,172,9827,1,2,0:0:0:0:
169,172,10541,1,2,0:0:0:0:
169,172,11255,1,2,0:0:0:0:
169,172,11612,1,2,0:0:0:0:
169,172,11969,1,0,0:0:0:0:
169,172,12148,1,0,0:0:0:0:
169,172,12327,1,0,0:0:0:0:
125,180,12505,1,2,0:0:0:0:
125,180,12862,1,0,0:0:0:0:
119,142,13398,1,6,0:0:0:0:
176,89,16255,1,0,0:0:0:0:
161,118,18398,1,0,0:0:0:0:
161,118,19112,1,2,0:0:0:0:
161,118,19469,1,2,0:0:0:0:
263,93,19737,1,0,0:0:0:0:
263,93,19827,1,2,0:0:0:0:
263,93,20094,1,0,0:0:0:0:
263,93,20184,1,2,0:0:0:0:
263,93,20452,1,0,0:0:0:0:
263,93,20541,1,0,0:0:0:0:
163,155,21255,1,2,0:0:0:0:
163,155,21434,1,2,0:0:0:0:
163,155,21612,1,2,0:0:0:0:
163,155,21791,1,2,0:0:0:0:
163,155,21969,1,0,0:0:0:0:
256,192,22148,12,0,23934,0:0:0:0:
314,121,24112,5,0,0:0:0:0:
314,121,24172,1,0,0:0:0:0:
314,121,24231,1,0,0:0:0:0:
314,121,24291,1,0,0:0:0:0:
310,127,24350,1,0,0:0:0:0:
114,128,24410,1,0,0:0:0:0:
310,127,24559,1,0,0:0:0:0:
310,127,24648,1,0,0:0:0:0:
310,127,24737,1,0,0:0:0:0:
162,128,24827,1,2,0:0:0:0:
259,166,25184,1,2,0:0:0:0:
259,166,25273,1,2,0:0:0:0:
259,166,25362,1,0,0:0:0:0:
259,166,25541,1,0,0:0:0:0:
259,166,25719,1,2,0:0:0:0:
259,166,25809,1,0,0:0:0:0:
259,166,25987,1,0,0:0:0:0:
259,166,26077,1,2,0:0:0:0:
259,166,26166,1,0,0:0:0:0:
259,166,26255,1,2,0:0:0:0:
122,159,26434,1,0,0:0:0:0:
185,163,26523,1,0,0:0:0:0:
185,163,26612,1,2,0:0:0:0:
185,163,26702,1,2,0:0:0:0:
185,163,26880,1,0,0:0:0:0:
129,157,26969,1,2,0:0:0:0:
129,157,27059,1,2,0:0:0:0:
129,157,27237,1,0,0:0:0:0:
129,157,27327,1,2,0:0:0:0:
129,157,27505,1,2,0:0:0:0:
129,157,27684,1,0,0:0:0:0:
236,176,28041,1,2,0:0:0:0:
236,176,28130,1,2,0:0:0:0:
236,176,28219,1,0,0:0:0:0:
236,176,28577,1,2,0:0:0:0:
236,176,28666,1,0,0:0:0:0:
236,176,28844,1,2,0:0:0:0:
236,176,28934,1,0,0:0:0:0:
236,176,29023,1,2,0:0:0:0:
236,176,29112,1,0,0:0:0:0:
151,240,29202,1,0,0:0:0:0:
200,73,29291,1,0,0:0:0:0:
157,181,29469,1,2,0:0:0:0:
157,181,29737,1,2,0:0:0:0:
155,164,29827,1,2,0:0:0:0:
184,108,30005,1,0,0:0:0:0:
184,108,30094,1,2,0:0:0:0:
184,108,30184,1,0,0:0:0:0:
184,108,30362,1,0,0:0:0:0:
184,108,30541,1,0,0:0:0:0:
171,201,30898,1,2,0:0:0:0:
171,201,30987,1,2,0:0:0:0:
171,201,31077,1,0,0:0:0:0:
171,201,31434,1,2,0:0:0:0:
171,201,31523,1,2,0:0:0:0:
171,201,31702,1,2,0:0:0:0:
171,201,31791,1,2,0:0:0:0:
171,201,31880,1,2,0:0:0:0:
171,201,31969,1,0,0:0:0:0:
171,201,32148,1,0,0:0:0:0:
196,123,32327,1,2,0:0:0:0:
134,166,32505,1,0,0:0:0:0:
134,166,32594,1,2,0:0:0:0:
134,166,32684,1,2,0:0:0:0:
134,166,32862,1,2,0:0:0:0:
134,166,33041,1,2,0:0:0:0:
134,166,33219,1,2,0:0:0:0:
134,166,33398,1,0,0:0:0:0:
191,137,33755,1,2,0:0:0:0:
191,137,33844,1,2,0:0:0:0:
191,137,33934,1,0,0:0:0:0:
191,137,34291,1,2,0:0:0:0:
191,137,34380,1,2,0:0:0:0:
191,137,34469,1,0,0:0:0:0:
191,137,34559,1,2,0:0:0:0:
219,100,34618,1,2,0:0:0:0:
219,100,34678,1,2,0:0:0:0:
219,100,34737,1,2,0:0:0:0:
295,134,34827,1,0,0:0:0:0:
133,161,35005,1,0,0:0:0:0:
133,161,35184,1,2,0:0:0:0:
133,161,35362,1,2,0:0:0:0:
133,161,35452,1,2,0:0:0:0:
133,161,35541,1,0,0:0:0:0:
133,161,35630,1,2,0:0:0:0:
133,161,35719,1,2,0:0:0:0:
357,173,35898,1,0,0:0:0:0:
357,173,35958,1,2,0:0:0:0:
357,173,36017,1,2,0:0:0:0:
357,173,36077,1,0,0:0:0:0:
357,173,36136,1,2,0:0:0:0:
357,173,36196,1,2,0:0:0:0:
357,173,36255,1,0,0:0:0:0:
157,197,36612,1,2,0:0:0:0:
157,197,36702,1,0,0:0:0:0:
157,197,36791,1,0,0:0:0:0:
183,189,36969,1,0,0:0:0:0:
183,189,37148,1,2,0:0:0:0:
146,162,37327,1,2,0:0:0:0:
146,162,37416,1,2,0:0:0:0:
146,162,37505,1,0,0:0:0:0:
146,162,37594,1,2,0:0:0:0:
146,162,37684,1,2,0:0:0:0:
190,174,37862,1,0,0:0:0:0:
190,174,37952,1,0,0:0:0:0:
190,174,38041,1,2,0:0:0:0:
190,174,38219,1,2,0:0:0:0:
190,174,38309,1,2,0:0:0:0:
190,174,38398,1,0,0:0:0:0:
190,174,38487,1,0,0:0:0:0:
190,174,38577,1,0,0:0:0:0:
190,174,38755,1,2,0:0:0:0:
190,174,38934,1,0,0:0:0:0:
190,174,39023,1,2,0:0:0:0:
190,174,39112,1,0,0:0:0:0:
206,153,39469,1,2,0:0:0:0:
206,153,39559,1,0,0:0:0:0:
206,153,39648,1,0,0:0:0:0:
206,153,39827,1,0,0:0:0:0:
206,153,40005,1,2,0:0:0:0:
206,153,40094,1,2,0:0:0:0:
206,153,40184,1,0,0:0:0:0:
206,153,40273,1,2,0:0:0:0:
206,153,40362,1,0,0:0:0:0:
106,40,40452,1,2,0:0:0:0:
206,153,40541,1,0,0:0:0:0:
171,161,40719,1,0,0:0:0:0:
206,74,40898,1,2,0:0:0:0:
206,74,41077,1,2,0:0:0:0:
206,74,41166,1,2,0:0:0:0:
206,74,41255,1,0,0:0:0:0:
206,74,41344,1,0,0:0:0:0:
206,74,41434,1,2,0:0:0:0:
206,74,41612,1,0,0:0:0:0:
206,74,41702,1,2,0:0:0:0:
206,74,41791,1,0,0:0:0:0:
206,74,41880,1,2,0:0:0:0:
206,74,41969,1,0,0:0:0:0:
157,197,42327,1,2,0:0:0:0:
157,197,42417,1,0,0:0:0:0:
157,197,42506,1,0,0:0:0:0:
183,189,42684,1,0,0:0:0:0:
183,189,42863,1,2,0:0:0:0:
146,162,43042,1,2,0:0:0:0:
146,162,43131,1,2,0:0:0:0:
146,162,43220,1,0,0:0:0:0:
146,162,43309,1,2,0:0:0:0:
146,162,43399,1,2,0:0:0:0:
190,174,43577,1,0,0:0:0:0:
190,174,43667,1,0,0:0:0:0:
190,174,43756,1,2,0:0:0:0:
190,174,43845,1,0,0:0:0:0:
127,121,44023,1,2,0:0:0:0:
190,174,44113,1,0,0:0:0:0:
190,174,44202,1,2,0:0:0:0:
190,174,44292,1,0,0:0:0:0:
76,177,44469,1,0,0:0:0:0:
82,177,44529,1,0,0:0:0:0:
82,177,44589,1,0,0:0:0:0:
82,177,44648,1,0,0:0:0:0:
82,177,44708,1,0,0:0:0:0:
82,177,44767,1,0,0:0:0:0:
82,177,44827,1,0,0:0:0:0:
157,197,45184,1,2,0:0:0:0:
157,197,45274,1,2,0:0:0:0:
157,197,45363,1,0,0:0:0:0:
183,189,45541,1,0,0:0:0:0:
183,189,45720,1,2,0:0:0:0:
146,162,45899,1,0,0:0:0:0:
146,162,45988,1,2,0:0:0:0:
146,162,46077,1,0,0:0:0:0:
146,162,46166,1,2,0:0:0:0:
146,162,46256,1,2,0:0:0:0:
190,174,46434,1,0,0:0:0:0:
190,174,46524,1,0,0:0:0:0:
190,174,46613,1,2,0:0:0:0:
57,97,46702,1,2,0:0:0:0:
190,174,46880,1,2,0:0:0:0:
190,174,46970,1,0,0:0:0:0:
190,174,47059,1,2,0:0:0:0:
190,174,47149,1,0,0:0:0:0:
88,92,47237,1,2,0:0:0:0:
190,174,47327,1,2,0:0:0:0:
303,135,47386,1,2,0:0:0:0:
303,135,47446,1,2,0:0:0:0:
303,135,47505,1,2,0:0:0:0:
303,135,47565,1,2,0:0:0:0:
303,135,47624,1,2,0:0:0:0:
190,174,47684,1,0,0:0:0:0:
123,186,47862,1,0,0:0:0:0:
123,186,47952,1,0,0:0:0:0:
123,186,48041,1,2,0:0:0:0:
181,209,48130,1,2,0:0:0:0:
181,209,48219,1,0,0:0:0:0:
181,209,48398,1,2,0:0:0:0:
181,209,48577,1,0,0:0:0:0:
181,209,48666,1,0,0:0:0:0:
181,209,48755,1,0,0:0:0:0:
181,209,48844,1,2,0:0:0:0:
181,209,48934,1,0,0:0:0:0:
140,162,49023,1,2,0:0:0:0:
140,162,49112,1,0,0:0:0:0:
134,171,49291,1,2,0:0:0:0:
134,171,49380,1,0,0:0:0:0:
134,171,49469,1,2,0:0:0:0:
134,171,49559,1,2,0:0:0:0:
134,171,49648,1,0,0:0:0:0:
134,171,49737,1,0,0:0:0:0:
134,171,49827,1,2,0:0:0:0:
134,171,50005,1,2,0:0:0:0:
134,171,50094,1,2,0:0:0:0:
134,171,50184,1,2,0:0:0:0:
134,171,50362,1,2,0:0:0:0:
189,209,50541,1,0,0:0:0:0:
189,209,50719,1,0,0:0:0:0:
189,209,50809,1,0,0:0:0:0:
189,209,50898,1,2,0:0:0:0:
189,209,51077,1,0,0:0:0:0:
189,209,51166,1,2,0:0:0:0:
189,209,51255,1,0,0:0:0:0:
189,209,51434,1,2,0:0:0:0:
189,209,51612,1,2,0:0:0:0:
189,209,51702,1,2,0:0:0:0:
189,209,51791,1,0,0:0:0:0:
189,209,51880,1,2,0:0:0:0:
189,209,51969,1,0,0:0:0:0:
212,177,52148,1,0,0:0:0:0:
212,177,52237,1,0,0:0:0:0:
212,177,52327,1,2,0:0:0:0:
212,177,52505,1,2,0:0:0:0:
212,177,52594,1,0,0:0:0:0:
212,177,52684,1,2,0:0:0:0:
195,125,52773,1,2,0:0:0:0:
195,125,52862,1,0,0:0:0:0:
195,125,52952,1,0,0:0:0:0:
195,125,53041,1,2,0:0:0:0:
197,186,53219,1,2,0:0:0:0:
195,125,53398,1,0,0:0:0:0:
117,198,53577,1,0,0:0:0:0:
117,198,53666,1,0,0:0:0:0:
117,198,53755,1,2,0:0:0:0:
117,198,53844,1,0,0:0:0:0:
117,198,53934,1,0,0:0:0:0:
117,198,54112,1,2,0:0:0:0:
164,181,54202,1,2,0:0:0:0:
164,181,54291,1,0,0:0:0:0:
164,181,54469,1,0,0:0:0:0:
199,201,54559,1,2,0:0:0:0:
164,181,54648,1,0,0:0:0:0:
199,201,54737,1,2,0:0:0:0:
199,201,54827,1,0,0:0:0:0:
203,145,55005,1,0,0:0:0:0:
203,145,55184,1,2,0:0:0:0:
203,145,55362,1,0,0:0:0:0:
203,145,55452,1,0,0:0:0:0:
203,145,55541,1,2,0:0:0:0:
203,145,55630,1,2,0:0:0:0:
203,145,55719,1,2,0:0:0:0:
203,145,55809,1,2,0:0:0:0:
203,145,55898,1,2,0:0:0:0:
203,145,55987,1,2,0:0:0:0:
203,145,56077,1,2,0:0:0:0:
203,145,56166,1,2,0:0:0:0:
203,145,56255,1,0,0:0:0:0:
206,148,56434,1,0,0:0:0:0:
206,148,56612,1,2,0:0:0:0:
206,148,56702,1,2,0:0:0:0:
206,148,56791,1,0,0:0:0:0:
206,148,56969,1,2,0:0:0:0:
206,148,57059,1,0,0:0:0:0:
206,148,57148,1,0,0:0:0:0:
206,148,57237,1,2,0:0:0:0:
206,148,57327,1,0,0:0:0:0:
263,101,57416,1,2,0:0:0:0:
263,101,57475,1,2,0:0:0:0:
263,101,57535,1,2,0:0:0:0:
263,101,57594,1,2,0:0:0:0:
272,100,57684,1,0,0:0:0:0:
192,130,57862,1,0,0:0:0:0:
192,130,58041,1,2,0:0:0:0:
192,130,58219,1,0,0:0:0:0:
192,130,58309,1,2,0:0:0:0:
192,130,58398,1,0,0:0:0:0:
192,130,58487,1,2,0:0:0:0:
192,130,58577,1,2,0:0:0:0:
305,177,58755,1,0,0:0:0:0:
305,177,58815,1,0,0:0:0:0:
305,177,58874,1,0,0:0:0:0:
305,177,58934,1,0,0:0:0:0:
305,177,58993,1,0,0:0:0:0:
305,177,59053,1,0,0:0:0:0:
305,177,59112,1,2,0:0:0:0:
200,118,59291,1,0,0:0:0:0:
200,118,59469,1,2,0:0:0:0:
200,118,59559,1,2,0:0:0:0:
200,118,59648,1,0,0:0:0:0:
259,116,59827,1,0,0:0:0:0:
259,116,59871,1,0,0:0:0:0:
145,127,60005,1,2,0:0:0:0:
145,127,60094,1,0,0:0:0:0:
145,127,60184,1,2,0:0:0:0:
145,127,60273,1,2,0:0:0:0:
145,127,60362,1,0,0:0:0:0:
145,127,60452,1,2,0:0:0:0:
145,127,60541,1,0,0:0:0:0:
207,155,60719,1,2,0:0:0:0:
207,155,60898,1,0,0:0:0:0:
207,155,61077,1,0,0:0:0:0:
207,155,61166,1,0,0:0:0:0:
207,155,61255,1,2,0:0:0:0:
207,155,61434,1,2,0:0:0:0:
207,155,61523,1,2,0:0:0:0:
207,155,61612,1,2,0:0:0:0:
207,155,61791,1,2,0:0:0:0:
214,135,61880,1,0,0:0:0:0:
214,135,61969,1,0,0:0:0:0:
214,131,62148,1,0,0:0:0:0:
214,131,62237,1,2,0:0:0:0:
214,131,62327,1,2,0:0:0:0:
214,131,62416,1,0,0:0:0:0:
214,131,62505,1,0,0:0:0:0:
311,129,62684,1,2,0:0:0:0:
311,129,62728,1,2,0:0:0:0:
233,158,62862,1,2,0:0:0:0:
270,127,62952,1,0,0:0:0:0:
270,127,63041,1,2,0:0:0:0:
270,127,63130,1,2,0:0:0:0:
270,127,63219,1,0,0:0:0:0:
210,154,63398,1,0,0:0:0:0:
216,143,63487,1,2,0:0:0:0:
216,143,63577,1,0,0:0:0:0:
216,143,63755,1,2,0:0:0:0:
216,143,63844,1,0,0:0:0:0:
216,143,63934,1,2,0:0:0:0:
70,77,64023,1,2,0:0:0:0:
216,143,64112,1,0,0:0:0:0:
185,45,64202,1,0,0:0:0:0:
185,45,64291,1,2,0:0:0:0:
185,45,64380,1,0,0:0:0:0:
133,175,64469,1,2,0:0:0:0:
133,175,64559,1,0,0:0:0:0:
133,175,64648,1,2,0:0:0:0:
133,175,64737,1,2,0:0:0:0:
133,175,64827,1,0,0:0:0:0:
142,166,65005,1,0,0:0:0:0:
40,161,65184,1,0,0:0:0:0:
138,161,65273,1,0,0:0:0:0:
40,161,65362,1,0,0:0:0:0:
138,161,65541,1,2,0:0:0:0:
186,72,65586,1,0,0:0:0:0:
231,176,65719,1,0,0:0:0:0:
231,176,65809,1,2,0:0:0:0:
231,176,65898,1,0,0:0:0:0:
231,176,65987,1,2,0:0:0:0:
231,176,66077,1,0,0:0:0:0:
231,176,66166,1,2,0:0:0:0:
231,176,66255,1,2,0:0:0:0:
232,184,66434,1,2,0:0:0:0:
232,184,66523,1,2,0:0:0:0:
232,184,66612,1,0,0:0:0:0:
232,184,66791,1,0,0:0:0:0:
232,184,66880,1,0,0:0:0:0:
232,184,66969,1,2,0:0:0:0:
232,184,67059,1,2,0:0:0:0:
232,184,67148,1,2,0:0:0:0:
232,184,67237,1,2,0:0:0:0:
259,156,67327,1,0,0:0:0:0:
259,156,67386,1,0,0:0:0:0:
259,156,67446,1,0,0:0:0:0:
259,156,67505,1,2,0:0:0:0:
259,156,67565,1,0,0:0:0:0:
259,156,67624,1,0,0:0:0:0:
259,156,67684,1,2,0:0:0:0:
268,180,67862,1,0,0:0:0:0:
268,180,67952,1,0,0:0:0:0:
268,180,68041,1,2,0:0:0:0:
268,180,68130,1,2,0:0:0:0:
268,180,68219,1,0,0:0:0:0:
247,157,68398,1,0,0:0:0:0:
247,157,68443,1,2,0:0:0:0:
268,180,68577,1,2,0:0:0:0:
268,180,68666,1,2,0:0:0:0:
268,180,68755,1,0,0:0:0:0:
268,180,68844,1,2,0:0:0:0:
268,180,68934,1,2,0:0:0:0:
268,180,69023,1,2,0:0:0:0:
268,180,69112,1,0,0:0:0:0:
85,172,69291,1,2,0:0:0:0:
85,172,69380,1,0,0:0:0:0:
93,172,69469,1,2,0:0:0:0:
159,183,69648,1,2,0:0:0:0:
159,183,69737,1,2,0:0:0:0:
159,183,69827,1,0,0:0:0:0:
159,183,69916,1,2,0:0:0:0:
159,183,70005,1,0,0:0:0:0:
159,183,70094,1,2,0:0:0:0:
274,155,70184,1,2,0:0:0:0:
274,155,70243,1,2,0:0:0:0:
274,155,70303,1,2,0:0:0:0:
274,155,70362,1,2,0:0:0:0:
274,155,70422,1,2,0:0:0:0:
274,155,70481,1,2,0:0:0:0:
274,155,70541,1,0,0:0:0:0:
239,142,70898,1,0,0:0:0:0:
239,142,71255,1,2,0:0:0:0:
239,142,71612,1,2,0:0:0:0:
200,170,71791,1,0,0:0:0:0:
239,142,71969,1,0,0:0:0:0:
239,142,72327,1,2,0:0:0:0:
239,142,72684,1,2,0:0:0:0:
131,136,72743,1,2,0:0:0:0:
46,172,72803,1,0,0:0:0:0:
239,142,73041,1,0,0:0:0:0:
107,134,73100,1,0,0:0:0:0:
131,136,73160,1,2,0:0:0:0:
131,136,73398,1,0,0:0:0:0:
131,136,73755,1,2,0:0:0:0:
239,142,74112,1,2,0:0:0:0:
239,142,74469,1,0,0:0:0:0:
239,142,74827,1,2,0:0:0:0:
71,146,74886,1,0,0:0:0:0:
239,142,75184,1,2,0:0:0:0:
239,142,75541,1,0,0:0:0:0:
239,142,75898,1,0,0:0:0:0:
239,142,76255,1,0,0:0:0:0:
76,148,76434,1,2,0:0:0:0:
76,148,76612,1,2,0:0:0:0:
76,148,76791,1,0,0:0:0:0:
76,148,76969,1,2,0:0:0:0:
200,92,77148,1,0,0:0:0:0:
239,142,77327,1,0,0:0:0:0:
239,142,77684,1,0,0:0:0:0:
200,92,77773,1,0,0:0:0:0:
200,92,77862,1,0,0:0:0:0:
200,92,77952,1,0,0:0:0:0:
239,142,78041,1,0,0:0:0:0:
200,92,78130,1,0,0:0:0:0:
200,92,78219,1,0,0:0:0:0:
200,92,78309,1,0,0:0:0:0:
239,142,78398,1,2,0:0:0:0:
99,146,78577,1,2,0:0:0:0:
99,146,78755,1,2,0:0:0:0:
99,146,78844,1,2,0:0:0:0:
99,146,78934,1,0,0:0:0:0:
99,146,79023,1,0,0:0:0:0:
99,146,79112,1,2,0:0:0:0:
99,146,79202,1,2,0:0:0:0:
99,146,79291,1,0,0:0:0:0:
198,84,79469,1,2,0:0:0:0:
198,84,79648,1,0,0:0:0:0:
198,84,79827,1,2,0:0:0:0:
239,142,80184,1,0,0:0:0:0:
239,142,80541,1,2,0:0:0:0:
282,146,80586,1,0,0:0:0:0:
282,146,80898,1,2,0:0:0:0:
282,146,80943,1,2,0:0:0:0:
183,169,81255,1,2,0:0:0:0:
183,169,81434,1,0,0:0:0:0:
239,142,81612,1,2,0:0:0:0:
183,169,81791,1,0,0:0:0:0:
239,142,81969,1,0,0:0:0:0:
152,233,82148,1,2,0:0:0:0:
152,233,82327,1,2,0:0:0:0:
152,233,82505,1,0,0:0:0:0:
152,233,82684,1,2,0:0:0:0:
152,233,82773,1,2,0:0:0:0:
152,233,82862,1,0,0:0:0:0:
184,201,83041,1,0,0:0:0:0:
184,201,83219,1,2,0:0:0:0:
184,201,83309,1,2,0:0:0:0:
184,201,83398,1,0,0:0:0:0:
200,207,83577,1,0,0:0:0:0:
200,207,83755,1,2,0:0:0:0:
200,207,83934,1,0,0:0:0:0:
200,207,84023,1,0,0:0:0:0:
200,207,84112,1,2,0:0:0:0:
200,207,84172,1,2,0:0:0:0:
87,163,84231,1,2,0:0:0:0:
200,207,84291,1,0,0:0:0:0:
108,171,84469,1,0,0:0:0:0:
108,171,84529,1,0,0:0:0:0:
108,171,84589,1,0,0:0:0:0:
108,171,84648,1,2,0:0:0:0:
216,149,84827,1,0,0:0:0:0:
208,155,85184,1,2,0:0:0:0:
208,155,85362,1,0,0:0:0:0:
212,167,85541,1,2,0:0:0:0:
208,155,85630,1,2,0:0:0:0:
164,193,85719,1,2,0:0:0:0:
164,193,85898,1,0,0:0:0:0:
164,193,86077,1,2,0:0:0:0:
164,193,86166,1,2,0:0:0:0:
202,190,86255,1,0,0:0:0:0:
202,190,86434,1,2,0:0:0:0:
202,190,86612,1,0,0:0:0:0:
202,190,86702,1,0,0:0:0:0:
202,190,86791,1,0,0:0:0:0:
202,190,86969,1,2,0:0:0:0:
203,197,87059,1,2,0:0:0:0:
203,197,87148,1,0,0:0:0:0:
203,197,87327,1,6,0:0:0:0:
203,197,87505,1,6,0:0:0:0:
216,115,87684,1,0,0:0:0:0:
216,115,87862,1,2,0:0:0:0:
216,115,88041,1,2,0:0:0:0:
54,157,88219,1,0,0:0:0:0:
216,115,88398,1,2,0:0:0:0:
160,164,88487,1,2,0:0:0:0:
160,164,88577,1,0,0:0:0:0:
160,164,88755,1,0,0:0:0:0:
160,164,88934,1,2,0:0:0:0:
160,164,89023,1,2,0:0:0:0:
160,164,89112,1,0,0:0:0:0:
160,164,89202,1,0,0:0:0:0:
160,164,89291,1,0,0:0:0:0:
160,164,89380,1,0,0:0:0:0:
160,164,89469,1,0,0:0:0:0:
160,164,89559,1,0,0:0:0:0:
160,164,89648,1,0,0:0:0:0:
160,164,89737,1,0,0:0:0:0:
160,164,89827,1,2,0:0:0:0:
167,165,90005,1,2,0:0:0:0:
178,174,90184,1,2,0:0:0:0:
178,174,90274,1,2,0:0:0:0:
178,174,90363,1,0,0:0:0:0:
178,174,90452,1,0,0:0:0:0:
188,127,90541,1,0,0:0:0:0:
188,127,90898,1,2,0:0:0:0:
188,127,91077,1,0,0:0:0:0:
188,127,91255,1,2,0:0:0:0:
188,127,91344,1,2,0:0:0:0:
183,162,91434,1,2,0:0:0:0:
183,162,91612,1,0,0:0:0:0:
183,162,91791,1,2,0:0:0:0:
183,162,91880,1,2,0:0:0:0:
183,162,91969,1,0,0:0:0:0:
183,162,92148,1,2,0:0:0:0:
183,162,92327,1,0,0:0:0:0:
183,162,92416,1,0,0:0:0:0:
183,162,92505,1,0,0:0:0:0:
183,162,92684,1,2,0:0:0:0:
183,162,92862,1,2,0:0:0:0:
112,158,93041,1,0,0:0:0:0:
112,158,93130,1,0,0:0:0:0:
112,158,93219,1,0,0:0:0:0:
112,158,93309,1,0,0:0:0:0:
112,158,93398,1,6,0:0:0:0:
194,178,93755,1,2,0:0:0:0:
194,178,93844,1,2,0:0:0:0:
194,178,93934,1,2,0:0:0:0:
194,178,94023,1,0,0:0:0:0:
120,160,94202,1,2,0:0:0:0:
120,160,94291,1,0,0:0:0:0:
189,160,94469,1,2,0:0:0:0:
189,160,94648,1,2,0:0:0:0:
189,160,94737,1,2,0:0:0:0:
189,160,94827,1,0,0:0:0:0:
182,166,94916,1,0,0:0:0:0:
182,166,95005,1,0,0:0:0:0:
182,166,95184,1,2,0:0:0:0:
182,166,95273,1,2,0:0:0:0:
182,166,95362,1,0,0:0:0:0:
182,166,95452,1,2,0:0:0:0:
182,166,95541,1,0,0:0:0:0:
182,166,95630,1,2,0:0:0:0:
182,166,95719,1,0,0:0:0:0:
126,155,95898,1,2,0:0:0:0:
206,282,96077,1,0,0:0:0:0:
211,275,96255,1,0,0:0:0:0:
211,275,96344,1,0,0:0:0:0:
211,275,96434,1,0,0:0:0:0:
211,275,96523,1,0,0:0:0:0:
211,275,96612,1,2,0:0:0:0:
211,270,96791,1,2,0:0:0:0:
212,268,96880,1,0,0:0:0:0:
218,256,96969,1,2,0:0:0:0:
212,268,97059,1,2,0:0:0:0:
212,268,97148,1,0,0:0:0:0:
218,256,97327,1,2,0:0:0:0:
218,256,97505,1,0,0:0:0:0:
99,192,97594,1,0,0:0:0:0:
99,192,97684,1,0,0:0:0:0:
243,207,97862,1,0,0:0:0:0:
243,207,98041,1,2,0:0:0:0:
243,207,98130,1,2,0:0:0:0:
243,207,98309,1,2,0:0:0:0:
243,207,98398,1,0,0:0:0:0:
243,207,98577,1,0,0:0:0:0:
243,207,98755,1,0,0:0:0:0:
243,207,98934,1,0,0:0:0:0:
159,168,99112,1,0,0:0:0:0:
194,178,99469,1,2,0:0:0:0:
194,178,99558,1,0,0:0:0:0:
194,178,99737,1,0,0:0:0:0:
194,178,99827,1,2,0:0:0:0:
120,160,99916,1,2,0:0:0:0:
120,160,100005,1,0,0:0:0:0:
189,160,100183,1,2,0:0:0:0:
189,160,100362,1,0,0:0:0:0:
189,160,100451,1,2,0:0:0:0:
189,160,100541,1,0,0:0:0:0:
182,166,100719,1,0,0:0:0:0:
182,166,100898,1,2,0:0:0:0:
182,166,100987,1,0,0:0:0:0:
182,166,101076,1,0,0:0:0:0:
182,166,101166,1,2,0:0:0:0:
182,166,101255,1,0,0:0:0:0:
182,166,101344,1,2,0:0:0:0:
182,166,101433,1,0,0:0:0:0:
126,155,101612,1,2,0:0:0:0:
206,282,101702,1,2,0:0:0:0:
211,275,101791,1,2,0:0:0:0:
211,275,101880,1,2,0:0:0:0:
211,275,101969,1,0,0:0:0:0:
211,275,102148,1,0,0:0:0:0:
211,275,102326,1,2,0:0:0:0:
211,270,102505,1,2,0:0:0:0:
212,268,102594,1,0,0:0:0:0:
218,256,102683,1,2,0:0:0:0:
212,268,102773,1,2,0:0:0:0:
212,268,102862,1,0,0:0:0:0:
218,256,103041,1,2,0:0:0:0:
218,256,103219,1,0,0:0:0:0:
99,192,103308,1,0,0:0:0:0:
99,192,103398,1,0,0:0:0:0:
243,207,103576,1,0,0:0:0:0:
243,207,103755,1,2,0:0:0:0:
243,207,103844,1,2,0:0:0:0:
243,207,103934,1,0,0:0:0:0:
243,207,104023,1,2,0:0:0:0:
133,183,104112,1,0,0:0:0:0:
133,183,104291,1,2,0:0:0:0:
133,183,104469,1,2,0:0:0:0:
133,183,104559,1,2,0:0:0:0:
243,241,104648,1,0,0:0:0:0:
243,241,104708,1,0,0:0:0:0:
243,241,104767,1,0,0:0:0:0:
243,241,104827,1,2,0:0:0:0:
149,124,105005,1,0,0:0:0:0:
194,178,105184,1,2,0:0:0:0:
194,178,105273,1,2,0:0:0:0:
194,178,105363,1,0,0:0:0:0:
194,178,105452,1,0,0:0:0:0:
120,160,105631,1,2,0:0:0:0:
120,160,105720,1,0,0:0:0:0:
189,160,105898,1,2,0:0:0:0:
162,89,105987,1,2,0:0:0:0:
189,160,106077,1,0,0:0:0:0:
189,160,106166,1,2,0:0:0:0:
189,160,106256,1,0,0:0:0:0:
182,166,106345,1,0,0:0:0:0:
182,166,106434,1,0,0:0:0:0:
182,166,106613,1,2,0:0:0:0:
182,166,106702,1,2,0:0:0:0:
182,166,106791,1,0,0:0:0:0:
182,166,106881,1,2,0:0:0:0:
182,166,106970,1,0,0:0:0:0:
182,166,107059,1,2,0:0:0:0:
182,166,107148,1,0,0:0:0:0:
126,155,107327,1,2,0:0:0:0:
206,282,107506,1,0,0:0:0:0:
211,275,107684,1,0,0:0:0:0:
211,275,107773,1,0,0:0:0:0:
211,275,107863,1,0,0:0:0:0:
211,275,108041,1,2,0:0:0:0:
211,270,108220,1,2,0:0:0:0:
212,268,108309,1,0,0:0:0:0:
218,256,108398,1,2,0:0:0:0:
212,268,108488,1,2,0:0:0:0:
212,268,108577,1,0,0:0:0:0:
218,256,108756,1,2,0:0:0:0:
218,256,108844,1,0,0:0:0:0:
99,192,108903,1,0,0:0:0:0:
80,144,108963,1,0,0:0:0:0:
99,192,109023,1,0,0:0:0:0:
137,174,109112,1,0,0:0:0:0:
243,207,109291,1,0,0:0:0:0:
243,207,109470,1,2,0:0:0:0:
243,207,109559,1,2,0:0:0:0:
243,207,109738,1,2,0:0:0:0:
243,207,109827,1,0,0:0:0:0:
243,207,110006,1,0,0:0:0:0:
243,207,110184,1,0,0:0:0:0:
314,146,110243,1,0,0:0:0:0:
314,146,110303,1,0,0:0:0:0:
243,207,110362,1,2,0:0:0:0:
314,146,110422,1,2,0:0:0:0:
314,146,110481,1,2,0:0:0:0:
159,168,110541,1,0,0:0:0:0:
94,148,110719,1,0,0:0:0:0:
194,178,110898,1,2,0:0:0:0:
194,178,110987,1,0,0:0:0:0:
254,174,111077,1,0,0:0:0:0:
194,178,111166,1,0,0:0:0:0:
194,178,111256,1,2,0:0:0:0:
120,160,111345,1,2,0:0:0:0:
120,160,111434,1,0,0:0:0:0:
189,160,111612,1,2,0:0:0:0:
189,160,111791,1,0,0:0:0:0:
189,160,111880,1,2,0:0:0:0:
189,160,111970,1,0,0:0:0:0:
182,166,112148,1,0,0:0:0:0:
266,154,112237,1,0,0:0:0:0:
182,166,112327,1,2,0:0:0:0:
182,166,112416,1,0,0:0:0:0:
182,166,112505,1,0,0:0:0:0:
182,166,112595,1,2,0:0:0:0:
182,166,112684,1,0,0:0:0:0:
182,166,112773,1,2,0:0:0:0:
182,166,112862,1,0,0:0:0:0:
126,155,113041,1,2,0:0:0:0:
206,282,113131,1,2,0:0:0:0:
211,275,113220,1,2,0:0:0:0:
211,275,113309,1,2,0:0:0:0:
211,275,113398,1,0,0:0:0:0:
211,275,113577,1,0,0:0:0:0:
211,275,113755,1,2,0:0:0:0:
211,270,113934,1,2,0:0:0:0:
212,268,114023,1,0,0:0:0:0:
218,256,114112,1,2,0:0:0:0:
212,268,114202,1,2,0:0:0:0:
212,268,114291,1,0,0:0:0:0:
218,256,114470,1,2,0:0:0:0:
218,256,114648,1,0,0:0:0:0:
99,192,114737,1,0,0:0:0:0:
99,192,114827,1,0,0:0:0:0:
243,207,115005,1,0,0:0:0:0:
243,207,115184,1,2,0:0:0:0:
243,207,115273,1,2,0:0:0:0:
243,207,115363,1,0,0:0:0:0:
243,207,115452,1,2,0:0:0:0:
133,183,115541,1,0,0:0:0:0:
236,246,115630,1,0,0:0:0:0:
133,183,115720,1,2,0:0:0:0:
133,183,115898,1,2,0:0:0:0:
133,183,115988,1,2,0:0:0:0:
243,241,116077,1,0,0:0:0:0:
243,241,116137,1,0,0:0:0:0:
243,241,116196,1,0,0:0:0:0:
243,241,116256,1,2,0:0:0:0:
155,175,116434,1,0,0:0:0:0:
194,178,116612,1,2,0:0:0:0:
194,178,116701,1,2,0:0:0:0:
194,178,116791,1,0,0:0:0:0:
194,178,116880,1,0,0:0:0:0:
120,138,116969,1,2,0:0:0:0:
120,160,117059,1,2,0:0:0:0:
120,160,117148,1,0,0:0:0:0:
189,160,117326,1,2,0:0:0:0:
37,129,117416,1,2,0:0:0:0:
189,160,117505,1,0,0:0:0:0:
189,160,117594,1,2,0:0:0:0:
189,160,117684,1,0,0:0:0:0:
182,166,117862,1,0,0:0:0:0:
182,166,118041,1,2,0:0:0:0:
182,166,118130,1,0,0:0:0:0:
182,166,118309,1,0,0:0:0:0:
182,166,118398,1,2,0:0:0:0:
131,163,118487,1,0,0:0:0:0:
182,166,118577,1,2,0:0:0:0:
182,166,118666,1,2,0:0:0:0:
126,155,118755,1,2,0:0:0:0:
206,282,118934,1,2,0:0:0:0:
211,275,119112,1,0,0:0:0:0:
211,275,119291,1,0,0:0:0:0:
211,275,119380,1,0,0:0:0:0:
211,275,119469,1,2,0:0:0:0:
211,270,119648,1,2,0:0:0:0:
212,268,119737,1,0,0:0:0:0:
218,256,119826,1,2,0:0:0:0:
212,268,119916,1,2,0:0:0:0:
212,268,120005,1,0,0:0:0:0:
218,256,120184,1,2,0:0:0:0:
218,256,120362,1,2,0:0:0:0:
99,192,120451,1,0,0:0:0:0:
99,192,120541,1,0,0:0:0:0:
243,207,120719,1,0,0:0:0:0:
243,207,120898,1,2,0:0:0:0:
243,207,120987,1,2,0:0:0:0:
111,206,121077,1,0,0:0:0:0:
243,207,121166,1,2,0:0:0:0:
243,207,121255,1,0,0:0:0:0:
111,206,121434,1,0,0:0:0:0:
111,206,121523,1,0,0:0:0:0:
243,207,121612,1,0,0:0:0:0:
243,207,121791,1,0,0:0:0:0:
159,168,121969,1,0,0:0:0:0:
111,206,122148,1,0,0:0:0:0:
194,178,122326,1,2,0:0:0:0:
194,178,122415,1,0,0:0:0:0:
136,215,122505,1,2,0:0:0:0:
194,178,122594,1,0,0:0:0:0:
194,178,122684,1,2,0:0:0:0:
120,160,122773,1,2,0:0:0:0:
120,160,122862,1,0,0:0:0:0:
189,160,123040,1,2,0:0:0:0:
189,160,123219,1,0,0:0:0:0:
189,160,123308,1,2,0:0:0:0:
189,160,123398,1,0,0:0:0:0:
182,166,123576,1,0,0:0:0:0:
126,207,123666,1,2,0:0:0:0:
182,166,123755,1,2,0:0:0:0:
182,166,123844,1,0,0:0:0:0:
182,166,123933,1,0,0:0:0:0:
168,101,124023,1,2,0:0:0:0:
182,166,124112,1,0,0:0:0:0:
182,166,124201,1,0,0:0:0:0:
182,166,124290,1,0,0:0:0:0:
37,134,124380,1,0,0:0:0:0:
126,155,124469,1,2,0:0:0:0:
206,282,124559,1,2,0:0:0:0:
211,275,124648,1,2,0:0:0:0:
211,275,124737,1,2,0:0:0:0:
211,275,124826,1,0,0:0:0:0:
211,275,125005,1,0,0:0:0:0:
211,275,125183,1,2,0:0:0:0:
211,270,125362,1,2,0:0:0:0:
212,268,125451,1,0,0:0:0:0:
218,256,125540,1,2,0:0:0:0:
212,268,125630,1,2,0:0:0:0:
212,268,125719,1,0,0:0:0:0:
218,256,125898,1,2,0:0:0:0:
194,198,125987,1,0,0:0:0:0:
218,256,126047,1,0,0:0:0:0:
99,192,126106,1,0,0:0:0:0:
99,192,126166,1,0,0:0:0:0:
52,146,126255,1,2,0:0:0:0:
243,207,126433,1,0,0:0:0:0:
243,207,126612,1,2,0:0:0:0:
243,207,126701,1,2,0:0:0:0:
243,207,126791,1,0,0:0:0:0:
243,207,126880,1,2,0:0:0:0:
133,183,126969,1,0,0:0:0:0:
133,183,127148,1,2,0:0:0:0:
331,149,127237,1,0,0:0:0:0:
133,183,127326,1,2,0:0:0:0:
133,183,127386,1,0,0:0:0:0:
243,241,127446,1,0,0:0:0:0:
243,241,127505,1,2,0:0:0:0:
243,241,127565,1,0,0:0:0:0:
93,145,127624,1,0,0:0:0:0:
243,241,127684,1,2,0:0:0:0:
314,140,127773,1,0,0:0:0:0:
314,140,127862,1,0,0:0:0:0:
314,140,127952,1,0,0:0:0:0:
314,140,128041,1,0,0:0:0:0:
314,140,128130,1,0,0:0:0:0:
314,140,128219,1,0,0:0:0:0:
314,140,128309,1,0,0:0:0:0:
314,140,128398,1,2,0:0:0:0:
220,196,128577,1,2,0:0:0:0:
239,171,128755,1,0,0:0:0:0:
239,171,128844,1,2,0:0:0:0:
239,171,128934,1,2,0:0:0:0:
239,171,129112,1,0,0:0:0:0:
239,171,129291,1,0,0:0:0:0:
239,171,129380,1,2,0:0:0:0:
239,171,129469,1,0,0:0:0:0:
239,171,129559,1,0,0:0:0:0:
239,171,129648,1,2,0:0:0:0:
239,171,129737,1,0,0:0:0:0:
239,171,129827,1,2,0:0:0:0:
239,171,130005,1,2,0:0:0:0:
86,187,130065,1,0,0:0:0:0:
66,182,130124,1,0,0:0:0:0:
66,182,130184,1,2,0:0:0:0:
250,194,130273,1,2,0:0:0:0:
250,194,130362,1,2,0:0:0:0:
250,194,130452,1,0,0:0:0:0:
250,194,130541,1,0,0:0:0:0:
245,216,130719,1,0,0:0:0:0:
245,216,130809,1,0,0:0:0:0:
245,216,130898,1,2,0:0:0:0:
245,216,130987,1,0,0:0:0:0:
245,216,131077,1,0,0:0:0:0:
145,211,131255,1,2,0:0:0:0:
167,214,131434,1,0,0:0:0:0:
167,214,131523,1,0,0:0:0:0:
167,214,131612,1,2,0:0:0:0:
167,214,131791,1,2,0:0:0:0:
166,212,131969,1,0,0:0:0:0:
166,212,132059,1,0,0:0:0:0:
166,212,132148,1,2,0:0:0:0:
166,212,132237,1,0,0:0:0:0:
167,214,132327,1,2,0:0:0:0:
167,214,132505,1,0,0:0:0:0:
279,166,132684,1,2,0:0:0:0:
279,166,132743,1,0,0:0:0:0:
279,166,132803,1,0,0:0:0:0:
279,166,132862,1,2,0:0:0:0:
279,166,132922,1,0,0:0:0:0:
279,166,132981,1,0,0:0:0:0:
279,166,133041,1,2,0:0:0:0:
279,166,133100,1,0,0:0:0:0:
279,166,133160,1,0,0:0:0:0:
279,166,133219,1,2,0:0:0:0:
279,166,133279,1,0,0:0:0:0:
279,166,133339,1,0,0:0:0:0:
279,166,133398,5,2,0:0:0:0:
171,189,133577,1,0,0:0:0:0:
246,232,133666,1,0,0:0:0:0:
246,232,133755,1,0,0:0:0:0:
171,189,133934,1,0,0:0:0:0:
216,251,134112,1,2,0:0:0:0:
216,251,134202,1,2,0:0:0:0:
216,251,134291,1,2,0:0:0:0:
216,251,134380,1,2,0:0:0:0:
216,251,134469,1,2,0:0:0:0:
214,245,134559,1,2,0:0:0:0:
214,245,134648,1,2,0:0:0:0:
214,245,134737,1,2,0:0:0:0:
214,245,134827,1,0,0:0:0:0:
298,253,134886,1,0,0:0:0:0:
298,253,134946,1,0,0:0:0:0:
298,253,135005,1,0,0:0:0:0:
298,253,135184,1,2,0:0:0:0:
287,228,135362,1,0,0:0:0:0:
287,228,135452,1,0,0:0:0:0:
287,228,135541,1,2,0:0:0:0:
289,215,135600,1,2,0:0:0:0:
289,215,135660,1,2,0:0:0:0:
289,215,135719,1,2,0:0:0:0:
289,215,135779,1,2,0:0:0:0:
289,215,135839,1,2,0:0:0:0:
289,215,135898,1,2,0:0:0:0:
289,215,135958,1,2,0:0:0:0:
289,215,136017,1,2,0:0:0:0:
289,215,136077,1,2,0:0:0:0:
289,215,136136,1,2,0:0:0:0:
289,215,136196,1,2,0:0:0:0:
289,215,136255,1,0,0:0:0:0:
321,249,136344,1,0,0:0:0:0:
321,249,136434,1,0,0:0:0:0:
321,249,136523,1,0,0:0:0:0:
321,249,136612,1,2,0:0:0:0:
314,256,136791,1,0,0:0:0:0:
314,256,136969,1,2,0:0:0:0:
314,256,137059,1,2,0:0:0:0:
314,256,137148,1,0,0:0:0:0:
314,256,137237,1,0,0:0:0:0:
314,256,137327,1,2,0:0:0:0:
314,256,137416,1,2,0:0:0:0:
314,256,137505,1,0,0:0:0:0:
208,208,137684,1,2,0:0:0:0:
208,208,137773,1,0,0:0:0:0:
208,208,137862,1,0,0:0:0:0:
208,208,137952,1,0,0:0:0:0:
208,208,138041,1,2,0:0:0:0:
208,208,138130,1,2,0:0:0:0:
208,208,138219,1,0,0:0:0:0:
208,208,138309,1,0,0:0:0:0:
300,164,138398,1,2,0:0:0:0:
356,160,138458,1,0,0:0:0:0:
356,160,138517,1,0,0:0:0:0:
356,160,138577,1,2,0:0:0:0:
356,160,138636,1,0,0:0:0:0:
356,160,138696,1,0,0:0:0:0:
356,160,138755,1,2,0:0:0:0:
356,160,138815,1,2,0:0:0:0:
356,160,138874,1,2,0:0:0:0:
356,160,138934,1,0,0:0:0:0:
356,160,138993,1,0,0:0:0:0:
356,160,139053,1,0,0:0:0:0:
356,160,139112,1,2,0:0:0:0:
191,187,139827,1,2,0:0:0:0:
191,187,140541,1,2,0:0:0:0:
191,187,141255,1,2,0:0:0:0:
191,187,141969,1,0,0:0:0:0:
215,199,142059,1,2,0:0:0:0:
215,199,142327,1,2,0:0:0:0:
191,187,142684,1,0,0:0:0:0:
215,199,142773,1,2,0:0:0:0:
215,199,143041,1,2,0:0:0:0:
191,187,143398,1,0,0:0:0:0:
215,199,143487,1,2,0:0:0:0:
90,152,143755,1,2,0:0:0:0:
191,187,144112,1,0,0:0:0:0:
191,187,144827,1,2,0:0:0:0:
191,187,145541,1,2,0:0:0:0:
191,187,146255,1,0,0:0:0:0:
191,187,146612,1,0,0:0:0:0:
191,187,146969,1,2,0:0:0:0:
191,187,147684,1,0,0:0:0:0:
191,187,148398,1,0,0:0:0:0:
75,130,148755,1,2,0:0:0:0:
191,187,149112,1,0,0:0:0:0:
205,130,149291,1,0,0:0:0:0:
205,130,149469,1,2,0:0:0:0:
205,130,149648,1,2,0:0:0:0:
191,187,149827,1,0,0:0:0:0:
205,130,149916,1,0,0:0:0:0:
205,130,150005,1,0,0:0:0:0:
205,130,150094,1,0,0:0:0:0:
205,130,150184,1,0,0:0:0:0:
205,130,150273,1,0,0:0:0:0:
205,130,150362,1,0,0:0:0:0:
205,130,150452,1,0,0:0:0:0:
