osu file format v14

[General]
AudioFilename: audio.mp3
AudioLeadIn: 0
PreviewTime: 47594
Countdown: 0
SampleSet: Soft
StackLeniency: 0.2
Mode: 0
LetterboxInBreaks: 1
EpilepsyWarning: 1
WidescreenStoryboard: 0

[Editor]
Bookmarks: 1970,24827,47684,70541,81969,93398,104827,139112,150541
DistanceSpacing: 1.2
BeatDivisor: 4
GridSize: 32
TimelineZoom: 4.899998

[Metadata]
Title:161914
TitleUnicode:161914
Artist:Sorry about my face
ArtistUnicode:Sorry about my face
Creator:-Nenecchi
Version:sxrry
Source:
Tags:is cuimhin liom breakcore russian
BeatmapID:2167425
BeatmapSetID:1036649

[Difficulty]
HPDrainRate:5
CircleSize:4
OverallDifficulty:9
ApproachRate:9
SliderMultiplier:1.4
SliderTickRate:1

[Events]
//Background and Video events
0,0,"1507501727674.png",0,0
//Break Periods
2,70741,79941
//Storyboard Layer 0 (Background)
//Storyboard Layer 1 (Fail)
//Storyboard Layer 2 (Pass)
//Storyboard Layer 3 (Foreground)
//Storyboard Layer 4 (Overlay)
//Storyboard Sound Samples

[TimingPoints]
1970,357.142857142857,4,2,1,60,1,0
1970,-153.846153846154,4,2,3,60,0,0
4023,-153.846153846154,4,2,3,5,0,0
4112,-153.846153846154,4,2,3,60,0,0
4737,-153.846153846154,4,2,3,5,0,0
4827,-153.846153846154,4,2,3,60,0,0
6880,-153.846153846154,4,2,3,5,0,0
6969,-153.846153846154,4,2,3,60,0,0
9737,-153.846153846154,4,2,3,5,0,0
9827,-153.846153846154,4,2,3,60,0,0
10452,-153.846153846154,4,2,3,5,0,0
10541,-153.846153846154,4,2,3,60,0,0
11255,-76.9230769230769,4,2,3,60,0,0
12505,-153.846153846154,4,2,3,60,0,0
16166,-153.846153846154,4,2,3,5,0,0
16255,-153.846153846154,4,2,3,60,0,0
18309,-153.846153846154,4,2,3,5,0,0
18398,-153.846153846154,4,2,3,60,0,0
19112,-114.942528735632,4,2,3,60,0,0
19380,-114.942528735632,4,2,3,5,0,0
19469,-76.9230769230769,4,2,3,60,0,0
22014,-153.846153846154,4,2,3,5,0,0
24112,-153.846153846154,4,2,1,60,0,0
24827,-100,4,2,1,60,0,0
47327,-50,4,2,1,60,0,0
47684,-66.6666666666667,4,2,1,70,0,1
49827,-50,4,2,1,70,0,1
50541,-66.6666666666667,4,2,1,70,0,1
58755,-40,4,2,1,70,0,1
59112,-66.6666666666667,4,2,1,70,0,1
61255,-50,4,2,1,70,0,1
61969,-66.6666666666667,4,2,1,70,0,1
70541,-100,4,2,1,60,0,0
81969,-166.666666666667,4,2,1,60,0,0
93398,-66.6666666666667,4,2,2,70,0,1
93487,-66.6666666666667,4,2,2,70,0,0
104827,-50,4,2,2,80,0,1
113041,-50,4,2,1,80,0,1
113398,-50,4,2,2,80,0,1
118398,-50,4,2,1,80,0,1
119112,-50,4,2,2,80,0,1
138755,-25,4,2,2,80,0,1
139112,-100,4,2,3,60,0,0
149112,-50,4,2,3,60,0,0
149202,-50,4,2,3,5,0,0
149291,-50,4,2,3,60,0,0
149380,-50,4,2,3,5,0,0
149469,-50,4,2,3,60,0,0
149559,-50,4,2,3,5,0,0
149648,-50,4,2,3,60,0,0
149737,-50,4,2,3,5,0,0
149827,-50,4,2,3,60,0,0

[Colours]
Combo1 : 255,4,27
Combo2 : 148,148,148
Combo3 : 114,114,114
Combo4 : 146,36,255
Combo5 : 98,0,196
Combo6 : 255,53,73

[HitObjects]
78,81,1970,6,0,B|125:88|161:56|161:56|169:103|209:127|209:127|168:149|158:196|158:196|180:238|227:248|227:248|266:256|304:227|304:227|342:198|388:208,1,523.249976047517,2|0,0:0|0:0,0:0:0:0:
450,309,4112,6,0,B|404:319|364:289|364:289|342:325|303:350,1,159.249992710114,2|0,0:0|0:0,0:0:0:0:
221,334,4827,70,0,B|233:287|277:267|277:267|236:242|230:193|230:193|284:128|276:80|261:12|207:9|139:-3|115:63|136:116|187:119,1,523.249976047517,2|0,0:0|0:0,0:0:0:0:
193,77,6969,5,0,0:0:0:0:
319,200,7327,1,0,0:0:0:0:
459,2,7684,70,0,B|424:35|440:85|440:85|481:102|501:149|501:149|449:182|436:242|498:260|507:328|460:373|401:373|347:354|354:282|384:270,1,523.249976047517,2|0,0:0|0:0,0:0:0:0:
343,189,9827,6,0,B|296:209|278:251|278:251|285:297|249:324,1,159.249992710114,2|0,0:0|0:0,0:0:0:0:
121,297,10541,70,0,P|158:271|222:268,1,90.9999958343508,2|0,0:0|0:0,0:0:0:0:
313,365,11077,1,0,0:0:0:0:
100,280,11255,6,0,P|141:261|204:270,1,90.9999958343508,2|0,0:0|0:0,0:0:0:0:
100,280,11612,2,0,P|141:261|204:270,1,90.9999958343508,2|0,0:0|0:0,0:0:0:0:
303,384,11969,69,0,0:0:0:0:
202,264,12148,1,0,0:0:0:0:
272,151,12327,1,0,0:0:0:0:
162,38,12505,6,0,L|155:99,1,45.4999979171754
162,38,12862,70,0,L|155:99,1,45.4999979171754
162,38,13219,5,0,0:0:0:0:
43,191,13398,70,0,B|69:230|119:233|119:233|133:286|176:297|176:297|223:262|291:268|291:268|272:358|359:428|503:373|440:241|440:241|395:254|380:285,1,705.249967716219,2|0,0:0|0:0,0:0:0:0:
352,183,16255,6,0,B|326:142|349:96|349:96|335:53|289:31|289:31|256:65|204:55|204:55|173:18|128:-2|71:26|73:82|73:82|105:108|138:90,1,523.249976047517,2|0,0:0|0:0,0:0:0:0:
129,64,18398,69,0,0:0:0:0:
262,131,18755,1,0,0:0:0:0:
131,226,19112,6,0,P|143:269|191:312,1,91.3500007666397,2|0,0:0|0:0,0:0:0:0:
103,225,19469,2,0,P|123:265|178:298,1,90.9999958343508
103,225,19827,70,0,P|123:265|178:298,1,90.9999958343508
103,225,20184,6,0,P|123:265|178:298,1,90.9999958343508
103,225,20541,69,0,0:0:0:0:
103,225,20898,5,0,0:0:0:0:
397,245,21255,69,2,0:0:0:0:
333,342,21434,1,2,0:0:0:0:
329,176,21612,1,2,0:0:0:0:
340,354,21791,1,2,0:0:0:0:
216,185,21969,5,0,0:0:0:0:
256,192,22014,12,0,24023,0:0:0:0:
222,109,24112,70,0,L|220:102,10,7.5833329861959,0|0|0|0|0|0|0|0|0|0|0,1:0|1:0|1:0|1:0|1:0|1:0|1:0|1:0|1:0|1:0|1:0,1:0:0:0:
149,76,24469,1,0,1:0:0:0:
69,112,24559,1,0,1:0:0:0:
47,202,24648,1,0,1:0:0:0:
89,292,24737,1,0,1:0:0:0:
189,329,24827,6,0,P|233:306|257:283,1,70,8|0,0:3|0:0,0:0:0:0:
149,177,25184,1,8,0:0:0:0:
210,374,25362,2,0,P|234:330|241:298,1,70,8|0,0:3|0:0,0:0:0:0:
325,158,25719,70,0,P|320:212|335:255,1,70,10|0,0:0|0:0,0:0:0:0:
458,349,25987,1,8,0:0:0:0:
485,303,26077,1,0,0:0:0:0:
446,232,26166,1,8,0:0:0:0:
473,186,26255,6,0,P|470:143|445:107,1,70,2|0,0:0|0:0,0:0:0:0:
262,128,26612,2,0,P|307:153|352:159,1,70,8|0,0:0|0:0,0:0:0:0:
159,25,26880,69,8,0:0:0:0:
120,95,26969,2,0,L|122:174,1,70,8|0,0:0|0:0,0:0:0:0:
150,7,27237,5,8,0:0:0:0:
100,96,27326,1,8,0:0:0:0:
304,236,27505,1,8,0:0:0:0:
330,63,27684,69,8,0:3:0:0:
222,156,27862,1,0,0:0:0:0:
50,14,28041,1,8,0:0:0:0:
31,243,28219,6,0,P|69:209|85:179,1,70,8|0,0:3|0:0,0:0:0:0:
9,79,28577,1,10,0:0:0:0:
169,276,28755,69,0,0:0:0:0:
169,276,28844,2,0,P|198:287|234:287,1,35,8|0,0:0|0:0,0:0:0:0:
360,198,29023,1,8,0:0:0:0:
360,198,29112,2,0,P|336:226|324:270,1,70,2|0,0:0|0:0,0:0:0:0:
432,380,29380,1,0,0:0:0:0:
432,380,29469,6,0,L|433:299,1,70,8|0,0:0|0:0,0:0:0:0:
257,252,29737,69,8,0:0:0:0:
287,334,29827,2,0,P|341:343|379:328,1,70,8|0,0:0|0:0,0:0:0:0:
236,250,30094,5,8,0:0:0:0:
307,335,30184,1,8,0:0:0:0:
440,196,30362,1,8,0:0:0:0:
170,47,30541,70,0,P|218:34|256:32,1,70,8|0,0:3|0:0,0:0:0:0:
435,113,30898,1,8,0:0:0:0:
153,9,31077,2,0,P|201:21|234:39,1,70,8|0,0:3|0:0,0:0:0:0:
192,272,31434,6,0,P|176:211|183:183,1,70,10|0,0:0|0:0,0:0:0:0:
301,101,31702,1,8,0:0:0:0:
263,134,31791,1,0,0:0:0:0:
161,104,31880,1,8,0:0:0:0:
115,125,31969,2,0,P|94:155|85:202,1,70,2|0,0:0|0:0,0:0:0:0:
195,340,32327,2,0,P|198:303|184:258,1,70,8|0,0:0|0:0,0:0:0:0:
23,264,32594,69,8,0:0:0:0:
80,308,32684,1,8,0:0:0:0:
344,211,32862,1,8,0:0:0:0:
21,137,33041,1,8,0:0:0:0:
288,381,33219,1,8,0:0:0:0:
459,161,33398,6,0,P|455:112|435:75,1,70,8|0,0:3|0:0,0:0:0:0:
289,75,33755,1,8,0:0:0:0:
511,170,33934,2,0,P|483:129|447:107,1,70,8|0,0:3|0:0,0:0:0:0:
206,251,34291,2,0,L|299:260,1,70,8|0,0:0|0:0,0:0:0:0:
411,198,34559,69,0,1:0:0:0:
406,197,34603,1,0,1:0:0:0:
401,196,34648,2,0,L|370:191,3,17.5,0|0|0|0,1:0|1:0|1:0|1:0,1:0:0:0:
313,178,34827,5,10,0:3:0:0:
404,298,35005,1,8,0:3:0:0:
130,363,35184,2,0,P|108:330|101:273,1,70,8|0,0:0|0:0,0:0:0:0:
214,183,35452,1,8,0:0:0:0:
214,183,35541,2,0,P|209:243|207:248,1,35,0|8,0:0|0:0,0:0:0:0:
123,117,35719,2,0,P|128:85|137:63,1,35,8|0,0:3|0:0,0:0:0:0:
316,21,35898,70,0,L|294:36,1,17.5,0|0,1:0|1:0,1:0:0:0:
286,88,35987,2,0,L|270:109,1,17.5,0|0,1:0|1:0,1:0:0:0:
293,168,36077,2,0,L|290:194,1,17.5,0|0,1:0|1:0,1:0:0:0:
355,230,36166,2,0,L|370:252,1,17.5,0|0,1:0|1:0,1:0:0:0:
451,221,36255,6,0,P|438:188|406:151,1,70,8|0,0:3|0:0,0:0:0:0:
268,254,36612,1,8,0:0:0:0:
508,208,36791,2,0,P|480:185|434:169,1,70,8|0,0:3|0:0,0:0:0:0:
310,384,37148,70,0,P|356:358|379:332,1,70,10|0,0:0|0:0,0:0:0:0:
346,206,37416,1,8,0:0:0:0:
320,175,37505,1,0,0:0:0:0:
243,174,37594,1,8,0:0:0:0:
171,276,37684,6,0,L|78:268,1,70,2|0,0:0|0:0,0:0:0:0:
0,165,38041,2,0,L|79:158,1,70,8|0,0:0|0:0,0:0:0:0:
218,87,38309,1,8,0:0:0:0:
218,87,38398,69,8,0:3:0:0:
45,31,38577,1,8,0:3:0:0:
142,206,38755,2,0,L|221:199,1,70,8|0,0:0|0:0,0:0:0:0:
409,63,39023,1,8,0:0:0:0:
355,118,39112,6,0,P|348:159|355:205,1,70,8|0,0:3|0:0,0:0:0:0:
455,328,39469,1,8,0:0:0:0:
296,100,39648,2,0,P|310:139|340:175,1,70,8|0,0:3|0:0,0:0:0:0:
512,259,40005,70,0,P|468:241|425:238,1,70,10|0,0:0|0:0,0:0:0:0:
345,331,40273,2,0,P|319:338|301:340,1,35,8|0,0:0|0:0,0:0:0:0:
142,277,40452,1,8,0:0:0:0:
202,202,40541,6,0,L|197:115,1,70,2|0,0:0|0:0,0:0:0:0:
30,108,40809,1,0,0:0:0:0:
27,112,40898,70,0,P|44:171|62:196,1,70,8|0,0:0|0:0,0:0:0:0:
197,132,41166,2,0,P|137:117|106:120,1,70,8|0,0:0|0:0,0:0:0:0:
240,67,41434,2,0,P|184:93|163:116,1,70,8|0,0:0|0:0,0:0:0:0:
227,339,41702,5,8,0:0:0:0:
346,226,41880,1,8,0:0:0:0:
299,142,41969,70,0,P|316:100|338:72,1,70,8|0,0:3|0:0,0:0:0:0:
493,48,42327,1,8,0:0:0:0:
233,133,42505,2,0,P|268:105|301:91,1,70,8|0,0:3|0:0,0:0:0:0:
512,266,42862,6,0,P|473:269|412:251,1,70,10|0,0:0|0:0,0:0:0:0:
339,154,43130,1,8,0:0:0:0:
246,264,43308,1,8,0:0:0:0:
170,233,43398,70,0,L|107:249,1,35,10|0,0:0|0:0,0:0:0:0:
0,342,43577,2,0,L|52:340,1,35,2|0,0:0|0:0,0:0:0:0:
266,376,43755,6,0,P|210:357|189:336,1,70,8|0,0:0|0:0,0:0:0:0:
252,196,44023,1,8,0:0:0:0:
87,47,44202,1,8,0:0:0:0:
40,111,44291,2,0,P|32:164|34:177,1,35,8|0,0:3|0:0,0:0:0:0:
177,239,44469,70,0,L|147:227,1,17.5,0|0,1:0|1:0,1:0:0:0:
210,276,44559,2,0,L|197:246,1,17.5,0|0,1:0|1:0,1:0:0:0:
263,288,44648,2,0,L|275:258,1,17.5,0|0,1:0|1:0,1:0:0:0:
314,248,44737,2,0,L|343:235,1,17.5,0|0,1:0|1:0,1:0:0:0:
424,337,44827,6,0,P|367:324|340:306,1,70,8|0,0:3|0:0,0:0:0:0:
302,154,45184,1,8,0:0:0:0:
423,384,45362,2,0,P|380:345|365:315,1,70,8|0,0:3|0:0,0:0:0:0:
512,134,45719,70,0,P|511:184|504:219,1,70,10|0,0:0|0:0,0:0:0:0:
232,99,45987,1,8,0:0:0:0:
278,72,46077,1,0,0:0:0:0:
368,94,46166,1,8,0:0:0:0:
414,67,46255,5,2,0:0:0:0:
301,169,46434,1,8,0:3:0:0:
156,66,46612,2,0,P|115:73|79:94,1,70,8|0,0:0|0:0,0:0:0:0:
87,204,46880,1,8,0:0:0:0:
131,176,46969,69,2,1:2:0:0:
147,269,47059,1,2,1:2:0:0:
248,295,47148,1,2,1:2:0:0:
324,208,47237,1,2,1:2:0:0:
312,81,47327,6,2,L|305:126,1,35,2|2,1:2|1:2,1:2:0:0:
248,130,47416,2,2,L|274:166,1,35,2|2,1:2|1:2,1:2:0:0:
247,225,47505,2,2,L|292:232,1,35,2|2,1:2|1:2,1:2:0:0:
337,289,47594,2,2,L|373:262,1,35,2|2,1:2|1:2,1:2:0:0:
443,153,47684,6,0,P|388:155|336:190,1,105.000004005432,8|2,0:3|0:0,0:0:0:0:
249,354,48041,1,8,0:0:0:0:
437,69,48219,2,0,P|390:98|362:154,1,105.000004005432,8|8,0:3|0:0,0:0:0:0:
214,221,48577,6,0,P|238:166|217:95,1,105.000004005432,10|2,0:3|0:0,0:0:0:0:
103,78,48844,1,8,0:0:0:0:
142,155,48934,1,0,0:0:0:0:
71,243,49023,1,8,0:0:0:0:
110,320,49112,70,0,P|200:331|244:312,1,105.000004005432,8|2,0:3|0:0,0:0:0:0:
429,178,49469,2,0,L|317:174,1,105.000004005432,8|2,0:0|0:0,0:0:0:0:
512,231,49737,5,8,0:3:0:0:
412,157,49827,2,0,L|300:153,1,70,10|0,0:0|0:0,0:0:0:0:
162,249,50005,69,8,0:0:0:0:
162,249,50094,1,8,0:0:0:0:
162,249,50184,1,8,0:0:0:0:
406,323,50362,1,8,0:0:0:0:
253,193,50541,6,0,P|258:110|296:61,1,105.000004005432,8|2,0:3|0:0,0:0:0:0:
456,52,50898,1,10,0:0:0:0:
361,155,51077,1,8,0:3:0:0:
192,81,51255,2,0,P|116:87|68:112,1,105.000004005432,8|2,0:0|0:0,0:0:0:0:
58,293,51612,69,2,0:0:0:0:
126,239,51702,2,0,L|188:245,1,52.5000020027161,8|0,0:0|0:0,0:0:0:0:
307,324,51880,1,8,0:0:0:0:
394,281,51969,6,0,P|410:203|395:142,1,105.000004005432,8|2,0:3|0:0,0:0:0:0:
192,81,52327,2,0,P|238:160|286:192,1,105.000004005432,8|2,0:0|0:0,0:0:0:0:
383,81,52594,69,8,0:0:0:0:
383,81,52684,1,8,0:0:0:0:
111,209,52862,1,8,0:0:0:0:
111,209,52952,1,8,0:0:0:0:
111,209,53041,2,0,L|179:203,1,52.5000020027161,8|0,0:3|0:0,0:0:0:0:
251,302,53219,2,0,L|325:316,1,52.5000020027161,8|0,0:0|0:0,0:0:0:0:
474,217,53398,6,0,P|400:181|334:190,1,105.000004005432,8|2,0:3|0:0,0:0:0:0:
170,277,53755,1,8,0:0:0:0:
512,145,53934,2,0,P|430:150|378:191,1,105.000004005432,8|8,0:3|0:0,0:0:0:0:
321,384,54291,70,0,P|383:335|393:285,1,105.000004005432,10|2,0:3|0:0,0:0:0:0:
223,240,54559,1,8,0:0:0:0:
296,292,54648,1,0,0:0:0:0:
391,261,54737,1,8,0:0:0:0:
464,313,54827,6,0,P|480:245|452:196,1,105.000004005432,8|2,0:3|0:0,0:0:0:0:
284,116,55094,1,0,0:0:0:0:
284,116,55184,2,0,P|293:183|316:224,1,105.000004005432,8|2,0:0|0:0,0:0:0:0:
441,80,55452,1,8,0:0:0:0:
411,123,55541,69,10,1:2:0:0:
414,112,55630,1,10,1:2:0:0:
357,51,55719,1,10,1:2:0:0:
351,38,55809,1,10,1:2:0:0:
256,27,55898,1,10,1:2:0:0:
240,22,55987,1,10,1:2:0:0:
160,96,56077,1,10,1:2:0:0:
147,107,56166,1,10,1:2:0:0:
173,229,56255,6,0,P|225:179|240:121,1,105.000004005432,8|2,0:3|0:0,0:0:0:0:
61,11,56612,1,8,0:0:0:0:
34,216,56791,1,8,0:3:0:0:
136,128,56969,1,8,0:0:0:0:
276,197,57148,1,10,0:3:0:0:
456,152,57327,1,2,0:0:0:0:
435,147,57416,70,0,L|398:151,5,26.2500010013581,0|0|0|0|0|0,1:0|1:0|1:0|1:0|1:0|1:0,1:0:0:0:
432,281,57684,6,0,P|389:327|324:347,1,105.000004005432,8|2,0:3|0:0,0:0:0:0:
194,198,58041,2,0,P|281:215|319:253,1,105.000004005432,8|2,0:0|0:0,0:0:0:0:
74,280,58309,2,0,P|58:246|57:197,1,52.5000020027161,8|10,0:0|0:0,0:0:0:0:
146,337,58487,69,8,0:0:0:0:
59,297,58577,2,0,P|43:263|42:214,1,52.5000020027161,8|0,0:3|0:0,0:0:0:0:
269,40,58755,6,0,L|311:48,1,43.75,0|0,1:0|1:0,1:0:0:0:
314,102,58844,2,0,L|346:130,1,43.75,0|0,1:0|1:0,1:0:0:0:
307,187,58934,2,0,L|314:229,1,43.75,0|0,1:0|1:0,1:0:0:0:
231,242,59023,2,0,L|202:274,1,43.75,0|0,1:0|1:0,1:0:0:0:
137,199,59112,70,0,P|178:148|239:135,1,105.000004005432,8|2,0:3|0:0,0:0:0:0:
416,322,59469,2,0,P|340:296|304:258,1,105.000004005432,8|10,0:0|0:3,0:0:0:0:
512,85,59827,5,8,0:1:0:0:
404,203,60005,1,2,0:0:0:0:
268,52,60184,69,2,0:0:0:0:
199,109,60273,1,8,0:0:0:0:
116,64,60362,1,0,0:0:0:0:
47,121,60451,1,8,0:0:0:0:
62,246,60541,6,0,P|115:197|131:148,1,105.000004005432,8|10,0:3|0:3,0:0:0:0:
23,0,60898,2,0,P|4:60|9:130,1,105.000004005432,8|2,0:0|0:0,0:0:0:0:
178,267,61166,69,8,0:0:0:0:
214,195,61255,2,0,L|210:123,1,70,8|0,0:0|0:0,0:0:0:0:
0,197,61434,1,8,0:0:0:0:
0,197,61523,1,8,0:0:0:0:
0,197,61612,1,8,0:0:0:0:
205,348,61791,1,8,0:0:0:0:
376,220,61969,6,0,P|370:150|323:89,1,105.000004005432,8|2,0:3|0:0,0:0:0:0:
142,135,62327,2,0,P|211:180|269:189,1,105.000004005432,8|8,0:0|0:3,0:0:0:0:
475,194,62684,2,0,P|379:217|340:253,1,105.000004005432,8|2,0:1|0:0,0:0:0:0:
135,285,63041,69,2,0:0:0:0:
202,342,63130,1,8,0:0:0:0:
289,293,63219,1,2,0:0:0:0:
356,350,63308,1,8,0:0:0:0:
469,296,63398,6,0,P|476:199|460:164,1,105.000004005432,8|2,0:3|0:0,0:0:0:0:
258,108,63755,1,8,0:0:0:0:
373,236,63934,1,2,0:0:0:0:
373,236,64023,1,2,0:0:0:0:
373,236,64112,1,10,0:0:0:0:
444,29,64291,1,10,0:3:0:0:
266,212,64469,69,8,0:0:0:0:
187,169,64559,2,0,L|121:181,1,52.5000020027161,8|0,0:0|0:0,0:0:0:0:
122,349,64737,1,8,0:0:0:0:
122,349,64827,6,0,P|169:300|182:244,1,105.000004005432,8|2,0:3|0:0,0:0:0:0:
0,137,65184,1,8,0:0:0:0:
79,248,65362,1,8,0:3:0:0:
253,188,65541,70,0,P|315:200|367:240,1,105.000004005432,8|2,0:1|0:0,0:0:0:0:
343,361,65898,1,2,0:0:0:0:
258,312,65987,1,8,0:0:0:0:
169,384,66077,1,2,0:0:0:0:
84,335,66166,1,8,0:0:0:0:
89,236,66255,6,0,P|101:153|91:108,1,105.000004005432,8|2,0:0|0:0,0:0:0:0:
170,274,66612,2,0,P|138:196|107:162,1,105.000004005432,10|2,0:0|0:0,0:0:0:0:
59,329,66880,1,8,0:0:0:0:
58,305,66969,69,0,1:0:0:0:
123,367,67059,1,0,1:0:0:0:
226,353,67148,1,0,1:0:0:0:
280,245,67237,1,0,1:0:0:0:
199,133,67327,6,8,L|231:155,1,26.2500010013581,8|8,1:2|1:2,1:2:0:0:
192,218,67416,2,8,L|230:221,1,26.2500010013581,8|8,1:2|1:2,1:2:0:0:
244,293,67505,2,8,L|275:270,1,26.2500010013581,8|8,1:2|1:2,1:2:0:0:
343,302,67594,2,8,L|346:263,1,26.2500010013581,8|8,1:2|1:2,1:2:0:0:
362,96,67684,70,0,P|318:133|291:179,1,105.000004005432,8|2,0:3|0:0,0:0:0:0:
512,340,67952,1,0,0:0:0:0:
512,340,68041,1,8,0:0:0:0:
397,218,68219,1,8,0:3:0:0:
254,373,68398,6,0,P|184:373|137:350,1,105.000004005432,8|2,0:1|0:0,0:0:0:0:
66,142,68755,1,2,0:0:0:0:
132,203,68844,1,8,0:0:0:0:
238,160,68934,1,2,0:0:0:0:
304,221,69023,1,8,0:0:0:0:
437,192,69112,70,0,P|479:235|491:309,1,105.000004005432,8|10,0:3|0:3,0:0:0:0:
341,388,69469,2,0,P|347:328|372:283,1,105.000004005432,8|2,0:0|0:0,0:0:0:0:
299,101,69737,5,8,0:0:0:0:
326,178,69827,2,0,L|311:230,1,52.5000020027161,10|10,0:3|0:0,0:0:0:0:
178,135,70005,2,0,L|172:80,1,52.5000020027161,10|2,0:3|0:0,0:0:0:0:
17,181,70184,69,8,1:3:0:0:
14,185,70229,1,0,1:0:0:0:
12,190,70273,2,0,L|-8:226,5,26.2500010013581,0|0|0|0|0|0,1:0|1:0|1:0|1:0|1:0|1:0,1:0:0:0:
149,296,70541,53,8,0:3:0:0:
277,83,80541,85,8,3:3:0:0:
223,301,80898,1,10,3:2:0:0:
94,156,81255,5,8,3:2:0:0:
219,312,81434,1,8,3:2:0:0:
336,219,81612,1,8,3:2:0:0:
444,260,81791,1,8,3:2:0:0:
184,197,81969,69,8,3:3:0:0:
346,325,82148,1,2,3:2:0:0:
346,325,82327,1,0,3:0:0:0:
411,172,82505,1,0,3:0:0:0:
243,285,82684,5,8,3:2:0:0:
474,352,82862,1,2,3:2:0:0:
298,384,83041,1,0,3:0:0:0:
481,254,83219,1,2,3:2:0:0:
481,254,83309,1,0,3:0:0:0:
481,254,83398,69,8,3:0:0:0:
271,150,83577,1,2,3:2:0:0:
470,117,83755,1,0,3:0:0:0:
470,117,83934,1,0,3:0:0:0:
312,262,84112,5,8,3:2:0:0:
345,56,84291,1,2,3:2:0:0:
512,186,84469,1,0,3:0:0:0:
346,74,84648,1,2,3:2:0:0:
188,241,84827,70,0,P|195:291|211:333,1,83.9999974365235,8|2,3:3|3:2,3:0:0:0:
188,241,85541,5,8,3:2:0:0:
336,384,85719,1,2,3:2:0:0:
303,232,85898,1,0,3:0:0:0:
185,342,86077,1,2,3:2:0:0:
84,205,86255,69,8,3:3:0:0:
278,316,86434,1,2,3:2:0:0:
88,313,86612,1,0,3:0:0:0:
88,313,86791,1,0,3:0:0:0:
239,132,86969,2,0,L|235:116,2,10.4999996795654,8|0|0,3:2|3:0|3:0,3:0:0:0:
85,113,87148,5,2,3:2:0:0:
199,235,87327,1,0,3:0:0:0:
318,176,87505,1,2,3:2:0:0:
505,320,87684,69,8,3:0:0:0:
312,275,87862,1,2,3:2:0:0:
312,275,88041,1,0,3:0:0:0:
449,166,88219,1,0,3:0:0:0:
389,353,88398,5,8,3:2:0:0:
262,200,88577,1,2,3:2:0:0:
200,321,88755,1,0,3:0:0:0:
395,239,88934,1,2,3:2:0:0:
201,91,89112,70,0,L|210:126,1,20.9999993591309,8|0,3:0|3:0,3:0:0:0:
86,203,89291,2,0,L|91:176,1,20.9999993591309,0|0,3:0|3:0,3:0:0:0:
43,37,89469,5,0,3:0:0:0:
46,41,89559,1,0,3:0:0:0:
49,45,89648,1,0,3:0:0:0:
52,49,89737,1,0,3:0:0:0:
55,53,89827,69,10,3:2:0:0:
195,225,90005,1,10,3:2:0:0:
339,87,90184,2,8,L|347:119,1,20.9999993591309,8|8,3:2|3:2,3:2:0:0:
512,205,90362,2,8,L|522:174,1,20.9999993591309,8|8,3:2|3:2,3:2:0:0:
316,215,90541,5,0,3:0:0:0:
316,215,90719,1,2,3:2:0:0:
453,105,90898,1,0,3:0:0:0:
254,111,91077,1,0,3:0:0:0:
430,238,91255,69,8,3:2:0:0:
430,238,91434,1,2,3:2:0:0:
344,120,91612,1,0,3:0:0:0:
213,180,91790,1,2,3:2:0:0:
130,83,91969,5,8,3:3:0:0:
312,212,92148,1,2,3:2:0:0:
112,255,92327,1,10,3:2:0:0:
112,255,92505,1,0,3:0:0:0:
339,89,92684,69,8,3:2:0:0:
229,255,92863,1,8,3:2:0:0:
104,172,93041,1,8,3:2:0:0:
0,223,93220,1,8,3:2:0:0:
185,384,93398,22,0,P|237:375|265:359,1,52.5000020027161,8|0,0:3|0:0,0:0:0:0:
300,298,93577,2,0,P|343:298|373:306,1,52.5000020027161,2|0,0:0|0:0,0:0:0:0:
462,368,93755,2,0,P|480:311|468:240,1,105.000004005432,8|2,0:0|0:0,0:0:0:0:
353,136,94023,5,8,0:3:0:0:
316,191,94112,2,0,P|345:233|375:256,1,52.5000020027161,2|2,0:0|0:0,0:0:0:0:
251,203,94291,2,0,P|297:224|334:229,1,52.5000020027161,8|0,0:3|0:0,0:0:0:0:
116,116,94469,2,0,P|78:161|64:225,1,105.000004005432,8|0,0:0|0:0,0:0:0:0:
287,326,94827,69,8,0:3:0:0:
175,212,95005,1,2,0:0:0:0:
21,342,95184,2,0,P|87:353|144:339,1,105.000004005432,8|2,0:0|0:0,0:0:0:0:
308,265,95452,5,8,0:3:0:0:
259,221,95541,2,0,P|220:209|191:207,1,52.5000020027161,2|2,0:0|0:0,0:0:0:0:
305,172,95719,2,0,P|266:183|237:185,1,52.5000020027161,8|0,0:3|0:0,0:0:0:0:
291,67,95898,2,0,P|354:79|399:118,1,105.000004005432,8|0,0:0|0:0,0:0:0:0:
431,333,96255,69,8,0:3:0:0:
431,333,96612,2,0,P|410:281|420:225,1,105.000004005432,8|2,0:0|0:0,0:0:0:0:
386,102,96880,5,8,0:3:0:0:
349,183,96969,2,0,P|306:201|272:200,1,52.5000020027161,2|2,0:0|0:0,0:0:0:0:
312,264,97148,2,0,P|298:308|303:342,1,52.5000020027161,8|0,0:3|0:0,0:0:0:0:
137,315,97327,2,0,P|204:288|232:247,1,105.000004005432,8|0,0:0|0:0,0:0:0:0:
226,75,97684,69,8,0:3:0:0:
132,209,97862,1,2,0:0:0:0:
85,22,98041,2,0,P|103:88|131:119,1,105.000004005432,8|2,0:0|0:0,0:0:0:0:
305,152,98309,1,8,0:0:0:0:
305,152,98398,5,8,0:3:0:0:
36,177,98577,1,8,0:3:0:0:
248,315,98755,1,8,0:3:0:0:
0,384,98934,1,8,0:3:0:0:
166,113,99112,69,10,0:3:0:0:
270,237,99291,1,2,0:0:0:0:
432,152,99469,2,0,P|436:86|408:20,1,105.000004005432,8|2,0:0|0:0,0:0:0:0:
251,51,99737,5,8,0:3:0:0:
281,110,99827,2,0,P|331:116|361:112,1,52.5000020027161,2|2,0:0|0:0,0:0:0:0:
260,173,100005,2,0,P|306:153|330:134,1,52.5000020027161,8|0,0:3|0:0,0:0:0:0:
178,271,100184,2,0,P|218:320|274:336,1,105.000004005432,8|0,0:0|0:0,0:0:0:0:
427,247,100541,70,0,P|365:234|304:247,1,105.000004005432,8|2,0:3|0:0,0:0:0:0:
149,367,100898,2,0,P|177:318|174:259,1,105.000004005432,8|2,0:0|0:0,0:0:0:0:
0,154,101166,5,8,0:3:0:0:
53,193,101255,2,0,P|55:230|46:263,1,52.5000020027161,2|2,0:0|0:0,0:0:0:0:
116,173,101434,2,0,P|99:206|74:230,1,52.5000020027161,8|0,0:3|0:0,0:0:0:0:
159,50,101612,69,8,0:0:0:0:
246,29,101702,1,8,0:0:0:0:
329,79,101791,1,8,0:0:0:0:
363,181,101880,1,8,0:0:0:0:
327,292,101969,6,0,P|309:268|294:237,1,52.5000020027161,8|2,0:3|0:0,0:0:0:0:
391,116,102148,2,0,P|380:168|364:198,1,52.5000020027161,2|0,0:0|0:0,0:0:0:0:
180,192,102327,2,0,P|219:159|279:143,1,105.000004005432,8|2,0:0|0:0,0:0:0:0:
456,220,102594,69,8,0:3:0:0:
461,285,102684,2,0,P|434:226|437:201,1,52.5000020027161,2|2,0:0|0:0,0:0:0:0:
415,331,102862,2,0,P|421:266|436:246,1,52.5000020027161,8|0,0:3|0:0,0:0:0:0:
288,287,103041,2,0,P|213:300|175:334,1,105.000004005432,8|0,0:0|0:0,0:0:0:0:
81,241,103398,5,8,0:3:0:0:
267,384,103577,1,2,0:0:0:0:
395,56,103755,69,0,1:0:0:0:
392,60,103844,1,0,3:0:0:0:
389,64,103934,1,0,1:0:0:0:
420,130,104023,1,0,1:0:0:0:
341,171,104112,1,0,1:0:0:0:
420,240,104202,1,0,3:0:0:0:
329,318,104291,6,0,P|291:291|271:265,1,52.5000020027161,0|0,3:0|3:0,3:0:0:0:
181,313,104469,1,0,1:0:0:0:
181,313,104559,2,0,P|206:335|216:349,1,26.2500010013581,0|0,3:0|3:0,3:0:0:0:
73,353,104648,70,0,L|90:322,3,26.2500010013581,0|0|0|0,1:0|1:0|1:0|1:0,1:0:0:0:
4,224,104827,22,0,P|26:156|84:113,1,140,8|2,0:3|0:0,0:0:0:0:
273,191,105184,2,0,P|187:222|134:222,1,140,8|10,0:0|0:3,0:0:0:0:
235,61,105452,5,8,0:3:0:0:
322,73,105541,2,0,P|271:95|235:97,1,70,2|2,0:0|0:0,0:0:0:0:
387,134,105719,2,0,P|336:112|300:110,1,70,8|0,0:3|0:0,0:0:0:0:
329,243,105898,2,0,P|369:319|426:353,1,140,8|2,0:0|0:0,0:0:0:0:
255,301,106166,1,2,0:0:0:0:
255,301,106255,70,0,P|210:311|156:352,1,70,8|0,0:3|0:0,0:0:0:0:
123,243,106434,2,0,P|68:213|52:176,1,70,10|0,0:3|0:0,0:0:0:0:
174,21,106612,2,0,P|179:88|142:155,1,140,8|10,0:0|0:3,0:0:0:0:
249,192,106880,5,8,0:3:0:0:
327,236,106969,2,0,P|304:192|281:174,1,70,2|2,0:0|0:0,0:0:0:0:
414,217,107148,2,0,P|365:207|341:191,1,70,8|0,0:3|0:0,0:0:0:0:
483,20,107327,2,0,P|421:75|407:141,1,140,8|2,0:0|0:0,0:0:0:0:
467,293,107684,69,8,0:3:0:0:
324,147,107862,1,2,0:0:0:0:
149,216,108041,2,0,P|71:164|46:105,1,140,8|10,0:0|0:3,0:0:0:0:
25,247,108309,5,8,0:3:0:0:
69,323,108398,2,0,P|43:294|6:280,1,70,2|2,0:0|0:0,0:0:0:0:
158,313,108577,2,0,P|120:311|84:292,1,70,8|0,0:0|0:0,0:0:0:0:
235,384,108755,2,0,L|287:377,7,35,8|0|0|0|0|0|0|0,1:2|1:0|1:0|1:0|1:0|1:0|1:0|1:0,1:0:0:0:
336,273,109112,70,0,P|390:298|432:376,1,140,8|10,0:3|0:3,0:0:0:0:
418,200,109469,2,0,P|372:143|361:66,1,140,8|2,0:0|0:0,0:0:0:0:
281,155,109737,5,2,0:0:0:0:
199,194,109827,2,0,P|242:182|286:192,1,70,8|2,0:3|0:0,0:0:0:0:
344,250,110005,2,0,P|319:275|273:290,1,70,8|0,0:3|0:0,0:0:0:0:
58,235,110184,69,8,1:3:0:0:
56,230,110228,1,0,1:0:0:0:
55,225,110273,2,0,L|60:190,5,35,2|2|10|2|2|2,1:2|1:2|1:3|1:2|1:2|1:2,1:2:0:0:
2,124,110541,6,0,P|59:56|129:32,1,140,8|2,0:3|0:0,0:0:0:0:
281,155,110898,2,0,P|192:164|132:140,1,140,8|10,0:0|0:3,0:0:0:0:
258,36,111166,69,8,0:3:0:0:
337,77,111255,2,0,P|294:63|247:66,1,70,2|2,0:0|0:0,0:0:0:0:
424,60,111434,2,0,P|379:52|339:27,1,70,8|0,0:3|0:0,0:0:0:0:
512,135,111612,2,0,P|502:225|440:272,1,140,8|0,0:0|0:0,0:0:0:0:
298,243,111880,1,2,0:0:0:0:
298,243,111969,5,8,0:3:0:0:
420,169,112148,1,10,0:3:0:0:
200,136,112327,2,0,P|162:211|161:275,1,140,8|10,0:0|0:3,0:0:0:0:
333,384,112594,69,8,0:3:0:0:
250,350,112684,2,0,P|289:359|329:350,1,70,2|2,0:0|0:0,0:0:0:0:
169,381,112862,2,0,P|208:372|248:381,1,70,8|0,0:3|0:0,0:0:0:0:
407,286,113041,5,8,0:0:0:0:
456,211,113131,1,8,0:0:0:0:
437,116,113220,1,8,0:0:0:0:
353,49,113309,1,8,0:0:0:0:
237,45,113398,70,0,P|244:89|324:161,1,140,8|2,0:3|0:0,0:0:0:0:
147,129,113755,2,0,P|42:114|-12:135,1,140,8|10,0:0|0:3,0:0:0:0:
80,244,114023,5,8,0:3:0:0:
163,283,114112,2,0,P|119:257|101:224,1,70,2|2,0:0|0:0,0:0:0:0:
226,344,114291,2,0,P|180:320|143:322,1,70,8|0,0:3|0:0,0:0:0:0:
342,295,114469,2,0,P|403:318|463:403,1,140,8|2,0:0|0:0,0:0:0:0:
425,230,114737,1,2,0:0:0:0:
425,230,114827,70,0,P|408:192|404:149,1,70,8|0,0:3|0:0,0:0:0:0:
470,76,115005,2,0,P|444:32|413:4,1,70,10|0,0:3|0:0,0:0:0:0:
240,58,115184,2,0,P|288:78|345:80,1,70,8|0,1:0|3:0,1:0:0:0:
274,123,115362,1,0,3:0:0:0:
205,141,115452,1,0,1:0:0:0:
137,160,115541,5,0,1:0:0:0:
343,246,115719,1,8,1:0:0:0:
66,322,115898,1,8,1:0:0:0:
377,384,116077,1,0,1:0:0:0:
380,380,116121,1,0,1:0:0:0:
384,377,116166,1,0,1:0:0:0:
388,374,116211,1,0,1:0:0:0:
441,323,116255,70,0,P|446:238|415:178,1,140,8|2,0:3|0:0,0:0:0:0:
195,172,116612,2,0,P|271:233|334:248,1,140,8|10,0:0|0:3,0:0:0:0:
344,77,116880,5,8,0:3:0:0:
261,46,116969,2,0,P|295:89|326:108,1,70,2|2,0:0|0:0,0:0:0:0:
175,70,117147,2,0,P|230:74|263:89,1,70,8|0,0:3|0:0,0:0:0:0:
51,172,117327,2,0,P|88:89|82:39,1,140,8|2,0:0|0:0,0:0:0:0:
195,172,117594,1,2,0:0:0:0:
195,172,117684,70,0,P|203:223|193:265,1,70,8|0,0:3|0:0,0:0:0:0:
93,266,117862,2,0,P|51:304|27:353,1,70,10|0,0:3|0:0,0:0:0:0:
208,355,118041,2,0,P|279:324|313:265,1,140,8|2,0:0|0:0,0:0:0:0:
495,208,118309,5,8,0:3:0:0:
420,247,118398,2,0,P|404:298|410:345,1,70,8|0,0:0|0:0,0:0:0:0:
493,181,118577,69,8,0:0:0:0:
398,230,118666,1,8,0:0:0:0:
365,331,118755,1,8,0:0:0:0:
210,221,118934,1,8,0:0:0:0:
33,384,119112,6,0,P|147:359|184:315,1,140,8|2,0:3|0:0,0:0:0:0:
172,120,119469,2,0,P|120:186|107:259,1,140,8|10,0:0|0:3,0:0:0:0:
61,106,119737,69,8,0:3:0:0:
125,46,119827,2,0,P|98:56|43:56,1,70,2|2,0:0|0:0,0:0:0:0:
211,26,120005,2,0,P|184:16|129:16,1,70,8|0,0:3|0:0,0:0:0:0:
281,124,120184,2,0,P|364:149|443:116,1,140,8|2,0:0|0:0,0:0:0:0:
504,0,120452,1,0,0:0:0:0:
504,0,120541,6,0,P|414:17|358:76,1,140,8|8,0:3|0:3,0:0:0:0:
477,238,120898,2,0,P|508:169|502:94,1,140,8|0,0:0|0:0,0:0:0:0:
351,222,121166,1,8,0:0:0:0:
351,222,121255,69,10,0:3:0:0:
512,315,121434,1,8,0:3:0:0:
227,246,121612,1,8,0:3:0:0:
413,122,121791,1,8,0:3:0:0:
90,28,121969,6,0,P|105:75|130:103,1,70,8|0,0:3|0:0,0:0:0:0:
251,109,122148,2,0,P|267:148|268:197,1,70,2|0,0:0|0:0,0:0:0:0:
220,282,122327,2,0,P|273:354|324:379,1,140,8|10,0:0|0:3,0:0:0:0:
143,330,122594,69,10,0:3:0:0:
66,282,122684,2,0,P|127:291|158:316,1,70,2|2,0:0|0:0,0:0:0:0:
46,196,122862,2,0,P|87:242|123:254,1,70,8|0,0:3|0:0,0:0:0:0:
117,91,123041,2,0,P|191:86|274:126,1,140,8|2,0:0|0:0,0:0:0:0:
430,126,123309,1,0,0:0:0:0:
430,126,123398,6,0,P|351:78|325:24,1,140,8|10,0:3|0:3,0:0:0:0:
353,193,123755,2,0,P|408:270|414:345,1,140,8|0,0:0|0:0,0:0:0:0:
185,337,124112,69,2,1:2:0:0:
254,280,124202,1,2,1:2:0:0:
266,184,124291,1,2,1:2:0:0:
206,94,124380,1,2,1:2:0:0:
97,55,124469,5,10,1:2:0:0:
165,153,124559,1,10,1:2:0:0:
287,102,124648,1,10,1:2:0:0:
391,204,124737,1,10,1:2:0:0:
332,355,124827,70,0,P|257:376|183:372,1,140,8|2,0:3|0:0,0:0:0:0:
23,300,125184,2,0,P|91:253|176:241,1,140,8|10,0:0|0:3,0:0:0:0:
307,262,125452,5,8,0:3:0:0:
386,306,125541,2,0,P|359:271|346:239,1,70,2|2,0:0|0:0,0:0:0:0:
430,384,125719,2,0,P|391:362|358:353,1,70,8|0,0:3|0:0,0:0:0:0:
443,230,125898,69,8,0:0:0:0:
476,161,125987,2,0,L|467:121,5,35,0|0|0|0|0|0,1:0|1:0|1:0|1:0|1:0|1:0,1:0:0:0:
344,69,126255,5,8,0:3:0:0:
512,31,126434,1,10,0:3:0:0:
310,183,126612,70,0,P|258:175|225:155,1,70,8|0,1:0|1:0,0:0:0:0:
241,221,126791,1,0,3:0:0:0:
293,269,126880,1,0,1:0:0:0:
344,317,126969,5,0,3:0:0:0:
310,341,127059,1,0,1:0:0:0:
248,330,127148,1,0,3:0:0:0:
214,354,127237,1,0,1:0:0:0:
107,319,127327,70,0,L|81:291,1,35,0|0,1:0|1:0,1:0:0:0:
99,247,127416,2,0,L|84:211,1,35,0|0,1:0|1:0,1:0:0:0:
133,167,127505,2,0,L|137:129,1,35,0|0,1:0|1:0,1:0:0:0:
225,119,127594,2,0,L|253:93,1,35,0|0,1:0|1:0,1:0:0:0:
340,166,127684,5,8,3:3:0:0:
320,195,127773,1,0,3:0:0:0:
314,229,127862,1,0,3:0:0:0:
322,262,127952,1,0,3:0:0:0:
401,225,128041,69,0,3:3:0:0:
426,160,128130,1,0,3:0:0:0:
392,99,128219,1,0,3:0:0:0:
323,85,128309,1,0,3:0:0:0:
213,210,128398,5,8,0:0:0:0:
239,122,128487,1,10,0:0:0:0:
175,55,128577,2,8,P|153:90|149:142,1,70,8|0,0:3|0:0,0:0:0:0:
27,97,128755,69,2,1:2:0:0:
36,180,128844,1,2,1:2:0:0:
45,263,128934,1,2,1:2:0:0:
54,346,129023,1,2,1:2:0:0:
187,298,129112,6,0,P|246:297|291:322,1,70,10|0,0:3|0:0,0:0:0:0:
349,384,129291,2,0,P|389:383|425:368,1,70,2|0,0:0|0:0,0:0:0:0:
385,210,129469,70,0,L|368:289,1,70,10|0,0:0|0:0,0:0:0:0:
365,168,129648,1,2,1:2:0:0:
348,236,129738,1,0,1:0:0:0:
334,305,129827,1,8,1:2:0:0:
307,281,129916,1,2,1:2:0:0:
282,257,130005,6,0,L|201:273,1,70,2|2,1:2|1:2,1:2:0:0:
63,252,130184,2,0,B|126:221|126:221|177:123,1,140,8|2,0:0|0:0,0:0:0:0:
0,46,130452,1,0,0:0:0:0:
0,46,130541,69,8,0:3:0:0:
65,159,130719,1,2,0:0:0:0:
227,47,130898,2,0,P|300:62|359:105,1,140,8|10,0:0|0:3,0:0:0:0:
310,282,131166,5,0,0:0:0:0:
285,200,131255,2,0,P|308:236|354:258,1,70,8|0,0:1|0:0,0:0:0:0:
212,174,131434,2,0,P|246:199|265:246,1,70,10|0,0:3|0:0,0:0:0:0:
76,245,131612,70,0,P|124:254|181:245,1,70,8|0,0:0|0:0,0:0:0:0:
118,158,131791,2,0,P|139:110|175:85,1,70,8|0,0:0|0:0,0:0:0:0:
321,114,131969,6,0,P|276:83|252:52,1,70,8|0,0:3|0:0,0:0:0:0:
402,147,132148,2,0,P|365:106|331:87,1,70,2|0,0:0|0:0,0:0:0:0:
507,215,132327,2,0,P|486:284|438:337,1,140,8|2,0:0|0:0,0:0:0:0:
268,284,132594,1,2,0:0:0:0:
268,284,132684,70,0,B|293:276|293:276|312:277|312:277|341:268,1,70,10|0,0:3|0:0,0:0:0:0:
119,209,132862,2,0,B|76:205|76:205|31:224,1,70,10|0,0:3|0:0,0:0:0:0:
252,176,133041,6,0,B|293:177|293:177|300:172|300:172|335:167,1,70,10|0,0:3|0:0,0:0:0:0:
92,312,133219,2,0,B|43:326|43:326|16:321,1,70,10|0,0:3|0:0,0:0:0:0:
61,106,133398,69,8,3:3:0:0:
198,245,133577,1,2,3:2:0:0:
312,100,133755,1,8,3:2:0:0:
192,229,133934,1,2,3:2:0:0:
357,384,134112,5,10,1:2:0:0:
397,326,134202,1,0,1:0:0:0:
359,259,134291,1,0,1:0:0:0:
425,207,134380,1,0,1:0:0:0:
405,125,134469,1,2,1:2:0:0:
340,180,134559,1,0,1:0:0:0:
256,184,134648,1,0,1:0:0:0:
199,122,134737,1,0,1:0:0:0:
318,50,134827,70,0,B|351:56|351:56|373:48|373:48|402:46,1,70,8|0,0:3|0:0,0:0:0:0:
177,2,135005,2,0,B|153:12|153:12|126:13|126:13|99:26,1,70,2|0,0:0|0:0,0:0:0:0:
89,325,135184,2,0,P|145:264|169:200,1,140,8|10,0:0|0:3,0:0:0:0:
69,93,135452,5,8,0:3:0:0:
41,177,135541,2,0,L|42:198,14,17.5,0|0|0|0|0|0|0|0|0|0|0|0|0|0|0,1:0|1:0|1:0|1:0|1:0|1:0|1:0|1:0|1:0|1:0|1:0|1:0|1:0|1:0|1:0,1:0:0:0:
102,151,135898,70,0,L|87:166,2,17.5,8|0|8,1:3|1:0|1:3,1:0:0:0:
163,175,135987,2,0,L|142:176,2,17.5,8|0|8,1:3|1:0|1:3,1:0:0:0:
189,235,136077,2,0,L|173:220,2,17.5,8|0|8,1:3|1:0|1:3,1:0:0:0:
164,295,136166,2,0,L|163:274,2,17.5,8|0|8,1:3|1:0|1:3,1:0:0:0:
105,237,136255,5,10,1:3:0:0:
84,318,136344,1,2,1:2:0:0:
143,376,136434,1,2,1:2:0:0:
222,353,136523,1,2,1:2:0:0:
301,372,136612,70,0,P|374:354|427:296,1,140,10|8,0:0|0:3,0:0:0:0:
178,162,136969,1,8,0:1:0:0:
311,253,137148,1,2,0:0:0:0:
407,177,137327,1,8,0:1:0:0:
503,228,137505,1,2,0:0:0:0:
399,63,137684,5,8,3:1:0:0:
350,66,137773,1,0,3:0:0:0:
304,95,137862,1,8,3:3:0:0:
285,151,137952,1,0,3:0:0:0:
392,270,138041,69,8,3:1:0:0:
341,327,138130,1,0,3:0:0:0:
257,338,138219,1,8,3:3:0:0:
187,274,138309,1,0,3:0:0:0:
52,353,138398,6,0,L|115:346,7,35,0|0|0|0|0|0|0|0,1:0|1:0|1:0|1:0|1:0|1:0|1:0|1:0,1:0:0:0:
120,190,138755,2,8,L|81:253,7,70,8|8|8|8|8|8|8|8,1:2|1:2|1:2|1:2|1:2|1:2|1:2|1:2,1:2:0:0:
46,113,139112,6,0,P|64:64|85:41,1,70,2|0,0:0|0:0,0:0:0:0:
222,59,139469,2,0,P|175:86|138:95,1,70
46,113,139827,6,0,P|64:64|85:41,1,70,2|0,0:0|0:0,0:0:0:0:
226,62,140184,2,0,P|179:89|142:98,1,70
46,113,140541,70,0,P|64:64|85:41,1,70,2|0,0:0|0:0,0:0:0:0:
230,65,140898,2,0,P|183:92|146:101,1,70
46,113,141255,6,0,P|64:64|85:41,1,70,2|0,0:0|0:0,0:0:0:0:
234,68,141612,2,0,P|187:95|150:104,1,70
354,0,141969,70,2,B|385:27|385:27|403:68,1,70,2|0,0:0|0:0,0:1:0:0:
303,146,142327,2,2,P|299:206|304:244,1,70,0|0,0:0|0:0,0:1:0:0:
354,0,142684,6,2,B|385:27|385:27|403:68,1,70,2|0,0:0|0:0,0:1:0:0:
299,149,143041,2,2,P|295:209|300:247,1,70,0|0,0:0|0:0,0:1:0:0:
354,0,143398,70,2,B|385:27|385:27|403:68,1,70,2|0,0:0|0:0,0:1:0:0:
295,152,143755,2,2,P|291:212|296:250,1,70,0|0,0:0|0:0,0:1:0:0:
487,346,144112,6,0,P|469:295|445:261,1,70,2|0,0:0|0:0,0:0:0:0:
335,349,144469,2,0,P|284:359|238:350,1,70
74,182,144827,70,0,P|127:196|152:212,1,70,2|0,0:0|0:0,0:0:0:0:
225,76,145184,2,0,P|190:112|154:124,1,70
74,182,145541,6,0,P|127:196|152:212,1,70,2|0,0:0|0:0,0:0:0:0:
229,79,145898,2,0,P|194:115|158:127,1,70
74,182,146255,70,0,P|127:196|152:212,1,70,2|0,0:0|0:0,0:0:0:0:
74,182,146612,6,0,P|127:196|152:212,1,70,2|0,0:0|0:0,0:0:0:0:
203,330,146969,2,0,P|251:321|296:293,1,70
359,236,147327,2,0,P|417:257|446:281,1,70
397,113,147684,70,0,P|371:65|360:19,1,70,2|0,0:0|0:0,0:0:0:0:
270,119,148041,2,0,P|211:114|168:124,1,70
397,113,148398,6,0,P|371:65|360:19,1,70,2|0,0:0|0:0,0:0:0:0:
397,113,148755,70,0,P|371:65|360:19,1,70,2|0,0:0|0:0,0:0:0:0:
397,113,149112,6,0,P|371:65|360:19,1,70,2|0,0:0|0:0,0:0:0:0:
397,113,149291,70,0,P|371:65|360:19,1,70,2|0,0:0|0:0,0:0:0:0:
397,113,149469,6,0,P|371:65|360:19,1,70,2|0,0:0|0:0,0:0:0:0:
397,113,149648,70,0,P|371:65|360:19,1,70,2|0,0:0|0:0,0:0:0:0:
270,119,149827,2,0,P|211:114|168:124,7,70
