osu file format v14

[General]
AudioFilename: audio.mp3
AudioLeadIn: 0
PreviewTime: 54406
Countdown: 0
SampleSet: None
StackLeniency: 0.2
Mode: 1
LetterboxInBreaks: 0
WidescreenStoryboard: 1

[Editor]
DistanceSpacing: 1.1
BeatDivisor: 4
GridSize: 32
TimelineZoom: 1.799999

[Metadata]
Title:... and thoughts of suicide
TitleUnicode:... and thoughts of suicide
Artist:Sorry about my face
ArtistUnicode:Sorry about my face
Creator:Axer
Version:oni
Source:
Tags:goose bumps glitch breakcore noise lofi ambient Genjuro electronic instrumental depressive
BeatmapID:3565297
BeatmapSetID:975948

[Difficulty]
HPDrainRate:5.5
CircleSize:2
OverallDifficulty:4.5
ApproachRate:10
SliderMultiplier:1.4
SliderTickRate:1

[Events]
//Background and Video events
0,0,"lain3.jpg",0,50
//Break Periods
//Storyboard Layer 0 (Background)
//Storyboard Layer 1 (Fail)
//Storyboard Layer 2 (Pass)
//Storyboard Layer 3 (Foreground)
//Storyboard Layer 4 (Overlay)
//Storyboard Sound Samples

[TimingPoints]
40,428.571428571429,4,1,0,25,1,0
40,-100,4,1,0,25,0,0
27406,428.571428571429,4,1,0,75,1,0
27406,-100,4,1,0,75,0,0
54191,-100,4,1,0,75,0,0
54406,-100,4,1,0,75,0,0
54477,-100,4,1,0,75,0,0
54548,-100,4,1,0,75,0,0
54620,-100,4,1,0,75,0,0
54691,-100,4,1,0,75,0,0
54763,-100,4,1,0,75,0,0
54834,-100,4,1,0,75,0,1
60834,-100,4,1,0,75,0,0
61263,-100,4,1,0,75,0,0
61334,-100,4,1,0,75,0,0
61406,-100,4,1,0,75,0,0
61477,-100,4,1,0,75,0,0
61548,-100,4,1,0,75,0,0
61620,-100,4,1,0,75,0,0
61691,-100,4,1,0,75,0,1
67477,-100,4,1,0,75,0,1
67691,-100,4,1,0,75,0,1
67763,-100,4,1,0,75,0,1
67834,-100,4,1,0,75,0,1
67906,-100,4,1,0,75,0,1
67977,-100,4,1,0,75,0,1
68048,-100,4,1,0,75,0,1
68120,-100,4,1,0,75,0,1
68173,-100,4,1,0,75,0,1
68227,-100,4,1,0,75,0,1
68281,-100,4,1,0,75,0,1
68334,-100,4,1,0,75,0,1
68388,-100,4,1,0,75,0,1
68441,-100,4,1,0,75,0,1
68495,-100,4,1,0,75,0,1
68548,-100,4,1,0,75,0,0
74977,-100,4,1,0,75,0,0
75048,-100,4,1,0,75,0,0
75120,-100,4,1,0,75,0,0
75191,-100,4,1,0,75,0,0
75263,-100,4,1,0,75,0,0
75334,-100,4,1,0,75,0,0
75406,-100,4,1,0,75,0,0
81298,-100,4,1,0,75,0,0
81406,-100,4,1,0,75,0,0
81477,-100,4,1,0,75,0,0
81548,-100,4,1,0,75,0,0
81620,-100,4,1,0,75,0,0
81691,-100,4,1,0,75,0,0
81763,-100,4,1,0,75,0,0
81834,-100,4,1,0,75,0,0
81888,-100,4,1,0,75,0,0
81941,-100,4,1,0,75,0,0
81995,-100,4,1,0,75,0,0
82048,-100,4,1,0,75,0,0
82102,-100,4,1,0,75,0,0
82156,-100,4,1,0,75,0,0
82209,-100,4,1,0,75,0,0
82263,-100,4,1,0,75,0,1
136477,-100,4,1,0,75,0,1
136691,-100,4,1,0,75,0,1
136763,-100,4,1,0,75,0,1
136834,-100,4,1,0,75,0,1
136906,-100,4,1,0,75,0,1
136977,-100,4,1,0,75,0,1
137048,-100,4,1,0,75,0,1
137120,-100,4,1,0,35,0,0
137548,-133.333333333333,4,1,0,35,0,0
137763,-133.333333333333,4,1,0,35,0,0
137977,-133.333333333333,4,1,0,35,0,0
138191,-133.333333333333,4,1,0,35,0,0
138406,-133.333333333333,4,1,0,35,0,0
138620,-133.333333333333,4,1,0,35,0,0
138834,-133.333333333333,4,1,0,35,0,0
139048,-133.333333333333,4,1,0,35,0,0
139263,-133.333333333333,4,1,0,35,0,0
139477,-133.333333333333,4,1,0,35,0,0
139691,-133.333333333333,4,1,0,35,0,0
139906,-133.333333333333,4,1,0,35,0,0
140120,-133.333333333333,4,1,0,35,0,0
140334,-133.333333333333,4,1,0,35,0,0
140548,-133.333333333333,4,1,0,35,0,0
140977,-133.333333333333,4,1,0,35,0,0
141191,-133.333333333333,4,1,0,35,0,0
141406,-133.333333333333,4,1,0,35,0,0
141620,-133.333333333333,4,1,0,35,0,0
141834,-133.333333333333,4,1,0,35,0,0
142048,-133.333333333333,4,1,0,35,0,0
142263,-133.333333333333,4,1,0,35,0,0
142477,-133.333333333333,4,1,0,35,0,0
142691,-133.333333333333,4,1,0,35,0,0
142906,-133.333333333333,4,1,0,35,0,0
143120,-133.333333333333,4,1,0,35,0,0
143334,-133.333333333333,4,1,0,35,0,0
143548,-133.333333333333,4,1,0,35,0,0
143763,-133.333333333333,4,1,0,35,0,0
143977,-133.333333333333,4,1,0,35,0,0
144406,-133.333333333333,4,1,0,35,0,0
144620,-133.333333333333,4,1,0,35,0,0
144834,-133.333333333333,4,1,0,35,0,0
145048,-133.333333333333,4,1,0,35,0,0
145263,-133.333333333333,4,1,0,35,0,0
145477,-133.333333333333,4,1,0,35,0,0
145691,-133.333333333333,4,1,0,35,0,0
145906,-133.333333333333,4,1,0,35,0,0
146120,-133.333333333333,4,1,0,35,0,0
146334,-133.333333333333,4,1,0,35,0,0
146548,-133.333333333333,4,1,0,35,0,0
146763,-133.333333333333,4,1,0,35,0,0
146977,-133.333333333333,4,1,0,35,0,0
147191,-133.333333333333,4,1,0,35,0,0
147406,-133.333333333333,4,1,0,35,0,0
147834,-133.333333333333,4,1,0,35,0,0
148048,-133.333333333333,4,1,0,35,0,0
148263,-133.333333333333,4,1,0,35,0,0
148477,-133.333333333333,4,1,0,35,0,0
148691,-133.333333333333,4,1,0,35,0,0
148906,-133.333333333333,4,1,0,35,0,0
149120,-133.333333333333,4,1,0,35,0,0
149334,-133.333333333333,4,1,0,35,0,0
149548,-133.333333333333,4,1,0,35,0,0
149763,-133.333333333333,4,1,0,35,0,0
149977,-133.333333333333,4,1,0,35,0,0
150191,-133.333333333333,4,1,0,35,0,0
150406,-133.333333333333,4,1,0,35,0,0
150620,-133.333333333333,4,1,0,35,0,0
150834,-133.333333333333,4,1,0,35,0,0
178263,-100,4,1,0,75,0,0
190048,-100,4,1,0,75,0,0
190263,-100,4,1,0,75,0,0
190370,-100,4,1,0,75,0,0
190477,-100,4,1,0,75,0,0
190584,-100,4,1,0,75,0,0
190691,-100,4,1,0,75,0,0
190798,-100,4,1,0,75,0,0
190906,-100,4,1,0,75,0,0
191013,-100,4,1,0,75,0,0
191548,-100,4,1,0,75,0,0
191620,-100,4,1,0,75,0,0
191691,-100,4,1,0,75,0,0
191763,-100,4,1,0,75,0,0
191834,-100,4,1,0,75,0,0
191906,-100,4,1,0,75,0,0
191977,-100,4,1,0,75,0,1
208906,-100,4,1,0,75,0,0
209120,-100,4,1,0,75,0,0
209763,-100,4,1,0,75,0,0
210406,-100,4,1,0,75,0,0
211691,-100,4,1,0,75,0,0
211798,-100,4,1,0,75,0,0
211906,-100,4,1,0,75,0,0
211977,-100,4,1,0,75,0,0
212048,-100,4,1,0,75,0,0
212120,-100,4,1,0,75,0,0
212191,-100,4,1,0,75,0,0
212263,-100,4,1,0,75,0,0
212334,-100,4,1,0,75,0,0
212388,-100,4,1,0,75,0,0
212441,-100,4,1,0,75,0,0
212495,-100,4,1,0,75,0,0
212548,-100,4,1,0,75,0,1
229691,-100,4,1,0,75,0,0
230120,-100,4,1,0,75,0,1
236548,-100,4,1,0,75,0,1
236763,-100,4,1,0,75,0,1
236816,-100,4,1,0,75,0,1
236870,-100,4,1,0,75,0,1
236923,-100,4,1,0,75,0,1
236977,-100,4,1,0,75,0,1
237084,-100,4,1,0,75,0,1
237191,-100,4,1,0,75,0,1
237245,-100,4,1,0,75,0,1
237298,-100,4,1,0,75,0,1
237352,-100,4,1,0,75,0,1
237406,-100,4,1,0,75,0,1
237513,-100,4,1,0,75,0,1
237620,-100,4,1,0,75,0,1
237673,-100,4,1,0,75,0,1
237727,-100,4,1,0,75,0,1
237781,-100,4,1,0,75,0,1
237834,-100,4,1,0,75,0,1
237941,-100,4,1,0,75,0,1
238048,-100,4,1,0,75,0,1
238102,-100,4,1,0,75,0,1
238156,-100,4,1,0,75,0,1
238209,-100,4,1,0,75,0,1
238263,-100,4,1,0,75,0,1
238370,-100,4,1,0,75,0,1
238477,-100,4,1,0,75,0,1
238584,-100,4,1,0,75,0,1
238691,-100,4,1,0,75,0,1
238798,-100,4,1,0,75,0,1
238906,-100,4,1,0,75,0,1
238959,-100,4,1,0,75,0,1
239013,-100,4,1,0,75,0,1
239066,-100,4,1,0,75,0,1
239120,-100,4,1,0,75,0,1
239227,-100,4,1,0,75,0,1
239334,-100,4,1,0,75,0,1
239441,-100,4,1,0,75,0,1
239548,-100,4,1,0,75,0,1
239656,-100,4,1,0,75,0,1
239763,-100,4,1,0,75,0,1
239870,-100,4,1,0,75,0,1
239977,-100,4,1,0,10,0,0
241691,-100,4,1,0,10,0,0

[HitObjects]
256,192,40,5,0,0:0:0:0:
256,192,897,1,0,0:0:0:0:
256,192,3468,1,0,0:0:0:0:
256,192,4325,1,0,0:0:0:0:
256,192,5182,1,0,0:0:0:0:
256,192,6040,1,8,0:0:0:0:
256,192,6897,1,0,0:0:0:0:
256,192,7754,1,0,0:0:0:0:
256,192,10325,1,0,0:0:0:0:
256,192,11182,1,0,0:0:0:0:
256,192,12040,1,0,0:0:0:0:
256,192,12897,1,8,0:0:0:0:
256,192,13754,1,0,0:0:0:0:
256,192,14611,1,0,0:0:0:0:
256,192,17182,1,0,0:0:0:0:
256,192,18040,1,0,0:0:0:0:
256,192,18897,1,0,0:0:0:0:
256,192,19754,1,8,0:0:0:0:
256,192,20611,1,0,0:0:0:0:
256,192,21468,1,0,0:0:0:0:
256,192,24040,1,0,0:0:0:0:
256,192,24897,1,0,0:0:0:0:
256,192,25754,1,0,0:0:0:0:
256,192,26611,1,8,0:0:0:0:
256,192,27406,1,0,0:0:0:0:
256,192,27620,1,0,0:0:0:0:
256,192,27834,1,8,0:0:0:0:
256,192,28263,1,0,0:0:0:0:
256,192,28370,1,8,0:0:0:0:
256,192,28477,1,0,0:0:0:0:
256,192,28584,1,8,0:0:0:0:
256,192,28691,1,8,0:0:0:0:
256,192,28906,1,0,0:0:0:0:
256,192,29120,1,0,0:0:0:0:
256,192,29548,1,8,0:0:0:0:
256,192,29656,1,8,0:0:0:0:
256,192,29763,1,0,0:0:0:0:
256,192,29870,1,8,0:0:0:0:
256,192,30406,1,8,0:0:0:0:
256,192,30513,1,8,0:0:0:0:
256,192,30620,1,8,0:0:0:0:
256,192,30727,1,8,0:0:0:0:
256,192,30834,1,0,0:0:0:0:
256,192,31048,1,0,0:0:0:0:
256,192,31263,1,0,0:0:0:0:
256,192,31477,1,0,0:0:0:0:
256,192,31584,1,8,0:0:0:0:
256,192,31691,1,0,0:0:0:0:
256,192,31798,1,0,0:0:0:0:
256,192,31906,1,8,0:0:0:0:
256,192,32120,1,8,0:0:0:0:
256,192,32334,1,0,0:0:0:0:
256,192,32441,1,8,0:0:0:0:
256,192,32548,1,0,0:0:0:0:
256,192,32763,1,0,0:0:0:0:
256,192,32870,1,0,0:0:0:0:
256,192,32977,1,8,0:0:0:0:
256,192,33191,1,8,0:0:0:0:
256,192,33298,1,8,0:0:0:0:
256,192,33834,1,8,0:0:0:0:
256,192,34048,1,0,0:0:0:0:
256,192,34156,1,8,0:0:0:0:
256,192,34263,1,0,0:0:0:0:
256,192,34477,1,8,0:0:0:0:
256,192,34906,1,0,0:0:0:0:
256,192,35013,1,8,0:0:0:0:
256,192,35334,1,0,0:0:0:0:
256,192,35548,1,0,0:0:0:0:
256,192,35763,1,0,0:0:0:0:
256,192,35977,1,8,0:0:0:0:
256,192,36191,1,0,0:0:0:0:
256,192,36298,1,8,0:0:0:0:
256,192,36406,1,0,0:0:0:0:
256,192,36620,1,8,0:0:0:0:
256,192,36727,1,8,0:0:0:0:
256,192,37048,1,8,0:0:0:0:
256,192,37156,1,0,0:0:0:0:
256,192,37263,1,8,0:0:0:0:
256,192,37370,1,0,0:0:0:0:
256,192,37477,1,8,0:0:0:0:
256,192,37584,1,0,0:0:0:0:
256,192,37691,1,8,0:0:0:0:
256,192,38013,1,0,0:0:0:0:
256,192,38120,1,8,0:0:0:0:
256,192,38441,1,0,0:0:0:0:
256,192,38548,1,0,0:0:0:0:
256,192,38763,1,0,0:0:0:0:
256,192,38977,1,0,0:0:0:0:
256,192,39084,1,8,0:0:0:0:
256,192,39191,1,0,0:0:0:0:
256,192,39406,1,0,0:0:0:0:
256,192,39834,1,8,0:0:0:0:
256,192,40156,1,8,0:0:0:0:
256,192,40263,1,0,0:0:0:0:
256,192,40477,1,0,0:0:0:0:
256,192,40691,1,8,0:0:0:0:
256,192,40798,1,8,0:0:0:0:
256,192,40906,1,8,0:0:0:0:
256,192,41013,1,8,0:0:0:0:
256,192,41120,1,0,0:0:0:0:
256,192,41548,1,0,0:0:0:0:
256,192,41977,1,8,0:0:0:0:
256,192,42084,1,0,0:0:0:0:
256,192,42191,1,0,0:0:0:0:
256,192,42406,1,8,0:0:0:0:
256,192,42513,1,8,0:0:0:0:
256,192,42620,1,8,0:0:0:0:
256,192,42834,1,0,0:0:0:0:
256,192,43048,1,0,0:0:0:0:
256,192,43263,1,0,0:0:0:0:
256,192,43477,1,0,0:0:0:0:
256,192,43691,1,0,0:0:0:0:
256,192,43798,1,8,0:0:0:0:
256,192,44013,1,8,0:0:0:0:
256,192,44120,1,0,0:0:0:0:
256,192,44334,1,8,0:0:0:0:
256,192,44441,1,8,0:0:0:0:
256,192,44548,1,0,0:0:0:0:
256,192,45191,1,0,0:0:0:0:
256,192,45298,1,8,0:0:0:0:
256,192,45406,1,0,0:0:0:0:
256,192,45620,1,0,0:0:0:0:
256,192,46263,1,0,0:0:0:0:
256,192,46477,1,8,0:0:0:0:
256,192,46584,1,8,0:0:0:0:
256,192,46691,1,8,0:0:0:0:
256,192,46798,1,8,0:0:0:0:
256,192,46906,1,8,0:0:0:0:
256,192,47013,1,8,0:0:0:0:
256,192,47977,1,0,0:0:0:0:
256,192,48191,1,8,0:0:0:0:
256,192,48298,1,8,0:0:0:0:
256,192,48406,1,0,0:0:0:0:
256,192,48513,1,8,0:0:0:0:
256,192,48727,1,0,0:0:0:0:
256,192,48834,1,0,0:0:0:0:
256,192,49048,1,8,0:0:0:0:
256,192,49263,1,0,0:0:0:0:
256,192,49477,1,8,0:0:0:0:
256,192,49691,1,0,0:0:0:0:
256,192,49798,1,0,0:0:0:0:
256,192,49906,1,8,0:0:0:0:
256,192,50120,1,0,0:0:0:0:
256,192,50227,1,8,0:0:0:0:
256,192,50441,1,8,0:0:0:0:
256,192,50548,1,0,0:0:0:0:
256,192,50763,1,0,0:0:0:0:
256,192,50870,1,0,0:0:0:0:
256,192,50977,1,8,0:0:0:0:
256,192,51084,1,8,0:0:0:0:
256,192,51298,1,8,0:0:0:0:
256,192,51406,1,0,0:0:0:0:
256,192,51834,1,0,0:0:0:0:
256,192,53120,1,0,0:0:0:0:
256,192,53334,1,8,0:0:0:0:
256,192,53548,1,0,0:0:0:0:
256,192,53763,1,8,0:0:0:0:
256,192,53870,1,0,0:0:0:0:
256,192,53977,1,8,0:0:0:0:
256,192,54084,1,0,0:0:0:0:
256,192,54191,1,0,0:0:0:0:
256,192,54406,1,0,0:0:0:0:
256,192,54513,1,0,0:0:0:0:
256,192,54620,1,0,0:0:0:0:
256,192,54727,1,0,0:0:0:0:
256,192,54834,1,8,0:0:0:0:
256,192,55048,1,8,0:0:0:0:
256,192,55263,1,8,0:0:0:0:
256,192,55691,1,0,0:0:0:0:
256,192,55798,1,8,0:0:0:0:
256,192,55906,1,0,0:0:0:0:
256,192,56013,1,0,0:0:0:0:
256,192,56120,1,8,0:0:0:0:
256,192,56334,1,8,0:0:0:0:
256,192,56548,1,0,0:0:0:0:
256,192,56763,1,0,0:0:0:0:
256,192,56977,1,8,0:0:0:0:
256,192,57084,1,8,0:0:0:0:
256,192,57191,1,0,0:0:0:0:
256,192,57298,1,8,0:0:0:0:
256,192,57406,1,0,0:0:0:0:
256,192,57620,1,8,0:0:0:0:
256,192,57834,1,8,0:0:0:0:
256,192,57941,1,8,0:0:0:0:
256,192,58048,1,8,0:0:0:0:
256,192,58156,1,8,0:0:0:0:
256,192,58263,1,0,0:0:0:0:
256,192,58477,1,0,0:0:0:0:
256,192,58691,1,8,0:0:0:0:
256,192,58798,1,0,0:0:0:0:
256,192,58906,1,8,0:0:0:0:
256,192,59013,1,8,0:0:0:0:
256,192,59334,1,8,0:0:0:0:
256,192,59548,1,8,0:0:0:0:
256,192,59763,1,0,0:0:0:0:
256,192,59977,1,8,0:0:0:0:
256,192,60084,1,8,0:0:0:0:
256,192,60191,1,0,0:0:0:0:
256,192,60406,1,0,0:0:0:0:
256,192,60513,1,8,0:0:0:0:
256,192,60620,1,8,0:0:0:0:
256,192,60727,1,8,0:0:0:0:
256,192,60834,1,0,0:0:0:0:
256,192,61263,1,8,0:0:0:0:
256,192,61370,1,8,0:0:0:0:
256,192,61477,1,8,0:0:0:0:
256,192,61584,1,8,0:0:0:0:
256,192,61691,1,0,0:0:0:0:
256,192,61906,1,0,0:0:0:0:
256,192,62013,1,0,0:0:0:0:
256,192,62120,1,8,0:0:0:0:
256,192,62334,1,0,0:0:0:0:
256,192,62441,1,8,0:0:0:0:
256,192,62656,1,8,0:0:0:0:
256,192,62763,1,0,0:0:0:0:
256,192,62977,1,8,0:0:0:0:
256,192,63191,1,0,0:0:0:0:
256,192,63406,1,8,0:0:0:0:
256,192,63620,1,0,0:0:0:0:
256,192,63727,1,8,0:0:0:0:
256,192,63941,1,0,0:0:0:0:
256,192,64048,1,8,0:0:0:0:
256,192,64263,1,0,0:0:0:0:
256,192,64477,1,0,0:0:0:0:
256,192,64584,1,8,0:0:0:0:
256,192,64798,1,8,0:0:0:0:
256,192,64906,1,8,0:0:0:0:
256,192,65120,1,8,0:0:0:0:
256,192,65334,1,0,0:0:0:0:
256,192,65548,1,8,0:0:0:0:
256,192,65763,1,0,0:0:0:0:
256,192,65977,1,0,0:0:0:0:
256,192,66406,1,0,0:0:0:0:
256,192,66620,1,0,0:0:0:0:
256,192,66834,1,8,0:0:0:0:
256,192,67048,1,0,0:0:0:0:
256,192,67156,1,8,0:0:0:0:
256,192,67370,1,8,0:0:0:0:
256,192,67477,1,8,0:0:0:0:
256,192,67691,1,0,0:0:0:0:
256,192,67906,1,0,0:0:0:0:
256,192,68120,1,8,0:0:0:0:
256,192,68227,1,0,0:0:0:0:
256,192,68334,1,8,0:0:0:0:
256,192,68441,1,8,0:0:0:0:
256,192,68548,1,0,0:0:0:0:
256,192,68977,1,8,0:0:0:0:
256,192,69406,1,8,0:0:0:0:
256,192,69513,1,8,0:0:0:0:
256,192,69727,1,0,0:0:0:0:
256,192,69834,1,8,0:0:0:0:
256,192,70263,1,0,0:0:0:0:
256,192,70477,1,0,0:0:0:0:
256,192,70691,1,8,0:0:0:0:
256,192,70798,1,8,0:0:0:0:
256,192,70906,1,0,0:0:0:0:
256,192,71120,1,8,0:0:0:0:
256,192,71334,1,0,0:0:0:0:
256,192,71441,1,0,0:0:0:0:
256,192,71548,1,8,0:0:0:0:
256,192,71656,1,0,0:0:0:0:
256,192,71763,1,8,0:0:0:0:
256,192,71977,1,0,0:0:0:0:
256,192,72406,1,0,0:0:0:0:
256,192,72513,1,8,0:0:0:0:
256,192,72727,1,8,0:0:0:0:
256,192,72834,1,0,0:0:0:0:
256,192,73048,1,0,0:0:0:0:
256,192,73263,1,8,0:0:0:0:
256,192,73691,1,8,0:0:0:0:
256,192,73798,1,8,0:0:0:0:
256,192,73906,1,0,0:0:0:0:
256,192,74013,1,0,0:0:0:0:
256,192,74120,1,8,0:0:0:0:
256,192,74334,1,8,0:0:0:0:
256,192,74441,1,8,0:0:0:0:
256,192,74548,1,0,0:0:0:0:
256,192,75406,1,8,0:0:0:0:
256,192,75620,1,0,0:0:0:0:
256,192,75727,1,8,0:0:0:0:
256,192,75941,1,8,0:0:0:0:
256,192,76048,1,0,0:0:0:0:
256,192,76156,1,8,0:0:0:0:
256,192,76370,1,0,0:0:0:0:
256,192,76477,1,8,0:0:0:0:
256,192,76691,1,0,0:0:0:0:
256,192,76906,1,8,0:0:0:0:
256,192,77120,1,0,0:0:0:0:
256,192,77334,1,0,0:0:0:0:
256,192,77441,1,8,0:0:0:0:
256,192,77656,1,8,0:0:0:0:
256,192,77763,1,8,0:0:0:0:
256,192,77977,1,0,0:0:0:0:
256,192,78084,1,0,0:0:0:0:
256,192,78191,1,0,0:0:0:0:
256,192,78298,1,0,0:0:0:0:
256,192,78513,1,8,0:0:0:0:
256,192,78620,1,8,0:0:0:0:
256,192,78834,1,0,0:0:0:0:
256,192,79263,1,0,0:0:0:0:
256,192,79370,1,8,0:0:0:0:
256,192,79477,1,8,0:0:0:0:
256,192,79691,1,0,0:0:0:0:
256,192,80120,1,8,0:0:0:0:
256,192,80227,1,8,0:0:0:0:
256,192,80334,1,8,0:0:0:0:
256,192,80548,1,0,0:0:0:0:
256,192,80763,1,8,0:0:0:0:
256,192,80977,1,0,0:0:0:0:
256,192,81191,1,8,0:0:0:0:
256,192,81620,1,0,0:0:0:0:
256,192,81834,1,8,0:0:0:0:
256,192,81941,1,8,0:0:0:0:
256,192,82048,1,8,0:0:0:0:
256,192,82156,1,8,0:0:0:0:
256,192,82263,1,8,0:0:0:0:
256,192,82477,1,8,0:0:0:0:
256,192,82691,1,8,0:0:0:0:
256,192,83120,1,8,0:0:0:0:
256,192,83334,1,8,0:0:0:0:
256,192,83441,1,0,0:0:0:0:
256,192,83548,1,8,0:0:0:0:
256,192,83763,1,0,0:0:0:0:
256,192,83977,1,8,0:0:0:0:
256,192,84191,1,8,0:0:0:0:
256,192,84406,1,8,0:0:0:0:
256,192,84513,1,8,0:0:0:0:
256,192,84620,1,0,0:0:0:0:
256,192,84727,1,8,0:0:0:0:
256,192,84834,1,0,0:0:0:0:
256,192,85263,1,8,0:0:0:0:
256,192,85370,1,0,0:0:0:0:
256,192,85477,1,8,0:0:0:0:
256,192,85584,1,8,0:0:0:0:
256,192,85691,1,0,0:0:0:0:
256,192,85906,1,0,0:0:0:0:
256,192,86120,1,8,0:0:0:0:
256,192,86334,1,0,0:0:0:0:
256,192,86441,1,0,0:0:0:0:
256,192,86548,1,8,0:0:0:0:
256,192,86763,1,0,0:0:0:0:
256,192,86977,1,8,0:0:0:0:
256,192,87191,1,8,0:0:0:0:
256,192,87406,1,0,0:0:0:0:
256,192,87834,1,0,0:0:0:0:
256,192,87941,1,8,0:0:0:0:
256,192,88048,1,8,0:0:0:0:
256,192,88156,1,8,0:0:0:0:
256,192,88263,1,0,0:0:0:0:
256,192,88691,1,8,0:0:0:0:
256,192,88906,1,8,0:0:0:0:
256,192,89013,1,8,0:0:0:0:
256,192,89120,1,0,0:0:0:0:
256,192,89334,1,8,0:0:0:0:
256,192,89548,1,8,0:0:0:0:
256,192,89763,1,0,0:0:0:0:
256,192,89870,1,8,0:0:0:0:
256,192,90084,1,8,0:0:0:0:
256,192,90191,1,0,0:0:0:0:
256,192,90406,1,0,0:0:0:0:
256,192,90620,1,8,0:0:0:0:
256,192,90834,1,8,0:0:0:0:
256,192,91156,1,0,0:0:0:0:
256,192,91263,1,8,0:0:0:0:
256,192,91477,1,8,0:0:0:0:
256,192,91584,1,8,0:0:0:0:
256,192,91691,1,0,0:0:0:0:
256,192,92120,1,8,0:0:0:0:
256,192,92227,1,0,0:0:0:0:
256,192,92334,1,8,0:0:0:0:
256,192,92441,1,8,0:0:0:0:
256,192,92548,1,0,0:0:0:0:
256,192,92977,1,0,0:0:0:0:
256,192,93406,1,8,0:0:0:0:
256,192,93513,1,0,0:0:0:0:
256,192,93620,1,8,0:0:0:0:
256,192,93834,1,8,0:0:0:0:
256,192,93941,1,0,0:0:0:0:
256,192,94048,1,8,0:0:0:0:
256,192,94263,1,8,0:0:0:0:
256,192,94477,1,8,0:0:0:0:
256,192,94584,1,0,0:0:0:0:
256,192,94691,1,8,0:0:0:0:
256,192,94798,1,0,0:0:0:0:
256,192,94906,1,8,0:0:0:0:
256,192,95120,1,0,0:0:0:0:
256,192,95548,1,8,0:0:0:0:
256,192,95656,1,0,0:0:0:0:
256,192,95763,1,8,0:0:0:0:
256,192,95870,1,8,0:0:0:0:
256,192,95977,1,0,0:0:0:0:
256,192,96191,1,8,0:0:0:0:
256,192,96406,1,8,0:0:0:0:
256,192,96620,1,0,0:0:0:0:
256,192,96727,1,8,0:0:0:0:
256,192,96941,1,8,0:0:0:0:
256,192,97048,1,8,0:0:0:0:
256,192,97263,1,8,0:0:0:0:
256,192,97370,1,0,0:0:0:0:
256,192,97477,1,8,0:0:0:0:
256,192,97584,1,8,0:0:0:0:
256,192,97691,1,0,0:0:0:0:
256,192,97906,1,0,0:0:0:0:
256,192,98120,1,8,0:0:0:0:
256,192,98334,1,8,0:0:0:0:
256,192,98441,1,8,0:0:0:0:
256,192,98548,1,0,0:0:0:0:
256,192,98763,1,8,0:0:0:0:
256,192,98977,1,8,0:0:0:0:
256,192,99084,1,8,0:0:0:0:
256,192,99191,1,0,0:0:0:0:
256,192,99834,1,8,0:0:0:0:
256,192,100048,1,0,0:0:0:0:
256,192,100263,1,8,0:0:0:0:
256,192,100477,1,8,0:0:0:0:
256,192,100584,1,8,0:0:0:0:
256,192,100691,1,8,0:0:0:0:
256,192,100906,1,8,0:0:0:0:
256,192,101013,1,8,0:0:0:0:
256,192,101120,1,0,0:0:0:0:
256,192,101548,1,8,0:0:0:0:
256,192,101763,1,8,0:0:0:0:
256,192,101870,1,8,0:0:0:0:
256,192,101977,1,0,0:0:0:0:
256,192,102834,1,8,0:0:0:0:
256,192,103048,1,8,0:0:0:0:
256,192,103156,1,0,0:0:0:0:
256,192,103263,1,8,0:0:0:0:
256,192,103477,1,8,0:0:0:0:
256,192,103584,1,0,0:0:0:0:
256,192,103691,1,8,0:0:0:0:
256,192,103906,1,8,0:0:0:0:
256,192,104120,1,8,0:0:0:0:
256,192,104334,1,8,0:0:0:0:
256,192,104548,1,0,0:0:0:0:
256,192,104977,1,8,0:0:0:0:
256,192,105191,1,8,0:0:0:0:
256,192,105298,1,8,0:0:0:0:
256,192,105406,1,0,0:0:0:0:
256,192,105620,1,0,0:0:0:0:
256,192,105727,1,0,0:0:0:0:
256,192,105834,1,8,0:0:0:0:
256,192,105941,1,0,0:0:0:0:
256,192,106048,1,8,0:0:0:0:
256,192,106263,1,0,0:0:0:0:
256,192,106691,1,8,0:0:0:0:
256,192,106798,1,8,0:0:0:0:
256,192,106906,1,8,0:0:0:0:
256,192,107120,1,0,0:0:0:0:
256,192,107334,1,8,0:0:0:0:
256,192,107548,1,8,0:0:0:0:
256,192,107656,1,8,0:0:0:0:
256,192,107763,1,0,0:0:0:0:
256,192,107977,1,8,0:0:0:0:
256,192,108084,1,0,0:0:0:0:
256,192,108191,1,8,0:0:0:0:
256,192,108298,1,8,0:0:0:0:
256,192,108406,1,0,0:0:0:0:
256,192,108620,1,8,0:0:0:0:
256,192,108834,1,0,0:0:0:0:
256,192,109263,1,8,0:0:0:0:
256,192,109370,1,8,0:0:0:0:
256,192,109477,1,8,0:0:0:0:
256,192,109584,1,8,0:0:0:0:
256,192,109691,1,0,0:0:0:0:
256,192,109906,1,8,0:0:0:0:
256,192,110120,1,8,0:0:0:0:
256,192,110334,1,0,0:0:0:0:
256,192,110441,1,0,0:0:0:0:
256,192,110548,1,8,0:0:0:0:
256,192,110763,1,8,0:0:0:0:
256,192,110977,1,8,0:0:0:0:
256,192,111406,1,8,0:0:0:0:
256,192,111620,1,8,0:0:0:0:
256,192,111834,1,8,0:0:0:0:
256,192,111941,1,8,0:0:0:0:
256,192,112048,1,0,0:0:0:0:
256,192,112156,1,8,0:0:0:0:
256,192,112691,1,8,0:0:0:0:
256,192,112798,1,0,0:0:0:0:
256,192,112906,1,8,0:0:0:0:
256,192,113013,1,8,0:0:0:0:
256,192,113120,1,0,0:0:0:0:
256,192,113334,1,0,0:0:0:0:
256,192,113548,1,8,0:0:0:0:
256,192,113763,1,8,0:0:0:0:
256,192,113870,1,0,0:0:0:0:
256,192,113977,1,8,0:0:0:0:
256,192,114191,1,8,0:0:0:0:
256,192,114406,1,8,0:0:0:0:
256,192,114620,1,8,0:0:0:0:
256,192,114834,1,0,0:0:0:0:
256,192,115048,1,8,0:0:0:0:
256,192,115156,1,8,0:0:0:0:
256,192,115370,1,0,0:0:0:0:
256,192,115477,1,8,0:0:0:0:
256,192,115584,1,8,0:0:0:0:
256,192,115691,1,0,0:0:0:0:
256,192,115906,1,0,0:0:0:0:
256,192,116120,1,8,0:0:0:0:
256,192,116227,1,8,0:0:0:0:
256,192,116334,1,8,0:0:0:0:
256,192,116441,1,8,0:0:0:0:
256,192,116548,1,0,0:0:0:0:
256,192,116763,1,0,0:0:0:0:
256,192,116870,1,0,0:0:0:0:
256,192,116977,1,8,0:0:0:0:
256,192,117191,1,8,0:0:0:0:
256,192,117298,1,8,0:0:0:0:
256,192,117406,1,8,0:0:0:0:
256,192,117620,1,0,0:0:0:0:
256,192,117834,1,0,0:0:0:0:
256,192,118048,1,8,0:0:0:0:
256,192,118263,1,8,0:0:0:0:
256,192,118477,1,0,0:0:0:0:
256,192,118691,1,8,0:0:0:0:
256,192,118798,1,0,0:0:0:0:
256,192,118906,1,8,0:0:0:0:
256,192,119120,1,0,0:0:0:0:
256,192,119548,1,8,0:0:0:0:
256,192,119656,1,0,0:0:0:0:
256,192,119763,1,8,0:0:0:0:
256,192,119870,1,8,0:0:0:0:
256,192,119977,1,0,0:0:0:0:
256,192,120406,1,0,0:0:0:0:
256,192,120834,1,8,0:0:0:0:
256,192,121048,1,8,0:0:0:0:
256,192,121263,1,8,0:0:0:0:
256,192,121477,1,8,0:0:0:0:
256,192,121691,1,8,0:0:0:0:
256,192,121906,1,8,0:0:0:0:
256,192,122013,1,0,0:0:0:0:
256,192,122120,1,8,0:0:0:0:
256,192,122227,1,0,0:0:0:0:
256,192,122334,1,8,0:0:0:0:
256,192,122548,1,0,0:0:0:0:
256,192,122977,1,0,0:0:0:0:
256,192,123084,1,0,0:0:0:0:
256,192,123191,1,8,0:0:0:0:
256,192,123298,1,8,0:0:0:0:
256,192,123406,1,0,0:0:0:0:
256,192,123620,1,8,0:0:0:0:
256,192,123834,1,8,0:0:0:0:
256,192,124048,1,0,0:0:0:0:
256,192,124156,1,0,0:0:0:0:
256,192,124263,1,8,0:0:0:0:
256,192,124477,1,8,0:0:0:0:
256,192,124584,1,8,0:0:0:0:
256,192,124798,1,0,0:0:0:0:
256,192,124906,1,8,0:0:0:0:
256,192,125120,1,0,0:0:0:0:
256,192,125548,1,8,0:0:0:0:
256,192,125763,1,8,0:0:0:0:
256,192,125870,1,8,0:0:0:0:
256,192,125977,1,0,0:0:0:0:
256,192,126191,1,8,0:0:0:0:
256,192,126406,1,8,0:0:0:0:
256,192,126513,1,8,0:0:0:0:
256,192,126620,1,0,0:0:0:0:
256,192,126834,1,0,0:0:0:0:
256,192,127263,1,8,0:0:0:0:
256,192,127477,1,0,0:0:0:0:
256,192,127691,1,8,0:0:0:0:
256,192,127906,1,8,0:0:0:0:
256,192,128013,1,8,0:0:0:0:
256,192,128120,1,8,0:0:0:0:
256,192,128334,1,8,0:0:0:0:
256,192,128441,1,8,0:0:0:0:
256,192,128548,1,0,0:0:0:0:
256,192,128977,1,8,0:0:0:0:
256,192,129191,1,8,0:0:0:0:
256,192,129298,1,8,0:0:0:0:
256,192,129406,1,0,0:0:0:0:
256,192,130263,1,8,0:0:0:0:
256,192,130477,1,8,0:0:0:0:
256,192,130584,1,0,0:0:0:0:
256,192,130691,1,8,0:0:0:0:
256,192,130906,1,8,0:0:0:0:
256,192,131013,1,0,0:0:0:0:
256,192,131120,1,8,0:0:0:0:
256,192,131334,1,8,0:0:0:0:
256,192,131548,1,8,0:0:0:0:
256,192,131763,1,8,0:0:0:0:
256,192,131977,1,0,0:0:0:0:
256,192,132084,1,0,0:0:0:0:
256,192,132191,1,8,0:0:0:0:
256,192,132406,1,8,0:0:0:0:
256,192,132620,1,8,0:0:0:0:
256,192,132727,1,8,0:0:0:0:
256,192,132834,1,0,0:0:0:0:
256,192,133048,1,0,0:0:0:0:
256,192,133156,1,0,0:0:0:0:
256,192,133263,1,8,0:0:0:0:
256,192,133370,1,0,0:0:0:0:
256,192,133477,1,8,0:0:0:0:
256,192,133691,1,0,0:0:0:0:
256,192,133906,1,0,0:0:0:0:
256,192,134013,1,0,0:0:0:0:
256,192,134120,1,8,0:0:0:0:
256,192,134227,1,0,0:0:0:0:
256,192,134334,1,0,0:0:0:0:
256,192,134548,1,0,0:0:0:0:
256,192,134763,1,8,0:0:0:0:
256,192,134977,1,8,0:0:0:0:
256,192,135084,1,8,0:0:0:0:
256,192,135191,1,0,0:0:0:0:
256,192,135406,1,8,0:0:0:0:
256,192,135620,1,8,0:0:0:0:
256,192,135727,1,8,0:0:0:0:
256,192,135834,1,0,0:0:0:0:
256,192,136048,1,8,0:0:0:0:
256,192,136263,1,0,0:0:0:0:
256,192,136477,1,0,0:0:0:0:
256,192,136691,1,8,0:0:0:0:
256,192,136798,1,8,0:0:0:0:
256,192,136906,1,8,0:0:0:0:
256,192,137013,1,8,0:0:0:0:
256,192,137120,1,0,0:0:0:0:
256,192,137548,1,8,0:0:0:0:
256,192,137763,1,8,0:0:0:0:
256,192,137977,1,4,0:0:0:0:
256,192,138406,1,0,0:0:0:0:
256,192,138620,1,8,0:0:0:0:
256,192,138834,1,0,0:0:0:0:
256,192,139048,1,8,0:0:0:0:
256,192,139263,1,0,0:0:0:0:
256,192,139477,1,0,0:0:0:0:
256,192,139691,1,12,0:0:0:0:
256,192,140120,1,8,0:0:0:0:
256,192,140334,1,8,0:0:0:0:
256,192,140548,1,0,0:0:0:0:
256,192,140977,1,8,0:0:0:0:
256,192,141191,1,8,0:0:0:0:
256,192,141406,1,4,0:0:0:0:
256,192,141834,1,0,0:0:0:0:
256,192,142048,1,8,0:0:0:0:
256,192,142263,1,0,0:0:0:0:
256,192,142477,1,8,0:0:0:0:
256,192,142691,1,0,0:0:0:0:
256,192,142906,1,0,0:0:0:0:
256,192,143120,1,12,0:0:0:0:
256,192,143548,1,8,0:0:0:0:
256,192,143763,1,8,0:0:0:0:
256,192,143977,1,0,0:0:0:0:
256,192,144406,1,8,0:0:0:0:
256,192,144620,1,8,0:0:0:0:
256,192,144834,1,4,0:0:0:0:
256,192,145263,1,0,0:0:0:0:
256,192,145477,1,8,0:0:0:0:
256,192,145691,1,0,0:0:0:0:
256,192,145906,1,8,0:0:0:0:
256,192,146120,1,0,0:0:0:0:
256,192,146334,1,0,0:0:0:0:
256,192,146548,1,12,0:0:0:0:
256,192,146977,1,8,0:0:0:0:
256,192,147191,1,8,0:0:0:0:
256,192,147406,1,0,0:0:0:0:
256,192,147834,1,8,0:0:0:0:
256,192,148048,1,8,0:0:0:0:
256,192,148263,1,4,0:0:0:0:
256,192,148691,1,0,0:0:0:0:
256,192,148906,1,8,0:0:0:0:
256,192,149120,1,0,0:0:0:0:
256,192,149334,1,8,0:0:0:0:
256,192,149548,1,0,0:0:0:0:
256,192,149763,1,0,0:0:0:0:
256,192,149977,1,12,0:0:0:0:
256,192,150406,1,12,0:0:0:0:
256,192,150834,1,0,0:0:0:0:
256,192,151263,1,8,0:0:0:0:
256,192,151477,1,8,0:0:0:0:
256,192,151691,1,4,0:0:0:0:
256,192,152120,1,0,0:0:0:0:
256,192,152334,1,0,0:0:0:0:
256,192,152548,1,12,0:0:0:0:
256,192,152977,1,12,0:0:0:0:
256,192,153406,1,12,0:0:0:0:
256,192,153834,1,8,0:0:0:0:
256,192,154048,1,8,0:0:0:0:
256,192,154263,1,0,0:0:0:0:
256,192,154691,1,8,0:0:0:0:
256,192,154906,1,8,0:0:0:0:
256,192,155120,1,4,0:0:0:0:
256,192,155334,2,0,L|224:192,4,26.2500010013581
256,192,155977,1,0,0:0:0:0:
256,192,156191,1,8,0:0:0:0:
256,192,156406,1,0,0:0:0:0:
256,192,156620,1,0,0:0:0:0:
256,192,156834,1,12,0:0:0:0:
256,192,157263,1,8,0:0:0:0:
256,192,157477,1,8,0:0:0:0:
256,192,157691,1,0,0:0:0:0:
256,192,158120,1,8,0:0:0:0:
256,192,158334,1,8,0:0:0:0:
256,192,158548,1,0,0:0:0:0:
256,192,158763,1,0,0:0:0:0:
256,192,158977,1,0,0:0:0:0:
256,192,159191,1,8,0:0:0:0:
256,192,159406,1,0,0:0:0:0:
256,192,159620,1,8,0:0:0:0:
256,192,159727,1,8,0:0:0:0:
256,192,159834,1,0,0:0:0:0:
256,192,160048,1,0,0:0:0:0:
256,192,160263,1,12,0:0:0:0:
256,192,160691,1,8,0:0:0:0:
256,192,160906,1,8,0:0:0:0:
256,192,161013,1,8,0:0:0:0:
256,192,161120,1,0,0:0:0:0:
256,192,161548,1,8,0:0:0:0:
256,192,161763,1,8,0:0:0:0:
256,192,161977,8,0,162941,0:0:0:0:
256,192,163048,5,0,0:0:0:0:
256,192,163263,1,8,0:0:0:0:
256,192,163477,1,0,0:0:0:0:
256,192,163691,1,12,0:0:0:0:
256,192,164120,1,8,0:0:0:0:
256,192,164334,1,8,0:0:0:0:
256,192,164548,1,0,0:0:0:0:
256,192,165406,1,12,0:0:0:0:
256,192,166691,1,8,0:0:0:0:
256,192,166906,1,0,0:0:0:0:
256,192,167120,8,0,167870,0:0:0:0:
256,192,167977,5,0,0:0:0:0:
256,192,168406,8,0,170013,0:0:0:0:
256,192,170120,5,8,0:0:0:0:
256,192,170334,1,0,0:0:0:0:
256,192,170548,1,12,0:0:0:0:
256,192,171191,1,0,0:0:0:0:
256,192,171298,1,0,0:0:0:0:
256,192,171406,1,8,0:0:0:0:
256,192,171834,8,0,172798,0:0:0:0:
256,192,173548,5,8,0:0:0:0:
256,192,173763,1,0,0:0:0:0:
256,192,173977,8,0,174620,0:0:0:0:
256,192,174834,8,0,175370,0:0:0:0:
256,192,175477,5,0,0:0:0:0:
256,192,175691,8,0,178048,0:0:0:0:
256,192,178263,5,0,0:0:0:0:
256,192,178691,1,8,0:0:0:0:
256,192,178906,1,0,0:0:0:0:
256,192,179013,1,8,0:0:0:0:
256,192,179227,1,8,0:0:0:0:
256,192,179334,1,0,0:0:0:0:
256,192,179548,1,0,0:0:0:0:
256,192,179763,1,8,0:0:0:0:
256,192,179977,1,0,0:0:0:0:
256,192,180191,1,0,0:0:0:0:
256,192,180298,1,8,0:0:0:0:
256,192,180513,1,0,0:0:0:0:
256,192,180620,1,8,0:0:0:0:
256,192,180834,1,0,0:0:0:0:
256,192,181048,1,0,0:0:0:0:
256,192,181156,1,8,0:0:0:0:
256,192,181370,1,8,0:0:0:0:
256,192,181477,1,8,0:0:0:0:
256,192,181691,1,0,0:0:0:0:
256,192,182120,1,8,0:0:0:0:
256,192,182334,1,0,0:0:0:0:
256,192,182441,1,8,0:0:0:0:
256,192,182656,1,8,0:0:0:0:
256,192,182763,1,0,0:0:0:0:
256,192,182977,1,0,0:0:0:0:
256,192,183191,1,8,0:0:0:0:
256,192,183406,1,0,0:0:0:0:
256,192,183620,1,0,0:0:0:0:
256,192,183727,1,8,0:0:0:0:
256,192,183941,1,8,0:0:0:0:
256,192,184048,1,8,0:0:0:0:
256,192,184263,1,0,0:0:0:0:
256,192,184477,1,0,0:0:0:0:
256,192,184584,1,8,0:0:0:0:
256,192,184798,1,8,0:0:0:0:
256,192,184906,1,8,0:0:0:0:
256,192,185120,1,8,0:0:0:0:
256,192,185334,1,8,0:0:0:0:
256,192,185548,1,8,0:0:0:0:
256,192,185977,1,0,0:0:0:0:
256,192,186084,1,8,0:0:0:0:
256,192,186191,1,0,0:0:0:0:
256,192,186406,1,8,0:0:0:0:
256,192,186620,1,8,0:0:0:0:
256,192,186727,1,8,0:0:0:0:
256,192,186834,1,0,0:0:0:0:
256,192,187048,1,0,0:0:0:0:
256,192,187263,1,0,0:0:0:0:
256,192,187477,1,8,0:0:0:0:
256,192,187691,1,0,0:0:0:0:
256,192,187798,1,0,0:0:0:0:
256,192,187906,1,8,0:0:0:0:
256,192,188548,1,0,0:0:0:0:
256,192,188763,1,0,0:0:0:0:
256,192,188977,1,8,0:0:0:0:
256,192,189191,1,8,0:0:0:0:
256,192,189298,1,8,0:0:0:0:
256,192,189406,1,8,0:0:0:0:
256,192,189620,1,0,0:0:0:0:
256,192,189834,1,0,0:0:0:0:
256,192,190048,1,0,0:0:0:0:
256,192,190263,1,0,0:0:0:0:
256,192,190477,1,0,0:0:0:0:
256,192,190584,1,0,0:0:0:0:
256,192,190691,1,0,0:0:0:0:
256,192,190798,1,0,0:0:0:0:
256,192,190906,1,0,0:0:0:0:
256,192,191013,1,0,0:0:0:0:
256,192,191548,1,8,0:0:0:0:
256,192,191656,1,8,0:0:0:0:
256,192,191763,1,8,0:0:0:0:
256,192,191870,1,8,0:0:0:0:
256,192,191977,1,0,0:0:0:0:
256,192,192191,1,0,0:0:0:0:
256,192,192406,1,8,0:0:0:0:
256,192,192620,1,0,0:0:0:0:
256,192,192727,1,8,0:0:0:0:
256,192,192941,1,8,0:0:0:0:
256,192,193048,1,0,0:0:0:0:
256,192,193263,1,0,0:0:0:0:
256,192,193370,1,8,0:0:0:0:
256,192,193477,1,8,0:0:0:0:
256,192,193691,1,8,0:0:0:0:
256,192,193798,1,8,0:0:0:0:
256,192,193906,1,0,0:0:0:0:
256,192,194013,1,8,0:0:0:0:
256,192,194120,1,0,0:0:0:0:
256,192,194334,1,8,0:0:0:0:
256,192,194548,1,8,0:0:0:0:
256,192,194656,1,8,0:0:0:0:
256,192,194763,1,8,0:0:0:0:
256,192,194870,1,8,0:0:0:0:
256,192,194977,1,8,0:0:0:0:
256,192,195084,1,8,0:0:0:0:
256,192,195191,1,8,0:0:0:0:
256,192,195406,1,8,0:0:0:0:
256,192,195834,1,8,0:0:0:0:
256,192,195941,1,8,0:0:0:0:
256,192,196048,1,0,0:0:0:0:
256,192,196156,1,0,0:0:0:0:
256,192,196263,1,8,0:0:0:0:
256,192,196477,1,8,0:0:0:0:
256,192,196691,1,8,0:0:0:0:
256,192,196906,1,8,0:0:0:0:
256,192,197120,1,0,0:0:0:0:
256,192,197334,1,0,0:0:0:0:
256,192,197441,1,8,0:0:0:0:
256,192,197656,1,8,0:0:0:0:
256,192,197763,1,8,0:0:0:0:
256,192,197977,1,0,0:0:0:0:
256,192,198620,1,8,0:0:0:0:
256,192,198834,1,0,0:0:0:0:
256,192,199048,1,0,0:0:0:0:
256,192,199156,1,0,0:0:0:0:
256,192,199263,1,8,0:0:0:0:
256,192,199477,1,0,0:0:0:0:
256,192,199584,1,0,0:0:0:0:
256,192,199691,1,8,0:0:0:0:
256,192,199798,1,8,0:0:0:0:
256,192,200013,1,0,0:0:0:0:
256,192,200120,1,8,0:0:0:0:
256,192,200334,1,8,0:0:0:0:
256,192,200441,1,8,0:0:0:0:
256,192,200548,1,0,0:0:0:0:
256,192,200763,1,0,0:0:0:0:
256,192,200870,1,0,0:0:0:0:
256,192,200977,1,8,0:0:0:0:
256,192,201191,1,8,0:0:0:0:
256,192,201298,1,8,0:0:0:0:
256,192,201513,1,8,0:0:0:0:
256,192,201620,1,0,0:0:0:0:
256,192,201727,1,8,0:0:0:0:
256,192,201941,1,8,0:0:0:0:
256,192,202048,1,8,0:0:0:0:
256,192,202156,1,8,0:0:0:0:
256,192,202263,1,0,0:0:0:0:
256,192,202477,1,0,0:0:0:0:
256,192,202691,1,8,0:0:0:0:
256,192,202906,1,0,0:0:0:0:
256,192,203013,1,8,0:0:0:0:
256,192,203227,1,8,0:0:0:0:
256,192,203334,1,0,0:0:0:0:
256,192,203441,1,0,0:0:0:0:
256,192,203548,1,8,0:0:0:0:
256,192,203763,1,0,0:0:0:0:
256,192,203977,1,0,0:0:0:0:
256,192,204084,1,8,0:0:0:0:
256,192,204191,1,0,0:0:0:0:
256,192,204406,1,8,0:0:0:0:
256,192,204620,1,0,0:0:0:0:
256,192,204727,1,0,0:0:0:0:
256,192,204834,1,8,0:0:0:0:
256,192,205048,8,0,205584,0:0:0:0:
256,192,205691,5,0,0:0:0:0:
256,192,205798,1,8,0:0:0:0:
256,192,206013,1,8,0:0:0:0:
256,192,206120,1,0,0:0:0:0:
256,192,206227,1,8,0:0:0:0:
256,192,206441,1,8,0:0:0:0:
256,192,206548,1,0,0:0:0:0:
256,192,206656,1,8,0:0:0:0:
256,192,206763,1,0,0:0:0:0:
256,192,206977,1,0,0:0:0:0:
256,192,207191,1,0,0:0:0:0:
256,192,207406,1,8,0:0:0:0:
256,192,207727,1,8,0:0:0:0:
256,192,207941,1,8,0:0:0:0:
256,192,208048,1,8,0:0:0:0:
256,192,208263,1,0,0:0:0:0:
256,192,208477,1,0,0:0:0:0:
256,192,208584,1,8,0:0:0:0:
256,192,208798,1,8,0:0:0:0:
256,192,208906,1,8,0:0:0:0:
256,192,209120,8,0,209656,0:0:0:0:
256,192,209763,8,0,210298,0:0:0:0:
256,192,210406,8,0,210834,0:0:0:0:
256,192,211691,5,0,0:0:0:0:
256,192,211906,1,0,0:0:0:0:
256,192,212013,1,0,0:0:0:0:
256,192,212120,1,0,0:0:0:0:
256,192,212227,1,0,0:0:0:0:
256,192,212334,1,0,0:0:0:0:
256,192,212441,1,0,0:0:0:0:
256,192,212548,1,8,0:0:0:0:
256,192,212763,1,8,0:0:0:0:
256,192,212977,1,8,0:0:0:0:
256,192,213191,1,0,0:0:0:0:
256,192,213298,1,8,0:0:0:0:
256,192,213406,1,8,0:0:0:0:
256,192,213620,1,0,0:0:0:0:
256,192,213727,1,0,0:0:0:0:
256,192,213834,1,8,0:0:0:0:
256,192,213941,1,0,0:0:0:0:
256,192,214048,1,8,0:0:0:0:
256,192,214263,1,0,0:0:0:0:
256,192,214477,1,8,0:0:0:0:
256,192,214584,1,0,0:0:0:0:
256,192,214691,1,8,0:0:0:0:
256,192,214906,1,0,0:0:0:0:
256,192,215120,1,8,0:0:0:0:
256,192,215227,1,8,0:0:0:0:
256,192,215334,1,8,0:0:0:0:
256,192,215441,1,8,0:0:0:0:
256,192,215548,1,8,0:0:0:0:
256,192,215656,1,8,0:0:0:0:
256,192,215763,1,8,0:0:0:0:
256,192,215977,1,8,0:0:0:0:
256,192,216406,1,8,0:0:0:0:
256,192,216513,1,8,0:0:0:0:
256,192,216620,1,0,0:0:0:0:
256,192,216727,1,0,0:0:0:0:
256,192,216834,1,8,0:0:0:0:
256,192,217048,1,8,0:0:0:0:
256,192,217263,1,8,0:0:0:0:
256,192,217477,1,8,0:0:0:0:
256,192,217691,1,0,0:0:0:0:
256,192,217906,1,0,0:0:0:0:
256,192,218013,1,0,0:0:0:0:
256,192,218120,1,0,0:0:0:0:
256,192,218334,1,0,0:0:0:0:
256,192,218441,1,0,0:0:0:0:
256,192,218548,1,8,0:0:0:0:
256,192,218977,1,8,0:0:0:0:
256,192,219191,1,8,0:0:0:0:
256,192,219406,1,0,0:0:0:0:
256,192,219620,1,0,0:0:0:0:
256,192,219727,1,0,0:0:0:0:
256,192,219834,1,8,0:0:0:0:
256,192,220048,1,0,0:0:0:0:
256,192,220156,1,0,0:0:0:0:
256,192,220263,1,8,0:0:0:0:
256,192,220370,1,8,0:0:0:0:
256,192,220584,1,0,0:0:0:0:
256,192,220691,1,8,0:0:0:0:
256,192,220906,1,0,0:0:0:0:
256,192,221013,1,8,0:0:0:0:
256,192,221120,1,0,0:0:0:0:
256,192,221334,1,0,0:0:0:0:
256,192,221441,1,8,0:0:0:0:
256,192,221548,1,8,0:0:0:0:
256,192,221763,1,8,0:0:0:0:
256,192,221870,1,8,0:0:0:0:
256,192,222084,1,8,0:0:0:0:
256,192,222191,1,0,0:0:0:0:
256,192,222298,1,8,0:0:0:0:
256,192,222406,1,0,0:0:0:0:
256,192,222620,1,8,0:0:0:0:
256,192,222727,1,8,0:0:0:0:
256,192,222834,1,0,0:0:0:0:
256,192,223048,1,0,0:0:0:0:
256,192,223263,1,8,0:0:0:0:
256,192,223477,1,0,0:0:0:0:
256,192,223584,1,0,0:0:0:0:
256,192,223691,1,8,0:0:0:0:
256,192,223906,1,0,0:0:0:0:
256,192,224120,1,8,0:0:0:0:
256,192,224334,1,8,0:0:0:0:
256,192,224548,1,0,0:0:0:0:
256,192,224977,1,8,0:0:0:0:
256,192,225084,1,0,0:0:0:0:
256,192,225191,1,0,0:0:0:0:
256,192,225298,1,0,0:0:0:0:
256,192,225406,1,8,0:0:0:0:
256,192,225620,1,0,0:0:0:0:
256,192,225834,1,8,0:0:0:0:
256,192,225941,1,0,0:0:0:0:
256,192,226048,1,8,0:0:0:0:
256,192,226156,1,8,0:0:0:0:
256,192,226263,1,0,0:0:0:0:
256,192,226477,1,8,0:0:0:0:
256,192,226691,1,8,0:0:0:0:
256,192,226906,1,0,0:0:0:0:
256,192,227013,1,8,0:0:0:0:
256,192,227227,1,8,0:0:0:0:
256,192,227334,1,8,0:0:0:0:
256,192,227548,1,8,0:0:0:0:
256,192,227763,1,8,0:0:0:0:
256,192,227977,1,0,0:0:0:0:
256,192,228191,1,0,0:0:0:0:
256,192,228406,1,0,0:0:0:0:
256,192,228513,1,8,0:0:0:0:
256,192,228727,1,8,0:0:0:0:
256,192,228834,1,8,0:0:0:0:
256,192,229048,1,0,0:0:0:0:
256,192,229156,1,8,0:0:0:0:
256,192,229263,1,0,0:0:0:0:
256,192,229477,1,8,0:0:0:0:
256,192,229584,1,8,0:0:0:0:
256,192,229691,1,0,0:0:0:0:
256,192,230120,1,0,0:0:0:0:
256,192,230227,1,8,0:0:0:0:
256,192,230441,1,8,0:0:0:0:
256,192,230548,1,8,0:0:0:0:
256,192,230763,1,8,0:0:0:0:
256,192,230870,1,0,0:0:0:0:
256,192,230977,1,8,0:0:0:0:
256,192,231191,1,8,0:0:0:0:
256,192,231298,1,0,0:0:0:0:
256,192,231406,1,0,0:0:0:0:
256,192,231620,1,0,0:0:0:0:
256,192,231727,1,8,0:0:0:0:
256,192,231834,1,0,0:0:0:0:
256,192,231941,1,8,0:0:0:0:
256,192,232048,1,0,0:0:0:0:
256,192,232263,1,8,0:0:0:0:
256,192,232370,1,8,0:0:0:0:
256,192,232477,1,8,0:0:0:0:
256,192,232584,1,8,0:0:0:0:
256,192,232691,1,8,0:0:0:0:
256,192,232798,1,8,0:0:0:0:
256,192,232906,1,8,0:0:0:0:
256,192,233120,1,8,0:0:0:0:
256,192,233548,1,8,0:0:0:0:
256,192,233656,1,8,0:0:0:0:
256,192,233763,1,0,0:0:0:0:
256,192,233870,1,0,0:0:0:0:
256,192,233977,1,8,0:0:0:0:
256,192,234191,1,8,0:0:0:0:
256,192,234406,1,8,0:0:0:0:
256,192,234620,1,8,0:0:0:0:
256,192,234834,1,0,0:0:0:0:
256,192,234941,1,8,0:0:0:0:
256,192,235156,1,8,0:0:0:0:
256,192,235263,1,0,0:0:0:0:
256,192,235477,1,8,0:0:0:0:
256,192,235691,1,8,0:0:0:0:
256,192,235906,1,0,0:0:0:0:
256,192,236013,1,8,0:0:0:0:
256,192,236120,1,0,0:0:0:0:
256,192,236334,1,8,0:0:0:0:
256,192,236548,1,0,0:0:0:0:
256,192,236763,1,0,0:0:0:0:
256,192,236870,1,0,0:0:0:0:
256,192,236977,1,8,0:0:0:0:
256,192,237084,1,8,0:0:0:0:
256,192,237298,1,0,0:0:0:0:
256,192,237406,1,8,0:0:0:0:
256,192,237513,1,0,0:0:0:0:
256,192,237727,1,8,0:0:0:0:
256,192,237834,1,0,0:0:0:0:
256,192,238048,1,8,0:0:0:0:
256,192,238263,1,0,0:0:0:0:
256,192,238477,1,8,0:0:0:0:
256,192,238584,1,0,0:0:0:0:
256,192,238691,1,8,0:0:0:0:
256,192,238798,1,0,0:0:0:0:
256,192,239013,1,0,0:0:0:0:
256,192,239120,1,8,0:0:0:0:
256,192,239227,1,0,0:0:0:0:
256,192,239441,1,0,0:0:0:0:
256,192,239548,1,8,0:0:0:0:
256,192,239656,1,0,0:0:0:0:
256,192,239763,1,8,0:0:0:0:
256,192,239870,1,0,0:0:0:0:
256,192,239977,8,0,267406,0:0:0:0:
