osu file format v14

[General]
AudioFilename: audio.mp3
AudioLeadIn: 0
PreviewTime: 54406
Countdown: 0
SampleSet: Normal
StackLeniency: 0.2
Mode: 1
LetterboxInBreaks: 0
WidescreenStoryboard: 0

[Editor]
DistanceSpacing: 1.1
BeatDivisor: 8
GridSize: 32
TimelineZoom: 2.599999

[Metadata]
Title:... and thoughts of suicide
TitleUnicode:... and thoughts of suicide
Artist:Sorry about my face
ArtistUnicode:Sorry about my face
Creator:Axer
Version:compendium
Source:
Tags:goose bumps glitch breakcore noise lofi ambient Genjuro electronic instrumental depressive
BeatmapID:2042557
BeatmapSetID:975948

[Difficulty]
HPDrainRate:4
CircleSize:2
OverallDifficulty:6
ApproachRate:10
SliderMultiplier:1.4
SliderTickRate:1

[Events]
//Background and Video events
0,0,"lain2.jpg",0,50
//Break Periods
//Storyboard Layer 0 (Background)
//Storyboard Layer 1 (Fail)
//Storyboard Layer 2 (Pass)
//Storyboard Layer 3 (Foreground)
//Storyboard Layer 4 (Overlay)
//Storyboard Sound Samples

[TimingPoints]
40,428.571428571429,4,1,0,25,1,0
40,-133.333333333333,4,1,0,25,0,0
27406,428.571428571429,4,1,0,75,1,0
27406,-83.3333333333333,4,1,0,75,0,0
54191,-83.3333333333333,4,1,0,75,0,0
54406,-77.0042275320915,4,1,0,75,0,0
54459,-75.5693394030627,4,1,0,75,0,0
54513,-74.1870031789131,4,1,0,75,0,0
54566,-72.8542776024823,4,1,0,75,0,0
54620,-71.5686414840473,4,1,0,75,0,0
54673,-70.327543501102,4,1,0,75,0,0
54727,-69.1288042445086,4,1,0,75,0,0
54781,-67.9701991458865,4,1,0,75,0,0
54834,-66.8498352151562,4,1,0,75,0,1
60834,-66.8498352151562,4,1,0,75,0,0
61263,-83.3333333333333,4,1,0,75,0,0
61316,-80.8080808080808,4,1,0,75,0,0
61370,-78.4313725490196,4,1,0,75,0,0
61423,-76.1904761904762,4,1,0,75,0,0
61477,-74.0740740740741,4,1,0,75,0,0
61531,-72.0720720720721,4,1,0,75,0,0
61584,-70.1754385964912,4,1,0,75,0,0
61638,-68.3760683760684,4,1,0,75,0,0
61691,-66.6666666666667,4,1,0,75,0,1
67477,-66.6666666666667,4,1,0,75,0,1
67691,-69.4444444444444,4,1,0,75,0,1
67763,-70.4225352112676,4,1,0,75,0,1
67834,-71.4285714285714,4,1,0,75,0,1
67906,-72.463768115942,4,1,0,75,0,1
67977,-73.5294117647059,4,1,0,75,0,1
68048,-74.6268656716418,4,1,0,75,0,1
68120,-75.7575757575758,4,1,0,75,0,1
68173,-76.6283524904215,4,1,0,75,0,1
68227,-77.5193798449612,4,1,0,75,0,1
68281,-78.4313725490196,4,1,0,75,0,1
68334,-79.3650793650794,4,1,0,75,0,1
68388,-80.3212851405622,4,1,0,75,0,1
68441,-81.3008130081301,4,1,0,75,0,1
68495,-82.3045267489712,4,1,0,75,0,1
68548,-83.3333333333333,4,1,0,75,0,0
74977,-83.3333333333333,4,1,0,75,0,0
75048,-82.2147333735089,4,1,0,75,0,0
75120,-81.1258318439983,4,1,0,75,0,0
75191,-80.0653333119826,4,1,0,75,0,0
75263,-79.0322657127999,4,1,0,75,0,0
75334,-78.0254565854656,4,1,0,75,0,0
75406,-77.0440360596906,4,1,0,75,0,0
81298,-76.9230769230769,4,1,0,75,0,0
81406,-75.0171789339759,4,1,0,75,0,0
81477,-73.7982326799238,4,1,0,75,0,0
81548,-72.6182661081838,4,1,0,75,0,0
81620,-71.4753878075854,4,1,0,75,0,0
81691,-70.3679752529905,4,1,0,75,0,0
81763,-69.2943547967978,4,1,0,75,0,0
81834,-68.2529563768055,4,1,0,75,0,0
81888,-67.4922771961818,4,1,0,75,0,0
81941,-66.7483221140529,4,1,0,75,0,0
81995,-66.020589180942,4,1,0,75,0,0
82048,-65.3085535265639,4,1,0,75,0,0
82102,-64.6117544288127,4,1,0,75,0,0
82156,-63.9296262674048,4,1,0,75,0,0
82209,-63.2617505538566,4,1,0,75,0,0
82263,-62.607685218576,4,1,0,75,0,1
136691,-62.5,4,1,0,75,0,1
136745,-64.4737011772898,4,1,0,75,0,1
136798,-66.5760788154251,4,1,0,75,0,1
136852,-68.8202353514409,4,1,0,75,0,1
136906,-71.2209115991801,4,1,0,75,0,1
136959,-73.795182945638,4,1,0,75,0,1
137013,-76.5625263183684,4,1,0,75,0,1
137066,-79.5454455061994,4,1,0,75,0,1
137120,-82.7702884461782,4,1,0,35,0,0
137548,-84.2105263157895,4,1,0,35,0,0
137763,-84.6560846560847,4,1,0,35,0,0
137977,-85.1063829787234,4,1,0,35,0,0
138191,-85.5614973262032,4,1,0,35,0,0
138406,-86.0215053763441,4,1,0,35,0,0
138620,-86.4864864864865,4,1,0,35,0,0
138834,-86.9565217391304,4,1,0,35,0,0
139048,-87.431693989071,4,1,0,35,0,0
139263,-87.9120879120879,4,1,0,35,0,0
139477,-88.3977900552486,4,1,0,35,0,0
139691,-88.8888888888889,4,1,0,35,0,0
139906,-89.3854748603352,4,1,0,35,0,0
140120,-89.8876404494382,4,1,0,35,0,0
140334,-90.3954802259887,4,1,0,35,0,0
140548,-90.9090909090909,4,1,0,35,0,0
140977,-91.9540229885058,4,1,0,35,0,0
141191,-92.485549132948,4,1,0,35,0,0
141406,-93.0232558139535,4,1,0,35,0,0
141620,-93.5672514619883,4,1,0,35,0,0
141834,-94.1176470588235,4,1,0,35,0,0
142048,-94.6745562130178,4,1,0,35,0,0
142263,-95.2380952380952,4,1,0,35,0,0
142477,-95.8083832335329,4,1,0,35,0,0
142691,-96.3855421686747,4,1,0,35,0,0
142906,-96.969696969697,4,1,0,35,0,0
143120,-97.5609756097561,4,1,0,35,0,0
143334,-98.159509202454,4,1,0,35,0,0
143548,-98.7654320987654,4,1,0,35,0,0
143763,-99.3788819875776,4,1,0,35,0,0
143977,-100,4,1,0,35,0,0
144406,-101.26582278481,4,1,0,35,0,0
144620,-101.910828025478,4,1,0,35,0,0
144834,-102.564102564103,4,1,0,35,0,0
145048,-103.225806451613,4,1,0,35,0,0
145263,-103.896103896104,4,1,0,35,0,0
145477,-104.575163398693,4,1,0,35,0,0
145691,-105.263157894737,4,1,0,35,0,0
145906,-105.960264900662,4,1,0,35,0,0
146120,-106.666666666667,4,1,0,35,0,0
146334,-107.38255033557,4,1,0,35,0,0
146548,-108.108108108108,4,1,0,35,0,0
146763,-108.843537414966,4,1,0,35,0,0
146977,-109.58904109589,4,1,0,35,0,0
147191,-110.344827586207,4,1,0,35,0,0
147406,-111.111111111111,4,1,0,35,0,0
147834,-112.676056338028,4,1,0,35,0,0
148048,-113.475177304965,4,1,0,35,0,0
148263,-114.285714285714,4,1,0,35,0,0
148477,-115.107913669065,4,1,0,35,0,0
148691,-115.942028985507,4,1,0,35,0,0
148906,-116.788321167883,4,1,0,35,0,0
149120,-117.647058823529,4,1,0,35,0,0
149334,-118.518518518519,4,1,0,35,0,0
149548,-119.402985074627,4,1,0,35,0,0
149763,-120.300751879699,4,1,0,35,0,0
149977,-121.212121212121,4,1,0,35,0,0
150191,-122.137404580153,4,1,0,35,0,0
150406,-123.076923076923,4,1,0,35,0,0
150620,-124.031007751938,4,1,0,35,0,0
150834,-125,4,1,0,35,0,0
178263,-83.3333333333333,4,1,0,75,0,0
190048,-83.3333333333333,4,1,0,75,0,0
190263,-81.831855177256,4,1,0,75,0,0
190370,-81.1011590977658,4,1,0,75,0,0
190477,-80.3834612636119,4,1,0,75,0,0
190584,-79.6783544188819,4,1,0,75,0,0
190691,-78.9855101081707,4,1,0,75,0,0
190798,-78.3046112019445,4,1,0,75,0,0
190906,-77.6353514125364,4,1,0,75,0,0
191013,-76.9773755795434,4,1,0,75,0,0
191548,-76.9230769230769,4,1,0,75,0,0
191602,-74.8091431734787,4,1,0,75,0,0
191656,-72.8083415060697,4,1,0,75,0,0
191709,-70.9117262466991,4,1,0,75,0,0
191763,-69.1114138191036,4,1,0,75,0,0
191816,-67.4002964265037,4,1,0,75,0,0
191870,-65.7718191432826,4,1,0,75,0,0
191923,-64.2201775944791,4,1,0,75,0,0
191977,-62.7400591513278,4,1,0,75,0,1
208906,-62.5,4,1,0,75,0,0
209120,-57.3770538833651,4,1,0,75,0,0
209763,-46.052622489614,4,1,0,75,0,0
210406,-38.4615384615385,4,1,0,75,0,0
211691,-76.9230769230769,4,1,0,75,0,0
211798,-74.7663551401869,4,1,0,75,0,0
211906,-72.7272727272727,4,1,0,75,0,0
211977,-71.4285714285714,4,1,0,75,0,0
212048,-70.1754385964912,4,1,0,75,0,0
212120,-68.9655172413793,4,1,0,75,0,0
212191,-67.7966101694915,4,1,0,75,0,0
212263,-66.6666666666667,4,1,0,75,0,0
212334,-65.5737704918033,4,1,0,75,0,0
212388,-64.7773279352227,4,1,0,75,0,0
212441,-64,4,1,0,75,0,0
212495,-63.2411067193676,4,1,0,75,0,0
212548,-62.5,4,1,0,75,0,1
229691,-62.5,4,1,0,75,0,0
230120,-62.5,4,1,0,75,0,1
236548,-62.5,4,1,0,75,0,1
236763,-62.0013156679185,4,1,0,75,0,1
236816,-61.8778951120176,4,1,0,75,0,1
236870,-61.7549649447942,4,1,0,75,0,1
236923,-61.6325222493405,4,1,0,75,0,1
236977,-61.5105641318368,4,1,0,75,0,1
237084,-61.2680526317079,4,1,0,75,0,1
237191,-61.0274831167468,4,1,0,75,0,1
237245,-60.9079054197681,4,1,0,75,0,1
237298,-60.7887954092302,4,1,0,75,0,1
237352,-60.6701503466996,4,1,0,75,0,1
237406,-60.551930849695,4,1,0,75,0,1
237513,-60.3169414002819,4,1,0,75,0,1
237620,-60.0837687904476,4,1,0,75,0,1
237673,-59.9678572285255,4,1,0,75,0,1
237727,-59.8523920307737,4,1,0,75,0,1
237781,-59.7373349382764,4,1,0,75,0,1
237834,-59.6227549051641,4,1,0,75,0,1
237941,-59.3949084308697,4,1,0,75,0,1
238048,-59.1687967433494,4,1,0,75,0,1
238102,-59.0563503884136,4,1,0,75,0,1
238156,-58.9443653607543,4,1,0,75,0,1
238209,-58.832804230314,4,1,0,75,0,1
238263,-58.7216645947706,4,1,0,75,0,1
238370,-58.500640289508,4,1,0,75,0,1
238477,-58.2812396186542,4,1,0,75,0,1
238584,-58.0635121921763,4,1,0,75,0,1
238691,-57.8474054860165,4,1,0,75,0,1
238798,-57.6328682552975,4,1,0,75,0,1
238906,-57.4199494130246,4,1,0,75,0,1
238959,-57.3140788595874,4,1,0,75,0,1
239013,-57.2085979946098,4,1,0,75,0,1
239066,-57.1035046704956,4,1,0,75,0,1
239120,-56.9987642667907,4,1,0,75,0,1
239227,-56.7904964511619,4,1,0,75,0,1
239334,-56.583745074385,4,1,0,75,0,1
239441,-56.3784618489768,4,1,0,75,0,1
239548,-56.1746943113572,4,1,0,75,0,1
239656,-55.9723944150745,4,1,0,75,0,1
239763,-55.7715463609345,4,1,0,75,0,1
239870,-55.5721036930997,4,1,0,75,0,1
239977,-25,4,1,0,10,0,0
241691,-100,4,1,0,10,0,0

[HitObjects]
256,192,40,5,0,0:0:0:0:
256,192,897,1,0,0:0:0:0:
256,192,3468,1,0,0:0:0:0:
256,192,4325,1,0,0:0:0:0:
256,192,5182,1,0,0:0:0:0:
256,192,6040,1,8,0:0:0:0:
256,192,6897,1,0,0:0:0:0:
256,192,7754,1,0,0:0:0:0:
256,192,10325,1,0,0:0:0:0:
256,192,11182,1,0,0:0:0:0:
256,192,12040,1,0,0:0:0:0:
256,192,12897,1,8,0:0:0:0:
256,192,13754,1,0,0:0:0:0:
256,192,14611,1,0,0:0:0:0:
256,192,17182,1,0,0:0:0:0:
256,192,18040,1,0,0:0:0:0:
256,192,18897,1,0,0:0:0:0:
256,192,19754,1,8,0:0:0:0:
256,192,20611,1,0,0:0:0:0:
256,192,21468,1,0,0:0:0:0:
256,192,24040,1,0,0:0:0:0:
256,192,24897,1,0,0:0:0:0:
256,192,25754,1,0,0:0:0:0:
256,192,26611,1,8,0:0:0:0:
256,192,27406,1,0,0:0:0:0:
256,192,27620,1,0,0:0:0:0:
256,192,27834,1,8,0:0:0:0:
256,192,28048,1,0,0:0:0:0:
256,192,28263,1,0,0:0:0:0:
256,192,28370,1,8,0:0:0:0:
256,192,28477,1,0,0:0:0:0:
256,192,28584,1,8,0:0:0:0:
256,192,28691,1,8,0:0:0:0:
256,192,28906,1,0,0:0:0:0:
256,192,29120,1,0,0:0:0:0:
256,192,29334,1,0,0:0:0:0:
256,192,29548,1,8,0:0:0:0:
256,192,29656,1,8,0:0:0:0:
256,192,29763,1,0,0:0:0:0:
256,192,29816,1,0,0:0:0:0:
256,192,29870,1,8,0:0:0:0:
256,192,29923,1,8,0:0:0:0:
256,192,29977,1,0,0:0:0:0:
256,192,30084,1,0,0:0:0:0:
256,192,30191,1,0,0:0:0:0:
256,192,30298,1,0,0:0:0:0:
256,192,30406,1,8,0:0:0:0:
256,192,30459,1,8,0:0:0:0:
256,192,30513,1,8,0:0:0:0:
256,192,30566,1,8,0:0:0:0:
256,192,30620,1,8,0:0:0:0:
256,192,30673,1,8,0:0:0:0:
256,192,30727,1,8,0:0:0:0:
256,192,30781,1,8,0:0:0:0:
256,192,30834,1,0,0:0:0:0:
256,192,31048,1,0,0:0:0:0:
256,192,31263,1,0,0:0:0:0:
256,192,31477,1,0,0:0:0:0:
256,192,31531,1,0,0:0:0:0:
256,192,31584,1,8,0:0:0:0:
256,192,31638,1,8,0:0:0:0:
256,192,31691,1,0,0:0:0:0:
256,192,31798,1,0,0:0:0:0:
256,192,31906,1,8,0:0:0:0:
256,192,32120,1,8,0:0:0:0:
256,192,32334,1,0,0:0:0:0:
256,192,32441,1,8,0:0:0:0:
256,192,32548,1,0,0:0:0:0:
256,192,32763,1,0,0:0:0:0:
256,192,32816,1,0,0:0:0:0:
256,192,32870,1,0,0:0:0:0:
256,192,32923,1,0,0:0:0:0:
256,192,32977,1,8,0:0:0:0:
256,192,33084,1,8,0:0:0:0:
256,192,33138,1,8,0:0:0:0:
256,192,33191,1,8,0:0:0:0:
256,192,33245,1,8,0:0:0:0:
256,192,33298,1,8,0:0:0:0:
256,192,33352,1,8,0:0:0:0:
256,192,33406,1,0,0:0:0:0:
256,192,33834,5,8,0:0:0:0:
256,192,34048,1,0,0:0:0:0:
256,192,34156,1,8,0:0:0:0:
256,192,34209,1,8,0:0:0:0:
256,192,34263,1,0,0:0:0:0:
256,192,34477,1,8,0:0:0:0:
256,192,34531,1,8,0:0:0:0:
256,192,34584,1,8,0:0:0:0:
256,192,34638,1,8,0:0:0:0:
256,192,34691,1,8,0:0:0:0:
256,192,34745,1,8,0:0:0:0:
256,192,34798,1,8,0:0:0:0:
256,192,34852,1,8,0:0:0:0:
256,192,34906,1,0,0:0:0:0:
256,192,35013,1,8,0:0:0:0:
256,192,35066,1,8,0:0:0:0:
256,192,35120,1,0,0:0:0:0:
256,192,35173,1,0,0:0:0:0:
256,192,35227,1,0,0:0:0:0:
256,192,35281,1,0,0:0:0:0:
256,192,35334,1,0,0:0:0:0:
256,192,35548,1,0,0:0:0:0:
256,192,35763,1,0,0:0:0:0:
256,192,35977,1,8,0:0:0:0:
256,192,36191,1,0,0:0:0:0:
256,192,36298,1,8,0:0:0:0:
256,192,36406,1,0,0:0:0:0:
256,192,36513,1,0,0:0:0:0:
256,192,36620,1,8,0:0:0:0:
256,192,36727,1,8,0:0:0:0:
256,192,36834,1,0,0:0:0:0:
256,192,36888,1,0,0:0:0:0:
256,192,36941,1,0,0:0:0:0:
256,192,36995,1,0,0:0:0:0:
256,192,37048,1,8,0:0:0:0:
256,192,37156,1,0,0:0:0:0:
256,192,37263,1,8,0:0:0:0:
256,192,37370,1,0,0:0:0:0:
256,192,37477,1,8,0:0:0:0:
256,192,37584,1,0,0:0:0:0:
256,192,37691,1,8,0:0:0:0:
256,192,37906,1,8,0:0:0:0:
256,192,38013,1,0,0:0:0:0:
256,192,38120,1,8,0:0:0:0:
256,192,38334,1,8,0:0:0:0:
256,192,38441,1,0,0:0:0:0:
256,192,38548,1,0,0:0:0:0:
256,192,38763,1,0,0:0:0:0:
256,192,38977,1,0,0:0:0:0:
256,192,39084,1,8,0:0:0:0:
256,192,39191,1,0,0:0:0:0:
256,192,39406,1,0,0:0:0:0:
256,192,39620,1,0,0:0:0:0:
256,192,39834,1,8,0:0:0:0:
256,192,40048,1,0,0:0:0:0:
256,192,40156,1,8,0:0:0:0:
256,192,40263,1,0,0:0:0:0:
256,192,40370,1,0,0:0:0:0:
256,192,40477,1,0,0:0:0:0:
256,192,40691,1,8,0:0:0:0:
256,192,40745,1,8,0:0:0:0:
256,192,40798,1,8,0:0:0:0:
256,192,40852,1,8,0:0:0:0:
256,192,40906,1,8,0:0:0:0:
256,192,40959,1,8,0:0:0:0:
256,192,41013,1,8,0:0:0:0:
256,192,41066,1,8,0:0:0:0:
256,192,41120,1,0,0:0:0:0:
256,192,41334,1,0,0:0:0:0:
256,192,41548,1,0,0:0:0:0:
256,192,41763,1,0,0:0:0:0:
256,192,41977,1,8,0:0:0:0:
256,192,42084,1,0,0:0:0:0:
256,192,42191,1,0,0:0:0:0:
256,192,42298,1,0,0:0:0:0:
256,192,42406,1,8,0:0:0:0:
256,192,42459,1,8,0:0:0:0:
256,192,42513,1,8,0:0:0:0:
256,192,42566,1,8,0:0:0:0:
256,192,42620,1,0,0:0:0:0:
256,192,42727,1,0,0:0:0:0:
256,192,42834,1,0,0:0:0:0:
256,192,43048,1,0,0:0:0:0:
256,192,43263,1,0,0:0:0:0:
256,192,43477,1,0,0:0:0:0:
256,192,43691,1,0,0:0:0:0:
256,192,43798,1,8,0:0:0:0:
256,192,43906,1,0,0:0:0:0:
256,192,44013,1,8,0:0:0:0:
256,192,44120,1,0,0:0:0:0:
256,192,44227,1,0,0:0:0:0:
256,192,44334,1,8,0:0:0:0:
256,192,44441,1,8,0:0:0:0:
256,192,44548,1,0,0:0:0:0:
256,192,45191,5,0,0:0:0:0:
256,192,45298,1,8,0:0:0:0:
256,192,45406,1,0,0:0:0:0:
256,192,45513,1,8,0:0:0:0:
256,192,45620,1,0,0:0:0:0:
256,192,46263,5,0,0:0:0:0:
256,192,46370,1,0,0:0:0:0:
256,192,46477,1,8,0:0:0:0:
256,192,46584,1,8,0:0:0:0:
256,192,46691,1,0,0:0:0:0:
256,192,46745,1,0,0:0:0:0:
256,192,46798,1,0,0:0:0:0:
256,192,46852,1,0,0:0:0:0:
256,192,46906,1,8,0:0:0:0:
256,192,46959,1,8,0:0:0:0:
256,192,47013,1,8,0:0:0:0:
256,192,47066,1,8,0:0:0:0:
256,192,47977,1,0,0:0:0:0:
256,192,48191,1,8,0:0:0:0:
256,192,48298,1,8,0:0:0:0:
256,192,48406,1,0,0:0:0:0:
256,192,48513,1,8,0:0:0:0:
256,192,48620,1,0,0:0:0:0:
256,192,48727,1,0,0:0:0:0:
256,192,48834,1,0,0:0:0:0:
256,192,48888,1,0,0:0:0:0:
256,192,48941,1,0,0:0:0:0:
256,192,48995,1,0,0:0:0:0:
256,192,49048,1,8,0:0:0:0:
256,192,49263,1,0,0:0:0:0:
256,192,49370,1,0,0:0:0:0:
256,192,49477,1,8,0:0:0:0:
256,192,49691,1,0,0:0:0:0:
256,192,49745,1,0,0:0:0:0:
256,192,49798,1,0,0:0:0:0:
256,192,49852,1,0,0:0:0:0:
256,192,49906,1,8,0:0:0:0:
256,192,50120,1,0,0:0:0:0:
256,192,50227,1,8,0:0:0:0:
256,192,50334,1,0,0:0:0:0:
256,192,50441,1,8,0:0:0:0:
256,192,50548,1,0,0:0:0:0:
256,192,50602,1,0,0:0:0:0:
256,192,50656,1,8,0:0:0:0:
256,192,50709,1,8,0:0:0:0:
256,192,50763,1,0,0:0:0:0:
256,192,50816,1,0,0:0:0:0:
256,192,50870,1,8,0:0:0:0:
256,192,50923,1,8,0:0:0:0:
256,192,50977,1,0,0:0:0:0:
256,192,51084,1,8,0:0:0:0:
256,192,51245,1,8,0:0:0:0:
256,192,51352,1,8,0:0:0:0:
256,192,51406,1,0,0:0:0:0:
256,192,51620,1,8,0:0:0:0:
256,192,51834,1,0,0:0:0:0:
256,192,52048,1,8,0:0:0:0:
256,192,52263,1,8,0:0:0:0:
256,192,52477,1,8,0:0:0:0:
256,192,52691,1,8,0:0:0:0:
256,192,52906,1,8,0:0:0:0:
256,192,53120,1,0,0:0:0:0:
256,192,53334,1,8,0:0:0:0:
256,192,53548,1,0,0:0:0:0:
256,192,53763,1,8,0:0:0:0:
256,192,53870,1,0,0:0:0:0:
256,192,53977,1,8,0:0:0:0:
256,192,54084,1,0,0:0:0:0:
256,192,54191,1,0,0:0:0:0:
256,192,54406,1,0,0:0:0:0:
256,192,54459,1,0,0:0:0:0:
256,192,54513,1,0,0:0:0:0:
256,192,54566,1,0,0:0:0:0:
256,192,54620,1,0,0:0:0:0:
256,192,54673,1,0,0:0:0:0:
256,192,54727,1,0,0:0:0:0:
256,192,54781,1,0,0:0:0:0:
256,192,54834,1,8,0:0:0:0:
256,192,55048,1,8,0:0:0:0:
256,192,55263,1,8,0:0:0:0:
256,192,55477,1,0,0:0:0:0:
256,192,55531,1,0,0:0:0:0:
256,192,55584,1,0,0:0:0:0:
256,192,55638,1,0,0:0:0:0:
256,192,55691,1,0,0:0:0:0:
256,192,55798,1,8,0:0:0:0:
256,192,55906,1,0,0:0:0:0:
256,192,56013,1,0,0:0:0:0:
256,192,56120,1,8,0:0:0:0:
256,192,56334,1,8,0:0:0:0:
256,192,56388,1,8,0:0:0:0:
256,192,56441,1,8,0:0:0:0:
256,192,56495,1,8,0:0:0:0:
256,192,56548,1,0,0:0:0:0:
256,192,56763,1,0,0:0:0:0:
256,192,56977,1,8,0:0:0:0:
256,192,57084,1,8,0:0:0:0:
256,192,57191,1,0,0:0:0:0:
256,192,57245,1,0,0:0:0:0:
256,192,57298,1,8,0:0:0:0:
256,192,57352,1,8,0:0:0:0:
256,192,57406,1,0,0:0:0:0:
256,192,57620,1,8,0:0:0:0:
256,192,57834,1,8,0:0:0:0:
256,192,57888,1,8,0:0:0:0:
256,192,57941,1,8,0:0:0:0:
256,192,57995,1,8,0:0:0:0:
256,192,58048,1,8,0:0:0:0:
256,192,58102,1,8,0:0:0:0:
256,192,58156,1,8,0:0:0:0:
256,192,58209,1,8,0:0:0:0:
256,192,58263,1,0,0:0:0:0:
256,192,58477,1,0,0:0:0:0:
256,192,58691,1,8,0:0:0:0:
256,192,58906,1,8,0:0:0:0:
256,192,58959,1,8,0:0:0:0:
256,192,59013,1,8,0:0:0:0:
256,192,59066,1,8,0:0:0:0:
256,192,59120,1,0,0:0:0:0:
256,192,59334,1,8,0:0:0:0:
256,192,59548,1,8,0:0:0:0:
256,192,59763,1,0,0:0:0:0:
256,192,59977,1,8,0:0:0:0:
256,192,60084,1,8,0:0:0:0:
256,192,60191,1,0,0:0:0:0:
256,192,60245,1,0,0:0:0:0:
256,192,60298,1,0,0:0:0:0:
256,192,60352,1,0,0:0:0:0:
256,192,60406,1,8,0:0:0:0:
256,192,60513,1,0,0:0:0:0:
256,192,60566,1,8,0:0:0:0:
256,192,60620,1,8,0:0:0:0:
256,192,60673,1,0,0:0:0:0:
256,192,60727,1,8,0:0:0:0:
256,192,60781,1,8,0:0:0:0:
256,192,60834,1,0,0:0:0:0:
256,192,61263,1,8,0:0:0:0:
256,192,61316,1,8,0:0:0:0:
256,192,61370,1,8,0:0:0:0:
256,192,61423,1,8,0:0:0:0:
256,192,61477,1,8,0:0:0:0:
256,192,61531,1,8,0:0:0:0:
256,192,61584,1,8,0:0:0:0:
256,192,61638,1,8,0:0:0:0:
256,192,61691,1,0,0:0:0:0:
256,192,61906,1,0,0:0:0:0:
256,192,61959,1,0,0:0:0:0:
256,192,62013,1,0,0:0:0:0:
256,192,62066,1,0,0:0:0:0:
256,192,62120,1,8,0:0:0:0:
256,192,62173,1,8,0:0:0:0:
256,192,62227,1,8,0:0:0:0:
256,192,62281,1,8,0:0:0:0:
256,192,62334,1,0,0:0:0:0:
256,192,62441,1,8,0:0:0:0:
256,192,62495,1,8,0:0:0:0:
256,192,62548,1,0,0:0:0:0:
256,192,62656,1,8,0:0:0:0:
256,192,62763,1,0,0:0:0:0:
256,192,62977,1,8,0:0:0:0:
256,192,63191,1,0,0:0:0:0:
256,192,63406,1,8,0:0:0:0:
256,192,63513,1,0,0:0:0:0:
256,192,63566,1,0,0:0:0:0:
256,192,63620,1,0,0:0:0:0:
256,192,63727,1,8,0:0:0:0:
256,192,63834,1,0,0:0:0:0:
256,192,63941,1,0,0:0:0:0:
256,192,64048,1,8,0:0:0:0:
256,192,64102,1,8,0:0:0:0:
256,192,64156,1,8,0:0:0:0:
256,192,64209,1,8,0:0:0:0:
256,192,64263,1,0,0:0:0:0:
256,192,64477,1,0,0:0:0:0:
256,192,64584,1,8,0:0:0:0:
256,192,64691,1,0,0:0:0:0:
256,192,64798,1,8,0:0:0:0:
256,192,64906,1,8,0:0:0:0:
256,192,65120,1,8,0:0:0:0:
256,192,65334,1,0,0:0:0:0:
256,192,65548,1,8,0:0:0:0:
256,192,65763,1,0,0:0:0:0:
256,192,65977,1,0,0:0:0:0:
256,192,66406,1,0,0:0:0:0:
256,192,66620,1,0,0:0:0:0:
256,192,66834,1,8,0:0:0:0:
256,192,67048,1,0,0:0:0:0:
256,192,67156,1,8,0:0:0:0:
256,192,67263,1,0,0:0:0:0:
256,192,67370,1,8,0:0:0:0:
256,192,67477,1,8,0:0:0:0:
256,192,67691,1,0,0:0:0:0:
256,192,67763,1,0,0:0:0:0:
256,192,67834,1,0,0:0:0:0:
256,192,67906,1,0,0:0:0:0:
256,192,67977,1,0,0:0:0:0:
256,192,68048,1,0,0:0:0:0:
256,192,68120,1,8,0:0:0:0:
256,192,68173,1,8,0:0:0:0:
256,192,68227,1,0,0:0:0:0:
256,192,68281,1,0,0:0:0:0:
256,192,68334,1,8,0:0:0:0:
256,192,68388,1,8,0:0:0:0:
256,192,68441,1,8,0:0:0:0:
256,192,68495,1,8,0:0:0:0:
256,192,68548,1,0,0:0:0:0:
256,192,68763,1,0,0:0:0:0:
256,192,68977,1,8,0:0:0:0:
256,192,69191,1,0,0:0:0:0:
256,192,69406,1,8,0:0:0:0:
256,192,69513,1,8,0:0:0:0:
256,192,69620,1,0,0:0:0:0:
256,192,69727,1,0,0:0:0:0:
256,192,69834,1,8,0:0:0:0:
256,192,69888,1,8,0:0:0:0:
256,192,69941,1,8,0:0:0:0:
256,192,69995,1,8,0:0:0:0:
256,192,70048,1,0,0:0:0:0:
256,192,70156,1,0,0:0:0:0:
256,192,70263,1,0,0:0:0:0:
256,192,70477,1,0,0:0:0:0:
256,192,70691,1,8,0:0:0:0:
256,192,70798,1,8,0:0:0:0:
256,192,70906,1,0,0:0:0:0:
256,192,71120,1,8,0:0:0:0:
256,192,71334,1,0,0:0:0:0:
256,192,71441,1,0,0:0:0:0:
256,192,71548,1,8,0:0:0:0:
256,192,71656,1,0,0:0:0:0:
256,192,71763,1,8,0:0:0:0:
256,192,71870,1,8,0:0:0:0:
256,192,71977,1,0,0:0:0:0:
256,192,72406,1,0,0:0:0:0:
256,192,72513,1,8,0:0:0:0:
256,192,72620,1,8,0:0:0:0:
256,192,72727,1,8,0:0:0:0:
256,192,72834,1,0,0:0:0:0:
256,192,73048,1,0,0:0:0:0:
256,192,73263,1,8,0:0:0:0:
256,192,73691,1,8,0:0:0:0:
256,192,73798,1,8,0:0:0:0:
256,192,73906,1,0,0:0:0:0:
256,192,74013,1,0,0:0:0:0:
256,192,74120,1,8,0:0:0:0:
256,192,74173,1,8,0:0:0:0:
256,192,74227,1,8,0:0:0:0:
256,192,74281,1,8,0:0:0:0:
256,192,74334,1,8,0:0:0:0:
256,192,74388,1,8,0:0:0:0:
256,192,74441,1,8,0:0:0:0:
256,192,74495,1,8,0:0:0:0:
256,192,74548,1,0,0:0:0:0:
256,192,74977,1,0,0:0:0:0:
256,192,75048,1,0,0:0:0:0:
256,192,75120,1,0,0:0:0:0:
256,192,75191,1,0,0:0:0:0:
256,192,75263,1,0,0:0:0:0:
256,192,75334,1,0,0:0:0:0:
256,192,75406,1,8,0:0:0:0:
256,192,75513,1,8,0:0:0:0:
256,192,75620,1,0,0:0:0:0:
256,192,75727,1,8,0:0:0:0:
256,192,75834,1,0,0:0:0:0:
256,192,75941,1,8,0:0:0:0:
256,192,76048,1,0,0:0:0:0:
256,192,76156,1,8,0:0:0:0:
256,192,76263,1,0,0:0:0:0:
256,192,76316,1,0,0:0:0:0:
256,192,76370,1,0,0:0:0:0:
256,192,76423,1,0,0:0:0:0:
256,192,76477,1,8,0:0:0:0:
256,192,76584,1,0,0:0:0:0:
256,192,76691,1,8,0:0:0:0:
256,192,76798,1,0,0:0:0:0:
256,192,76906,1,8,0:0:0:0:
256,192,77013,1,0,0:0:0:0:
256,192,77120,1,8,0:0:0:0:
256,192,77173,1,8,0:0:0:0:
256,192,77227,1,8,0:0:0:0:
256,192,77281,1,8,0:0:0:0:
256,192,77334,1,0,0:0:0:0:
256,192,77441,1,8,0:0:0:0:
256,192,77548,1,0,0:0:0:0:
256,192,77656,1,8,0:0:0:0:
256,192,77763,1,8,0:0:0:0:
256,192,77870,1,0,0:0:0:0:
256,192,77977,1,8,0:0:0:0:
256,192,78031,1,8,0:0:0:0:
256,192,78084,1,0,0:0:0:0:
256,192,78138,1,0,0:0:0:0:
256,192,78191,1,8,0:0:0:0:
256,192,78245,1,8,0:0:0:0:
256,192,78298,1,8,0:0:0:0:
256,192,78352,1,8,0:0:0:0:
256,192,78406,1,0,0:0:0:0:
256,192,78513,1,8,0:0:0:0:
256,192,78620,1,8,0:0:0:0:
256,192,78834,1,0,0:0:0:0:
256,192,79048,1,8,0:0:0:0:
256,192,79156,1,0,0:0:0:0:
256,192,79263,1,8,0:0:0:0:
256,192,79370,1,8,0:0:0:0:
256,192,79477,1,8,0:0:0:0:
256,192,79691,1,0,0:0:0:0:
256,192,79906,1,8,0:0:0:0:
256,192,80013,1,0,0:0:0:0:
256,192,80120,1,8,0:0:0:0:
256,192,80227,1,8,0:0:0:0:
256,192,80334,1,8,0:0:0:0:
256,192,80548,1,0,0:0:0:0:
256,192,80656,1,8,0:0:0:0:
256,192,80763,1,0,0:0:0:0:
256,192,80870,1,0,0:0:0:0:
256,192,80977,1,8,0:0:0:0:
256,192,81084,1,0,0:0:0:0:
256,192,81191,1,8,0:0:0:0:
256,192,81298,1,8,0:0:0:0:
256,192,81406,1,0,0:0:0:0:
256,192,81477,1,0,0:0:0:0:
256,192,81548,1,0,0:0:0:0:
256,192,81620,1,0,0:0:0:0:
256,192,81691,1,0,0:0:0:0:
256,192,81763,1,0,0:0:0:0:
256,192,81834,1,8,0:0:0:0:
256,192,81888,1,8,0:0:0:0:
256,192,81941,1,8,0:0:0:0:
256,192,81995,1,8,0:0:0:0:
256,192,82048,1,0,0:0:0:0:
256,192,82102,1,0,0:0:0:0:
256,192,82156,1,0,0:0:0:0:
256,192,82209,1,0,0:0:0:0:
256,192,82263,1,8,0:0:0:0:
256,192,82477,1,8,0:0:0:0:
256,192,82691,1,8,0:0:0:0:
256,192,82906,1,0,0:0:0:0:
256,192,83013,1,8,0:0:0:0:
256,192,83120,1,8,0:0:0:0:
256,192,83227,1,0,0:0:0:0:
256,192,83334,1,8,0:0:0:0:
256,192,83441,1,0,0:0:0:0:
256,192,83548,1,8,0:0:0:0:
256,192,83763,1,0,0:0:0:0:
256,192,83816,1,0,0:0:0:0:
256,192,83870,1,0,0:0:0:0:
256,192,83923,1,0,0:0:0:0:
256,192,83977,1,8,0:0:0:0:
256,192,84191,1,8,0:0:0:0:
256,192,84406,1,8,0:0:0:0:
256,192,84513,1,8,0:0:0:0:
256,192,84620,1,0,0:0:0:0:
256,192,84673,1,0,0:0:0:0:
256,192,84727,1,8,0:0:0:0:
256,192,84781,1,8,0:0:0:0:
256,192,84834,1,0,0:0:0:0:
256,192,84941,1,0,0:0:0:0:
256,192,85048,1,8,0:0:0:0:
256,192,85156,1,0,0:0:0:0:
256,192,85263,1,8,0:0:0:0:
256,192,85316,1,8,0:0:0:0:
256,192,85370,1,0,0:0:0:0:
256,192,85423,1,0,0:0:0:0:
256,192,85477,1,8,0:0:0:0:
256,192,85531,1,8,0:0:0:0:
256,192,85584,1,8,0:0:0:0:
256,192,85638,1,8,0:0:0:0:
256,192,85691,1,0,0:0:0:0:
256,192,85906,1,0,0:0:0:0:
256,192,86120,1,8,0:0:0:0:
256,192,86334,1,8,0:0:0:0:
256,192,86388,1,8,0:0:0:0:
256,192,86441,1,0,0:0:0:0:
256,192,86495,1,0,0:0:0:0:
256,192,86548,1,8,0:0:0:0:
256,192,86656,1,0,0:0:0:0:
256,192,86763,1,8,0:0:0:0:
256,192,86977,1,8,0:0:0:0:
256,192,87191,1,8,0:0:0:0:
256,192,87406,1,0,0:0:0:0:
256,192,87620,1,0,0:0:0:0:
256,192,87673,1,0,0:0:0:0:
256,192,87727,1,0,0:0:0:0:
256,192,87781,1,0,0:0:0:0:
256,192,87834,1,8,0:0:0:0:
256,192,87941,1,0,0:0:0:0:
256,192,87995,1,0,0:0:0:0:
256,192,88048,1,8,0:0:0:0:
256,192,88102,1,8,0:0:0:0:
256,192,88156,1,8,0:0:0:0:
256,192,88209,1,8,0:0:0:0:
256,192,88263,1,0,0:0:0:0:
256,192,88477,1,0,0:0:0:0:
256,192,88691,1,8,0:0:0:0:
256,192,88906,1,8,0:0:0:0:
256,192,88959,1,8,0:0:0:0:
256,192,89013,1,8,0:0:0:0:
256,192,89066,1,8,0:0:0:0:
256,192,89120,1,0,0:0:0:0:
256,192,89334,1,8,0:0:0:0:
256,192,89441,1,0,0:0:0:0:
256,192,89548,1,8,0:0:0:0:
256,192,89656,1,8,0:0:0:0:
256,192,89763,1,0,0:0:0:0:
256,192,89870,1,8,0:0:0:0:
256,192,89923,1,8,0:0:0:0:
256,192,89977,1,0,0:0:0:0:
256,192,90084,1,8,0:0:0:0:
256,192,90191,1,0,0:0:0:0:
256,192,90263,1,0,0:0:0:0:
256,192,90334,1,0,0:0:0:0:
256,192,90406,1,0,0:0:0:0:
256,192,90477,1,0,0:0:0:0:
256,192,90548,1,0,0:0:0:0:
256,192,90620,1,8,0:0:0:0:
256,192,90834,1,8,0:0:0:0:
256,192,91048,1,0,0:0:0:0:
256,192,91156,1,0,0:0:0:0:
256,192,91263,1,8,0:0:0:0:
256,192,91370,1,0,0:0:0:0:
256,192,91477,1,8,0:0:0:0:
256,192,91531,1,8,0:0:0:0:
256,192,91584,1,8,0:0:0:0:
256,192,91638,1,8,0:0:0:0:
256,192,91691,1,0,0:0:0:0:
256,192,91798,1,0,0:0:0:0:
256,192,91906,1,8,0:0:0:0:
256,192,92013,1,8,0:0:0:0:
256,192,92120,1,8,0:0:0:0:
256,192,92173,1,8,0:0:0:0:
256,192,92227,1,0,0:0:0:0:
256,192,92281,1,0,0:0:0:0:
256,192,92334,1,8,0:0:0:0:
256,192,92388,1,8,0:0:0:0:
256,192,92441,1,8,0:0:0:0:
256,192,92495,1,8,0:0:0:0:
256,192,92548,1,0,0:0:0:0:
256,192,92763,1,0,0:0:0:0:
256,192,92977,1,8,0:0:0:0:
256,192,93191,1,0,0:0:0:0:
256,192,93406,1,8,0:0:0:0:
256,192,93513,1,0,0:0:0:0:
256,192,93620,1,8,0:0:0:0:
256,192,93834,1,8,0:0:0:0:
256,192,93941,1,0,0:0:0:0:
256,192,94048,1,8,0:0:0:0:
256,192,94263,1,8,0:0:0:0:
256,192,94477,1,8,0:0:0:0:
256,192,94584,1,0,0:0:0:0:
256,192,94691,1,8,0:0:0:0:
256,192,94798,1,0,0:0:0:0:
256,192,94906,1,8,0:0:0:0:
256,192,95120,1,0,0:0:0:0:
256,192,95191,1,0,0:0:0:0:
256,192,95263,1,0,0:0:0:0:
256,192,95334,1,0,0:0:0:0:
256,192,95406,1,0,0:0:0:0:
256,192,95477,1,0,0:0:0:0:
256,192,95548,1,8,0:0:0:0:
256,192,95602,1,8,0:0:0:0:
256,192,95656,1,0,0:0:0:0:
256,192,95709,1,0,0:0:0:0:
256,192,95763,1,8,0:0:0:0:
256,192,95816,1,8,0:0:0:0:
256,192,95870,1,8,0:0:0:0:
256,192,95923,1,8,0:0:0:0:
256,192,95977,1,0,0:0:0:0:
256,192,96191,1,8,0:0:0:0:
256,192,96406,1,8,0:0:0:0:
256,192,96620,1,0,0:0:0:0:
256,192,96727,1,8,0:0:0:0:
256,192,96834,1,0,0:0:0:0:
256,192,96941,1,8,0:0:0:0:
256,192,97048,1,8,0:0:0:0:
256,192,97156,1,0,0:0:0:0:
256,192,97263,1,8,0:0:0:0:
256,192,97316,1,8,0:0:0:0:
256,192,97370,1,0,0:0:0:0:
256,192,97423,1,0,0:0:0:0:
256,192,97477,1,8,0:0:0:0:
256,192,97584,1,8,0:0:0:0:
256,192,97691,1,0,0:0:0:0:
256,192,97906,1,0,0:0:0:0:
256,192,98120,1,8,0:0:0:0:
256,192,98227,1,0,0:0:0:0:
256,192,98334,1,8,0:0:0:0:
256,192,98441,1,8,0:0:0:0:
256,192,98548,1,0,0:0:0:0:
256,192,98763,1,8,0:0:0:0:
256,192,98870,1,0,0:0:0:0:
256,192,98977,1,8,0:0:0:0:
256,192,99084,1,8,0:0:0:0:
256,192,99191,1,0,0:0:0:0:
256,192,99406,1,0,0:0:0:0:
256,192,99513,1,0,0:0:0:0:
256,192,99620,1,0,0:0:0:0:
256,192,99727,1,0,0:0:0:0:
256,192,99834,1,8,0:0:0:0:
256,192,99941,1,0,0:0:0:0:
256,192,100048,1,0,0:0:0:0:
256,192,100156,1,0,0:0:0:0:
256,192,100263,1,8,0:0:0:0:
256,192,100370,1,8,0:0:0:0:
256,192,100477,1,8,0:0:0:0:
256,192,100584,1,8,0:0:0:0:
256,192,100691,1,8,0:0:0:0:
256,192,100798,1,8,0:0:0:0:
256,192,100906,1,8,0:0:0:0:
256,192,101013,1,8,0:0:0:0:
256,192,101120,1,0,0:0:0:0:
256,192,101227,1,8,0:0:0:0:
256,192,101334,1,0,0:0:0:0:
256,192,101548,1,8,0:0:0:0:
256,192,101656,1,0,0:0:0:0:
256,192,101763,1,8,0:0:0:0:
256,192,101870,1,8,0:0:0:0:
256,192,101977,1,0,0:0:0:0:
256,192,102191,1,0,0:0:0:0:
256,192,102298,1,0,0:0:0:0:
256,192,102406,1,0,0:0:0:0:
256,192,102513,1,0,0:0:0:0:
256,192,102620,1,0,0:0:0:0:
256,192,102727,1,0,0:0:0:0:
256,192,102834,1,8,0:0:0:0:
256,192,103048,1,8,0:0:0:0:
256,192,103156,1,0,0:0:0:0:
256,192,103263,1,8,0:0:0:0:
256,192,103477,1,8,0:0:0:0:
256,192,103584,1,0,0:0:0:0:
256,192,103691,1,8,0:0:0:0:
256,192,103906,1,8,0:0:0:0:
256,192,104120,1,8,0:0:0:0:
256,192,104334,1,8,0:0:0:0:
256,192,104548,1,0,0:0:0:0:
256,192,104763,1,0,0:0:0:0:
256,192,104870,1,0,0:0:0:0:
256,192,104977,1,8,0:0:0:0:
256,192,105084,1,0,0:0:0:0:
256,192,105191,1,8,0:0:0:0:
256,192,105298,1,8,0:0:0:0:
256,192,105406,1,0,0:0:0:0:
256,192,105459,1,0,0:0:0:0:
256,192,105513,1,0,0:0:0:0:
256,192,105566,1,0,0:0:0:0:
256,192,105620,1,0,0:0:0:0:
256,192,105673,1,0,0:0:0:0:
256,192,105727,1,0,0:0:0:0:
256,192,105781,1,0,0:0:0:0:
256,192,105834,1,8,0:0:0:0:
256,192,105941,1,0,0:0:0:0:
256,192,106048,1,8,0:0:0:0:
256,192,106263,1,0,0:0:0:0:
256,192,106477,1,0,0:0:0:0:
256,192,106584,1,8,0:0:0:0:
256,192,106691,1,0,0:0:0:0:
256,192,106798,1,8,0:0:0:0:
256,192,106906,1,8,0:0:0:0:
256,192,107013,1,8,0:0:0:0:
256,192,107120,1,0,0:0:0:0:
256,192,107334,1,8,0:0:0:0:
256,192,107441,1,0,0:0:0:0:
256,192,107548,1,8,0:0:0:0:
256,192,107656,1,8,0:0:0:0:
256,192,107763,1,0,0:0:0:0:
256,192,107977,1,8,0:0:0:0:
256,192,108084,1,0,0:0:0:0:
256,192,108191,1,8,0:0:0:0:
256,192,108298,1,8,0:0:0:0:
256,192,108406,1,0,0:0:0:0:
256,192,108620,1,8,0:0:0:0:
256,192,108834,1,0,0:0:0:0:
256,192,108906,1,0,0:0:0:0:
256,192,108977,1,0,0:0:0:0:
256,192,109048,1,0,0:0:0:0:
256,192,109120,1,0,0:0:0:0:
256,192,109191,1,0,0:0:0:0:
256,192,109263,1,8,0:0:0:0:
256,192,109316,1,8,0:0:0:0:
256,192,109370,1,8,0:0:0:0:
256,192,109423,1,8,0:0:0:0:
256,192,109477,1,8,0:0:0:0:
256,192,109531,1,8,0:0:0:0:
256,192,109584,1,8,0:0:0:0:
256,192,109638,1,8,0:0:0:0:
256,192,109691,1,0,0:0:0:0:
256,192,109906,1,8,0:0:0:0:
256,192,110120,1,8,0:0:0:0:
256,192,110334,1,0,0:0:0:0:
256,192,110441,1,0,0:0:0:0:
256,192,110548,1,8,0:0:0:0:
256,192,110763,1,8,0:0:0:0:
256,192,110977,1,0,0:0:0:0:
256,192,111031,1,0,0:0:0:0:
256,192,111084,1,0,0:0:0:0:
256,192,111138,1,0,0:0:0:0:
256,192,111191,1,8,0:0:0:0:
256,192,111406,1,8,0:0:0:0:
256,192,111620,1,8,0:0:0:0:
256,192,111834,1,8,0:0:0:0:
256,192,111941,1,8,0:0:0:0:
256,192,112048,1,0,0:0:0:0:
256,192,112102,1,0,0:0:0:0:
256,192,112156,1,8,0:0:0:0:
256,192,112209,1,8,0:0:0:0:
256,192,112263,1,0,0:0:0:0:
256,192,112477,1,8,0:0:0:0:
256,192,112691,1,8,0:0:0:0:
256,192,112745,1,8,0:0:0:0:
256,192,112798,1,0,0:0:0:0:
256,192,112852,1,0,0:0:0:0:
256,192,112906,1,8,0:0:0:0:
256,192,112959,1,8,0:0:0:0:
256,192,113013,1,8,0:0:0:0:
256,192,113066,1,8,0:0:0:0:
256,192,113120,1,0,0:0:0:0:
256,192,113334,1,0,0:0:0:0:
256,192,113548,1,8,0:0:0:0:
256,192,113763,1,8,0:0:0:0:
256,192,113816,1,8,0:0:0:0:
256,192,113870,1,0,0:0:0:0:
256,192,113923,1,0,0:0:0:0:
256,192,113977,1,8,0:0:0:0:
256,192,114191,1,8,0:0:0:0:
256,192,114406,1,8,0:0:0:0:
256,192,114620,1,8,0:0:0:0:
256,192,114834,1,0,0:0:0:0:
256,192,114941,1,0,0:0:0:0:
256,192,115048,1,8,0:0:0:0:
256,192,115102,1,8,0:0:0:0:
256,192,115156,1,8,0:0:0:0:
256,192,115209,1,8,0:0:0:0:
256,192,115263,1,0,0:0:0:0:
256,192,115370,1,0,0:0:0:0:
256,192,115423,1,0,0:0:0:0:
256,192,115477,1,8,0:0:0:0:
256,192,115531,1,8,0:0:0:0:
256,192,115584,1,8,0:0:0:0:
256,192,115638,1,8,0:0:0:0:
256,192,115691,1,0,0:0:0:0:
256,192,115906,1,0,0:0:0:0:
256,192,116120,1,8,0:0:0:0:
256,192,116173,1,8,0:0:0:0:
256,192,116227,1,8,0:0:0:0:
256,192,116281,1,8,0:0:0:0:
256,192,116334,1,8,0:0:0:0:
256,192,116388,1,8,0:0:0:0:
256,192,116441,1,8,0:0:0:0:
256,192,116495,1,8,0:0:0:0:
256,192,116548,1,0,0:0:0:0:
256,192,116763,1,0,0:0:0:0:
256,192,116816,1,0,0:0:0:0:
256,192,116870,1,0,0:0:0:0:
256,192,116923,1,0,0:0:0:0:
256,192,116977,1,8,0:0:0:0:
256,192,117084,1,0,0:0:0:0:
256,192,117138,1,0,0:0:0:0:
256,192,117191,1,8,0:0:0:0:
256,192,117245,1,8,0:0:0:0:
256,192,117298,1,8,0:0:0:0:
256,192,117352,1,8,0:0:0:0:
256,192,117406,1,0,0:0:0:0:
256,192,117620,1,0,0:0:0:0:
256,192,117691,1,0,0:0:0:0:
256,192,117763,1,0,0:0:0:0:
256,192,117834,1,0,0:0:0:0:
256,192,117906,1,0,0:0:0:0:
256,192,117977,1,0,0:0:0:0:
256,192,118048,1,8,0:0:0:0:
256,192,118120,1,0,0:0:0:0:
256,192,118191,1,0,0:0:0:0:
256,192,118263,1,8,0:0:0:0:
256,192,118477,1,0,0:0:0:0:
256,192,118584,1,8,0:0:0:0:
256,192,118691,1,8,0:0:0:0:
256,192,118798,1,0,0:0:0:0:
256,192,118906,1,8,0:0:0:0:
256,192,118959,1,8,0:0:0:0:
256,192,119013,1,8,0:0:0:0:
256,192,119066,1,8,0:0:0:0:
256,192,119120,1,0,0:0:0:0:
256,192,119334,1,8,0:0:0:0:
256,192,119441,1,0,0:0:0:0:
256,192,119548,1,8,0:0:0:0:
256,192,119602,1,8,0:0:0:0:
256,192,119656,1,0,0:0:0:0:
256,192,119709,1,0,0:0:0:0:
256,192,119763,1,8,0:0:0:0:
256,192,119816,1,8,0:0:0:0:
256,192,119870,1,8,0:0:0:0:
256,192,119923,1,8,0:0:0:0:
256,192,119977,1,0,0:0:0:0:
256,192,120191,1,0,0:0:0:0:
256,192,120406,1,0,0:0:0:0:
256,192,120620,1,0,0:0:0:0:
256,192,120834,1,8,0:0:0:0:
256,192,121048,1,8,0:0:0:0:
256,192,121263,1,8,0:0:0:0:
256,192,121477,1,8,0:0:0:0:
256,192,121691,1,8,0:0:0:0:
256,192,121906,1,8,0:0:0:0:
256,192,122013,1,0,0:0:0:0:
256,192,122120,1,8,0:0:0:0:
256,192,122227,1,0,0:0:0:0:
256,192,122334,1,8,0:0:0:0:
256,192,122441,1,0,0:0:0:0:
256,192,122548,1,0,0:0:0:0:
256,192,122763,1,0,0:0:0:0:
256,192,122977,1,0,0:0:0:0:
256,192,123031,1,0,0:0:0:0:
256,192,123084,1,0,0:0:0:0:
256,192,123138,1,0,0:0:0:0:
256,192,123191,1,8,0:0:0:0:
256,192,123245,1,8,0:0:0:0:
256,192,123298,1,8,0:0:0:0:
256,192,123352,1,8,0:0:0:0:
256,192,123406,1,0,0:0:0:0:
256,192,123620,1,8,0:0:0:0:
256,192,123834,1,8,0:0:0:0:
256,192,124048,1,0,0:0:0:0:
256,192,124156,1,0,0:0:0:0:
256,192,124263,1,8,0:0:0:0:
256,192,124370,1,8,0:0:0:0:
256,192,124477,1,8,0:0:0:0:
256,192,124584,1,8,0:0:0:0:
256,192,124691,1,0,0:0:0:0:
256,192,124745,1,0,0:0:0:0:
256,192,124798,1,0,0:0:0:0:
256,192,124852,1,0,0:0:0:0:
256,192,124906,1,8,0:0:0:0:
256,192,125120,1,0,0:0:0:0:
256,192,125334,1,0,0:0:0:0:
256,192,125441,1,0,0:0:0:0:
256,192,125548,1,8,0:0:0:0:
256,192,125656,1,0,0:0:0:0:
256,192,125763,1,8,0:0:0:0:
256,192,125870,1,8,0:0:0:0:
256,192,125977,1,0,0:0:0:0:
256,192,126191,1,8,0:0:0:0:
256,192,126298,1,0,0:0:0:0:
256,192,126406,1,8,0:0:0:0:
256,192,126513,1,8,0:0:0:0:
256,192,126620,1,0,0:0:0:0:
256,192,126727,1,8,0:0:0:0:
256,192,126834,1,0,0:0:0:0:
256,192,126941,1,0,0:0:0:0:
256,192,127048,1,0,0:0:0:0:
256,192,127156,1,0,0:0:0:0:
256,192,127263,1,8,0:0:0:0:
256,192,127477,1,0,0:0:0:0:
256,192,127584,1,0,0:0:0:0:
256,192,127691,1,8,0:0:0:0:
256,192,127798,1,8,0:0:0:0:
256,192,127906,1,8,0:0:0:0:
256,192,128013,1,8,0:0:0:0:
256,192,128120,1,8,0:0:0:0:
256,192,128227,1,8,0:0:0:0:
256,192,128334,1,8,0:0:0:0:
256,192,128441,1,8,0:0:0:0:
256,192,128548,1,0,0:0:0:0:
256,192,128763,1,0,0:0:0:0:
256,192,128977,1,8,0:0:0:0:
256,192,129084,1,0,0:0:0:0:
256,192,129191,1,8,0:0:0:0:
256,192,129245,1,8,0:0:0:0:
256,192,129298,1,8,0:0:0:0:
256,192,129352,1,8,0:0:0:0:
256,192,129406,1,0,0:0:0:0:
256,192,129620,1,0,0:0:0:0:
256,192,129727,1,0,0:0:0:0:
256,192,129834,1,8,0:0:0:0:
256,192,129941,1,8,0:0:0:0:
256,192,130048,1,0,0:0:0:0:
256,192,130156,1,0,0:0:0:0:
256,192,130263,1,8,0:0:0:0:
256,192,130477,1,8,0:0:0:0:
256,192,130584,1,0,0:0:0:0:
256,192,130691,1,8,0:0:0:0:
256,192,130906,1,8,0:0:0:0:
256,192,131013,1,0,0:0:0:0:
256,192,131120,1,8,0:0:0:0:
256,192,131334,1,8,0:0:0:0:
256,192,131548,1,8,0:0:0:0:
256,192,131763,1,8,0:0:0:0:
256,192,131977,1,0,0:0:0:0:
256,192,132031,1,0,0:0:0:0:
256,192,132084,1,0,0:0:0:0:
256,192,132138,1,0,0:0:0:0:
256,192,132191,1,8,0:0:0:0:
256,192,132406,1,8,0:0:0:0:
256,192,132513,1,0,0:0:0:0:
256,192,132620,1,8,0:0:0:0:
256,192,132727,1,8,0:0:0:0:
256,192,132834,1,0,0:0:0:0:
256,192,132888,1,0,0:0:0:0:
256,192,132941,1,0,0:0:0:0:
256,192,132995,1,0,0:0:0:0:
256,192,133048,1,0,0:0:0:0:
256,192,133102,1,0,0:0:0:0:
256,192,133156,1,0,0:0:0:0:
256,192,133209,1,0,0:0:0:0:
256,192,133263,1,8,0:0:0:0:
256,192,133370,1,0,0:0:0:0:
256,192,133477,1,8,0:0:0:0:
256,192,133691,1,0,0:0:0:0:
256,192,133906,1,0,0:0:0:0:
256,192,134013,1,8,0:0:0:0:
256,192,134120,1,0,0:0:0:0:
256,192,134227,1,8,0:0:0:0:
256,192,134334,1,8,0:0:0:0:
256,192,134548,1,0,0:0:0:0:
256,192,134763,1,8,0:0:0:0:
256,192,134870,1,0,0:0:0:0:
256,192,134977,1,8,0:0:0:0:
256,192,135084,1,8,0:0:0:0:
256,192,135191,1,0,0:0:0:0:
256,192,135406,1,8,0:0:0:0:
256,192,135513,1,0,0:0:0:0:
256,192,135620,1,8,0:0:0:0:
256,192,135727,1,8,0:0:0:0:
256,192,135834,1,0,0:0:0:0:
256,192,136048,1,8,0:0:0:0:
256,192,136263,1,0,0:0:0:0:
256,192,136477,1,0,0:0:0:0:
256,192,136691,1,8,0:0:0:0:
256,192,136745,1,8,0:0:0:0:
256,192,136798,1,8,0:0:0:0:
256,192,136852,1,8,0:0:0:0:
256,192,136906,1,8,0:0:0:0:
256,192,136959,1,8,0:0:0:0:
256,192,137013,1,8,0:0:0:0:
256,192,137066,1,8,0:0:0:0:
256,192,137120,1,0,0:0:0:0:
256,192,137548,1,8,0:0:0:0:
256,192,137763,1,8,0:0:0:0:
256,192,137977,1,4,0:0:0:0:
256,192,138191,1,0,0:0:0:0:
256,192,138406,1,0,0:0:0:0:
256,192,138620,1,8,0:0:0:0:
256,192,138834,1,0,0:0:0:0:
256,192,139048,1,8,0:0:0:0:
256,192,139263,1,0,0:0:0:0:
256,192,139477,1,0,0:0:0:0:
256,192,139691,1,12,0:0:0:0:
256,192,139906,1,0,0:0:0:0:
256,192,140120,1,8,0:0:0:0:
256,192,140334,1,8,0:0:0:0:
256,192,140548,1,0,0:0:0:0:
256,192,140977,1,8,0:0:0:0:
256,192,141191,1,8,0:0:0:0:
256,192,141406,1,4,0:0:0:0:
256,192,141620,1,0,0:0:0:0:
256,192,141834,1,0,0:0:0:0:
256,192,142048,1,8,0:0:0:0:
256,192,142263,1,0,0:0:0:0:
256,192,142477,1,8,0:0:0:0:
256,192,142691,1,0,0:0:0:0:
256,192,142906,1,0,0:0:0:0:
256,192,143120,1,12,0:0:0:0:
256,192,143334,1,0,0:0:0:0:
256,192,143548,1,8,0:0:0:0:
256,192,143763,1,8,0:0:0:0:
256,192,143977,1,0,0:0:0:0:
256,192,144406,1,8,0:0:0:0:
256,192,144620,1,8,0:0:0:0:
256,192,144834,1,4,0:0:0:0:
256,192,145048,1,0,0:0:0:0:
256,192,145263,1,0,0:0:0:0:
256,192,145477,1,8,0:0:0:0:
256,192,145691,1,0,0:0:0:0:
256,192,145906,1,8,0:0:0:0:
256,192,146120,1,0,0:0:0:0:
256,192,146334,1,0,0:0:0:0:
256,192,146548,1,12,0:0:0:0:
256,192,146763,1,0,0:0:0:0:
256,192,146977,1,8,0:0:0:0:
256,192,147191,1,8,0:0:0:0:
256,192,147406,1,0,0:0:0:0:
256,192,147834,1,8,0:0:0:0:
256,192,148048,1,8,0:0:0:0:
256,192,148263,1,4,0:0:0:0:
256,192,148477,1,0,0:0:0:0:
256,192,148691,1,0,0:0:0:0:
256,192,148906,1,8,0:0:0:0:
256,192,149120,1,0,0:0:0:0:
256,192,149334,1,8,0:0:0:0:
256,192,149548,1,0,0:0:0:0:
256,192,149763,1,0,0:0:0:0:
256,192,149977,1,12,0:0:0:0:
256,192,150191,1,0,0:0:0:0:
256,192,150406,1,12,0:0:0:0:
256,192,150620,1,8,0:0:0:0:
256,192,150834,1,0,0:0:0:0:
256,192,151263,1,8,0:0:0:0:
256,192,151477,1,8,0:0:0:0:
256,192,151691,1,4,0:0:0:0:
256,192,151906,1,0,0:0:0:0:
256,192,152120,1,0,0:0:0:0:
256,192,152334,1,0,0:0:0:0:
256,192,152548,1,12,0:0:0:0:
256,192,152763,1,0,0:0:0:0:
256,192,152977,1,12,0:0:0:0:
256,192,153191,1,0,0:0:0:0:
256,192,153406,1,12,0:0:0:0:
256,192,153620,1,0,0:0:0:0:
256,192,153834,1,8,0:0:0:0:
256,192,154048,1,8,0:0:0:0:
256,192,154263,1,0,0:0:0:0:
256,192,154691,1,8,0:0:0:0:
256,192,154906,1,8,0:0:0:0:
256,192,155120,1,4,0:0:0:0:
256,192,155334,2,0,L|209:193,4,28
256,192,155977,1,0,0:0:0:0:
256,192,156191,1,8,0:0:0:0:
256,192,156406,1,0,0:0:0:0:
256,192,156620,1,0,0:0:0:0:
256,192,156834,1,12,0:0:0:0:
256,192,157048,1,0,0:0:0:0:
256,192,157263,1,8,0:0:0:0:
256,192,157477,1,8,0:0:0:0:
256,192,157691,1,0,0:0:0:0:
256,192,158120,1,8,0:0:0:0:
256,192,158334,1,8,0:0:0:0:
256,192,158548,1,0,0:0:0:0:
256,192,158763,1,0,0:0:0:0:
256,192,158977,1,0,0:0:0:0:
256,192,159191,1,8,0:0:0:0:
256,192,159406,1,0,0:0:0:0:
256,192,159620,1,8,0:0:0:0:
256,192,159727,1,8,0:0:0:0:
256,192,159834,1,0,0:0:0:0:
256,192,160048,1,0,0:0:0:0:
256,192,160263,1,12,0:0:0:0:
256,192,160477,1,0,0:0:0:0:
256,192,160691,1,8,0:0:0:0:
256,192,160906,1,8,0:0:0:0:
256,192,160959,1,8,0:0:0:0:
256,192,161013,1,8,0:0:0:0:
256,192,161066,1,8,0:0:0:0:
256,192,161120,1,0,0:0:0:0:
256,192,161548,1,8,0:0:0:0:
256,192,161763,1,8,0:0:0:0:
256,192,161977,12,0,162941,0:0:0:0:
256,192,163048,5,0,0:0:0:0:
256,192,163263,1,8,0:0:0:0:
256,192,163477,1,0,0:0:0:0:
256,192,163691,1,12,0:0:0:0:
256,192,164120,1,8,0:0:0:0:
256,192,164334,1,8,0:0:0:0:
256,192,164548,1,0,0:0:0:0:
256,192,165406,1,12,0:0:0:0:
256,192,166691,1,8,0:0:0:0:
256,192,166906,1,0,0:0:0:0:
256,192,167120,12,0,167870,0:0:0:0:
256,192,167977,5,0,0:0:0:0:
256,192,168406,12,0,170013,0:0:0:0:
256,192,170120,5,8,0:0:0:0:
256,192,170334,1,0,0:0:0:0:
256,192,170548,1,12,0:0:0:0:
256,192,171191,1,0,0:0:0:0:
256,192,171245,1,0,0:0:0:0:
256,192,171298,1,0,0:0:0:0:
256,192,171352,1,0,0:0:0:0:
256,192,171406,1,8,0:0:0:0:
256,192,171834,12,0,172798,0:0:0:0:
256,192,173548,5,8,0:0:0:0:
256,192,173763,1,0,0:0:0:0:
256,192,173977,12,0,174620,0:0:0:0:
256,192,174834,12,0,175370,0:0:0:0:
256,192,175477,5,0,0:0:0:0:
256,192,175691,12,0,178048,0:0:0:0:
256,192,178263,5,0,0:0:0:0:
256,192,178477,1,0,0:0:0:0:
256,192,178691,1,8,0:0:0:0:
256,192,178906,1,0,0:0:0:0:
256,192,179013,1,8,0:0:0:0:
256,192,179120,1,0,0:0:0:0:
256,192,179227,1,8,0:0:0:0:
256,192,179334,1,0,0:0:0:0:
256,192,179548,1,0,0:0:0:0:
256,192,179763,1,8,0:0:0:0:
256,192,179977,1,0,0:0:0:0:
256,192,180191,1,0,0:0:0:0:
256,192,180298,1,8,0:0:0:0:
256,192,180406,1,0,0:0:0:0:
256,192,180513,1,0,0:0:0:0:
256,192,180566,1,0,0:0:0:0:
256,192,180620,1,8,0:0:0:0:
256,192,180834,1,0,0:0:0:0:
256,192,181048,1,0,0:0:0:0:
256,192,181156,1,8,0:0:0:0:
256,192,181263,1,0,0:0:0:0:
256,192,181370,1,8,0:0:0:0:
256,192,181423,1,8,0:0:0:0:
256,192,181477,1,8,0:0:0:0:
256,192,181691,1,0,0:0:0:0:
256,192,181906,1,0,0:0:0:0:
256,192,182120,1,8,0:0:0:0:
256,192,182334,1,0,0:0:0:0:
256,192,182441,1,8,0:0:0:0:
256,192,182548,1,0,0:0:0:0:
256,192,182656,1,8,0:0:0:0:
256,192,182763,1,0,0:0:0:0:
256,192,182977,1,0,0:0:0:0:
256,192,183191,1,8,0:0:0:0:
256,192,183406,1,0,0:0:0:0:
256,192,183620,1,0,0:0:0:0:
256,192,183727,1,8,0:0:0:0:
256,192,183834,1,0,0:0:0:0:
256,192,183941,1,8,0:0:0:0:
256,192,184048,1,8,0:0:0:0:
256,192,184263,1,0,0:0:0:0:
256,192,184477,1,0,0:0:0:0:
256,192,184584,1,8,0:0:0:0:
256,192,184691,1,0,0:0:0:0:
256,192,184798,1,8,0:0:0:0:
256,192,184906,1,8,0:0:0:0:
256,192,185120,1,8,0:0:0:0:
256,192,185334,1,8,0:0:0:0:
256,192,185548,1,8,0:0:0:0:
256,192,185763,1,0,0:0:0:0:
256,192,185816,1,0,0:0:0:0:
256,192,185870,1,0,0:0:0:0:
256,192,185923,1,0,0:0:0:0:
256,192,185977,1,0,0:0:0:0:
256,192,186084,1,8,0:0:0:0:
256,192,186191,1,0,0:0:0:0:
256,192,186406,1,8,0:0:0:0:
256,192,186459,1,8,0:0:0:0:
256,192,186513,1,0,0:0:0:0:
256,192,186566,1,0,0:0:0:0:
256,192,186620,1,8,0:0:0:0:
256,192,186673,1,8,0:0:0:0:
256,192,186727,1,8,0:0:0:0:
256,192,186781,1,8,0:0:0:0:
256,192,186834,1,0,0:0:0:0:
256,192,187048,1,0,0:0:0:0:
256,192,187263,1,0,0:0:0:0:
256,192,187477,1,8,0:0:0:0:
256,192,187691,1,0,0:0:0:0:
256,192,187798,1,0,0:0:0:0:
256,192,187906,1,8,0:0:0:0:
256,192,188548,1,0,0:0:0:0:
256,192,188763,1,0,0:0:0:0:
256,192,188977,1,8,0:0:0:0:
256,192,189191,1,8,0:0:0:0:
256,192,189245,1,8,0:0:0:0:
256,192,189298,1,8,0:0:0:0:
256,192,189352,1,8,0:0:0:0:
256,192,189406,1,0,0:0:0:0:
256,192,189513,1,8,0:0:0:0:
256,192,189620,1,0,0:0:0:0:
256,192,189834,1,0,0:0:0:0:
256,192,190048,1,0,0:0:0:0:
256,192,190263,1,0,0:0:0:0:
256,192,190370,1,0,0:0:0:0:
256,192,190477,1,0,0:0:0:0:
256,192,190584,1,0,0:0:0:0:
256,192,190691,1,0,0:0:0:0:
256,192,190798,1,0,0:0:0:0:
256,192,190906,1,0,0:0:0:0:
256,192,191013,1,0,0:0:0:0:
256,192,191548,1,8,0:0:0:0:
256,192,191602,1,8,0:0:0:0:
256,192,191656,1,8,0:0:0:0:
256,192,191709,1,8,0:0:0:0:
256,192,191763,1,8,0:0:0:0:
256,192,191816,1,8,0:0:0:0:
256,192,191870,1,8,0:0:0:0:
256,192,191923,1,8,0:0:0:0:
256,192,191977,1,0,0:0:0:0:
256,192,192191,1,0,0:0:0:0:
256,192,192406,1,8,0:0:0:0:
256,192,192620,1,0,0:0:0:0:
256,192,192727,1,8,0:0:0:0:
256,192,192834,1,0,0:0:0:0:
256,192,192941,1,8,0:0:0:0:
256,192,193048,1,0,0:0:0:0:
256,192,193263,1,0,0:0:0:0:
256,192,193370,1,8,0:0:0:0:
256,192,193477,1,8,0:0:0:0:
256,192,193691,1,8,0:0:0:0:
256,192,193798,1,8,0:0:0:0:
256,192,193906,1,0,0:0:0:0:
256,192,194013,1,8,0:0:0:0:
256,192,194120,1,8,0:0:0:0:
256,192,194227,1,0,0:0:0:0:
256,192,194281,1,0,0:0:0:0:
256,192,194334,1,8,0:0:0:0:
256,192,194388,1,8,0:0:0:0:
256,192,194441,1,0,0:0:0:0:
256,192,194548,1,0,0:0:0:0:
256,192,194656,1,8,0:0:0:0:
256,192,194763,1,8,0:0:0:0:
256,192,194870,1,8,0:0:0:0:
256,192,194977,1,8,0:0:0:0:
256,192,195084,1,8,0:0:0:0:
256,192,195191,1,8,0:0:0:0:
256,192,195298,1,8,0:0:0:0:
256,192,195406,1,8,0:0:0:0:
256,192,195459,1,8,0:0:0:0:
256,192,195513,1,8,0:0:0:0:
256,192,195566,1,8,0:0:0:0:
256,192,195620,1,8,0:0:0:0:
256,192,195673,1,8,0:0:0:0:
256,192,195727,1,8,0:0:0:0:
256,192,195781,1,8,0:0:0:0:
256,192,195834,1,8,0:0:0:0:
256,192,195906,1,8,0:0:0:0:
256,192,195977,1,8,0:0:0:0:
256,192,196048,1,0,0:0:0:0:
256,192,196102,1,0,0:0:0:0:
256,192,196156,1,0,0:0:0:0:
256,192,196209,1,0,0:0:0:0:
256,192,196263,1,8,0:0:0:0:
256,192,196477,1,8,0:0:0:0:
256,192,196691,1,8,0:0:0:0:
256,192,196906,1,8,0:0:0:0:
256,192,197120,1,0,0:0:0:0:
256,192,197334,1,0,0:0:0:0:
256,192,197441,1,8,0:0:0:0:
256,192,197548,1,0,0:0:0:0:
256,192,197656,1,8,0:0:0:0:
256,192,197763,1,8,0:0:0:0:
256,192,197977,1,0,0:0:0:0:
256,192,198048,1,0,0:0:0:0:
256,192,198120,1,0,0:0:0:0:
256,192,198191,1,8,0:0:0:0:
256,192,198263,1,0,0:0:0:0:
256,192,198334,1,0,0:0:0:0:
256,192,198406,1,8,0:0:0:0:
256,192,198477,1,0,0:0:0:0:
256,192,198548,1,0,0:0:0:0:
256,192,198620,1,8,0:0:0:0:
256,192,198691,1,0,0:0:0:0:
256,192,198763,1,0,0:0:0:0:
256,192,198834,1,0,0:0:0:0:
256,192,199048,1,0,0:0:0:0:
256,192,199102,1,0,0:0:0:0:
256,192,199156,1,0,0:0:0:0:
256,192,199209,1,0,0:0:0:0:
256,192,199263,1,8,0:0:0:0:
256,192,199477,1,0,0:0:0:0:
256,192,199531,1,0,0:0:0:0:
256,192,199584,1,0,0:0:0:0:
256,192,199638,1,0,0:0:0:0:
256,192,199691,1,8,0:0:0:0:
256,192,199798,1,8,0:0:0:0:
256,192,199906,1,0,0:0:0:0:
256,192,199959,1,0,0:0:0:0:
256,192,200013,1,0,0:0:0:0:
256,192,200066,1,0,0:0:0:0:
256,192,200120,1,8,0:0:0:0:
256,192,200227,1,0,0:0:0:0:
256,192,200281,1,0,0:0:0:0:
256,192,200334,1,8,0:0:0:0:
256,192,200388,1,8,0:0:0:0:
256,192,200441,1,8,0:0:0:0:
256,192,200495,1,8,0:0:0:0:
256,192,200548,1,0,0:0:0:0:
256,192,200763,1,0,0:0:0:0:
256,192,200870,1,0,0:0:0:0:
256,192,200977,1,8,0:0:0:0:
256,192,201191,1,8,0:0:0:0:
256,192,201298,1,8,0:0:0:0:
256,192,201406,1,0,0:0:0:0:
256,192,201513,1,8,0:0:0:0:
256,192,201620,1,0,0:0:0:0:
256,192,201727,1,8,0:0:0:0:
256,192,201834,1,0,0:0:0:0:
256,192,201941,1,8,0:0:0:0:
256,192,202048,1,8,0:0:0:0:
256,192,202156,1,8,0:0:0:0:
256,192,202263,1,0,0:0:0:0:
256,192,202477,1,0,0:0:0:0:
256,192,202691,1,8,0:0:0:0:
256,192,202906,1,0,0:0:0:0:
256,192,203013,1,8,0:0:0:0:
256,192,203120,1,0,0:0:0:0:
256,192,203227,1,8,0:0:0:0:
256,192,203334,1,0,0:0:0:0:
256,192,203441,1,0,0:0:0:0:
256,192,203548,1,8,0:0:0:0:
256,192,203763,1,0,0:0:0:0:
256,192,203870,1,8,0:0:0:0:
256,192,203977,1,0,0:0:0:0:
256,192,204084,1,8,0:0:0:0:
256,192,204191,1,0,0:0:0:0:
256,192,204406,1,8,0:0:0:0:
256,192,204620,1,0,0:0:0:0:
256,192,204727,1,0,0:0:0:0:
256,192,204834,1,8,0:0:0:0:
256,192,205048,12,0,205584,0:0:0:0:
256,192,205691,5,0,0:0:0:0:
256,192,205798,1,8,0:0:0:0:
256,192,205906,1,0,0:0:0:0:
256,192,206013,1,8,0:0:0:0:
256,192,206120,1,0,0:0:0:0:
256,192,206227,1,8,0:0:0:0:
256,192,206334,1,8,0:0:0:0:
256,192,206441,1,8,0:0:0:0:
256,192,206548,1,0,0:0:0:0:
256,192,206656,1,8,0:0:0:0:
256,192,206763,1,0,0:0:0:0:
256,192,206977,1,0,0:0:0:0:
256,192,207191,1,0,0:0:0:0:
256,192,207406,1,8,0:0:0:0:
256,192,207477,1,8,0:0:0:0:
256,192,207548,1,8,0:0:0:0:
256,192,207620,1,8,0:0:0:0:
256,192,207691,1,8,0:0:0:0:
256,192,207763,1,8,0:0:0:0:
256,192,207834,1,8,0:0:0:0:
256,192,207906,1,8,0:0:0:0:
256,192,207977,1,8,0:0:0:0:
256,192,208048,1,8,0:0:0:0:
256,192,208120,1,8,0:0:0:0:
256,192,208191,1,8,0:0:0:0:
256,192,208263,1,0,0:0:0:0:
256,192,208477,1,0,0:0:0:0:
256,192,208584,1,8,0:0:0:0:
256,192,208691,1,0,0:0:0:0:
256,192,208798,1,8,0:0:0:0:
256,192,208906,1,8,0:0:0:0:
256,192,209120,12,0,209656,0:0:0:0:
256,192,209763,12,0,210298,0:0:0:0:
256,192,210406,12,0,210834,0:0:0:0:
256,192,211691,5,0,0:0:0:0:
256,192,211798,1,0,0:0:0:0:
256,192,211906,1,0,0:0:0:0:
256,192,211977,1,0,0:0:0:0:
256,192,212048,1,0,0:0:0:0:
256,192,212120,1,0,0:0:0:0:
256,192,212191,1,0,0:0:0:0:
256,192,212263,1,0,0:0:0:0:
256,192,212334,1,0,0:0:0:0:
256,192,212388,1,0,0:0:0:0:
256,192,212441,1,0,0:0:0:0:
256,192,212495,1,0,0:0:0:0:
256,192,212548,1,8,0:0:0:0:
256,192,212763,1,8,0:0:0:0:
256,192,212977,1,8,0:0:0:0:
256,192,213191,1,0,0:0:0:0:
256,192,213298,1,8,0:0:0:0:
256,192,213406,1,8,0:0:0:0:
256,192,213513,1,0,0:0:0:0:
256,192,213620,1,0,0:0:0:0:
256,192,213727,1,0,0:0:0:0:
256,192,213834,1,8,0:0:0:0:
256,192,213941,1,0,0:0:0:0:
256,192,214048,1,8,0:0:0:0:
256,192,214263,1,0,0:0:0:0:
256,192,214477,1,8,0:0:0:0:
256,192,214584,1,0,0:0:0:0:
256,192,214691,1,8,0:0:0:0:
256,192,214906,1,0,0:0:0:0:
256,192,215013,1,8,0:0:0:0:
256,192,215120,1,8,0:0:0:0:
256,192,215227,1,0,0:0:0:0:
256,192,215334,1,8,0:0:0:0:
256,192,215441,1,8,0:0:0:0:
256,192,215548,1,8,0:0:0:0:
256,192,215656,1,8,0:0:0:0:
256,192,215763,1,8,0:0:0:0:
256,192,215870,1,8,0:0:0:0:
256,192,215977,1,8,0:0:0:0:
256,192,216031,1,8,0:0:0:0:
256,192,216084,1,8,0:0:0:0:
256,192,216138,1,8,0:0:0:0:
256,192,216191,1,8,0:0:0:0:
256,192,216245,1,8,0:0:0:0:
256,192,216298,1,8,0:0:0:0:
256,192,216352,1,8,0:0:0:0:
256,192,216406,1,8,0:0:0:0:
256,192,216477,1,8,0:0:0:0:
256,192,216548,1,8,0:0:0:0:
256,192,216620,1,0,0:0:0:0:
256,192,216673,1,0,0:0:0:0:
256,192,216727,1,0,0:0:0:0:
256,192,216781,1,0,0:0:0:0:
256,192,216834,1,8,0:0:0:0:
256,192,217048,1,8,0:0:0:0:
256,192,217263,1,8,0:0:0:0:
256,192,217477,1,8,0:0:0:0:
256,192,217691,1,0,0:0:0:0:
256,192,217798,1,0,0:0:0:0:
256,192,217906,1,0,0:0:0:0:
256,192,218013,1,0,0:0:0:0:
256,192,218120,1,0,0:0:0:0:
256,192,218227,1,0,0:0:0:0:
256,192,218334,1,0,0:0:0:0:
256,192,218441,1,0,0:0:0:0:
256,192,218548,1,8,0:0:0:0:
256,192,218763,1,8,0:0:0:0:
256,192,218977,1,8,0:0:0:0:
256,192,219191,1,8,0:0:0:0:
256,192,219406,1,0,0:0:0:0:
256,192,219620,1,0,0:0:0:0:
256,192,219673,1,0,0:0:0:0:
256,192,219727,1,0,0:0:0:0:
256,192,219781,1,0,0:0:0:0:
256,192,219834,1,8,0:0:0:0:
256,192,220048,1,0,0:0:0:0:
256,192,220102,1,0,0:0:0:0:
256,192,220156,1,0,0:0:0:0:
256,192,220209,1,0,0:0:0:0:
256,192,220263,1,8,0:0:0:0:
256,192,220370,1,8,0:0:0:0:
256,192,220477,1,0,0:0:0:0:
256,192,220531,1,0,0:0:0:0:
256,192,220584,1,0,0:0:0:0:
256,192,220638,1,0,0:0:0:0:
256,192,220691,1,8,0:0:0:0:
256,192,220798,1,0,0:0:0:0:
256,192,220852,1,0,0:0:0:0:
256,192,220906,1,8,0:0:0:0:
256,192,220959,1,0,0:0:0:0:
256,192,221013,1,8,0:0:0:0:
256,192,221066,1,8,0:0:0:0:
256,192,221120,1,0,0:0:0:0:
256,192,221334,1,0,0:0:0:0:
256,192,221441,1,8,0:0:0:0:
256,192,221548,1,8,0:0:0:0:
256,192,221656,1,0,0:0:0:0:
256,192,221709,1,0,0:0:0:0:
256,192,221763,1,8,0:0:0:0:
256,192,221816,1,8,0:0:0:0:
256,192,221870,1,8,0:0:0:0:
256,192,221923,1,8,0:0:0:0:
256,192,221977,1,0,0:0:0:0:
256,192,222084,1,8,0:0:0:0:
256,192,222191,1,0,0:0:0:0:
256,192,222298,1,8,0:0:0:0:
256,192,222406,1,0,0:0:0:0:
256,192,222513,1,8,0:0:0:0:
256,192,222620,1,8,0:0:0:0:
256,192,222727,1,8,0:0:0:0:
256,192,222834,1,0,0:0:0:0:
256,192,223048,1,0,0:0:0:0:
256,192,223263,1,8,0:0:0:0:
256,192,223477,1,0,0:0:0:0:
256,192,223584,1,0,0:0:0:0:
256,192,223691,1,8,0:0:0:0:
256,192,223906,1,0,0:0:0:0:
256,192,224013,1,0,0:0:0:0:
256,192,224120,1,8,0:0:0:0:
256,192,224334,1,8,0:0:0:0:
256,192,224441,1,8,0:0:0:0:
256,192,224548,1,0,0:0:0:0:
256,192,224763,1,0,0:0:0:0:
256,192,224870,1,0,0:0:0:0:
256,192,224977,1,8,0:0:0:0:
256,192,225084,1,0,0:0:0:0:
256,192,225138,1,0,0:0:0:0:
256,192,225191,1,0,0:0:0:0:
256,192,225245,1,0,0:0:0:0:
256,192,225298,1,0,0:0:0:0:
256,192,225352,1,0,0:0:0:0:
256,192,225406,1,8,0:0:0:0:
256,192,225620,1,0,0:0:0:0:
256,192,225834,1,8,0:0:0:0:
256,192,225941,1,0,0:0:0:0:
256,192,226048,1,8,0:0:0:0:
256,192,226156,1,8,0:0:0:0:
256,192,226263,1,0,0:0:0:0:
256,192,226477,1,8,0:0:0:0:
256,192,226691,1,8,0:0:0:0:
256,192,226906,1,0,0:0:0:0:
256,192,227013,1,8,0:0:0:0:
256,192,227120,1,0,0:0:0:0:
256,192,227227,1,8,0:0:0:0:
256,192,227334,1,8,0:0:0:0:
256,192,227548,1,8,0:0:0:0:
256,192,227763,1,8,0:0:0:0:
256,192,227977,1,0,0:0:0:0:
256,192,228191,1,0,0:0:0:0:
256,192,228406,1,0,0:0:0:0:
256,192,228513,1,8,0:0:0:0:
256,192,228620,1,0,0:0:0:0:
256,192,228727,1,8,0:0:0:0:
256,192,228834,1,8,0:0:0:0:
256,192,229048,1,0,0:0:0:0:
256,192,229156,1,8,0:0:0:0:
256,192,229263,1,0,0:0:0:0:
256,192,229370,1,8,0:0:0:0:
256,192,229477,1,8,0:0:0:0:
256,192,229584,1,8,0:0:0:0:
256,192,229691,1,0,0:0:0:0:
256,192,230120,1,0,0:0:0:0:
256,192,230227,1,8,0:0:0:0:
256,192,230334,1,0,0:0:0:0:
256,192,230441,1,8,0:0:0:0:
256,192,230548,1,8,0:0:0:0:
256,192,230763,1,8,0:0:0:0:
256,192,230870,1,0,0:0:0:0:
256,192,230977,1,8,0:0:0:0:
256,192,231084,1,8,0:0:0:0:
256,192,231191,1,8,0:0:0:0:
256,192,231298,1,0,0:0:0:0:
256,192,231406,1,0,0:0:0:0:
256,192,231513,1,8,0:0:0:0:
256,192,231620,1,0,0:0:0:0:
256,192,231727,1,8,0:0:0:0:
256,192,231834,1,8,0:0:0:0:
256,192,231941,1,0,0:0:0:0:
256,192,232048,1,0,0:0:0:0:
256,192,232156,1,8,0:0:0:0:
256,192,232263,1,0,0:0:0:0:
256,192,232370,1,0,0:0:0:0:
256,192,232477,1,8,0:0:0:0:
256,192,232584,1,8,0:0:0:0:
256,192,232691,1,8,0:0:0:0:
256,192,232798,1,8,0:0:0:0:
256,192,232906,1,8,0:0:0:0:
256,192,233013,1,8,0:0:0:0:
256,192,233120,1,8,0:0:0:0:
256,192,233173,1,8,0:0:0:0:
256,192,233227,1,8,0:0:0:0:
256,192,233281,1,8,0:0:0:0:
256,192,233334,1,8,0:0:0:0:
256,192,233388,1,8,0:0:0:0:
256,192,233441,1,8,0:0:0:0:
256,192,233495,1,8,0:0:0:0:
256,192,233548,1,8,0:0:0:0:
256,192,233620,1,8,0:0:0:0:
256,192,233691,1,8,0:0:0:0:
256,192,233763,1,0,0:0:0:0:
256,192,233816,1,0,0:0:0:0:
256,192,233870,1,0,0:0:0:0:
256,192,233923,1,0,0:0:0:0:
256,192,233977,1,8,0:0:0:0:
256,192,234191,1,8,0:0:0:0:
256,192,234406,1,8,0:0:0:0:
256,192,234620,1,8,0:0:0:0:
256,192,234834,1,0,0:0:0:0:
256,192,234941,1,8,0:0:0:0:
256,192,235048,1,0,0:0:0:0:
256,192,235156,1,8,0:0:0:0:
256,192,235263,1,0,0:0:0:0:
256,192,235370,1,8,0:0:0:0:
256,192,235477,1,8,0:0:0:0:
256,192,235691,1,8,0:0:0:0:
256,192,235906,1,0,0:0:0:0:
256,192,236013,1,8,0:0:0:0:
256,192,236120,1,0,0:0:0:0:
256,192,236227,1,8,0:0:0:0:
256,192,236334,1,8,0:0:0:0:
256,192,236441,1,0,0:0:0:0:
256,192,236548,1,0,0:0:0:0:
256,192,236763,1,0,0:0:0:0:
256,192,236816,1,0,0:0:0:0:
256,192,236870,1,0,0:0:0:0:
256,192,236923,1,0,0:0:0:0:
256,192,236977,1,8,0:0:0:0:
256,192,237084,1,8,0:0:0:0:
256,192,237191,1,0,0:0:0:0:
256,192,237245,1,0,0:0:0:0:
256,192,237298,1,0,0:0:0:0:
256,192,237352,1,0,0:0:0:0:
256,192,237406,1,8,0:0:0:0:
256,192,237513,1,0,0:0:0:0:
256,192,237620,1,8,0:0:0:0:
256,192,237673,1,8,0:0:0:0:
256,192,237727,1,0,0:0:0:0:
256,192,237781,1,0,0:0:0:0:
256,192,237834,1,8,0:0:0:0:
256,192,237941,1,0,0:0:0:0:
256,192,238048,1,8,0:0:0:0:
256,192,238102,1,8,0:0:0:0:
256,192,238156,1,8,0:0:0:0:
256,192,238209,1,8,0:0:0:0:
256,192,238263,1,0,0:0:0:0:
256,192,238370,1,8,0:0:0:0:
256,192,238477,1,8,0:0:0:0:
256,192,238584,1,0,0:0:0:0:
256,192,238691,1,8,0:0:0:0:
256,192,238798,1,0,0:0:0:0:
256,192,238906,1,8,0:0:0:0:
256,192,238959,1,8,0:0:0:0:
256,192,239013,1,0,0:0:0:0:
256,192,239066,1,0,0:0:0:0:
256,192,239120,1,8,0:0:0:0:
256,192,239227,1,0,0:0:0:0:
256,192,239334,1,8,0:0:0:0:
256,192,239441,1,0,0:0:0:0:
256,192,239548,1,8,0:0:0:0:
256,192,239656,1,0,0:0:0:0:
256,192,239763,1,8,0:0:0:0:
256,192,239870,1,0,0:0:0:0:
256,192,239977,12,0,267406,0:0:0:0:
