osu file format v14

[General]
AudioFilename: audio.mp3
AudioLeadIn: 0
PreviewTime: 37555
Countdown: 0
SampleSet: Normal
StackLeniency: 0.7
Mode: 1
LetterboxInBreaks: 0
WidescreenStoryboard: 0

[Editor]
Bookmarks: 19346,37627,59436,96007,114293
DistanceSpacing: 1
BeatDivisor: 4
GridSize: 32
TimelineZoom: 2.5

[Metadata]
Title:Dialga's Fight to the Finish (Remix)
TitleUnicode:Dialga's Fight to the Finish (Remix)
Artist:Soren
ArtistUnicode:Soren
Creator:Coryn
Version:Dialga playing a piano at Temporal Tower's summit
Source:ポケモン不思議のダンジョン
Tags:Arata Iiyoshi Hideki Sakamoto Keisuke Ito Ryoma Nakamura Kenichi Saito Nintendo pokemon pokémon mystery dungeon explorers of time darkness sky DS spike chunsoft gamefreak primal dialga
BeatmapID:1905778
BeatmapSetID:912257

[Difficulty]
HPDrainRate:5
CircleSize:5
OverallDifficulty:5.2
ApproachRate:5
SliderMultiplier:1.4
SliderTickRate:1

[Events]
//Background and Video events
0,0,"temporal.png",0,0
//Break Periods
//Storyboard Layer 0 (Background)
//Storyboard Layer 1 (Fail)
//Storyboard Layer 2 (Pass)
//Storyboard Layer 3 (Foreground)
//Storyboard Sound Samples

[TimingPoints]
584,285.714285714286,4,1,0,50,1,0
584,-133.333333333333,4,1,0,50,0,0
18770,285.714285714286,4,1,0,50,1,0
18770,-133.333333333333,4,1,0,50,0,0
59436,285.714285714286,4,1,0,50,1,0
59436,-133.333333333333,4,1,0,50,0,0
173055,285.714285714286,4,1,0,50,1,0
173055,-133.333333333333,4,1,0,50,0,0

[HitObjects]
309,222,1155,5,8,0:0:0:0:
309,222,1345,1,8,0:0:0:0:
309,222,1441,1,0,0:0:0:0:
309,222,1631,1,0,0:0:0:0:
309,222,1726,1,8,0:0:0:0:
178,195,2012,1,0,0:0:0:0:
309,222,2155,1,8,0:0:0:0:
309,222,2584,1,8,0:0:0:0:
309,222,2774,1,8,0:0:0:0:
309,222,2869,1,0,0:0:0:0:
133,172,3155,1,8,0:0:0:0:
309,222,3345,1,0,0:0:0:0:
309,222,3726,1,8,0:0:0:0:
309,222,4012,1,0,0:0:0:0:
309,222,4441,1,8,0:0:0:0:
309,222,4869,1,0,0:0:0:0:
309,222,5155,1,8,0:0:0:0:
309,222,5726,1,8,0:0:0:0:
309,222,5917,1,0,0:0:0:0:
309,222,6012,1,8,0:0:0:0:
309,222,6203,1,8,0:0:0:0:
309,222,6298,1,8,0:0:0:0:
209,135,6584,1,0,0:0:0:0:
244,180,6726,1,8,0:0:0:0:
244,180,7155,1,8,0:0:0:0:
244,180,7345,1,0,0:0:0:0:
244,180,7441,1,0,0:0:0:0:
244,180,7726,1,8,0:0:0:0:
177,98,7917,1,0,0:0:0:0:
177,98,8298,1,8,0:0:0:0:
177,98,8584,1,0,0:0:0:0:
177,98,9012,1,8,0:0:0:0:
177,98,9441,1,0,0:0:0:0:
177,98,9726,1,8,0:0:0:0:
168,208,10298,1,8,0:0:0:0:
168,208,10488,1,0,0:0:0:0:
168,208,10584,1,0,0:0:0:0:
168,208,10774,1,0,0:0:0:0:
168,208,10869,1,8,0:0:0:0:
240,159,11155,1,0,0:0:0:0:
405,169,11298,1,8,0:0:0:0:
405,169,11726,1,8,0:0:0:0:
405,169,11917,1,8,0:0:0:0:
405,169,12012,1,0,0:0:0:0:
156,148,12298,1,8,0:0:0:0:
156,148,12488,1,0,0:0:0:0:
156,148,12869,1,8,0:0:0:0:
156,148,13155,1,0,0:0:0:0:
156,148,13631,1,8,0:0:0:0:
268,231,14012,1,0,0:0:0:0:
268,231,14298,1,8,0:0:0:0:
268,231,14584,1,8,0:0:0:0:
268,231,14774,1,0,0:0:0:0:
317,160,14869,1,0,0:0:0:0:
268,231,15155,1,8,0:0:0:0:
268,231,15441,1,0,0:0:0:0:
201,113,15726,1,8,0:0:0:0:
201,113,15917,1,0,0:0:0:0:
201,113,16012,1,0,0:0:0:0:
84,143,16298,1,8,0:0:0:0:
367,202,16584,1,0,0:0:0:0:
367,202,16679,1,8,0:0:0:0:
367,202,16774,1,8,0:0:0:0:
367,202,16964,1,8,0:0:0:0:
367,202,17060,1,0,0:0:0:0:
367,202,17155,1,8,0:0:0:0:
201,113,17250,1,8,0:0:0:0:
201,113,17345,1,0,0:0:0:0:
201,113,17536,1,0,0:0:0:0:
201,113,17726,1,8,0:0:0:0:
232,268,19341,1,8,0:0:0:0:
232,268,19531,1,0,0:0:0:0:
232,268,19627,1,8,0:0:0:0:
256,130,19817,1,0,0:0:0:0:
256,130,19912,1,8,0:0:0:0:
231,64,20198,1,8,0:0:0:0:
348,75,20341,1,8,0:0:0:0:
303,143,20674,1,0,0:0:0:0:
193,53,20770,1,8,0:0:0:0:
193,53,20960,1,8,0:0:0:0:
193,53,21055,1,0,0:0:0:0:
267,35,21341,1,8,0:0:0:0:
195,35,21531,1,0,0:0:0:0:
323,129,21817,1,0,0:0:0:0:
202,46,21912,1,8,0:0:0:0:
199,37,22198,1,0,0:0:0:0:
199,35,22484,1,8,0:0:0:0:
204,31,22627,1,0,0:0:0:0:
276,168,22960,1,0,0:0:0:0:
204,24,23055,1,8,0:0:0:0:
210,19,23341,1,8,0:0:0:0:
229,74,23627,1,8,0:0:0:0:
364,127,23817,1,0,0:0:0:0:
321,82,23912,1,8,0:0:0:0:
262,82,24103,1,8,0:0:0:0:
321,82,24198,1,8,0:0:0:0:
235,21,24293,1,0,0:0:0:0:
339,69,24389,1,0,0:0:0:0:
339,69,24484,1,8,0:0:0:0:
345,44,24770,1,8,0:0:0:0:
463,222,24912,1,8,0:0:0:0:
283,127,25246,1,0,0:0:0:0:
339,51,25341,1,8,0:0:0:0:
312,78,25531,1,8,0:0:0:0:
314,87,25627,1,0,0:0:0:0:
318,71,25912,1,8,0:0:0:0:
318,71,26103,1,0,0:0:0:0:
294,93,26389,1,0,0:0:0:0:
203,128,26484,1,8,0:0:0:0:
241,139,26579,1,8,0:0:0:0:
199,119,26674,1,0,0:0:0:0:
192,112,26770,1,8,0:0:0:0:
333,120,27055,1,8,0:0:0:0:
301,107,27198,1,8,0:0:0:0:
427,173,27531,1,0,0:0:0:0:
228,173,27627,1,8,0:0:0:0:
208,164,27912,1,8,0:0:0:0:
208,134,28198,1,8,0:0:0:0:
214,129,28389,1,8,0:0:0:0:
214,129,28484,1,0,0:0:0:0:
287,66,28674,1,8,0:0:0:0:
287,66,28770,1,8,0:0:0:0:
287,66,28865,1,0,0:0:0:0:
287,66,28960,1,8,0:0:0:0:
287,66,29055,1,8,0:0:0:0:
287,57,29341,1,0,0:0:0:0:
286,131,29484,1,8,0:0:0:0:
411,113,29817,1,0,0:0:0:0:
274,57,29912,1,8,0:0:0:0:
274,86,30103,1,8,0:0:0:0:
274,86,30198,1,0,0:0:0:0:
280,62,30484,1,8,0:0:0:0:
291,59,30674,1,0,0:0:0:0:
300,59,30960,1,0,0:0:0:0:
300,59,31055,1,8,0:0:0:0:
353,70,31246,1,8,0:0:0:0:
316,50,31341,1,0,0:0:0:0:
318,37,31627,1,8,0:0:0:0:
318,37,31817,1,0,0:0:0:0:
318,37,31912,1,0,0:0:0:0:
199,158,32103,1,0,0:0:0:0:
203,136,32198,1,8,0:0:0:0:
201,134,32484,1,8,0:0:0:0:
341,168,32770,1,8,0:0:0:0:
341,168,32960,1,0,0:0:0:0:
287,143,33055,1,0,0:0:0:0:
339,166,33246,1,0,0:0:0:0:
339,166,33341,1,8,0:0:0:0:
339,168,33627,1,0,0:0:0:0:
332,95,33912,1,8,0:0:0:0:
311,113,34008,1,8,0:0:0:0:
336,89,34103,1,0,0:0:0:0:
336,89,34198,1,0,0:0:0:0:
170,61,34484,1,8,0:0:0:0:
167,66,34770,1,8,0:0:0:0:
337,184,34865,1,0,0:0:0:0:
337,184,34960,1,0,0:0:0:0:
337,175,35150,1,8,0:0:0:0:
337,175,35246,1,8,0:0:0:0:
337,175,35341,1,0,0:0:0:0:
337,175,35436,1,0,0:0:0:0:
332,172,35531,1,8,0:0:0:0:
332,172,35722,1,0,0:0:0:0:
332,172,35912,1,8,0:0:0:0:
232,268,37627,1,8,0:0:0:0:
232,268,37817,1,0,0:0:0:0:
232,268,37912,1,8,0:0:0:0:
256,130,38103,1,0,0:0:0:0:
256,130,38198,1,8,0:0:0:0:
231,64,38484,1,8,0:0:0:0:
298,75,38627,1,8,0:0:0:0:
303,143,38960,1,0,0:0:0:0:
193,53,39055,1,8,0:0:0:0:
193,53,39246,1,8,0:0:0:0:
193,53,39341,1,0,0:0:0:0:
267,35,39627,1,8,0:0:0:0:
195,35,39817,1,0,0:0:0:0:
323,129,40103,1,0,0:0:0:0:
202,46,40198,1,8,0:0:0:0:
199,37,40484,1,0,0:0:0:0:
199,35,40770,1,8,0:0:0:0:
339,155,40912,1,0,0:0:0:0:
276,168,41246,1,0,0:0:0:0:
204,24,41341,1,8,0:0:0:0:
210,19,41627,1,0,0:0:0:0:
154,120,41912,1,8,0:0:0:0:
265,84,42103,5,0,0:0:0:0:
321,82,42198,1,8,0:0:0:0:
262,82,42389,1,8,0:0:0:0:
321,82,42484,1,8,0:0:0:0:
339,69,42674,1,0,0:0:0:0:
339,69,42770,1,8,0:0:0:0:
345,44,43055,1,8,0:0:0:0:
138,82,43198,1,8,0:0:0:0:
283,127,43531,1,0,0:0:0:0:
339,51,43627,1,8,0:0:0:0:
312,78,43817,1,8,0:0:0:0:
314,87,43912,1,0,0:0:0:0:
318,71,44198,1,8,0:0:0:0:
318,71,44389,1,0,0:0:0:0:
294,93,44674,1,0,0:0:0:0:
203,128,44770,1,8,0:0:0:0:
241,139,44865,1,8,0:0:0:0:
199,119,44960,1,0,0:0:0:0:
192,112,45055,1,8,0:0:0:0:
226,44,45341,1,8,0:0:0:0:
226,111,45484,1,8,0:0:0:0:
427,173,45817,1,0,0:0:0:0:
228,173,45912,1,8,0:0:0:0:
208,164,46198,1,8,0:0:0:0:
251,128,46484,1,8,0:0:0:0:
214,129,46674,1,8,0:0:0:0:
214,129,46770,1,0,0:0:0:0:
287,66,46960,1,8,0:0:0:0:
287,66,47055,1,8,0:0:0:0:
287,66,47150,1,0,0:0:0:0:
287,66,47246,1,8,0:0:0:0:
287,66,47341,1,0,0:0:0:0:
287,57,47627,1,8,0:0:0:0:
212,44,47770,5,8,0:0:0:0:
411,113,48103,1,0,0:0:0:0:
274,57,48198,1,8,0:0:0:0:
274,86,48389,1,8,0:0:0:0:
274,86,48484,1,0,0:0:0:0:
280,62,48770,1,8,0:0:0:0:
291,59,48960,1,0,0:0:0:0:
300,59,49246,1,0,0:0:0:0:
300,59,49341,1,8,0:0:0:0:
316,50,49627,1,0,0:0:0:0:
318,37,49912,1,8,0:0:0:0:
176,102,50055,1,0,0:0:0:0:
199,158,50389,1,0,0:0:0:0:
203,136,50484,1,8,0:0:0:0:
201,134,50770,1,0,0:0:0:0:
341,168,51055,1,8,0:0:0:0:
341,168,51246,1,8,0:0:0:0:
183,122,51341,1,0,0:0:0:0:
339,166,51531,1,0,0:0:0:0:
339,166,51627,1,8,0:0:0:0:
176,103,51722,1,8,0:0:0:0:
176,103,51817,1,8,0:0:0:0:
339,168,51912,1,0,0:0:0:0:
113,170,52198,1,8,0:0:0:0:
119,161,52389,1,0,0:0:0:0:
117,164,52484,1,0,0:0:0:0:
170,61,52770,1,8,0:0:0:0:
167,66,53055,1,8,0:0:0:0:
337,184,53150,1,8,0:0:0:0:
337,184,53246,1,0,0:0:0:0:
337,175,53436,1,8,0:0:0:0:
337,175,53531,1,0,0:0:0:0:
337,175,53627,1,8,0:0:0:0:
337,175,53722,1,8,0:0:0:0:
332,172,53817,1,0,0:0:0:0:
332,172,54008,1,0,0:0:0:0:
332,172,54198,1,12,0:0:0:0:
264,149,54770,1,8,0:0:0:0:
370,217,54960,1,0,0:0:0:0:
370,217,55055,1,0,0:0:0:0:
370,217,55150,1,0,0:0:0:0:
359,84,55246,1,8,0:0:0:0:
359,84,55341,1,8,0:0:0:0:
425,199,55627,1,0,0:0:0:0:
413,228,55912,1,0,0:0:0:0:
427,59,56198,1,0,0:0:0:0:
414,57,56341,1,8,0:0:0:0:
414,57,56436,1,0,0:0:0:0:
406,57,56531,1,8,0:0:0:0:
330,107,56722,1,8,0:0:0:0:
330,107,56817,1,8,0:0:0:0:
330,107,56912,1,0,0:0:0:0:
330,107,57008,1,8,0:0:0:0:
330,107,57103,1,8,0:0:0:0:
210,109,57293,1,8,0:0:0:0:
206,116,57389,1,0,0:0:0:0:
226,154,57484,1,0,0:0:0:0:
232,154,57579,1,8,0:0:0:0:
286,127,57674,1,8,0:0:0:0:
286,127,57865,1,8,0:0:0:0:
291,122,57960,1,8,0:0:0:0:
196,102,58055,1,8,0:0:0:0:
196,102,58150,1,8,0:0:0:0:
196,102,58246,1,8,0:0:0:0:
201,95,58436,1,0,0:0:0:0:
201,95,58531,1,0,0:0:0:0:
201,95,58627,1,0,0:0:0:0:
255,168,58722,1,0,0:0:0:0:
255,168,58817,1,0,0:0:0:0:
332,231,58912,1,8,0:0:0:0:
301,202,59103,1,8,0:0:0:0:
301,202,59198,1,8,0:0:0:0:
301,202,59293,1,0,0:0:0:0:
301,202,59389,1,0,0:0:0:0:
298,187,59436,1,8,0:0:0:0:
253,144,59721,1,8,0:0:0:0:
400,93,60007,1,0,0:0:0:0:
253,127,60197,1,0,0:0:0:0:
253,144,60293,1,8,0:0:0:0:
400,93,60578,1,8,0:0:0:0:
280,73,60769,1,0,0:0:0:0:
251,139,60864,1,8,0:0:0:0:
272,131,61007,1,8,0:0:0:0:
400,93,61340,1,0,0:0:0:0:
400,93,61436,1,8,0:0:0:0:
275,73,61721,1,8,0:0:0:0:
273,71,62007,1,8,0:0:0:0:
289,69,62102,1,8,0:0:0:0:
282,145,62197,1,8,0:0:0:0:
268,69,62293,1,0,0:0:0:0:
268,69,62483,1,0,0:0:0:0:
268,69,62578,1,8,0:0:0:0:
280,88,62864,1,8,0:0:0:0:
280,83,63150,1,8,0:0:0:0:
321,37,63293,1,0,0:0:0:0:
280,83,63626,1,0,0:0:0:0:
280,83,63721,1,8,0:0:0:0:
280,83,64007,1,0,0:0:0:0:
280,83,64293,1,8,0:0:0:0:
218,93,64388,1,8,0:0:0:0:
218,93,64483,1,8,0:0:0:0:
280,83,64578,1,0,0:0:0:0:
191,322,64769,1,0,0:0:0:0:
280,83,64864,1,8,0:0:0:0:
229,81,64959,1,8,0:0:0:0:
262,32,65055,1,0,0:0:0:0:
280,85,65150,1,8,0:0:0:0:
270,34,65436,1,8,0:0:0:0:
132,172,65531,1,0,0:0:0:0:
132,172,65626,1,0,0:0:0:0:
260,34,65721,1,0,0:0:0:0:
282,63,65864,1,8,0:0:0:0:
185,27,66197,1,8,0:0:0:0:
456,109,66293,1,0,0:0:0:0:
258,40,66578,1,8,0:0:0:0:
455,80,66721,1,0,0:0:0:0:
402,153,67055,1,0,0:0:0:0:
263,35,67150,1,8,0:0:0:0:
251,42,67436,1,0,0:0:0:0:
195,177,67721,1,8,0:0:0:0:
216,75,67912,1,8,0:0:0:0:
195,175,68007,1,0,0:0:0:0:
313,186,68197,1,0,0:0:0:0:
195,175,68293,1,8,0:0:0:0:
246,114,68578,1,0,0:0:0:0:
248,122,68864,1,8,0:0:0:0:
465,122,69007,1,8,0:0:0:0:
320,182,69150,1,0,0:0:0:0:
320,182,69340,1,0,0:0:0:0:
215,119,69436,1,8,0:0:0:0:
318,180,69721,1,0,0:0:0:0:
212,121,70007,1,8,0:0:0:0:
238,66,70150,1,8,0:0:0:0:
318,180,70293,1,0,0:0:0:0:
318,180,70483,1,0,0:0:0:0:
214,124,70578,1,8,0:0:0:0:
318,180,70864,1,0,0:0:0:0:
214,124,71150,1,8,0:0:0:0:
231,102,71293,1,0,0:0:0:0:
318,180,71436,1,0,0:0:0:0:
318,180,71626,1,0,0:0:0:0:
214,124,71721,1,8,0:0:0:0:
318,180,72007,1,0,0:0:0:0:
214,124,72293,1,8,0:0:0:0:
231,95,72483,1,8,0:0:0:0:
318,180,72578,1,0,0:0:0:0:
318,180,72769,1,0,0:0:0:0:
214,124,72864,1,8,0:0:0:0:
318,180,73150,1,0,0:0:0:0:
214,124,73436,1,8,0:0:0:0:
318,177,73721,1,0,0:0:0:0:
188,172,73816,1,0,0:0:0:0:
318,177,73912,1,0,0:0:0:0:
214,124,74007,1,8,0:0:0:0:
318,177,74293,1,0,0:0:0:0:
157,178,74388,1,8,0:0:0:0:
277,42,74483,1,8,0:0:0:0:
214,124,74578,1,8,0:0:0:0:
318,177,74864,1,8,0:0:0:0:
361,122,74959,1,8,0:0:0:0:
318,177,75055,1,8,0:0:0:0:
214,124,75150,1,0,0:0:0:0:
318,177,75436,1,8,0:0:0:0:
214,124,75721,1,8,0:0:0:0:
318,177,76007,1,0,0:0:0:0:
318,177,76197,1,0,0:0:0:0:
214,124,76293,1,8,0:0:0:0:
318,177,76578,1,8,0:0:0:0:
214,124,76864,1,8,0:0:0:0:
252,78,77055,1,8,0:0:0:0:
318,177,77150,1,8,0:0:0:0:
318,177,77340,1,0,0:0:0:0:
214,124,77436,1,8,0:0:0:0:
318,177,77721,1,0,0:0:0:0:
214,124,78007,1,8,0:0:0:0:
318,177,78293,1,0,0:0:0:0:
274,80,78388,1,0,0:0:0:0:
318,177,78483,1,0,0:0:0:0:
214,124,78578,1,8,0:0:0:0:
191,322,78769,1,8,0:0:0:0:
246,71,78864,1,0,0:0:0:0:
214,124,79150,1,8,0:0:0:0:
251,71,79340,1,0,0:0:0:0:
251,71,79436,1,0,0:0:0:0:
251,75,79626,1,0,0:0:0:0:
214,124,79721,1,8,0:0:0:0:
191,322,79912,1,8,0:0:0:0:
251,75,80007,1,0,0:0:0:0:
214,124,80293,1,8,0:0:0:0:
298,69,80388,1,8,0:0:0:0:
251,75,80483,1,0,0:0:0:0:
251,75,80578,1,0,0:0:0:0:
251,75,80769,1,0,0:0:0:0:
214,124,80864,1,8,0:0:0:0:
191,322,81055,1,8,0:0:0:0:
249,73,81150,1,0,0:0:0:0:
214,124,81436,1,8,0:0:0:0:
249,73,81626,1,0,0:0:0:0:
249,73,81721,1,0,0:0:0:0:
241,73,81912,1,0,0:0:0:0:
214,124,82007,1,8,0:0:0:0:
191,322,82102,1,8,0:0:0:0:
191,322,82197,1,8,0:0:0:0:
241,73,82293,1,0,0:0:0:0:
214,124,82578,1,8,0:0:0:0:
220,75,82769,1,0,0:0:0:0:
220,75,82864,1,0,0:0:0:0:
220,75,83055,1,0,0:0:0:0:
214,124,83150,1,8,0:0:0:0:
217,78,83436,1,0,0:0:0:0:
431,110,83471,1,0,0:0:0:0:
214,124,83721,1,8,0:0:0:0:
375,163,83816,1,8,0:0:0:0:
217,78,83912,1,0,0:0:0:0:
217,78,84007,1,0,0:0:0:0:
390,131,84102,1,8,0:0:0:0:
217,78,84197,1,0,0:0:0:0:
214,124,84293,1,8,0:0:0:0:
217,78,84578,1,12,0:0:0:0:
214,124,84864,1,8,0:0:0:0:
217,78,85055,1,0,0:0:0:0:
217,78,85150,1,0,0:0:0:0:
191,322,85245,1,8,0:0:0:0:
217,78,85340,1,0,0:0:0:0:
214,124,85436,1,8,0:0:0:0:
191,322,85626,1,8,0:0:0:0:
217,78,85721,1,0,0:0:0:0:
214,124,86007,1,8,0:0:0:0:
217,78,86197,1,0,0:0:0:0:
217,78,86293,1,0,0:0:0:0:
141,150,86483,1,0,0:0:0:0:
214,124,86578,1,8,0:0:0:0:
306,56,86674,1,8,0:0:0:0:
309,42,86769,1,0,0:0:0:0:
217,78,86864,1,0,0:0:0:0:
214,124,87150,1,8,0:0:0:0:
242,59,87245,1,8,0:0:0:0:
217,78,87340,1,0,0:0:0:0:
217,78,87436,1,8,0:0:0:0:
217,78,87626,1,0,0:0:0:0:
214,124,87721,1,8,0:0:0:0:
191,322,87912,1,8,0:0:0:0:
217,78,88007,1,0,0:0:0:0:
214,124,88293,1,8,0:0:0:0:
217,75,88483,1,0,0:0:0:0:
217,75,88578,1,0,0:0:0:0:
141,150,88769,1,0,0:0:0:0:
214,124,88864,1,8,0:0:0:0:
325,88,88959,5,0,0:0:0:0:
330,88,89055,1,0,0:0:0:0:
219,78,89150,1,0,0:0:0:0:
214,124,89436,1,8,0:0:0:0:
289,91,89531,1,0,0:0:0:0:
219,78,89626,1,0,0:0:0:0:
219,78,89721,1,0,0:0:0:0:
219,78,89912,1,0,0:0:0:0:
214,124,90007,1,8,0:0:0:0:
191,322,90197,1,8,0:0:0:0:
219,78,90293,1,0,0:0:0:0:
214,124,90578,1,8,0:0:0:0:
219,78,90769,1,0,0:0:0:0:
219,78,90864,1,0,0:0:0:0:
219,78,91055,1,0,0:0:0:0:
214,124,91150,1,8,0:0:0:0:
376,78,91245,5,8,0:0:0:0:
376,78,91340,1,0,0:0:0:0:
219,78,91436,1,0,0:0:0:0:
217,122,91721,1,8,0:0:0:0:
246,78,91816,1,8,0:0:0:0:
219,78,91912,1,0,0:0:0:0:
219,78,92007,1,0,0:0:0:0:
219,78,92197,1,0,0:0:0:0:
217,122,92293,1,8,0:0:0:0:
191,322,92483,1,8,0:0:0:0:
219,78,92578,1,0,0:0:0:0:
217,122,92864,1,8,0:0:0:0:
219,78,93055,1,0,0:0:0:0:
219,78,93150,1,0,0:0:0:0:
219,78,93340,1,0,0:0:0:0:
219,119,93436,1,8,0:0:0:0:
188,107,93531,1,8,0:0:0:0:
217,146,93626,1,0,0:0:0:0:
219,78,93721,1,0,0:0:0:0:
219,119,94007,1,8,0:0:0:0:
200,88,94102,1,8,0:0:0:0:
200,88,94197,1,8,0:0:0:0:
219,78,94293,1,0,0:0:0:0:
188,116,94483,1,8,0:0:0:0:
219,119,94578,1,8,0:0:0:0:
258,170,94674,1,0,0:0:0:0:
258,170,94769,1,0,0:0:0:0:
325,126,94864,1,8,0:0:0:0:
460,107,94900,1,8,0:0:0:0:
219,119,95150,1,8,0:0:0:0:
262,144,95340,1,8,0:0:0:0:
330,126,95436,1,0,0:0:0:0:
330,126,95626,1,0,0:0:0:0:
330,126,95721,1,8,0:0:0:0:
222,127,96007,1,0,0:0:0:0:
485,87,96150,1,0,0:0:0:0:
434,119,96293,1,8,0:0:0:0:
381,163,96436,1,8,0:0:0:0:
381,163,96578,1,0,0:0:0:0:
340,144,96721,1,0,0:0:0:0:
347,146,96864,1,8,0:0:0:0:
354,148,97007,1,8,0:0:0:0:
354,148,97150,1,8,0:0:0:0:
253,119,97436,1,8,0:0:0:0:
267,139,97578,1,0,0:0:0:0:
287,119,97721,1,0,0:0:0:0:
352,127,98007,1,8,0:0:0:0:
311,98,98293,1,0,0:0:0:0:
311,98,98436,1,0,0:0:0:0:
311,98,98578,1,8,0:0:0:0:
311,98,98721,1,8,0:0:0:0:
311,98,98864,1,0,0:0:0:0:
311,98,99007,1,0,0:0:0:0:
115,151,99150,1,8,0:0:0:0:
173,102,99293,1,0,0:0:0:0:
173,102,99436,1,8,0:0:0:0:
379,204,99721,1,8,0:0:0:0:
379,204,99864,1,0,0:0:0:0:
318,93,100007,1,0,0:0:0:0:
338,95,100293,1,8,0:0:0:0:
345,151,100578,1,0,0:0:0:0:
345,151,100721,1,8,0:0:0:0:
345,151,100864,1,8,0:0:0:0:
345,151,101007,1,8,0:0:0:0:
345,151,101150,1,0,0:0:0:0:
345,151,101293,1,8,0:0:0:0:
345,151,101436,1,8,0:0:0:0:
345,151,101578,1,8,0:0:0:0:
347,146,101864,1,8,0:0:0:0:
389,146,102150,1,8,0:0:0:0:
389,146,102293,1,0,0:0:0:0:
389,146,102436,1,0,0:0:0:0:
238,97,102578,1,8,0:0:0:0:
325,168,102864,1,0,0:0:0:0:
376,184,103007,1,0,0:0:0:0:
376,184,103150,1,8,0:0:0:0:
376,184,103293,1,0,0:0:0:0:
376,184,103436,1,8,0:0:0:0:
376,184,103578,1,8,0:0:0:0:
376,184,103721,1,0,0:0:0:0:
376,184,103864,1,8,0:0:0:0:
376,184,104007,1,0,0:0:0:0:
376,180,104293,1,8,0:0:0:0:
376,180,104436,1,0,0:0:0:0:
376,180,104721,1,0,0:0:0:0:
376,180,104864,1,8,0:0:0:0:
207,102,105150,1,0,0:0:0:0:
384,141,105293,1,8,0:0:0:0:
384,141,105436,1,8,0:0:0:0:
384,141,105578,1,8,0:0:0:0:
381,133,105721,1,0,0:0:0:0:
381,133,105864,1,8,0:0:0:0:
381,133,106007,1,0,0:0:0:0:
381,133,106150,1,0,0:0:0:0:
391,127,106293,1,8,0:0:0:0:
316,88,106578,1,8,0:0:0:0:
316,88,106721,1,0,0:0:0:0:
152,88,106864,1,0,0:0:0:0:
306,85,107150,1,8,0:0:0:0:
292,80,107436,1,0,0:0:0:0:
292,80,107578,1,0,0:0:0:0:
292,80,107721,1,8,0:0:0:0:
292,80,107864,1,8,0:0:0:0:
292,80,108007,1,0,0:0:0:0:
292,80,108150,1,8,0:0:0:0:
287,75,108293,1,8,0:0:0:0:
287,75,108436,1,8,0:0:0:0:
287,75,108578,1,0,0:0:0:0:
306,106,108864,1,8,0:0:0:0:
306,106,109007,1,0,0:0:0:0:
176,100,109150,1,0,0:0:0:0:
306,106,109436,1,8,0:0:0:0:
176,100,109721,1,0,0:0:0:0:
176,100,109864,1,8,0:0:0:0:
176,100,110007,1,0,0:0:0:0:
176,100,110150,1,0,0:0:0:0:
176,100,110293,1,8,0:0:0:0:
176,100,110436,1,8,0:0:0:0:
176,100,110578,1,0,0:0:0:0:
176,100,110721,1,8,0:0:0:0:
315,122,111007,1,8,0:0:0:0:
323,119,111293,1,8,0:0:0:0:
323,119,111436,1,8,0:0:0:0:
323,119,111578,1,0,0:0:0:0:
229,61,111721,1,8,0:0:0:0:
222,59,112007,1,0,0:0:0:0:
222,59,112150,1,0,0:0:0:0:
222,59,112293,1,8,0:0:0:0:
222,59,112436,1,8,0:0:0:0:
222,59,112578,1,0,0:0:0:0:
229,46,112721,1,8,0:0:0:0:
231,61,112864,1,0,0:0:0:0:
231,61,113007,1,0,0:0:0:0:
236,61,113150,1,8,0:0:0:0:
233,85,113436,1,8,0:0:0:0:
233,85,113578,1,0,0:0:0:0:
241,85,113864,1,0,0:0:0:0:
241,85,114007,1,8,0:0:0:0:
324,110,114293,1,8,0:0:0:0:
361,129,114721,1,8,0:0:0:0:
361,129,115007,1,0,0:0:0:0:
324,110,115150,1,8,0:0:0:0:
209,160,115578,1,8,0:0:0:0:
211,158,115864,1,8,0:0:0:0:
230,158,116007,1,8,0:0:0:0:
238,153,116293,1,8,0:0:0:0:
296,188,116578,1,12,0:0:0:0:
251,145,116863,1,8,0:0:0:0:
398,94,117149,1,0,0:0:0:0:
251,128,117339,1,0,0:0:0:0:
251,145,117435,1,8,0:0:0:0:
398,94,117720,1,8,0:0:0:0:
278,74,117911,1,8,0:0:0:0:
249,140,118006,1,0,0:0:0:0:
270,132,118149,1,8,0:0:0:0:
398,94,118482,1,0,0:0:0:0:
398,94,118578,1,8,0:0:0:0:
273,74,118863,1,8,0:0:0:0:
271,72,119149,1,8,0:0:0:0:
287,70,119244,1,8,0:0:0:0:
280,146,119339,1,0,0:0:0:0:
266,70,119435,1,0,0:0:0:0:
266,70,119625,1,0,0:0:0:0:
266,70,119720,1,8,0:0:0:0:
278,89,120006,1,8,0:0:0:0:
278,84,120292,1,8,0:0:0:0:
319,38,120435,1,0,0:0:0:0:
278,84,120768,1,0,0:0:0:0:
278,84,120863,1,8,0:0:0:0:
278,84,121149,1,0,0:0:0:0:
278,84,121436,1,0,0:0:0:0:
216,94,121530,1,8,0:0:0:0:
216,94,121625,1,8,0:0:0:0:
278,84,121720,1,0,0:0:0:0:
164,88,121912,1,8,0:0:0:0:
278,84,122006,1,8,0:0:0:0:
227,82,122101,1,0,0:0:0:0:
260,33,122197,1,0,0:0:0:0:
278,86,122292,1,8,0:0:0:0:
268,35,122578,1,8,0:0:0:0:
297,330,122674,1,8,0:0:0:0:
297,330,122769,1,8,0:0:0:0:
258,35,122863,1,0,0:0:0:0:
280,64,123006,1,8,0:0:0:0:
454,110,123340,1,8,0:0:0:0:
192,94,123436,1,0,0:0:0:0:
256,41,123720,1,8,0:0:0:0:
453,81,123863,1,0,0:0:0:0:
400,154,124197,1,0,0:0:0:0:
261,36,124292,1,8,0:0:0:0:
249,43,124578,1,0,0:0:0:0:
193,178,124863,1,8,0:0:0:0:
214,76,125054,1,8,0:0:0:0:
193,176,125149,1,8,0:0:0:0:
311,187,125339,1,0,0:0:0:0:
193,176,125435,1,8,0:0:0:0:
244,115,125720,1,0,0:0:0:0:
246,123,126006,1,8,0:0:0:0:
463,123,126149,1,8,0:0:0:0:
318,183,126292,1,8,0:0:0:0:
318,183,126482,1,0,0:0:0:0:
213,120,126578,1,8,0:0:0:0:
316,181,126863,1,0,0:0:0:0:
210,122,127149,1,8,0:0:0:0:
236,67,127292,1,8,0:0:0:0:
316,181,127435,1,8,0:0:0:0:
316,181,127625,1,0,0:0:0:0:
212,125,127720,1,8,0:0:0:0:
316,181,128006,1,0,0:0:0:0:
212,125,128292,1,8,0:0:0:0:
229,103,128435,1,0,0:0:0:0:
316,181,128578,1,0,0:0:0:0:
316,181,128768,1,0,0:0:0:0:
212,125,128863,1,8,0:0:0:0:
316,181,129149,1,0,0:0:0:0:
212,125,129435,1,8,0:0:0:0:
229,96,129625,1,8,0:0:0:0:
316,181,129720,1,0,0:0:0:0:
316,181,129911,1,0,0:0:0:0:
212,125,130006,1,8,0:0:0:0:
316,181,130292,1,0,0:0:0:0:
212,125,130578,1,8,0:0:0:0:
316,178,130863,1,0,0:0:0:0:
186,173,130958,1,0,0:0:0:0:
316,178,131054,1,8,0:0:0:0:
212,125,131149,1,8,0:0:0:0:
316,178,131435,1,0,0:0:0:0:
190,176,131531,1,8,0:0:0:0:
275,43,131625,1,8,0:0:0:0:
212,125,131720,1,8,0:0:0:0:
316,178,132006,1,8,0:0:0:0:
359,123,132101,1,0,0:0:0:0:
316,178,132197,1,8,0:0:0:0:
212,125,132292,1,8,0:0:0:0:
316,178,132578,1,8,0:0:0:0:
212,125,132863,1,8,0:0:0:0:
316,178,133149,1,0,0:0:0:0:
316,178,133339,1,0,0:0:0:0:
212,125,133435,1,8,0:0:0:0:
316,178,133720,1,8,0:0:0:0:
212,125,134006,1,8,0:0:0:0:
250,79,134197,1,8,0:0:0:0:
316,178,134292,1,8,0:0:0:0:
316,178,134482,1,0,0:0:0:0:
212,125,134578,1,8,0:0:0:0:
316,178,134863,1,0,0:0:0:0:
212,125,135149,1,8,0:0:0:0:
180,147,135340,5,0,0:0:0:0:
316,178,135436,1,8,0:0:0:0:
272,81,135530,1,0,0:0:0:0:
316,178,135625,1,0,0:0:0:0:
212,125,135720,1,8,0:0:0:0:
244,72,136006,1,0,0:0:0:0:
212,125,136292,1,8,0:0:0:0:
249,72,136482,1,0,0:0:0:0:
249,72,136578,1,0,0:0:0:0:
249,76,136768,1,0,0:0:0:0:
212,125,136863,1,8,0:0:0:0:
249,76,137149,1,0,0:0:0:0:
212,125,137435,1,8,0:0:0:0:
296,70,137530,1,8,0:0:0:0:
249,76,137626,1,8,0:0:0:0:
249,76,137720,1,0,0:0:0:0:
249,76,137911,1,0,0:0:0:0:
212,125,138006,1,8,0:0:0:0:
247,74,138292,1,0,0:0:0:0:
212,125,138578,1,8,0:0:0:0:
247,74,138768,1,0,0:0:0:0:
247,74,138863,1,0,0:0:0:0:
239,74,139054,1,0,0:0:0:0:
212,125,139149,1,8,0:0:0:0:
239,74,139435,1,0,0:0:0:0:
212,125,139720,1,8,0:0:0:0:
218,76,140006,1,0,0:0:0:0:
267,57,140101,1,8,0:0:0:0:
218,76,140197,1,8,0:0:0:0:
212,125,140292,1,8,0:0:0:0:
215,79,140578,1,0,0:0:0:0:
429,111,140613,1,0,0:0:0:0:
212,125,140863,1,8,0:0:0:0:
373,164,140958,1,8,0:0:0:0:
215,79,141054,1,0,0:0:0:0:
215,79,141149,1,0,0:0:0:0:
388,132,141244,1,8,0:0:0:0:
215,79,141339,1,0,0:0:0:0:
212,125,141435,1,8,0:0:0:0:
215,79,141720,1,12,0:0:0:0:
212,125,142006,1,8,0:0:0:0:
215,79,142197,1,8,0:0:0:0:
215,79,142292,1,0,0:0:0:0:
215,79,142482,1,0,0:0:0:0:
212,125,142578,1,8,0:0:0:0:
215,79,142863,1,0,0:0:0:0:
212,125,143149,1,8,0:0:0:0:
215,79,143339,1,0,0:0:0:0:
215,79,143435,1,0,0:0:0:0:
215,79,143625,1,0,0:0:0:0:
212,125,143720,1,8,0:0:0:0:
304,57,143816,1,8,0:0:0:0:
307,43,143912,1,0,0:0:0:0:
215,79,144006,1,0,0:0:0:0:
212,125,144292,1,8,0:0:0:0:
240,60,144388,1,0,0:0:0:0:
215,79,144482,1,0,0:0:0:0:
215,79,144578,1,8,0:0:0:0:
215,79,144768,1,0,0:0:0:0:
212,125,144863,1,8,0:0:0:0:
215,79,145149,1,0,0:0:0:0:
212,125,145435,1,8,0:0:0:0:
215,76,145625,1,0,0:0:0:0:
215,76,145720,1,0,0:0:0:0:
215,76,145911,1,0,0:0:0:0:
212,125,146006,1,8,0:0:0:0:
323,89,146101,5,0,0:0:0:0:
328,89,146197,1,0,0:0:0:0:
217,79,146292,1,0,0:0:0:0:
212,125,146578,1,0,0:0:0:0:
287,92,146673,1,8,0:0:0:0:
217,79,146768,1,8,0:0:0:0:
217,79,146863,1,0,0:0:0:0:
217,79,147054,1,0,0:0:0:0:
212,125,147149,1,8,0:0:0:0:
217,79,147435,1,0,0:0:0:0:
212,125,147720,1,8,0:0:0:0:
217,79,147911,1,0,0:0:0:0:
217,79,148006,1,0,0:0:0:0:
217,79,148197,1,0,0:0:0:0:
212,125,148292,1,8,0:0:0:0:
374,79,148387,5,8,0:0:0:0:
374,79,148482,1,0,0:0:0:0:
217,79,148578,1,0,0:0:0:0:
215,123,148863,1,8,0:0:0:0:
244,79,148958,1,0,0:0:0:0:
217,79,149054,1,0,0:0:0:0:
217,79,149150,1,8,0:0:0:0:
217,79,149339,1,0,0:0:0:0:
215,123,149435,1,8,0:0:0:0:
217,79,149720,1,0,0:0:0:0:
215,123,150006,1,8,0:0:0:0:
217,79,150197,1,0,0:0:0:0:
217,79,150292,1,0,0:0:0:0:
217,79,150482,1,0,0:0:0:0:
217,120,150578,1,8,0:0:0:0:
186,108,150673,1,8,0:0:0:0:
215,147,150768,1,8,0:0:0:0:
217,79,150863,1,0,0:0:0:0:
217,120,151149,1,8,0:0:0:0:
198,89,151244,1,8,0:0:0:0:
198,89,151339,1,8,0:0:0:0:
217,79,151435,1,8,0:0:0:0:
186,117,151625,1,8,0:0:0:0:
217,120,151720,1,8,0:0:0:0:
256,171,151816,1,8,0:0:0:0:
256,171,151911,1,0,0:0:0:0:
323,127,152006,1,8,0:0:0:0:
458,108,152042,1,8,0:0:0:0:
217,120,152292,1,8,0:0:0:0:
260,145,152482,1,8,0:0:0:0:
328,127,152578,1,0,0:0:0:0:
328,127,152768,1,0,0:0:0:0:
328,127,152863,1,8,0:0:0:0:
220,128,153149,1,0,0:0:0:0:
483,88,153292,1,0,0:0:0:0:
432,120,153435,1,8,0:0:0:0:
379,164,153578,1,8,0:0:0:0:
379,164,153720,1,0,0:0:0:0:
338,145,153863,1,8,0:0:0:0:
345,147,154006,1,8,0:0:0:0:
352,149,154149,1,8,0:0:0:0:
352,149,154293,1,8,0:0:0:0:
251,120,154578,1,8,0:0:0:0:
265,140,154720,1,0,0:0:0:0:
285,120,154863,1,0,0:0:0:0:
350,128,155149,1,8,0:0:0:0:
309,99,155435,1,0,0:0:0:0:
309,99,155578,1,8,0:0:0:0:
309,99,155720,1,8,0:0:0:0:
309,99,155863,1,8,0:0:0:0:
309,99,156006,1,0,0:0:0:0:
309,99,156149,1,0,0:0:0:0:
113,152,156292,1,8,0:0:0:0:
171,103,156435,1,0,0:0:0:0:
171,103,156578,1,8,0:0:0:0:
377,205,156863,1,8,0:0:0:0:
377,205,157006,1,0,0:0:0:0:
316,94,157149,1,0,0:0:0:0:
336,96,157435,1,8,0:0:0:0:
343,152,157720,1,0,0:0:0:0:
343,152,157863,1,0,0:0:0:0:
343,152,158006,1,8,0:0:0:0:
343,152,158149,1,8,0:0:0:0:
343,152,158292,1,0,0:0:0:0:
343,152,158435,1,0,0:0:0:0:
343,152,158578,1,8,0:0:0:0:
343,152,158720,1,8,0:0:0:0:
345,147,159006,1,8,0:0:0:0:
387,147,159292,1,8,0:0:0:0:
387,147,159435,1,8,0:0:0:0:
387,147,159578,1,0,0:0:0:0:
236,98,159720,1,8,0:0:0:0:
323,169,160006,1,0,0:0:0:0:
374,185,160149,1,0,0:0:0:0:
374,185,160292,1,8,0:0:0:0:
374,185,160435,1,0,0:0:0:0:
374,185,160578,1,8,0:0:0:0:
374,185,160720,1,8,0:0:0:0:
374,185,160863,1,0,0:0:0:0:
374,185,161006,1,8,0:0:0:0:
374,185,161149,1,0,0:0:0:0:
374,181,161435,1,8,0:0:0:0:
374,181,161578,1,0,0:0:0:0:
374,181,161863,1,0,0:0:0:0:
374,181,162006,1,8,0:0:0:0:
205,103,162292,1,0,0:0:0:0:
382,142,162435,1,0,0:0:0:0:
382,142,162578,1,8,0:0:0:0:
382,142,162720,1,0,0:0:0:0:
379,134,162863,1,0,0:0:0:0:
379,134,163006,1,0,0:0:0:0:
379,134,163149,1,8,0:0:0:0:
379,134,163292,1,0,0:0:0:0:
389,128,163435,1,8,0:0:0:0:
314,89,163720,1,8,0:0:0:0:
314,89,163863,1,0,0:0:0:0:
150,89,164006,1,0,0:0:0:0:
304,86,164292,1,8,0:0:0:0:
290,81,164578,1,0,0:0:0:0:
290,81,164720,1,8,0:0:0:0:
290,81,164863,1,8,0:0:0:0:
290,81,165006,1,8,0:0:0:0:
290,81,165149,1,0,0:0:0:0:
290,81,165292,1,0,0:0:0:0:
285,76,165435,1,8,0:0:0:0:
285,76,165578,1,8,0:0:0:0:
285,76,165720,1,0,0:0:0:0:
304,107,166006,1,8,0:0:0:0:
304,107,166149,1,0,0:0:0:0:
174,101,166292,1,0,0:0:0:0:
304,107,166578,1,8,0:0:0:0:
174,101,166863,1,0,0:0:0:0:
174,101,167006,1,8,0:0:0:0:
174,101,167149,1,0,0:0:0:0:
174,101,167292,1,0,0:0:0:0:
174,101,167435,1,8,0:0:0:0:
174,101,167578,1,8,0:0:0:0:
174,101,167720,1,0,0:0:0:0:
174,101,167863,1,8,0:0:0:0:
313,123,168149,1,8,0:0:0:0:
321,120,168435,1,8,0:0:0:0:
321,120,168578,1,0,0:0:0:0:
321,120,168720,1,0,0:0:0:0:
227,62,168863,1,8,0:0:0:0:
220,60,169149,1,0,0:0:0:0:
220,60,169292,1,0,0:0:0:0:
220,60,169436,1,8,0:0:0:0:
220,60,169578,1,0,0:0:0:0:
220,60,169720,1,0,0:0:0:0:
227,47,169863,1,0,0:0:0:0:
229,62,170007,1,8,0:0:0:0:
229,62,170149,1,0,0:0:0:0:
234,62,170292,1,8,0:0:0:0:
231,86,170578,1,8,0:0:0:0:
231,86,170720,1,0,0:0:0:0:
239,86,171006,1,0,0:0:0:0:
239,86,171149,1,8,0:0:0:0:
322,111,171435,1,8,0:0:0:0:
359,130,171863,1,8,0:0:0:0:
359,130,172149,1,0,0:0:0:0:
322,111,172292,1,8,0:0:0:0:
207,161,172720,1,8,0:0:0:0:
209,159,173006,1,8,0:0:0:0:
228,159,173149,1,8,0:0:0:0:
236,154,173435,1,8,0:0:0:0:
232,268,173626,1,8,0:0:0:0:
232,268,173816,1,0,0:0:0:0:
232,268,173912,1,8,0:0:0:0:
256,130,174102,1,0,0:0:0:0:
256,130,174197,1,8,0:0:0:0:
231,64,174483,1,8,0:0:0:0:
348,75,174626,1,8,0:0:0:0:
303,143,174959,1,0,0:0:0:0:
193,53,175055,1,8,0:0:0:0:
193,53,175245,1,8,0:0:0:0:
193,53,175340,1,0,0:0:0:0:
267,35,175626,1,8,0:0:0:0:
332,267,175721,1,0,0:0:0:0:
195,35,175816,1,0,0:0:0:0:
332,267,175912,1,8,0:0:0:0:
323,129,176102,1,0,0:0:0:0:
202,46,176197,1,8,0:0:0:0:
199,37,176483,1,0,0:0:0:0:
199,35,176769,1,8,0:0:0:0:
204,31,176912,1,0,0:0:0:0:
276,168,177245,1,0,0:0:0:0:
204,24,177340,1,8,0:0:0:0:
210,19,177626,1,8,0:0:0:0:
229,74,177912,1,8,0:0:0:0:
364,127,178102,1,0,0:0:0:0:
321,82,178197,1,8,0:0:0:0:
332,267,178293,1,0,0:0:0:0:
262,82,178388,1,8,0:0:0:0:
321,82,178483,1,8,0:0:0:0:
235,21,178578,1,0,0:0:0:0:
339,69,178674,1,0,0:0:0:0:
339,69,178769,1,8,0:0:0:0:
345,44,179055,1,8,0:0:0:0:
463,222,179197,1,8,0:0:0:0:
283,127,179531,1,0,0:0:0:0:
339,51,179626,1,8,0:0:0:0:
312,78,179816,1,8,0:0:0:0:
314,87,179912,1,0,0:0:0:0:
318,71,180197,1,8,0:0:0:0:
332,267,180293,1,8,0:0:0:0:
318,71,180388,1,0,0:0:0:0:
332,267,180483,1,8,0:0:0:0:
294,93,180674,1,0,0:0:0:0:
203,128,180769,1,8,0:0:0:0:
241,139,180864,1,8,0:0:0:0:
199,119,180959,1,0,0:0:0:0:
192,112,181055,1,8,0:0:0:0:
333,120,181340,1,8,0:0:0:0:
301,107,181483,1,8,0:0:0:0:
427,173,181816,1,0,0:0:0:0:
228,173,181912,1,8,0:0:0:0:
208,164,182197,1,8,0:0:0:0:
208,134,182483,1,8,0:0:0:0:
214,129,182674,1,8,0:0:0:0:
214,129,182769,1,0,0:0:0:0:
332,267,182864,1,8,0:0:0:0:
287,66,182959,1,8,0:0:0:0:
287,66,183055,1,8,0:0:0:0:
287,66,183150,1,0,0:0:0:0:
287,66,183245,1,8,0:0:0:0:
287,66,183340,1,8,0:0:0:0:
287,57,183626,1,0,0:0:0:0:
286,131,183769,1,8,0:0:0:0:
411,113,184102,1,0,0:0:0:0:
274,57,184197,1,8,0:0:0:0:
274,86,184388,1,8,0:0:0:0:
274,86,184483,1,0,0:0:0:0:
280,62,184769,1,8,0:0:0:0:
332,267,184864,1,8,0:0:0:0:
291,59,184959,1,0,0:0:0:0:
332,267,185055,1,8,0:0:0:0:
300,59,185245,1,0,0:0:0:0:
300,59,185340,1,8,0:0:0:0:
131,168,185435,1,8,0:0:0:0:
353,70,185531,1,8,0:0:0:0:
316,50,185626,1,0,0:0:0:0:
318,37,185912,1,8,0:0:0:0:
318,37,186102,1,0,0:0:0:0:
318,37,186197,1,0,0:0:0:0:
199,158,186388,1,0,0:0:0:0:
203,136,186483,1,8,0:0:0:0:
201,134,186769,1,8,0:0:0:0:
341,168,187055,1,8,0:0:0:0:
341,168,187245,1,0,0:0:0:0:
287,143,187340,1,0,0:0:0:0:
131,168,187435,1,8,0:0:0:0:
339,166,187531,1,0,0:0:0:0:
339,166,187626,1,8,0:0:0:0:
339,168,187912,1,0,0:0:0:0:
332,95,188197,1,8,0:0:0:0:
311,113,188293,1,8,0:0:0:0:
336,89,188388,1,0,0:0:0:0:
336,89,188483,1,0,0:0:0:0:
170,61,188769,1,8,0:0:0:0:
167,66,189055,1,8,0:0:0:0:
337,184,189150,1,0,0:0:0:0:
337,184,189245,1,0,0:0:0:0:
337,175,189435,1,8,0:0:0:0:
337,175,189531,1,8,0:0:0:0:
337,175,189626,1,0,0:0:0:0:
337,175,189721,1,0,0:0:0:0:
332,172,189816,1,8,0:0:0:0:
332,172,190007,1,0,0:0:0:0:
332,172,190197,1,8,0:0:0:0:
