osu file format v14

[General]
AudioFilename: audio.mp3
AudioLeadIn: 0
PreviewTime: 55160
Countdown: 0
SampleSet: Soft
StackLeniency: 0.7
Mode: 3
LetterboxInBreaks: 0
SpecialStyle: 0
WidescreenStoryboard: 1

[Editor]
DistanceSpacing: 1
BeatDivisor: 4
GridSize: 16
TimelineZoom: 2.099999

[Metadata]
Title:Koi no Mahou wa Merorurira
TitleUnicode:恋の魔法はメロルリラ
Artist:Soraruko-chan (CV: Soraru), Mafuyu-chan (CV: mafumafu)
ArtistUnicode:そらるこちゃん(CV:そらる)、まふゆちゃん(CV:まふまふ)
Creator:ExNeko
Version:Hard
Source:
Tags:魔法少女あふた~ざれいん ミラクル Mahou shoujo After the Rain Miracle そらる Soraru まふまふ mafumafu pop j-pop japanese
BeatmapID:2965324
BeatmapSetID:1441409

[Difficulty]
HPDrainRate:8
CircleSize:4
OverallDifficulty:8
ApproachRate:5
SliderMultiplier:1.4
SliderTickRate:1

[Events]
//Background and Video events
0,0,"56321999.jpg",0,0
//Break Periods
//Storyboard Layer 0 (Background)
//Storyboard Layer 1 (Fail)
//Storyboard Layer 2 (Pass)
//Storyboard Layer 3 (Foreground)
//Storyboard Layer 4 (Overlay)
//Storyboard Sound Samples

[TimingPoints]
2660,416.666666666667,4,2,1,35,1,0
55993,-100,4,2,1,35,0,1
68910,-100,4,2,1,35,0,0
69326,-100,4,2,1,35,0,1
82660,-100,4,2,1,35,0,0
135993,-100,4,2,1,35,0,1
148910,-100,4,2,1,35,0,0
149326,-100,4,2,1,35,0,1
162660,-100,4,2,1,35,0,0

[HitObjects]
64,192,1722,5,8,2:0:0:0:
192,192,1722,1,0,0:0:0:0:
320,192,1930,1,8,2:0:0:0:
192,192,2035,1,2,2:0:0:0:
64,192,2139,1,2,2:0:0:0:
320,192,2243,1,8,2:0:0:0:
448,192,2243,1,0,0:0:0:0:
192,192,2451,1,8,2:0:0:0:
320,192,2555,1,8,2:0:0:0:
64,192,2660,1,2,2:0:0:0:
448,192,2660,1,4,2:0:0:0:
192,192,2764,1,0,0:0:0:0:
320,192,2868,1,0,0:0:0:0:
64,192,3076,1,2,2:0:0:0:
192,192,3076,1,8,2:0:0:0:
320,192,3285,1,0,0:0:0:0:
192,192,3493,1,2,2:0:0:0:
448,192,3493,128,0,3805:0:0:0:0:
64,192,3701,1,0,0:0:0:0:
192,192,3805,1,0,0:0:0:0:
320,192,3910,1,2,2:0:0:0:
448,192,3910,1,8,2:0:0:0:
64,192,4118,128,0,4535:0:0:0:0:
192,192,4326,1,2,2:0:0:0:
320,192,4326,1,0,0:0:0:0:
448,192,4535,128,0,4743:0:0:0:0:
64,192,4743,1,2,2:0:0:0:
320,192,4743,128,8,4951:2:0:0:0:
192,192,4951,128,0,5160:0:0:0:0:
64,192,5160,128,2,5576:2:0:0:0:
448,192,5160,1,0,0:0:0:0:
320,192,5368,1,0,0:0:0:0:
192,192,5576,1,2,2:0:0:0:
448,192,5576,1,8,2:0:0:0:
448,192,5785,128,0,6201:0:0:0:0:
64,192,5993,1,2,2:0:0:0:
192,192,5993,1,0,0:0:0:0:
320,192,6201,128,0,6410:0:0:0:0:
64,192,6410,1,2,2:0:0:0:
192,192,6410,128,8,6618:2:0:0:0:
320,192,6618,128,0,6826:0:0:0:0:
192,192,6826,128,2,7035:2:0:0:0:
448,192,6826,1,0,0:0:0:0:
64,192,7035,128,0,7243:0:0:0:0:
320,192,7243,128,2,7451:2:0:0:0:
448,192,7243,1,8,2:0:0:0:
192,192,7451,128,0,7660:0:0:0:0:
64,192,7660,1,2,2:0:0:0:
320,192,7660,128,0,7868:0:0:0:0:
448,192,7868,128,0,8076:0:0:0:0:
64,192,8076,1,2,2:0:0:0:
192,192,8076,128,8,8285:2:0:0:0:
448,192,8285,1,0,0:0:0:0:
320,192,8389,1,0,0:0:0:0:
64,192,8493,128,2,8701:2:0:0:0:
192,192,8493,1,0,0:0:0:0:
448,192,8701,1,0,0:0:0:0:
64,192,8805,1,8,2:0:0:0:
192,192,8805,1,0,0:0:0:0:
320,192,8910,1,2,2:0:0:0:
448,192,8910,1,4,2:0:0:0:
192,192,9118,1,8,2:0:0:0:
320,192,9222,1,8,2:0:0:0:
192,192,9326,1,2,2:0:0:0:
448,192,9326,1,4,2:0:0:0:
64,192,9430,1,0,0:0:0:0:
320,192,9535,1,0,0:0:0:0:
64,192,9743,1,2,2:0:0:0:
448,192,9743,1,8,2:0:0:0:
192,192,9951,1,0,0:0:0:0:
320,192,10160,1,2,2:0:0:0:
448,192,10160,128,0,10472:0:0:0:0:
64,192,10368,1,0,0:0:0:0:
192,192,10472,1,0,0:0:0:0:
320,192,10576,1,2,2:0:0:0:
448,192,10576,1,8,2:0:0:0:
448,192,10785,128,0,11201:0:0:0:0:
64,192,10993,1,2,2:0:0:0:
192,192,10993,1,0,0:0:0:0:
320,192,11201,128,0,11410:0:0:0:0:
192,192,11410,128,2,11618:2:0:0:0:
448,192,11410,1,8,2:0:0:0:
64,192,11618,128,0,11826:0:0:0:0:
192,192,11826,128,2,12243:2:0:0:0:
448,192,11826,1,0,0:0:0:0:
320,192,12035,1,0,0:0:0:0:
64,192,12243,1,2,2:0:0:0:
448,192,12243,1,8,2:0:0:0:
320,192,12451,1,0,0:0:0:0:
64,192,12660,1,2,2:0:0:0:
320,192,12660,128,0,12868:0:0:0:0:
192,192,12868,128,0,13076:0:0:0:0:
320,192,13076,128,2,13285:2:0:0:0:
448,192,13076,1,8,2:0:0:0:
64,192,13285,128,0,13493:0:0:0:0:
192,192,13493,1,2,2:0:0:0:
448,192,13493,128,0,13701:0:0:0:0:
320,192,13701,128,0,13910:0:0:0:0:
64,192,13910,1,2,2:0:0:0:
192,192,13910,128,8,14118:2:0:0:0:
320,192,14118,128,4,14535:2:0:0:0:
448,192,14118,1,2,2:0:0:0:
64,192,14535,1,2,2:0:0:0:
192,192,14535,1,0,0:0:0:0:
320,192,14743,1,2,2:0:0:0:
448,192,14743,1,0,0:0:0:0:
64,192,14951,1,2,2:0:0:0:
192,192,14951,1,0,0:0:0:0:
320,192,15055,1,0,0:0:0:0:
64,192,15160,1,2,2:0:0:0:
448,192,15160,1,0,0:0:0:0:
192,192,15576,1,2,2:0:0:0:
320,192,15576,1,0,0:0:0:0:
320,192,15993,1,2,2:0:0:0:
64,192,16201,128,0,16410:0:0:0:0:
448,192,16410,1,2,2:0:0:0:
192,192,16618,128,0,16826:0:0:0:0:
448,192,16826,1,2,2:0:0:0:
320,192,17035,128,0,17243:0:0:0:0:
64,192,17243,1,2,2:0:0:0:
448,192,17451,128,0,17660:0:0:0:0:
192,192,17660,1,2,2:0:0:0:
320,192,17868,128,0,18076:0:0:0:0:
64,192,18076,1,2,2:0:0:0:
192,192,18285,128,0,18493:0:0:0:0:
448,192,18493,1,2,2:0:0:0:
64,192,18701,128,0,18910:0:0:0:0:
320,192,18910,1,2,2:0:0:0:
192,192,19118,128,0,19326:0:0:0:0:
448,192,19326,1,2,2:0:0:0:
320,192,19535,128,0,19743:0:0:0:0:
64,192,19743,1,2,2:0:0:0:
448,192,19951,128,0,20160:0:0:0:0:
192,192,20160,1,2,2:0:0:0:
320,192,20368,128,0,20576:0:0:0:0:
64,192,20576,1,2,2:0:0:0:
192,192,20785,128,0,20993:0:0:0:0:
448,192,20993,1,2,2:0:0:0:
64,192,21201,128,0,21410:0:0:0:0:
320,192,21410,1,2,2:0:0:0:
192,192,21618,128,0,21826:0:0:0:0:
448,192,21826,128,2,22035:2:0:0:0:
64,192,22035,128,0,22243:0:0:0:0:
320,192,22243,128,2,22451:2:0:0:0:
64,192,22451,128,0,22868:0:0:0:0:
320,192,22660,1,2,2:0:0:0:
192,192,22868,128,0,23076:0:0:0:0:
320,192,23076,128,2,23285:2:0:0:0:
448,192,23285,128,0,23493:0:0:0:0:
64,192,23493,128,2,23910:2:0:0:0:
448,192,23701,1,0,0:0:0:0:
320,192,23910,128,2,24118:2:0:0:0:
192,192,24118,128,0,24326:0:0:0:0:
448,192,24326,128,2,24535:2:0:0:0:
64,192,24535,128,0,24743:0:0:0:0:
320,192,24743,1,2,2:0:0:0:
64,192,24951,128,0,25160:0:0:0:0:
320,192,25160,1,2,2:0:0:0:
64,192,25368,128,0,25576:0:0:0:0:
320,192,25576,1,2,2:0:0:0:
448,192,25785,128,0,26201:0:0:0:0:
64,192,25993,1,2,2:0:0:0:
192,192,26201,128,0,26410:0:0:0:0:
320,192,26410,128,2,26618:2:0:0:0:
448,192,26618,128,0,26826:0:0:0:0:
64,192,26826,128,2,27243:2:0:0:0:
448,192,27035,128,0,27243:0:0:0:0:
192,192,27243,128,2,27451:2:0:0:0:
320,192,27451,128,2,27660:2:0:0:0:
448,192,27868,1,2,2:0:0:0:
320,192,27868,1,0,0:0:0:0:
192,192,28076,1,2,2:0:0:0:
64,192,28076,1,0,0:0:0:0:
448,192,28180,1,2,2:0:0:0:
192,192,28285,1,2,2:0:0:0:
320,192,28389,1,2,2:0:0:0:
448,192,28493,128,2,28701:2:0:0:0:
192,192,28910,1,2,2:0:0:0:
448,192,28910,1,0,0:0:0:0:
64,192,29326,1,2,2:0:0:0:
320,192,29326,1,4,2:0:0:0:
448,192,29535,1,0,0:0:0:0:
320,192,29639,1,0,0:0:0:0:
64,192,29743,1,2,2:0:0:0:
192,192,29743,1,8,2:0:0:0:
320,192,29951,1,0,0:0:0:0:
64,192,30160,1,2,2:0:0:0:
448,192,30160,128,0,30576:0:0:0:0:
192,192,30264,1,0,0:0:0:0:
320,192,30368,1,0,0:0:0:0:
64,192,30576,1,2,2:0:0:0:
192,192,30576,1,8,2:0:0:0:
320,192,30785,1,0,0:0:0:0:
192,192,30993,1,2,2:0:0:0:
448,192,30993,1,0,0:0:0:0:
64,192,31201,1,0,0:0:0:0:
192,192,31305,1,0,0:0:0:0:
320,192,31410,1,2,2:0:0:0:
448,192,31410,1,8,2:0:0:0:
192,192,31618,1,0,0:0:0:0:
64,192,31826,128,2,32243:2:0:0:0:
448,192,31826,1,0,0:0:0:0:
192,192,31930,1,0,0:0:0:0:
320,192,32035,1,0,0:0:0:0:
192,192,32243,1,2,2:0:0:0:
448,192,32243,1,8,2:0:0:0:
64,192,32451,1,0,0:0:0:0:
320,192,32660,1,2,2:0:0:0:
448,192,32660,1,0,0:0:0:0:
192,192,32868,1,0,0:0:0:0:
320,192,32972,1,0,0:0:0:0:
64,192,33076,1,8,2:0:0:0:
448,192,33076,1,2,2:0:0:0:
192,192,33285,1,0,0:0:0:0:
320,192,33493,1,2,2:0:0:0:
448,192,33493,128,0,33701:0:0:0:0:
192,192,33597,1,0,0:0:0:0:
64,192,33701,1,0,0:0:0:0:
192,192,33910,1,8,2:0:0:0:
448,192,33910,1,2,2:0:0:0:
320,192,34118,1,0,0:0:0:0:
64,192,34326,1,2,2:0:0:0:
192,192,34326,128,0,34535:0:0:0:0:
448,192,34535,128,0,34743:0:0:0:0:
320,192,34639,1,0,0:0:0:0:
64,192,34743,128,8,35160:2:0:0:0:
192,192,34743,1,2,2:0:0:0:
320,192,34951,1,0,0:0:0:0:
320,192,35160,1,2,2:0:0:0:
448,192,35160,128,0,35576:0:0:0:0:
192,192,35264,1,0,0:0:0:0:
64,192,35368,1,0,0:0:0:0:
192,192,35576,1,8,2:0:0:0:
320,192,35576,1,2,2:0:0:0:
64,192,35785,128,0,36201:0:0:0:0:
320,192,35993,1,4,2:0:0:0:
448,192,35993,1,2,2:0:0:0:
192,192,36201,1,0,0:0:0:0:
320,192,36305,1,0,0:0:0:0:
64,192,36410,1,2,2:0:0:0:
448,192,36410,1,8,2:0:0:0:
192,192,36618,1,0,0:0:0:0:
320,192,36826,1,2,2:0:0:0:
448,192,36826,128,0,37035:0:0:0:0:
192,192,36930,1,0,0:0:0:0:
64,192,37035,1,0,0:0:0:0:
192,192,37243,1,2,2:0:0:0:
448,192,37243,1,8,2:0:0:0:
320,192,37451,128,0,37868:0:0:0:0:
64,192,37660,1,2,2:0:0:0:
192,192,37660,1,0,0:0:0:0:
64,192,37868,1,0,0:0:0:0:
192,192,37972,1,0,0:0:0:0:
320,192,38076,1,2,2:0:0:0:
448,192,38076,1,8,2:0:0:0:
448,192,38285,128,0,38493:0:0:0:0:
64,192,38493,1,2,2:0:0:0:
192,192,38493,1,0,0:0:0:0:
320,192,38597,1,0,0:0:0:0:
448,192,38701,128,0,38910:0:0:0:0:
64,192,38910,1,2,2:0:0:0:
320,192,38910,1,8,2:0:0:0:
192,192,39118,128,0,39535:0:0:0:0:
320,192,39326,1,2,2:0:0:0:
448,192,39326,1,0,0:0:0:0:
448,192,39535,1,0,0:0:0:0:
320,192,39639,1,0,0:0:0:0:
64,192,39743,1,8,2:0:0:0:
192,192,39743,1,2,2:0:0:0:
448,192,39951,128,0,40368:0:0:0:0:
64,192,40160,1,2,2:0:0:0:
320,192,40160,1,0,0:0:0:0:
192,192,40264,1,0,0:0:0:0:
64,192,40368,1,0,0:0:0:0:
320,192,40576,1,8,2:0:0:0:
448,192,40576,1,2,2:0:0:0:
64,192,40785,128,4,41201:2:0:0:0:
192,192,40785,1,2,2:0:0:0:
320,192,41201,1,2,2:0:0:0:
448,192,41201,1,0,0:0:0:0:
64,192,41410,1,2,2:0:0:0:
192,192,41410,1,0,0:0:0:0:
448,192,41514,1,2,2:0:0:0:
320,192,41618,1,8,2:0:0:0:
192,192,41722,1,8,2:0:0:0:
64,192,41826,1,8,2:0:0:0:
448,192,41826,1,0,0:0:0:0:
64,192,42243,1,2,2:0:0:0:
192,192,42243,1,0,0:0:0:0:
320,192,42451,1,0,0:0:0:0:
64,192,42660,1,4,2:0:0:0:
448,192,42660,1,2,2:0:0:0:
64,192,42868,1,0,0:0:0:0:
320,192,43076,1,0,0:0:0:0:
320,192,43285,1,2,2:0:0:0:
64,192,43285,1,0,0:0:0:0:
192,192,43493,1,2,2:0:0:0:
448,192,43493,128,0,43910:0:0:0:0:
64,192,43910,1,8,2:0:0:0:
192,192,43910,1,0,0:0:0:0:
320,192,44118,128,0,44535:0:0:0:0:
64,192,44326,1,2,2:0:0:0:
448,192,44326,1,0,0:0:0:0:
192,192,44535,1,0,0:0:0:0:
192,192,44743,1,0,0:0:0:0:
320,192,44951,1,2,2:0:0:0:
448,192,44951,1,0,0:0:0:0:
64,192,45160,128,2,45576:2:0:0:0:
320,192,45160,1,0,0:0:0:0:
192,192,45576,1,8,2:0:0:0:
320,192,45576,1,0,0:0:0:0:
192,192,45993,1,4,2:0:0:0:
448,192,45993,1,2,2:0:0:0:
192,192,46201,1,0,0:0:0:0:
320,192,46410,1,0,0:0:0:0:
64,192,46618,1,2,2:0:0:0:
320,192,46618,1,0,0:0:0:0:
448,192,46826,1,2,2:0:0:0:
192,192,46826,128,0,47243:0:0:0:0:
320,192,47243,1,8,2:0:0:0:
448,192,47243,1,0,0:0:0:0:
64,192,47451,128,0,47868:0:0:0:0:
320,192,47660,1,2,2:0:0:0:
448,192,47660,128,4,47868:2:0:0:0:
192,192,47868,1,0,0:0:0:0:
64,192,48076,1,2,2:0:0:0:
448,192,48076,128,4,48285:2:0:0:0:
192,192,48285,1,0,0:0:0:0:
320,192,48493,1,2,2:0:0:0:
448,192,48493,128,4,48701:2:0:0:0:
64,192,48701,1,0,0:0:0:0:
192,192,48805,1,8,2:0:0:0:
320,192,48910,1,2,2:0:0:0:
448,192,48910,1,0,0:0:0:0:
64,192,49118,1,8,2:0:0:0:
448,192,49118,1,0,0:0:0:0:
320,192,49222,1,8,2:0:0:0:
64,192,49326,1,2,2:0:0:0:
192,192,49326,1,4,2:0:0:0:
320,192,49535,1,0,0:0:0:0:
64,192,49743,1,2,2:0:0:0:
448,192,49743,1,0,0:0:0:0:
192,192,49951,1,0,0:0:0:0:
320,192,50160,1,2,2:0:0:0:
448,192,50160,1,0,0:0:0:0:
192,192,50368,1,0,0:0:0:0:
64,192,50576,1,2,2:0:0:0:
448,192,50576,1,0,0:0:0:0:
320,192,50785,1,0,0:0:0:0:
64,192,50993,1,2,2:0:0:0:
192,192,50993,1,0,0:0:0:0:
64,192,51201,1,8,2:0:0:0:
320,192,51201,1,0,0:0:0:0:
192,192,51410,1,2,2:0:0:0:
448,192,51410,1,0,0:0:0:0:
320,192,51618,1,8,2:0:0:0:
448,192,51618,1,0,0:0:0:0:
64,192,51826,1,2,2:0:0:0:
192,192,51826,1,0,0:0:0:0:
64,192,52035,1,8,2:0:0:0:
320,192,52035,1,0,0:0:0:0:
192,192,52243,1,2,2:0:0:0:
448,192,52243,1,0,0:0:0:0:
320,192,52451,1,8,2:0:0:0:
448,192,52451,1,0,0:0:0:0:
64,192,52660,1,2,2:0:0:0:
192,192,52660,1,0,0:0:0:0:
64,192,52868,1,2,2:0:0:0:
192,192,52868,1,0,0:0:0:0:
320,192,53076,1,2,2:0:0:0:
448,192,53076,1,0,0:0:0:0:
320,192,53285,1,2,2:0:0:0:
448,192,53285,1,0,0:0:0:0:
64,192,53493,1,2,2:0:0:0:
192,192,53493,1,0,0:0:0:0:
320,192,53701,1,2,2:0:0:0:
192,192,53805,1,2,2:0:0:0:
64,192,53910,1,2,2:0:0:0:
448,192,53910,1,0,0:0:0:0:
320,192,54014,1,2,2:0:0:0:
192,192,54118,1,2,2:0:0:0:
448,192,54222,1,2,2:0:0:0:
64,192,54326,1,2,2:0:0:0:
192,192,54326,1,0,0:0:0:0:
64,192,54743,1,2,2:0:0:0:
448,192,54743,1,0,0:0:0:0:
192,192,54951,1,2,2:0:0:0:
320,192,55160,1,2,2:0:0:0:
448,192,55160,1,0,0:0:0:0:
192,192,55264,1,2,2:0:0:0:
64,192,55368,1,2,2:0:0:0:
448,192,55472,1,2,2:0:0:0:
192,192,55576,1,8,2:0:0:0:
320,192,55576,1,0,0:0:0:0:
448,192,55785,1,2,2:0:0:0:
320,192,55889,1,2,2:0:0:0:
64,192,55993,1,2,2:0:0:0:
192,192,55993,1,4,2:0:0:0:
192,192,56201,1,2,2:0:0:0:
320,192,56201,1,0,0:0:0:0:
64,192,56410,1,8,2:0:0:0:
320,192,56410,1,0,0:0:0:0:
448,192,56410,1,0,0:0:0:0:
192,192,56618,1,2,2:0:0:0:
448,192,56618,1,0,0:0:0:0:
320,192,56826,1,0,0:0:0:0:
192,192,56930,1,0,0:0:0:0:
64,192,57035,1,2,2:0:0:0:
448,192,57035,1,0,0:0:0:0:
64,192,57243,1,8,2:0:0:0:
192,192,57243,1,0,0:0:0:0:
320,192,57243,1,0,0:0:0:0:
320,192,57451,1,2,2:0:0:0:
448,192,57451,128,0,57868:0:0:0:0:
64,192,57868,1,2,2:0:0:0:
192,192,57868,1,0,0:0:0:0:
64,192,58076,1,8,2:0:0:0:
320,192,58076,1,0,0:0:0:0:
448,192,58076,1,0,0:0:0:0:
192,192,58285,1,2,2:0:0:0:
448,192,58285,1,0,0:0:0:0:
64,192,58493,1,0,0:0:0:0:
192,192,58597,1,0,0:0:0:0:
320,192,58701,1,2,2:0:0:0:
448,192,58701,1,0,0:0:0:0:
64,192,58910,1,8,2:0:0:0:
192,192,58910,1,0,0:0:0:0:
448,192,58910,1,0,0:0:0:0:
64,192,59118,1,2,2:0:0:0:
320,192,59118,1,0,0:0:0:0:
192,192,59326,128,0,59743:0:0:0:0:
320,192,59535,1,2,2:0:0:0:
448,192,59535,1,0,0:0:0:0:
64,192,59743,128,8,60160:2:0:0:0:
320,192,59743,1,0,0:0:0:0:
448,192,59743,1,0,0:0:0:0:
192,192,59951,1,2,2:0:0:0:
320,192,59951,1,0,0:0:0:0:
448,192,60160,128,0,60576:0:0:0:0:
320,192,60264,1,0,0:0:0:0:
64,192,60368,1,2,2:0:0:0:
192,192,60368,1,0,0:0:0:0:
64,192,60576,1,8,2:0:0:0:
192,192,60576,128,0,60993:0:0:0:0:
320,192,60576,1,0,0:0:0:0:
320,192,60785,1,2,2:0:0:0:
448,192,60785,1,0,0:0:0:0:
64,192,60993,128,4,61410:2:0:0:0:
448,192,60993,128,2,61618:2:0:0:0:
192,192,61410,1,8,2:0:0:0:
320,192,61410,1,0,0:0:0:0:
64,192,61618,128,0,61826:0:0:0:0:
448,192,61826,128,2,62035:2:0:0:0:
192,192,61826,128,4,62035:2:0:0:0:
64,192,62035,1,0,0:0:0:0:
320,192,62243,1,8,2:0:0:0:
448,192,62243,1,0,0:0:0:0:
192,192,62347,1,8,2:0:0:0:
64,192,62451,1,8,2:0:0:0:
448,192,62555,1,8,2:0:0:0:
64,192,62660,1,4,2:0:0:0:
192,192,62660,1,2,2:0:0:0:
192,192,62868,1,2,2:0:0:0:
320,192,62868,1,0,0:0:0:0:
64,192,63076,1,8,2:0:0:0:
320,192,63076,1,0,0:0:0:0:
448,192,63076,1,0,0:0:0:0:
192,192,63285,1,2,2:0:0:0:
448,192,63285,1,0,0:0:0:0:
320,192,63493,1,0,0:0:0:0:
192,192,63597,1,0,0:0:0:0:
64,192,63701,1,2,2:0:0:0:
448,192,63701,1,0,0:0:0:0:
64,192,63910,1,8,2:0:0:0:
192,192,63910,1,0,0:0:0:0:
320,192,63910,1,0,0:0:0:0:
320,192,64118,1,2,2:0:0:0:
448,192,64118,128,0,64535:0:0:0:0:
64,192,64535,1,2,2:0:0:0:
192,192,64535,1,0,0:0:0:0:
192,192,64743,1,8,2:0:0:0:
320,192,64743,1,0,0:0:0:0:
448,192,64743,1,0,0:0:0:0:
64,192,64951,1,2,2:0:0:0:
320,192,64951,1,0,0:0:0:0:
448,192,65160,1,0,0:0:0:0:
320,192,65264,1,0,0:0:0:0:
64,192,65368,1,2,2:0:0:0:
192,192,65368,1,0,0:0:0:0:
192,192,65576,1,8,2:0:0:0:
320,192,65576,1,0,0:0:0:0:
448,192,65576,1,0,0:0:0:0:
64,192,65785,1,2,2:0:0:0:
320,192,65785,1,0,0:0:0:0:
192,192,65993,1,0,0:0:0:0:
320,192,66097,1,0,0:0:0:0:
64,192,66201,1,2,2:0:0:0:
448,192,66201,1,0,0:0:0:0:
64,192,66410,1,8,2:0:0:0:
192,192,66410,1,0,0:0:0:0:
448,192,66410,1,0,0:0:0:0:
192,192,66618,1,2,2:0:0:0:
320,192,66618,1,0,0:0:0:0:
448,192,66826,128,0,67243:0:0:0:0:
320,192,66930,1,0,0:0:0:0:
64,192,67035,1,2,2:0:0:0:
192,192,67035,128,0,67243:0:0:0:0:
64,192,67243,128,8,67660:2:0:0:0:
320,192,67243,1,0,0:0:0:0:
448,192,67451,128,4,67868:2:0:0:0:
320,192,67451,1,2,2:0:0:0:
64,192,67868,1,2,2:0:0:0:
192,192,67868,1,0,0:0:0:0:
64,192,68076,1,8,2:0:0:0:
320,192,68076,1,0,0:0:0:0:
448,192,68076,1,0,0:0:0:0:
320,192,68285,1,2,2:0:0:0:
192,192,68389,1,2,2:0:0:0:
64,192,68493,1,2,2:0:0:0:
448,192,68493,1,0,0:0:0:0:
320,192,68597,1,2,2:0:0:0:
192,192,68701,1,2,2:0:0:0:
448,192,68805,1,2,2:0:0:0:
64,192,68910,1,2,2:0:0:0:
192,192,68910,1,0,0:0:0:0:
320,192,69014,1,2,2:0:0:0:
448,192,69118,1,2,2:0:0:0:
64,192,69222,1,2,2:0:0:0:
320,192,69326,128,2,69535:2:0:0:0:
448,192,69326,1,4,2:0:0:0:
64,192,69535,128,2,69743:2:0:0:0:
192,192,69535,1,0,0:0:0:0:
192,192,69743,128,8,69951:2:0:0:0:
320,192,69743,1,0,0:0:0:0:
448,192,69743,1,0,0:0:0:0:
64,192,69951,1,2,2:0:0:0:
320,192,69951,128,0,70160:0:0:0:0:
192,192,70160,128,0,70368:0:0:0:0:
320,192,70264,1,0,0:0:0:0:
64,192,70368,1,2,2:0:0:0:
448,192,70368,128,0,70576:0:0:0:0:
64,192,70576,1,8,2:0:0:0:
192,192,70576,1,0,0:0:0:0:
320,192,70576,1,0,0:0:0:0:
192,192,70785,1,2,2:0:0:0:
320,192,70785,128,0,71201:0:0:0:0:
192,192,71201,1,2,2:0:0:0:
448,192,71201,128,0,71410:0:0:0:0:
64,192,71410,1,8,2:0:0:0:
192,192,71410,128,0,71618:0:0:0:0:
320,192,71410,1,0,0:0:0:0:
320,192,71618,128,2,71826:2:0:0:0:
448,192,71618,1,0,0:0:0:0:
64,192,71826,128,0,72035:0:0:0:0:
192,192,71930,1,0,0:0:0:0:
320,192,72035,1,2,2:0:0:0:
448,192,72035,128,0,72243:0:0:0:0:
64,192,72243,1,8,2:0:0:0:
192,192,72243,128,0,72451:0:0:0:0:
320,192,72243,1,0,0:0:0:0:
320,192,72451,128,2,72660:2:0:0:0:
448,192,72451,1,0,0:0:0:0:
192,192,72660,128,0,73076:0:0:0:0:
320,192,72868,1,2,2:0:0:0:
448,192,72868,1,0,0:0:0:0:
64,192,73076,1,8,2:0:0:0:
320,192,73076,1,0,0:0:0:0:
448,192,73076,128,0,73493:0:0:0:0:
192,192,73285,1,2,2:0:0:0:
320,192,73285,1,0,0:0:0:0:
64,192,73493,128,0,73910:0:0:0:0:
192,192,73597,1,0,0:0:0:0:
320,192,73701,1,2,2:0:0:0:
448,192,73701,1,0,0:0:0:0:
192,192,73910,1,8,2:0:0:0:
320,192,73910,128,0,74326:0:0:0:0:
448,192,73910,1,0,0:0:0:0:
64,192,74118,1,2,2:0:0:0:
192,192,74118,1,0,0:0:0:0:
64,192,74326,128,4,74951:2:0:0:0:
448,192,74326,128,2,74743:2:0:0:0:
192,192,74743,1,8,2:0:0:0:
320,192,74743,1,0,0:0:0:0:
448,192,74951,128,0,75160:0:0:0:0:
64,192,75160,128,4,75368:2:0:0:0:
320,192,75160,128,2,75368:2:0:0:0:
448,192,75368,1,0,0:0:0:0:
64,192,75576,1,8,2:0:0:0:
192,192,75576,1,0,0:0:0:0:
320,192,75680,1,8,2:0:0:0:
64,192,75785,1,8,2:0:0:0:
192,192,75889,1,8,2:0:0:0:
320,192,75993,1,2,2:0:0:0:
448,192,75993,128,4,76201:2:0:0:0:
64,192,76201,128,2,76410:2:0:0:0:
192,192,76201,1,0,0:0:0:0:
192,192,76410,128,8,76618:2:0:0:0:
320,192,76410,1,0,0:0:0:0:
448,192,76410,1,0,0:0:0:0:
64,192,76618,1,2,2:0:0:0:
320,192,76618,128,0,76826:0:0:0:0:
192,192,76826,128,0,77035:0:0:0:0:
320,192,76930,1,0,0:0:0:0:
64,192,77035,128,2,77243:2:0:0:0:
448,192,77035,1,0,0:0:0:0:
192,192,77243,1,8,2:0:0:0:
320,192,77243,1,0,0:0:0:0:
448,192,77243,1,0,0:0:0:0:
64,192,77451,1,2,2:0:0:0:
448,192,77451,128,0,77868:0:0:0:0:
192,192,77868,1,2,2:0:0:0:
320,192,77868,128,0,78076:0:0:0:0:
64,192,78076,1,8,2:0:0:0:
192,192,78076,128,0,78285:0:0:0:0:
448,192,78076,1,0,0:0:0:0:
320,192,78285,1,2,2:0:0:0:
448,192,78285,128,0,78493:0:0:0:0:
64,192,78493,128,0,78910:0:0:0:0:
192,192,78597,1,0,0:0:0:0:
320,192,78701,1,2,2:0:0:0:
448,192,78701,1,0,0:0:0:0:
192,192,78910,1,8,2:0:0:0:
320,192,78910,1,0,0:0:0:0:
448,192,78910,1,0,0:0:0:0:
64,192,79118,1,2,2:0:0:0:
192,192,79118,128,0,79326:0:0:0:0:
448,192,79326,128,0,79535:0:0:0:0:
64,192,79535,128,2,79743:2:0:0:0:
192,192,79535,1,0,0:0:0:0:
192,192,79743,128,8,79951:2:0:0:0:
320,192,79743,1,0,0:0:0:0:
448,192,79743,1,0,0:0:0:0:
64,192,79951,1,2,2:0:0:0:
320,192,79951,128,0,80160:0:0:0:0:
448,192,80160,128,0,80576:0:0:0:0:
64,192,80264,1,0,0:0:0:0:
192,192,80368,1,2,2:0:0:0:
320,192,80368,128,0,80576:0:0:0:0:
64,192,80576,128,8,80993:2:0:0:0:
192,192,80576,1,0,0:0:0:0:
192,192,80785,128,2,80993:2:0:0:0:
320,192,80785,128,4,81201:2:0:0:0:
64,192,81201,1,2,2:0:0:0:
448,192,81201,1,0,0:0:0:0:
64,192,81410,1,8,2:0:0:0:
192,192,81410,1,0,0:0:0:0:
448,192,81410,1,0,0:0:0:0:
320,192,81618,1,2,2:0:0:0:
192,192,81722,1,2,2:0:0:0:
64,192,81826,1,2,2:0:0:0:
448,192,81826,1,0,0:0:0:0:
320,192,81930,1,2,2:0:0:0:
64,192,82035,1,2,2:0:0:0:
192,192,82139,1,2,2:0:0:0:
320,192,82243,1,2,2:0:0:0:
448,192,82243,1,0,0:0:0:0:
64,192,82347,1,2,2:0:0:0:
320,192,82451,1,2,2:0:0:0:
192,192,82555,1,2,2:0:0:0:
64,192,82660,1,2,2:0:0:0:
448,192,82660,1,4,2:0:0:0:
320,192,82764,1,0,0:0:0:0:
192,192,82868,1,2,2:0:0:0:
320,192,83076,1,8,2:0:0:0:
448,192,83076,1,0,0:0:0:0:
64,192,83285,1,2,2:0:0:0:
320,192,83285,1,0,0:0:0:0:
64,192,83493,128,0,83805:0:0:0:0:
192,192,83493,1,0,0:0:0:0:
320,192,83701,1,2,2:0:0:0:
448,192,83701,1,0,0:0:0:0:
192,192,83805,1,0,0:0:0:0:
64,192,83910,1,8,2:0:0:0:
448,192,83910,1,0,0:0:0:0:
64,192,84118,1,2,2:0:0:0:
192,192,84118,128,0,84535:0:0:0:0:
320,192,84326,1,2,2:0:0:0:
448,192,84326,1,0,0:0:0:0:
64,192,84535,1,2,2:0:0:0:
448,192,84535,128,0,84743:0:0:0:0:
192,192,84743,1,8,2:0:0:0:
320,192,84743,128,0,84951:0:0:0:0:
192,192,84951,128,2,85160:2:0:0:0:
448,192,84951,1,0,0:0:0:0:
64,192,85160,128,0,85576:0:0:0:0:
192,192,85368,1,2,2:0:0:0:
320,192,85368,1,0,0:0:0:0:
320,192,85576,1,8,2:0:0:0:
448,192,85576,1,0,0:0:0:0:
192,192,85785,1,2,2:0:0:0:
448,192,85785,128,0,86201:0:0:0:0:
192,192,85993,1,2,2:0:0:0:
320,192,85993,1,0,0:0:0:0:
64,192,86201,1,2,2:0:0:0:
320,192,86201,128,0,86410:0:0:0:0:
64,192,86410,1,8,2:0:0:0:
192,192,86410,128,0,86618:0:0:0:0:
320,192,86618,128,2,86826:2:0:0:0:
448,192,86618,1,0,0:0:0:0:
192,192,86826,128,0,87035:0:0:0:0:
64,192,87035,128,2,87243:2:0:0:0:
448,192,87035,1,0,0:0:0:0:
320,192,87243,1,8,2:0:0:0:
448,192,87243,128,0,87451:0:0:0:0:
64,192,87451,1,2,2:0:0:0:
192,192,87451,1,0,0:0:0:0:
320,192,87555,1,2,2:0:0:0:
64,192,87660,1,2,2:0:0:0:
448,192,87660,128,0,87868:0:0:0:0:
192,192,87868,1,2,2:0:0:0:
320,192,87868,128,0,88076:0:0:0:0:
64,192,88076,1,8,2:0:0:0:
192,192,88076,128,0,88285:0:0:0:0:
320,192,88285,1,2,2:0:0:0:
448,192,88285,1,0,0:0:0:0:
192,192,88389,1,0,0:0:0:0:
64,192,88493,128,0,88701:0:0:0:0:
192,192,88701,1,2,2:0:0:0:
448,192,88701,1,0,0:0:0:0:
320,192,88805,1,2,2:0:0:0:
64,192,88910,1,4,2:0:0:0:
448,192,88910,1,2,2:0:0:0:
192,192,89118,1,2,2:0:0:0:
320,192,89222,1,0,0:0:0:0:
64,192,89326,1,2,2:0:0:0:
448,192,89326,1,4,2:0:0:0:
192,192,89430,1,0,0:0:0:0:
320,192,89535,1,2,2:0:0:0:
192,192,89743,1,8,2:0:0:0:
448,192,89743,1,0,0:0:0:0:
64,192,89951,1,2,2:0:0:0:
320,192,89951,1,0,0:0:0:0:
320,192,90160,1,0,0:0:0:0:
448,192,90160,128,0,90472:0:0:0:0:
64,192,90368,1,2,2:0:0:0:
192,192,90368,1,0,0:0:0:0:
320,192,90472,1,0,0:0:0:0:
64,192,90576,1,8,2:0:0:0:
448,192,90576,1,0,0:0:0:0:
192,192,90785,1,2,2:0:0:0:
320,192,90785,128,0,91201:0:0:0:0:
64,192,90993,1,2,2:0:0:0:
448,192,90993,1,0,0:0:0:0:
64,192,91201,128,2,91410:2:0:0:0:
192,192,91201,1,0,0:0:0:0:
192,192,91410,128,8,91618:2:0:0:0:
448,192,91410,1,0,0:0:0:0:
64,192,91618,1,2,2:0:0:0:
320,192,91618,128,0,91826:0:0:0:0:
448,192,91826,128,0,92243:0:0:0:0:
64,192,92035,1,2,2:0:0:0:
192,192,92035,1,0,0:0:0:0:
64,192,92243,1,8,2:0:0:0:
320,192,92243,1,0,0:0:0:0:
192,192,92451,1,2,2:0:0:0:
448,192,92451,1,0,0:0:0:0:
64,192,92660,128,2,92868:2:0:0:0:
448,192,92660,1,0,0:0:0:0:
192,192,92868,128,2,93076:2:0:0:0:
320,192,92868,1,0,0:0:0:0:
320,192,93076,128,8,93285:2:0:0:0:
448,192,93076,1,0,0:0:0:0:
64,192,93285,1,2,2:0:0:0:
192,192,93285,128,0,93493:0:0:0:0:
448,192,93493,128,0,93701:0:0:0:0:
192,192,93701,1,2,2:0:0:0:
320,192,93701,128,0,93910:0:0:0:0:
64,192,93910,1,8,2:0:0:0:
192,192,93910,128,0,94118:0:0:0:0:
320,192,94118,128,4,94535:2:0:0:0:
448,192,94118,1,2,2:0:0:0:
64,192,94535,1,2,2:0:0:0:
192,192,94535,1,0,0:0:0:0:
320,192,94743,1,2,2:0:0:0:
448,192,94743,1,0,0:0:0:0:
64,192,94951,1,2,2:0:0:0:
448,192,94951,1,0,0:0:0:0:
320,192,95055,1,0,0:0:0:0:
64,192,95160,1,2,2:0:0:0:
192,192,95160,1,0,0:0:0:0:
320,192,95576,1,2,2:0:0:0:
448,192,95576,1,0,0:0:0:0:
64,192,95993,1,0,0:0:0:0:
192,192,96201,1,0,0:0:0:0:
320,192,96410,1,0,0:0:0:0:
64,192,96618,1,0,0:0:0:0:
448,192,96826,1,0,0:0:0:0:
320,192,97035,1,0,0:0:0:0:
192,192,97243,1,0,0:0:0:0:
448,192,97451,1,0,0:0:0:0:
64,192,97660,1,0,0:0:0:0:
320,192,97868,1,0,0:0:0:0:
192,192,98076,1,0,0:0:0:0:
64,192,98285,1,0,0:0:0:0:
448,192,98493,1,0,0:0:0:0:
192,192,98701,1,0,0:0:0:0:
320,192,98910,1,0,0:0:0:0:
448,192,99118,1,0,0:0:0:0:
64,192,99326,1,0,0:0:0:0:
192,192,99535,1,0,0:0:0:0:
320,192,99743,1,0,0:0:0:0:
64,192,99951,1,0,0:0:0:0:
448,192,100160,1,0,0:0:0:0:
320,192,100368,1,0,0:0:0:0:
192,192,100576,1,0,0:0:0:0:
448,192,100785,1,0,0:0:0:0:
64,192,100993,1,0,0:0:0:0:
320,192,101201,1,0,0:0:0:0:
192,192,101410,1,0,0:0:0:0:
64,192,101618,1,0,0:0:0:0:
448,192,101826,1,0,0:0:0:0:
192,192,102035,1,0,0:0:0:0:
320,192,102243,1,0,0:0:0:0:
448,192,102451,1,0,0:0:0:0:
64,192,102660,1,0,0:0:0:0:
192,192,102868,1,0,0:0:0:0:
320,192,103076,1,0,0:0:0:0:
64,192,103285,1,0,0:0:0:0:
448,192,103493,1,0,0:0:0:0:
320,192,103701,1,0,0:0:0:0:
192,192,103910,1,0,0:0:0:0:
448,192,104118,1,0,0:0:0:0:
64,192,104326,1,0,0:0:0:0:
320,192,104535,1,0,0:0:0:0:
192,192,104743,1,0,0:0:0:0:
64,192,104951,1,0,0:0:0:0:
448,192,105160,1,0,0:0:0:0:
192,192,105368,1,0,0:0:0:0:
320,192,105576,1,0,0:0:0:0:
448,192,105785,1,0,0:0:0:0:
64,192,105993,1,0,0:0:0:0:
192,192,106201,1,0,0:0:0:0:
320,192,106410,1,0,0:0:0:0:
64,192,106618,1,0,0:0:0:0:
448,192,106826,1,0,0:0:0:0:
320,192,107035,1,0,0:0:0:0:
192,192,107243,1,0,0:0:0:0:
448,192,107451,1,0,0:0:0:0:
64,192,107868,1,0,0:0:0:0:
64,192,108076,1,0,0:0:0:0:
192,192,108285,1,0,0:0:0:0:
320,192,108493,1,0,0:0:0:0:
64,192,108701,128,0,108910:0:0:0:0:
320,192,108910,128,0,109014:0:0:0:0:
64,192,109118,1,0,0:0:0:0:
320,192,109222,128,0,109326:0:0:0:0:
192,192,109326,1,2,2:0:0:0:
448,192,109326,1,4,2:0:0:0:
64,192,109535,1,0,0:0:0:0:
192,192,109639,1,0,0:0:0:0:
320,192,109743,1,2,2:0:0:0:
448,192,109743,1,8,2:0:0:0:
192,192,109951,1,0,0:0:0:0:
64,192,110160,128,2,110576:2:0:0:0:
448,192,110160,1,0,0:0:0:0:
320,192,110264,1,0,0:0:0:0:
192,192,110368,1,0,0:0:0:0:
320,192,110576,1,2,2:0:0:0:
448,192,110576,1,8,2:0:0:0:
192,192,110785,1,0,0:0:0:0:
64,192,110993,1,2,2:0:0:0:
320,192,110993,1,0,0:0:0:0:
448,192,111201,1,0,0:0:0:0:
320,192,111305,1,0,0:0:0:0:
64,192,111410,1,2,2:0:0:0:
192,192,111410,1,8,2:0:0:0:
320,192,111618,1,0,0:0:0:0:
64,192,111826,1,2,2:0:0:0:
448,192,111826,128,0,112243:0:0:0:0:
320,192,111930,1,0,0:0:0:0:
192,192,112035,1,0,0:0:0:0:
64,192,112243,1,2,2:0:0:0:
320,192,112243,1,8,2:0:0:0:
448,192,112451,1,0,0:0:0:0:
64,192,112660,1,2,2:0:0:0:
192,192,112660,1,0,0:0:0:0:
320,192,112868,1,0,0:0:0:0:
192,192,112972,1,0,0:0:0:0:
64,192,113076,1,8,2:0:0:0:
448,192,113076,1,2,2:0:0:0:
320,192,113285,1,0,0:0:0:0:
64,192,113493,128,2,113701:2:0:0:0:
192,192,113493,1,0,0:0:0:0:
320,192,113597,1,0,0:0:0:0:
448,192,113701,1,0,0:0:0:0:
64,192,113910,1,8,2:0:0:0:
320,192,113910,1,2,2:0:0:0:
192,192,114118,1,0,0:0:0:0:
320,192,114326,1,2,2:0:0:0:
448,192,114326,128,0,114743:0:0:0:0:
64,192,114535,1,0,0:0:0:0:
192,192,114639,1,0,0:0:0:0:
64,192,114743,1,8,2:0:0:0:
320,192,114743,128,2,114951:2:0:0:0:
192,192,114951,128,0,115160:0:0:0:0:
448,192,114951,1,0,0:0:0:0:
64,192,115160,128,2,115576:2:0:0:0:
448,192,115160,1,0,0:0:0:0:
320,192,115264,1,0,0:0:0:0:
192,192,115368,1,0,0:0:0:0:
320,192,115576,1,8,2:0:0:0:
448,192,115576,1,2,2:0:0:0:
448,192,115785,128,0,116201:0:0:0:0:
64,192,115993,1,4,2:0:0:0:
192,192,115993,1,2,2:0:0:0:
320,192,116201,1,0,0:0:0:0:
192,192,116305,1,0,0:0:0:0:
64,192,116410,1,2,2:0:0:0:
448,192,116410,1,8,2:0:0:0:
320,192,116618,1,0,0:0:0:0:
64,192,116826,128,2,117035:2:0:0:0:
192,192,116826,1,0,0:0:0:0:
320,192,116930,1,0,0:0:0:0:
448,192,117035,1,0,0:0:0:0:
64,192,117243,1,2,2:0:0:0:
320,192,117243,1,8,2:0:0:0:
192,192,117451,128,0,117868:0:0:0:0:
320,192,117660,1,2,2:0:0:0:
448,192,117660,1,0,0:0:0:0:
448,192,117868,1,0,0:0:0:0:
320,192,117972,1,0,0:0:0:0:
64,192,118076,1,2,2:0:0:0:
192,192,118076,1,8,2:0:0:0:
64,192,118285,128,0,118493:0:0:0:0:
320,192,118493,1,2,2:0:0:0:
448,192,118493,1,0,0:0:0:0:
192,192,118597,1,0,0:0:0:0:
64,192,118701,128,0,118910:0:0:0:0:
192,192,118910,1,2,2:0:0:0:
448,192,118910,1,8,2:0:0:0:
320,192,119118,128,0,119535:0:0:0:0:
64,192,119326,1,2,2:0:0:0:
192,192,119326,1,0,0:0:0:0:
64,192,119535,1,0,0:0:0:0:
192,192,119639,1,0,0:0:0:0:
320,192,119743,1,8,2:0:0:0:
448,192,119743,1,2,2:0:0:0:
64,192,119951,128,0,120368:0:0:0:0:
192,192,120160,1,2,2:0:0:0:
448,192,120160,1,0,0:0:0:0:
320,192,120264,1,0,0:0:0:0:
448,192,120368,1,0,0:0:0:0:
64,192,120576,1,8,2:0:0:0:
192,192,120576,1,2,2:0:0:0:
320,192,120785,1,4,2:0:0:0:
448,192,120785,128,2,121201:2:0:0:0:
64,192,121201,1,2,2:0:0:0:
192,192,121201,1,0,0:0:0:0:
320,192,121410,1,2,2:0:0:0:
448,192,121410,1,0,0:0:0:0:
64,192,121514,1,2,2:0:0:0:
320,192,121618,1,8,2:0:0:0:
192,192,121722,1,8,2:0:0:0:
64,192,121826,1,8,2:0:0:0:
448,192,121826,1,0,0:0:0:0:
320,192,122243,1,2,2:0:0:0:
448,192,122243,1,0,0:0:0:0:
192,192,122451,1,0,0:0:0:0:
64,192,122660,1,4,3:0:0:0:
448,192,122660,1,2,2:0:0:0:
448,192,122868,1,0,0:0:0:0:
192,192,123076,1,0,0:0:0:0:
192,192,123285,1,2,2:0:0:0:
448,192,123285,1,0,0:0:0:0:
64,192,123493,128,2,123910:2:0:0:0:
320,192,123493,1,0,0:0:0:0:
320,192,123910,1,8,2:0:0:0:
448,192,123910,1,0,0:0:0:0:
192,192,124118,128,0,124535:0:0:0:0:
64,192,124326,1,2,2:0:0:0:
448,192,124326,1,0,0:0:0:0:
320,192,124535,1,0,0:0:0:0:
320,192,124743,1,0,0:0:0:0:
64,192,124951,1,2,2:0:0:0:
192,192,124951,1,0,0:0:0:0:
64,192,125160,1,2,2:0:0:0:
448,192,125160,128,0,125576:0:0:0:0:
192,192,125576,1,8,2:0:0:0:
320,192,125576,1,0,0:0:0:0:
64,192,125993,1,4,3:0:0:0:
320,192,125993,1,2,2:0:0:0:
320,192,126201,1,0,0:0:0:0:
192,192,126410,1,0,0:0:0:0:
192,192,126618,1,2,2:0:0:0:
448,192,126618,1,0,0:0:0:0:
64,192,126826,1,2,2:0:0:0:
320,192,126826,128,0,127243:0:0:0:0:
64,192,127243,1,8,2:0:0:0:
192,192,127243,1,0,0:0:0:0:
448,192,127451,128,0,127868:0:0:0:0:
64,192,127660,128,2,127868:2:0:0:0:
192,192,127660,1,4,2:0:0:0:
320,192,127868,1,0,0:0:0:0:
64,192,128076,128,2,128285:2:0:0:0:
448,192,128076,1,4,2:0:0:0:
320,192,128285,1,0,0:0:0:0:
64,192,128493,128,2,128701:2:0:0:0:
192,192,128493,1,4,2:0:0:0:
448,192,128701,1,0,0:0:0:0:
320,192,128805,1,8,2:0:0:0:
64,192,128910,1,2,2:0:0:0:
192,192,128910,1,0,0:0:0:0:
64,192,129118,1,8,2:0:0:0:
448,192,129118,1,0,0:0:0:0:
192,192,129222,1,8,2:0:0:0:
320,192,129326,1,2,2:0:0:0:
448,192,129326,1,4,2:0:0:0:
192,192,129535,1,0,0:0:0:0:
64,192,129743,1,2,2:0:0:0:
448,192,129743,1,0,0:0:0:0:
320,192,129951,1,0,0:0:0:0:
64,192,130160,1,2,2:0:0:0:
192,192,130160,1,0,0:0:0:0:
320,192,130368,1,0,0:0:0:0:
64,192,130576,1,2,2:0:0:0:
448,192,130576,1,0,0:0:0:0:
192,192,130785,1,0,0:0:0:0:
320,192,130993,1,2,2:0:0:0:
448,192,130993,1,0,0:0:0:0:
192,192,131201,1,8,2:0:0:0:
448,192,131201,1,0,0:0:0:0:
64,192,131410,1,2,2:0:0:0:
320,192,131410,1,0,0:0:0:0:
64,192,131618,1,8,2:0:0:0:
192,192,131618,1,0,0:0:0:0:
320,192,131826,1,2,2:0:0:0:
448,192,131826,1,0,0:0:0:0:
192,192,132035,1,8,2:0:0:0:
448,192,132035,1,0,0:0:0:0:
64,192,132243,1,2,2:0:0:0:
320,192,132243,1,0,0:0:0:0:
64,192,132451,1,8,2:0:0:0:
192,192,132451,1,0,0:0:0:0:
320,192,132660,1,2,2:0:0:0:
448,192,132660,1,0,0:0:0:0:
320,192,132868,1,2,2:0:0:0:
448,192,132868,1,0,0:0:0:0:
64,192,133076,1,2,2:0:0:0:
192,192,133076,1,0,0:0:0:0:
64,192,133285,1,2,2:0:0:0:
192,192,133285,1,0,0:0:0:0:
320,192,133493,1,2,2:0:0:0:
448,192,133493,1,0,0:0:0:0:
192,192,133701,1,2,2:0:0:0:
320,192,133805,1,2,2:0:0:0:
64,192,133910,1,2,2:0:0:0:
448,192,133910,1,0,0:0:0:0:
192,192,134014,1,2,2:0:0:0:
320,192,134118,1,2,2:0:0:0:
64,192,134222,1,2,2:0:0:0:
320,192,134326,1,2,2:0:0:0:
448,192,134326,1,0,0:0:0:0:
64,192,134743,1,2,2:0:0:0:
448,192,134743,1,0,0:0:0:0:
320,192,134951,1,2,2:0:0:0:
64,192,135160,1,2,2:0:0:0:
192,192,135160,1,0,0:0:0:0:
320,192,135264,1,2,2:0:0:0:
448,192,135368,1,2,2:0:0:0:
64,192,135472,1,2,2:0:0:0:
192,192,135576,1,8,2:0:0:0:
320,192,135576,1,0,0:0:0:0:
64,192,135785,1,2,2:0:0:0:
192,192,135889,1,2,2:0:0:0:
320,192,135993,1,2,2:0:0:0:
448,192,135993,1,4,2:0:0:0:
64,192,136201,1,2,2:0:0:0:
448,192,136201,1,0,0:0:0:0:
320,192,136305,1,0,0:0:0:0:
64,192,136410,1,8,2:0:0:0:
192,192,136410,1,0,0:0:0:0:
320,192,136618,1,2,2:0:0:0:
448,192,136618,1,0,0:0:0:0:
64,192,136722,1,0,0:0:0:0:
320,192,136826,1,0,0:0:0:0:
192,192,136930,1,0,0:0:0:0:
64,192,137035,1,2,2:0:0:0:
448,192,137035,1,0,0:0:0:0:
192,192,137243,1,8,2:0:0:0:
320,192,137243,1,0,0:0:0:0:
448,192,137243,1,0,0:0:0:0:
64,192,137451,128,2,137868:2:0:0:0:
192,192,137451,1,0,0:0:0:0:
320,192,137868,1,2,2:0:0:0:
448,192,137868,1,0,0:0:0:0:
192,192,137972,1,0,0:0:0:0:
64,192,138076,1,8,2:0:0:0:
448,192,138076,1,0,0:0:0:0:
64,192,138285,1,2,2:0:0:0:
192,192,138285,1,0,0:0:0:0:
448,192,138389,1,0,0:0:0:0:
192,192,138493,1,0,0:0:0:0:
320,192,138597,1,0,0:0:0:0:
64,192,138701,1,2,2:0:0:0:
448,192,138701,1,0,0:0:0:0:
64,192,138910,1,8,2:0:0:0:
320,192,138910,1,0,0:0:0:0:
448,192,138910,1,0,0:0:0:0:
192,192,139118,1,2,2:0:0:0:
320,192,139118,1,0,0:0:0:0:
64,192,139326,128,0,139743:0:0:0:0:
448,192,139326,1,0,0:0:0:0:
192,192,139430,1,0,0:0:0:0:
320,192,139535,1,2,2:0:0:0:
192,192,139743,128,8,140160:2:0:0:0:
320,192,139743,1,0,0:0:0:0:
64,192,139951,1,2,2:0:0:0:
448,192,139951,1,0,0:0:0:0:
320,192,140160,128,0,140576:0:0:0:0:
448,192,140160,1,0,0:0:0:0:
192,192,140264,1,0,0:0:0:0:
64,192,140368,1,2,2:0:0:0:
64,192,140576,1,8,2:0:0:0:
448,192,140576,128,0,140993:0:0:0:0:
192,192,140785,1,2,2:0:0:0:
320,192,140785,1,0,0:0:0:0:
64,192,140993,128,4,141826:2:0:0:0:
192,192,140993,1,2,2:0:0:0:
320,192,141201,1,0,0:0:0:0:
192,192,141410,1,8,2:0:0:0:
448,192,141410,1,4,2:0:0:0:
448,192,141618,128,0,141826:0:0:0:0:
192,192,141826,128,2,142035:2:0:0:0:
320,192,141826,1,4,2:0:0:0:
320,192,142035,1,0,0:0:0:0:
448,192,142035,1,0,0:0:0:0:
64,192,142243,1,8,2:0:0:0:
192,192,142243,1,0,0:0:0:0:
448,192,142347,1,8,2:0:0:0:
192,192,142451,1,8,2:0:0:0:
320,192,142555,1,8,2:0:0:0:
64,192,142660,1,4,2:0:0:0:
448,192,142660,1,2,2:0:0:0:
64,192,142868,1,2,2:0:0:0:
192,192,142868,1,0,0:0:0:0:
320,192,142972,1,0,0:0:0:0:
64,192,143076,1,8,2:0:0:0:
448,192,143076,1,0,0:0:0:0:
192,192,143285,1,2,2:0:0:0:
320,192,143285,1,0,0:0:0:0:
448,192,143389,1,0,0:0:0:0:
64,192,143493,1,0,0:0:0:0:
192,192,143597,1,0,0:0:0:0:
320,192,143701,1,2,2:0:0:0:
448,192,143701,1,0,0:0:0:0:
64,192,143910,1,8,2:0:0:0:
192,192,143910,1,0,0:0:0:0:
320,192,143910,1,0,0:0:0:0:
192,192,144118,1,2,2:0:0:0:
448,192,144118,128,0,144535:0:0:0:0:
64,192,144535,1,2,2:0:0:0:
192,192,144535,1,0,0:0:0:0:
320,192,144639,1,0,0:0:0:0:
64,192,144743,1,8,2:0:0:0:
448,192,144743,1,0,0:0:0:0:
192,192,144951,1,2,2:0:0:0:
320,192,144951,1,0,0:0:0:0:
64,192,145055,1,0,0:0:0:0:
448,192,145160,1,0,0:0:0:0:
320,192,145264,1,0,0:0:0:0:
64,192,145368,1,2,2:0:0:0:
192,192,145368,1,0,0:0:0:0:
192,192,145576,1,8,2:0:0:0:
320,192,145576,1,0,0:0:0:0:
448,192,145576,1,0,0:0:0:0:
64,192,145785,1,2,2:0:0:0:
320,192,145785,1,0,0:0:0:0:
64,192,145993,1,0,0:0:0:0:
192,192,146097,1,0,0:0:0:0:
320,192,146201,1,2,2:0:0:0:
448,192,146201,1,0,0:0:0:0:
64,192,146410,1,8,2:0:0:0:
192,192,146410,1,0,0:0:0:0:
448,192,146410,1,0,0:0:0:0:
192,192,146618,1,2,2:0:0:0:
320,192,146618,1,0,0:0:0:0:
448,192,146826,128,0,147243:0:0:0:0:
320,192,146930,1,0,0:0:0:0:
64,192,147035,1,2,2:0:0:0:
192,192,147035,128,0,147243:0:0:0:0:
64,192,147243,128,8,147660:2:0:0:0:
320,192,147243,1,0,0:0:0:0:
320,192,147451,128,2,147660:2:0:0:0:
448,192,147451,128,4,147868:2:0:0:0:
64,192,147868,1,2,2:0:0:0:
192,192,147868,1,0,0:0:0:0:
64,192,148076,1,8,2:0:0:0:
320,192,148076,1,0,0:0:0:0:
448,192,148076,1,0,0:0:0:0:
448,192,148285,1,2,2:0:0:0:
320,192,148389,1,2,2:0:0:0:
64,192,148493,1,2,2:0:0:0:
192,192,148493,1,0,0:0:0:0:
448,192,148597,1,2,2:0:0:0:
192,192,148701,1,2,2:0:0:0:
320,192,148805,1,2,2:0:0:0:
64,192,148910,1,2,2:0:0:0:
448,192,148910,1,0,0:0:0:0:
192,192,149014,1,2,2:0:0:0:
320,192,149118,1,2,2:0:0:0:
64,192,149222,1,2,2:0:0:0:
320,192,149326,128,2,149535:2:0:0:0:
448,192,149326,1,4,2:0:0:0:
64,192,149535,1,2,2:0:0:0:
192,192,149535,128,0,149743:0:0:0:0:
64,192,149743,128,8,149951:2:0:0:0:
320,192,149743,1,0,0:0:0:0:
448,192,149743,1,0,0:0:0:0:
192,192,149951,128,2,150160:2:0:0:0:
448,192,149951,1,0,0:0:0:0:
320,192,150160,128,0,150368:0:0:0:0:
192,192,150264,1,0,0:0:0:0:
64,192,150368,128,2,150576:2:0:0:0:
448,192,150368,1,0,0:0:0:0:
192,192,150576,1,8,2:0:0:0:
320,192,150576,1,0,0:0:0:0:
448,192,150576,1,0,0:0:0:0:
64,192,150785,1,2,2:0:0:0:
320,192,150785,128,0,151201:0:0:0:0:
64,192,151201,128,2,151410:2:0:0:0:
192,192,151201,1,0,0:0:0:0:
192,192,151410,128,8,151618:2:0:0:0:
320,192,151410,1,0,0:0:0:0:
448,192,151410,1,0,0:0:0:0:
64,192,151618,1,2,2:0:0:0:
320,192,151618,128,0,151826:0:0:0:0:
192,192,151826,128,0,152035:0:0:0:0:
320,192,151930,1,0,0:0:0:0:
64,192,152035,1,2,2:0:0:0:
448,192,152035,128,0,152243:0:0:0:0:
64,192,152243,128,8,152451:2:0:0:0:
192,192,152243,1,0,0:0:0:0:
320,192,152243,1,0,0:0:0:0:
320,192,152451,128,2,152660:2:0:0:0:
448,192,152451,1,0,0:0:0:0:
192,192,152660,128,0,153076:0:0:0:0:
320,192,152764,1,0,0:0:0:0:
64,192,152868,1,2,2:0:0:0:
448,192,152868,1,0,0:0:0:0:
64,192,153076,128,8,153493:2:0:0:0:
320,192,153076,1,0,0:0:0:0:
448,192,153076,1,0,0:0:0:0:
192,192,153285,1,2,2:0:0:0:
320,192,153285,1,0,0:0:0:0:
448,192,153493,128,0,153910:0:0:0:0:
320,192,153597,1,0,0:0:0:0:
64,192,153701,1,2,2:0:0:0:
192,192,153701,1,0,0:0:0:0:
64,192,153910,1,8,2:0:0:0:
192,192,153910,1,0,0:0:0:0:
320,192,153910,128,0,154326:0:0:0:0:
64,192,154118,1,2,2:0:0:0:
192,192,154118,1,0,0:0:0:0:
64,192,154326,128,4,154951:2:0:0:0:
448,192,154326,128,2,154743:2:0:0:0:
192,192,154743,1,8,2:0:0:0:
320,192,154743,1,4,2:0:0:0:
320,192,154951,128,0,155160:0:0:0:0:
64,192,155160,128,4,155368:2:0:0:0:
192,192,155160,128,2,155368:2:0:0:0:
320,192,155368,1,0,0:0:0:0:
448,192,155368,1,0,0:0:0:0:
64,192,155576,1,8,2:0:0:0:
192,192,155576,1,0,0:0:0:0:
448,192,155680,1,8,2:0:0:0:
192,192,155785,1,8,2:0:0:0:
320,192,155889,1,8,2:0:0:0:
64,192,155993,1,2,2:0:0:0:
448,192,155993,128,4,156201:2:0:0:0:
192,192,156201,128,2,156410:2:0:0:0:
320,192,156201,1,0,0:0:0:0:
64,192,156410,1,8,2:0:0:0:
320,192,156410,128,0,156618:0:0:0:0:
448,192,156410,1,0,0:0:0:0:
192,192,156618,1,2,2:0:0:0:
448,192,156618,128,0,156826:0:0:0:0:
192,192,156826,128,0,157035:0:0:0:0:
320,192,156930,1,0,0:0:0:0:
64,192,157035,1,2,2:0:0:0:
448,192,157035,128,0,157243:0:0:0:0:
64,192,157243,1,8,2:0:0:0:
192,192,157243,1,0,0:0:0:0:
320,192,157243,1,0,0:0:0:0:
192,192,157451,1,2,2:0:0:0:
448,192,157451,128,0,157868:0:0:0:0:
192,192,157868,1,2,2:0:0:0:
320,192,157868,128,0,158076:0:0:0:0:
64,192,158076,1,8,2:0:0:0:
192,192,158076,128,0,158285:0:0:0:0:
448,192,158076,1,0,0:0:0:0:
64,192,158285,128,2,158493:2:0:0:0:
320,192,158285,1,0,0:0:0:0:
448,192,158493,128,0,158910:0:0:0:0:
320,192,158597,1,0,0:0:0:0:
64,192,158701,1,2,2:0:0:0:
192,192,158701,1,0,0:0:0:0:
64,192,158910,1,8,2:0:0:0:
192,192,158910,1,0,0:0:0:0:
320,192,158910,1,0,0:0:0:0:
320,192,159118,128,2,159326:2:0:0:0:
448,192,159118,1,0,0:0:0:0:
192,192,159326,128,0,159535:0:0:0:0:
320,192,159430,1,0,0:0:0:0:
64,192,159535,128,2,159743:2:0:0:0:
448,192,159535,1,0,0:0:0:0:
192,192,159743,128,8,159951:2:0:0:0:
320,192,159743,1,0,0:0:0:0:
448,192,159743,1,0,0:0:0:0:
64,192,159951,1,2,2:0:0:0:
320,192,159951,128,0,160160:0:0:0:0:
448,192,160160,128,0,160576:0:0:0:0:
320,192,160264,1,0,0:0:0:0:
64,192,160368,1,2,2:0:0:0:
192,192,160368,128,0,160576:0:0:0:0:
64,192,160576,128,8,160993:2:0:0:0:
320,192,160576,1,0,0:0:0:0:
320,192,160785,128,2,160993:2:0:0:0:
448,192,160785,128,4,161201:2:0:0:0:
64,192,161201,1,2,2:0:0:0:
320,192,161201,1,0,0:0:0:0:
64,192,161410,1,8,2:0:0:0:
192,192,161410,1,0,0:0:0:0:
448,192,161410,1,0,0:0:0:0:
320,192,161618,1,2,2:0:0:0:
64,192,161722,1,2,2:0:0:0:
320,192,161826,1,2,2:0:0:0:
448,192,161826,1,0,0:0:0:0:
192,192,161930,1,2,2:0:0:0:
64,192,162035,1,2,2:0:0:0:
448,192,162139,1,2,2:0:0:0:
64,192,162243,1,2,2:0:0:0:
192,192,162243,1,0,0:0:0:0:
320,192,162347,1,2,2:0:0:0:
448,192,162451,1,2,2:0:0:0:
64,192,162555,1,2,2:0:0:0:
320,192,162660,1,2,2:0:0:0:
448,192,162660,1,4,2:0:0:0:
192,192,162868,1,2,2:0:0:0:
448,192,162868,1,0,0:0:0:0:
64,192,163076,1,8,2:0:0:0:
320,192,163076,1,0,0:0:0:0:
64,192,163285,1,2,2:0:0:0:
192,192,163285,1,0,0:0:0:0:
320,192,163493,1,0,0:0:0:0:
64,192,163701,1,2,2:0:0:0:
448,192,163701,1,0,0:0:0:0:
320,192,163910,1,8,2:0:0:0:
448,192,163910,1,0,0:0:0:0:
64,192,164118,1,2,2:0:0:0:
192,192,164118,1,0,0:0:0:0:
320,192,164326,1,0,0:0:0:0:
64,192,164535,1,2,2:0:0:0:
448,192,164535,1,0,0:0:0:0:
64,192,164743,1,8,2:0:0:0:
192,192,164743,1,0,0:0:0:0:
320,192,164951,1,2,2:0:0:0:
448,192,164951,1,0,0:0:0:0:
64,192,165160,1,0,0:0:0:0:
192,192,165368,1,2,2:0:0:0:
448,192,165368,1,0,0:0:0:0:
320,192,165576,1,8,2:0:0:0:
448,192,165576,1,0,0:0:0:0:
64,192,165785,1,2,2:0:0:0:
192,192,165785,1,0,0:0:0:0:
320,192,165993,1,0,0:0:0:0:
64,192,166201,1,2,2:0:0:0:
448,192,166201,1,0,0:0:0:0:
64,192,166410,1,8,2:0:0:0:
320,192,166410,1,0,0:0:0:0:
192,192,166618,1,2,2:0:0:0:
448,192,166618,1,0,0:0:0:0:
64,192,166826,1,0,0:0:0:0:
320,192,167035,1,2,2:0:0:0:
448,192,167035,1,0,0:0:0:0:
192,192,167243,1,8,2:0:0:0:
448,192,167243,1,0,0:0:0:0:
64,192,167451,1,2,2:0:0:0:
320,192,167451,1,0,0:0:0:0:
64,192,167660,1,4,2:0:0:0:
192,192,167660,1,2,2:0:0:0:
192,192,167868,128,0,168076:0:0:0:0:
448,192,167868,1,0,0:0:0:0:
64,192,168076,1,8,2:0:0:0:
320,192,168076,1,4,2:0:0:0:
192,192,168285,1,0,0:0:0:0:
320,192,168285,128,0,168493:0:0:0:0:
64,192,168493,1,2,2:0:0:0:
448,192,168493,1,4,2:0:0:0:
320,192,168701,1,0,0:0:0:0:
448,192,168701,128,0,168910:0:0:0:0:
64,192,168910,1,8,2:0:0:0:
192,192,168910,1,0,0:0:0:0:
320,192,169014,1,8,2:0:0:0:
448,192,169118,1,8,2:0:0:0:
64,192,169222,1,8,2:0:0:0:
320,192,169326,1,4,2:0:0:0:
448,192,169326,1,2,2:0:0:0:
64,192,169535,1,2,2:0:0:0:
320,192,169535,1,0,0:0:0:0:
192,192,169743,1,8,2:0:0:0:
448,192,169743,1,0,0:0:0:0:
64,192,169951,1,2,2:0:0:0:
192,192,169951,1,0,0:0:0:0:
320,192,170160,1,0,0:0:0:0:
64,192,170368,1,2,2:0:0:0:
448,192,170368,1,0,0:0:0:0:
192,192,170576,1,8,2:0:0:0:
448,192,170576,1,0,0:0:0:0:
64,192,170785,1,2,2:0:0:0:
320,192,170785,1,0,0:0:0:0:
192,192,170993,1,0,0:0:0:0:
64,192,171201,1,2,2:0:0:0:
448,192,171201,1,0,0:0:0:0:
320,192,171410,1,8,2:0:0:0:
448,192,171410,1,0,0:0:0:0:
64,192,171618,1,2,2:0:0:0:
192,192,171618,1,0,0:0:0:0:
320,192,171826,1,0,0:0:0:0:
64,192,172035,1,2,2:0:0:0:
448,192,172035,1,0,0:0:0:0:
192,192,172243,1,8,2:0:0:0:
448,192,172243,1,0,0:0:0:0:
64,192,172451,1,2,2:0:0:0:
320,192,172451,1,0,0:0:0:0:
192,192,172660,1,0,0:0:0:0:
320,192,172868,1,2,2:0:0:0:
448,192,172868,1,0,0:0:0:0:
192,192,173076,1,8,2:0:0:0:
448,192,173076,1,0,0:0:0:0:
64,192,173285,1,2,2:0:0:0:
320,192,173285,1,0,0:0:0:0:
192,192,173493,1,0,0:0:0:0:
64,192,173701,1,2,2:0:0:0:
448,192,173701,1,0,0:0:0:0:
64,192,173910,1,8,2:0:0:0:
192,192,173910,1,0,0:0:0:0:
320,192,174118,1,2,2:0:0:0:
448,192,174118,128,4,174535:2:0:0:0:
64,192,174535,1,2,2:0:0:0:
192,192,174535,1,0,0:0:0:0:
320,192,174743,1,8,2:0:0:0:
448,192,174743,1,0,0:0:0:0:
64,192,174951,1,2,2:0:0:0:
192,192,175055,1,2,2:0:0:0:
320,192,175160,1,2,2:0:0:0:
448,192,175160,1,0,0:0:0:0:
64,192,175264,1,2,2:0:0:0:
320,192,175368,1,2,2:0:0:0:
192,192,175472,1,2,2:0:0:0:
64,192,175576,1,2,2:0:0:0:
448,192,175576,1,0,0:0:0:0:
320,192,175680,1,2,2:0:0:0:
192,192,175785,1,2,2:0:0:0:
448,192,175889,1,2,2:0:0:0:
64,192,175993,1,4,2:0:0:0:
192,192,175993,1,0,0:0:0:0:
320,192,176201,1,0,0:0:0:0:
192,192,176410,1,8,3:0:0:0:
448,192,176410,1,0,0:0:0:0:
64,192,176618,1,0,0:0:0:0:
320,192,176826,1,0,0:0:0:0:
192,192,177035,1,0,0:0:0:0:
64,192,177243,1,8,3:0:0:0:
448,192,177243,1,0,0:0:0:0:
320,192,177451,1,0,0:0:0:0:
192,192,177660,1,0,0:0:0:0:
448,192,177868,1,0,0:0:0:0:
64,192,178076,1,8,3:0:0:0:
192,192,178076,1,0,0:0:0:0:
320,192,178285,1,0,0:0:0:0:
448,192,178493,1,0,0:0:0:0:
64,192,178701,1,0,0:0:0:0:
320,192,178910,1,8,3:0:0:0:
448,192,178910,1,0,0:0:0:0:
192,192,179118,1,0,0:0:0:0:
64,192,179326,1,0,0:0:0:0:
320,192,179535,1,0,0:0:0:0:
64,192,179743,1,8,3:0:0:0:
192,192,179743,1,0,0:0:0:0:
320,192,179951,1,0,0:0:0:0:
448,192,180160,1,0,0:0:0:0:
64,192,180368,1,0,0:0:0:0:
320,192,180576,1,8,3:0:0:0:
448,192,180576,1,0,0:0:0:0:
192,192,180785,1,0,0:0:0:0:
64,192,180993,1,0,0:0:0:0:
448,192,181201,128,0,181410:0:0:0:0:
64,192,181410,1,8,3:0:0:0:
192,192,181410,1,0,0:0:0:0:
320,192,181618,128,0,181826:0:0:0:0:
64,192,181826,1,0,0:0:0:0:
448,192,182035,1,8,3:0:0:0:
192,192,182035,128,0,182243:0:0:0:0:
320,192,182243,1,8,3:0:0:0:
448,192,182243,1,0,0:0:0:0:
64,192,182451,128,0,182660:0:0:0:0:
192,192,182660,1,4,2:0:0:0:
320,192,182660,1,0,0:0:0:0:
448,192,182868,1,0,0:0:0:0:
64,192,183076,1,8,3:0:0:0:
192,192,183076,1,0,0:0:0:0:
320,192,183285,1,0,0:0:0:0:
448,192,183493,1,0,0:0:0:0:
192,192,183701,1,0,0:0:0:0:
64,192,183910,1,8,3:0:0:0:
320,192,183910,1,0,0:0:0:0:
448,192,184118,1,0,0:0:0:0:
64,192,184326,1,0,0:0:0:0:
192,192,184535,1,0,0:0:0:0:
320,192,184743,1,8,3:0:0:0:
448,192,184743,1,0,0:0:0:0:
64,192,184951,1,0,0:0:0:0:
320,192,185160,1,0,0:0:0:0:
192,192,185368,1,0,0:0:0:0:
64,192,185576,1,8,3:0:0:0:
448,192,185576,1,0,0:0:0:0:
320,192,185785,1,0,0:0:0:0:
192,192,185993,1,0,0:0:0:0:
448,192,186201,1,0,0:0:0:0:
64,192,186410,1,8,3:0:0:0:
192,192,186410,1,0,0:0:0:0:
320,192,186618,1,0,0:0:0:0:
448,192,186826,1,0,0:0:0:0:
64,192,187035,1,0,0:0:0:0:
320,192,187243,1,8,3:0:0:0:
448,192,187243,1,0,0:0:0:0:
192,192,187451,1,0,0:0:0:0:
64,192,187660,1,0,0:0:0:0:
320,192,187868,1,0,0:0:0:0:
64,192,188076,1,8,3:0:0:0:
192,192,188076,1,0,0:0:0:0:
320,192,188285,1,0,0:0:0:0:
448,192,188493,1,0,0:0:0:0:
64,192,188701,1,8,3:0:0:0:
320,192,188701,1,0,0:0:0:0:
320,192,188910,1,8,3:0:0:0:
448,192,188910,1,0,0:0:0:0:
192,192,189014,1,0,0:0:0:0:
64,192,189118,128,8,189326:3:0:0:0:
448,192,189222,128,0,189326:0:0:0:0:
