osu file format v14

[General]
AudioFilename: mcos2.mp3
AudioLeadIn: 0
PreviewTime: 173532
Countdown: 1
SampleSet: Normal
StackLeniency: 0.7
Mode: 0
LetterboxInBreaks: 0
WidescreenStoryboard: 0

[Editor]
Bookmarks: 9532,17061,32120,39650,47179,54708,58473,66003,73532,91414,99179,106708,114238,121767,129297,134944,142473,150002,157532,165061,173532,181061,192355,199885
DistanceSpacing: 1.8
BeatDivisor: 4
GridSize: 4
TimelineZoom: 4.399999

[Metadata]
Title:Milk Crown on Sonnetica
TitleUnicode:ミルククラウン・オン・ソーネチカ
Artist:Soraru&Mafumafu
ArtistUnicode:そらる×まふまふ
Creator:Mango Juice
Version:placeholder diffname
Source:
Tags:
BeatmapID:1568551
BeatmapSetID:691832

[Difficulty]
HPDrainRate:7
CircleSize:4
OverallDifficulty:8
ApproachRate:9.8
SliderMultiplier:1.62
SliderTickRate:1

[Events]
//Background and Video events
0,0,"bg2.jpg",0,0
//Break Periods
2,79497,84818
2,135144,137994
//Storyboard Layer 0 (Background)
//Storyboard Layer 1 (Fail)
//Storyboard Layer 2 (Pass)
//Storyboard Layer 3 (Foreground)
//Storyboard Sound Samples

[TimingPoints]
2003,235.294117647059,4,1,1,100,1,0
16826,-100,4,1,1,100,0,0
17061,-95.2380952380952,4,1,1,100,0,1
31650,-153.846153846154,4,1,1,100,0,0
32125,-100,4,1,1,100,0,0
47188,-100,4,1,1,50,0,0
64135,-200,4,1,1,100,0,0
65076,-100,4,1,1,80,0,0
66003,-83.3333333333333,4,1,1,100,0,1
79179,-90.9090909090909,4,1,1,100,0,0
85295,-111.111111111111,4,1,1,100,0,0
91175,-200,4,1,1,100,0,0
91649,-111.111111111111,4,1,1,100,0,0
91650,235.294117647059,4,1,1,100,1,0
93297,-111.111111111111,4,1,1,40,0,0
93532,-111.111111111111,4,1,1,100,0,0
95179,-111.111111111111,4,1,1,40,0,0
95414,-111.111111111111,4,1,1,100,0,0
97061,-111.111111111111,4,1,1,40,0,0
97297,-111.111111111111,4,1,1,100,0,0
98944,-111.111111111111,4,1,1,40,0,0
99179,-111.111111111111,4,1,1,100,0,0
100826,-111.111111111111,4,1,1,40,0,0
101061,-111.111111111111,4,1,1,100,0,0
102708,-111.111111111111,4,1,1,40,0,0
102944,-111.111111111111,4,1,1,100,0,0
104591,-111.111111111111,4,1,1,40,0,0
104826,-111.111111111111,4,1,1,100,0,0
106708,-111.111111111111,4,1,1,60,0,0
121767,-83.3333333333333,4,1,1,100,0,1
134944,-83.3333333333333,4,1,1,100,0,0
138708,-133.333333333333,4,1,1,100,0,0
142428,-200,4,1,1,100,0,0
157295,-200,4,1,1,10,0,0
157532,-133.333333333333,4,1,1,40,0,0
173532,-76.9230769230769,4,1,1,100,0,1
190473,-90.9090909090909,4,1,1,100,0,0
192355,-83.3333333333333,4,1,1,100,0,0
199885,-83.3333333333333,4,1,1,100,0,1
210238,-83.3333333333333,4,1,1,100,0,0
211179,-166.666666666667,4,1,1,100,0,0
212826,-83.3333333333333,4,1,1,100,0,1
212841,-83.3333333333333,4,1,1,100,0,0

[Colours]
Combo1 : 71,181,239
Combo2 : 254,239,137
Combo3 : 236,179,94
Combo4 : 162,189,232
Combo5 : 226,165,166
Combo6 : 243,134,52
Combo7 : 213,38,43
Combo8 : 255,251,64

[HitObjects]
109,141,2003,5,0,0:0:0:0:
115,174,2120,1,0,0:0:0:0:
121,207,2238,1,0,0:0:0:0:
127,240,2355,2,0,L|208:246,1,81
284,297,2591,2,0,L|365:291,1,81
205,156,2826,6,0,L|286:162,1,81
362,213,3061,2,0,L|443:207,1,81
173,45,3297,5,0,0:0:0:0:
179,78,3414,1,0,0:0:0:0:
185,111,3532,1,0,0:0:0:0:
191,144,3650,2,0,L|272:150,1,81
22,259,3885,5,0,0:0:0:0:
28,292,4003,1,0,0:0:0:0:
34,325,4120,1,0,0:0:0:0:
40,358,4238,2,0,B|41:357|83:384|145:362,1,81
154,216,4473,2,0,B|154:217|109:240|98:304,1,81
223,371,4708,70,0,B|221:370|224:320|173:278,1,81
348,307,4944,2,0,B|348:308|303:331|292:395,1,81
233,225,5179,1,0,0:0:0:0:
233,225,5297,2,0,B|234:224|276:251|338:229,1,81
331,80,5532,2,0,B|331:81|286:104|275:168,1,81
187,37,5767,5,0,0:0:0:0:
181,70,5885,1,0,0:0:0:0:
175,103,6003,1,0,0:0:0:0:
169,136,6120,2,0,L|88:142,1,81
110,298,6355,2,0,L|145:224,1,81
0,166,6591,6,0,L|45:233,1,81
175,103,6826,2,0,L|94:109,1,81
143,287,7061,1,0,0:0:0:0:
143,287,7179,2,0,L|178:213,1,81
0,166,7414,2,0,L|45:233,1,81
256,174,7650,5,0,0:0:0:0:
262,207,7767,1,0,0:0:0:0:
268,240,7885,1,0,0:0:0:0:
274,273,8003,2,0,P|319:268|355:279,1,81
293,99,8238,2,0,P|248:94|212:105,1,81
386,197,8473,70,0,P|431:192|467:203,1,81
405,23,8708,2,0,P|360:18|324:29,1,81
376,107,8944,1,0,0:0:0:0:
274,273,9061,6,0,P|319:268|355:279,1,81
293,99,9297,2,0,P|248:94|212:105,1,81
274,273,9532,5,0,0:0:0:0:
293,99,10003,1,0,0:0:0:0:
284,186,10473,5,0,0:0:0:0:
303,12,10944,1,0,0:0:0:0:
23,157,11414,69,0,0:0:0:0:
197,176,11885,1,0,0:0:0:0:
110,167,12355,5,0,0:0:0:0:
284,186,12826,1,0,0:0:0:0:
508,230,13297,5,0,0:0:0:0:
334,249,13767,1,0,0:0:0:0:
421,240,14238,5,0,0:0:0:0:
247,259,14708,1,0,0:0:0:0:
338,351,15179,70,4,P|259:375|158:365,1,162,2|4,0:0|0:0,0:0:0:0:
36,135,16003,5,4,0:0:0:0:
452,101,16238,1,4,0:0:0:0:
111,89,16473,5,4,0:0:0:0:
488,266,16591,1,2,0:0:0:0:
211,95,16826,5,8,0:0:0:0:
354,300,16944,1,8,0:0:0:0:
84,293,17061,38,0,P|156:249|256:273,1,170.09999480896,0|8,0:0|0:0,0:0:0:0:
180,369,17414,1,0,0:0:0:0:
54,135,17532,5,2,0:0:0:0:
84,293,17650,1,2,0:0:0:0:
150,34,17767,69,8,0:0:0:0:
138,194,17885,1,0,0:0:0:0:
237,99,18003,6,0,P|306:80|414:114,1,170.09999480896,4|8,0:0|0:0,0:0:0:0:
330,288,18355,1,0,0:0:0:0:
330,288,18414,1,0,0:0:0:0:
330,288,18473,2,2,L|313:171,1,85.0499974044801
448,300,18708,2,2,L|435:384,1,85.0499974044801,8|2,0:0|0:0,0:0:0:0:
215,288,18944,5,2,0:0:0:0:
26,314,19061,1,0,0:0:0:0:
234,214,19179,1,8,0:0:0:0:
23,205,19297,1,0,0:0:0:0:
278,143,19414,5,2,0:0:0:0:
51,92,19532,1,2,0:0:0:0:
344,103,19650,1,8,0:0:0:0:
107,3,19767,1,8,0:0:0:0:
424,32,19885,70,2,P|449:101|404:204,1,170.09999480896,2|8,0:0|0:0,0:0:0:0:
234,214,20238,1,0,0:0:0:0:
234,214,20297,1,0,0:0:0:0:
234,214,20355,2,0,B|137:228,1,85.0499974044801,2|0,0:0|0:0,0:0:0:0:
119,66,20591,2,0,B|179:143,1,85.0499974044801,8|2,0:0|0:0,0:0:0:0:
110,351,20826,5,2,0:0:0:0:
79,160,20944,1,0,0:0:0:0:
199,296,21061,1,8,0:0:0:0:
251,109,21179,1,0,0:0:0:0:
289,245,21297,1,2,0:0:0:0:
415,97,21414,1,0,0:0:0:0:
480,280,21532,1,8,0:0:0:0:
251,109,21650,1,0,0:0:0:0:
251,109,21708,1,0,0:0:0:0:
251,109,21767,6,2,L|137:122,1,85.0499974044801
94,378,22003,1,8,0:0:0:0:
59,167,22120,1,0,0:0:0:0:
210,317,22238,1,2,0:0:0:0:
0,286,22355,1,2,0:0:0:0:
189,188,22473,1,8,0:0:0:0:
0,323,22591,5,2,0:0:0:0:
189,225,22708,2,2,L|273:215,1,85.0499974044801,2|0,0:0|0:0,0:0:0:0:
448,141,22944,1,8,0:0:0:0:
448,141,23003,1,0,0:0:0:0:
448,141,23061,1,0,0:0:0:0:
307,280,23179,69,2,0:0:0:0:
512,251,23297,1,2,0:0:0:0:
283,349,23414,1,8,0:0:0:0:
512,375,23532,1,0,0:0:0:0:
448,141,23650,5,4,0:0:0:0:
422,370,23767,1,4,0:0:0:0:
179,14,23885,5,8,0:0:0:0:
223,312,24003,1,2,0:0:0:0:
363,45,24120,1,2,0:0:0:0:
92,179,24238,1,2,0:0:0:0:
391,230,24355,1,8,0:0:0:0:
179,14,24473,1,0,0:0:0:0:
179,14,24532,1,0,0:0:0:0:
179,14,24591,6,0,P|77:11|-3:71,1,170.09999480896,6|8,0:0|0:0,0:0:0:0:
223,312,24944,1,2,0:0:0:0:
162,176,25061,70,0,P|264:173|344:233,1,170.09999480896,2|8,0:0|0:0,0:0:0:0:
92,179,25414,1,0,0:0:0:0:
92,179,25473,1,0,0:0:0:0:
92,179,25532,6,0,L|114:78,1,85.0499974044801,2|0,0:0|0:0,0:0:0:0:
253,169,25767,5,8,0:0:0:0:
233,9,25885,1,0,0:0:0:0:
391,230,26003,1,2,0:0:0:0:
426,49,26120,1,0,0:0:0:0:
253,169,26238,2,0,P|230:239|238:289,1,85.0499974044801,8|0,0:0|0:0,0:0:0:0:
449,369,26473,5,2,0:0:0:0:
458,129,26591,1,0,0:0:0:0:
345,343,26708,1,8,0:0:0:0:
316,103,26826,1,8,0:0:0:0:
252,326,26944,69,2,0:0:0:0:
182,99,27061,1,2,0:0:0:0:
159,313,27179,1,8,0:0:0:0:
54,113,27297,1,0,0:0:0:0:
60,215,27414,6,2,P|138:188|237:212,1,170.09999480896,2|8,0:0|0:0,0:0:0:0:
159,313,27767,1,0,0:0:0:0:
334,64,27885,6,2,P|256:37|157:61,1,170.09999480896,2|8,0:0|0:0,0:0:0:0:
222,203,28238,1,0,0:0:0:0:
413,114,28355,6,0,P|431:51|415:4,1,85.0499974044801,2|0,0:0|0:0,0:0:0:0:
222,203,28591,1,8,0:0:0:0:
222,203,28708,1,0,0:0:0:0:
420,276,28826,70,2,P|477:244|499:199,1,85.0499974044801
222,203,29061,1,8,0:0:0:0:
222,203,29179,1,0,0:0:0:0:
117,334,29297,5,4,0:0:0:0:
91,188,29414,1,2,0:0:0:0:
268,300,29532,1,8,0:0:0:0:
294,154,29649,1,0,0:0:0:0:
192,249,29767,5,2,0:0:0:0:
161,78,29884,1,2,0:0:0:0:
368,209,30002,1,8,0:0:0:0:
398,38,30119,1,0,0:0:0:0:
183,42,30238,70,0,L|95:52,1,85.0499974044801,4|0,0:0|0:0,0:0:0:0:
363,131,30591,86,0,L|451:141,1,85.0499974044801,4|0,0:0|0:0,0:0:0:0:
301,209,30826,6,0,L|389:219,1,85.0499974044801,4|0,0:0|0:0,0:0:0:0:
406,317,31061,1,0,0:0:0:0:
363,131,31179,1,8,0:0:0:0:
420,67,31767,86,0,P|445:113|434:183,1,105.299995179749
147,195,32120,5,0,0:0:0:0:
251,154,32238,1,0,0:0:0:0:
133,225,32355,1,0,0:0:0:0:
237,184,32473,1,0,0:0:0:0:
309,365,32591,1,0,0:0:0:0:
221,295,32708,1,0,0:0:0:0:
342,142,32826,1,0,0:0:0:0:
325,253,32944,1,0,0:0:0:0:
133,225,33061,6,0,P|77:205|-9:274,1,162
81,300,33414,1,0,0:0:0:0:
144,103,33532,1,0,0:0:0:0:
161,214,33650,1,0,0:0:0:0:
117,87,33767,1,0,0:0:0:0:
134,198,33885,1,0,0:0:0:0:
42,36,34003,6,0,P|74:8|189:36,1,162
280,109,34355,1,0,0:0:0:0:
280,109,34473,2,0,P|352:139|420:101,1,162
311,327,34826,70,0,P|300:249|234:209,1,162
473,178,35179,2,0,P|411:225|409:303,1,162
292,351,35532,2,0,P|214:353|198:362,1,81
99,233,35767,1,0,0:0:0:0:
99,233,35885,6,0,P|84:114|118:53,1,162
302,175,36238,1,0,0:0:0:0:
302,175,36297,1,0,0:0:0:0:
302,175,36355,2,0,P|258:188|212:179,1,81
203,31,36591,2,0,P|236:62|251:106,1,81
359,231,36826,6,0,P|434:173|526:198,1,162
464,357,37179,1,0,0:0:0:0:
464,357,37297,2,0,L|451:263,1,81
370,150,37532,2,0,L|359:231,1,81
482,76,37767,6,0,B|418:84|418:84|394:68|394:68|314:76,1,162,2|0,0:0|0:0,0:0:0:0:
213,151,38120,2,0,B|277:159|277:159|301:143|301:143|381:151,1,162,2|0,0:0|0:0,0:0:0:0:
141,188,38473,1,0,0:0:0:0:
141,188,38591,2,0,P|134:126|150:93,1,81
203,228,38826,70,0,P|210:290|194:323,1,81
36,282,39061,1,0,0:0:0:0:
131,268,39179,1,0,0:0:0:0:
284,320,39297,5,0,0:0:0:0:
379,306,39414,1,0,0:0:0:0:
320,231,39532,1,0,0:0:0:0:
377,384,39650,5,0,0:0:0:0:
472,370,39767,1,0,0:0:0:0:
413,295,39885,1,0,0:0:0:0:
354,220,40003,1,0,0:0:0:0:
354,220,40120,2,0,L|363:139,1,81
218,229,40355,6,0,P|147:247|111:231,1,81
92,115,40591,69,0,0:0:0:0:
55,250,40708,1,0,0:0:0:0:
164,162,40826,1,2,0:0:0:0:
25,169,40944,1,2,0:0:0:0:
142,246,41061,1,0,0:0:0:0:
84,127,41179,5,0,0:0:0:0:
17,181,41297,1,0,0:0:0:0:
47,262,41414,1,0,0:0:0:0:
156,174,41532,6,0,B|179:127|159:88|159:88|142:47|158:3,1,162,0|2,0:0|0:0,0:0:0:0:
234,49,41885,1,0,0:0:0:0:
86,128,42003,2,0,P|46:136|10:154,1,81
234,49,42238,5,0,0:0:0:0:
234,49,42355,2,0,P|254:127|222:227,1,162
98,275,42708,2,0,P|134:258|174:250,1,81,2|0,0:0|0:0,0:0:0:0:
306,335,42944,2,0,P|273:311|246:280,1,81
418,271,43179,2,0,P|413:311|400:350,1,81
318,207,43414,70,2,P|375:150|478:128,1,162,0|0,0:0|0:0,0:0:0:0:
306,335,43767,1,0,0:0:0:0:
306,335,43885,2,0,L|203:348,1,81
211,199,44120,2,0,L|273:281,1,81
133,351,44355,1,0,0:0:0:0:
172,275,44473,1,0,0:0:0:0:
105,146,44591,6,0,P|102:90|113:47,1,81
281,160,44826,2,0,P|234:190|191:202,1,81
204,1,45061,6,0,P|253:26|285:57,1,81
23,185,45297,2,0,P|17:85|37:9,1,162
281,160,45650,1,0,0:0:0:0:
281,160,45767,2,0,P|234:190|191:202,1,81
204,1,46003,1,0,0:0:0:0:
204,1,46120,6,0,P|253:26|285:57,1,81
23,185,46355,2,0,P|17:85|37:9,1,162
180,106,46708,1,0,0:0:0:0:
23,185,46944,69,0,0:0:0:0:
210,198,47061,1,0,0:0:0:0:
51,297,47179,6,0,P|52:339|71:385,1,81
190,267,47414,2,0,P|153:246|103:240,1,81
184,372,47650,2,0,L|366:361,1,162
415,144,48003,6,0,B|411:204|411:204|427:236|427:236|423:308,1,162
330,99,48355,2,0,P|368:57|416:52,1,81
486,171,48591,2,0,P|430:159|402:120,1,81
473,4,48826,2,0,P|490:57|470:101,1,81
317,182,49061,6,0,L|232:185,1,81
317,328,49297,2,0,L|356:252,1,81
198,258,49532,2,0,P|154:234|44:263,1,162
0,93,49885,70,0,P|44:69|154:98,1,162
236,184,50238,2,0,P|287:194|343:167,1,81
266,38,50473,2,0,P|231:77|227:139,1,81
377,136,50708,2,0,P|360:86|308:51,1,81
418,212,50944,6,0,P|452:172|456:110,1,81
378,292,51179,2,0,P|429:302|485:275,1,81
301,287,51414,2,0,P|228:269|129:295,1,162
18,137,51768,6,0,P|91:119|190:145,1,162
377,136,52120,2,0,L|401:45,1,81
236,184,52355,2,0,L|302:250,1,81
266,38,52591,2,0,L|175:62,1,81
377,136,52826,5,0,0:0:0:0:
492,163,52944,1,0,0:0:0:0:
351,206,53061,1,0,0:0:0:0:
465,266,53179,1,0,0:0:0:0:
311,275,53297,1,0,0:0:0:0:
415,371,53415,1,0,0:0:0:0:
265,335,53532,1,0,0:0:0:0:
265,335,53650,70,0,P|181:319|99:344,1,162
146,103,54003,5,0,0:0:0:0:
31,130,54121,1,0,0:0:0:0:
172,173,54238,1,0,0:0:0:0:
58,233,54356,1,0,0:0:0:0:
212,242,54474,1,0,0:0:0:0:
108,338,54592,1,0,0:0:0:0:
146,103,54708,6,0,B|197:81|197:81|306:90,1,162
443,87,55061,2,0,P|454:40|437:-1,1,81
374,137,55297,2,0,P|363:184|380:225,1,81
303,89,55532,6,0,P|280:184|307:273,1,162
368,353,55885,2,0,P|379:306|362:265,1,81
225,345,56120,2,0,P|260:378|304:383,1,81
303,225,56355,2,0,P|256:238|229:274,1,81
60,343,56591,70,0,B|56:277|56:277|72:245|72:245|68:185,1,162
146,297,56944,1,0,0:0:0:0:
301,307,57061,6,0,L|401:300,1,81
244,384,57297,2,0,L|144:377,1,81
311,121,57532,5,0,0:0:0:0:
105,188,57650,1,0,0:0:0:0:
233,13,57767,1,0,0:0:0:0:
222,242,57885,5,0,0:0:0:0:
94,67,58002,1,0,0:0:0:0:
300,133,58120,1,0,0:0:0:0:
94,200,58238,1,0,0:0:0:0:
222,25,58355,1,0,0:0:0:0:
466,65,58473,69,2,0:0:0:0:
485,175,58591,1,0,0:0:0:0:
380,136,58708,2,0,P|329:128|288:138,1,81,8|0,0:0|0:0,0:0:0:0:
320,334,58944,5,2,0:0:0:0:
339,224,59061,1,2,0:0:0:0:
425,295,59179,2,0,P|476:287|517:297,1,81,8|0,0:0|0:0,0:0:0:0:
320,334,59414,6,0,P|247:307|156:334,1,162,2|8,0:0|0:0,0:0:0:0:
34,338,59767,1,2,0:0:0:0:
91,217,59885,5,0,0:0:0:0:
331,170,60003,1,2,0:0:0:0:
109,66,60120,1,8,0:0:0:0:
227,279,60238,1,0,0:0:0:0:
258,36,60355,69,2,0:0:0:0:
300,200,60473,1,2,0:0:0:0:
502,167,60591,5,8,0:0:0:0:
460,331,60708,1,0,0:0:0:0:
338,212,60826,2,0,P|259:191|160:220,1,162,2|8,0:0|0:0,0:0:0:0:
89,290,61179,1,8,0:0:0:0:
49,93,61297,6,0,P|68:145|62:174,1,81,2|0,0:0|0:0,0:0:0:0:
148,29,61532,2,0,P|93:19|71:0,1,81,8|0,0:0|0:0,0:0:0:0:
153,143,61767,2,0,P|188:100|216:91,1,81,2|2,0:0|0:0,0:0:0:0:
393,41,62003,6,0,B|371:78|371:78|389:171,1,121.5,8|0,0:0|0:0,0:0:0:0:
445,204,62238,2,0,B|462:174|462:174|448:100,1,81,2|0,0:0|0:0,0:0:0:0:
374,229,62473,70,0,B|356:258|356:258|370:333,1,81,8|0,0:0|0:0,0:0:0:0:
316,179,62708,2,0,P|265:155|146:197,1,162,2|8,0:0|0:0,0:0:0:0:
240,257,63061,1,2,0:0:0:0:
86,140,63179,5,2,0:0:0:0:
135,353,63297,1,2,0:0:0:0:
299,2,63414,5,8,0:0:0:0:
240,257,63532,1,0,0:0:0:0:
438,85,63650,1,2,0:0:0:0:
177,107,63767,1,2,0:0:0:0:
402,243,63885,1,8,0:0:0:0:
307,140,64003,1,0,0:0:0:0:
144,295,64120,5,4,0:0:0:0:
68,102,65061,101,2,0:0:0:0:
75,130,65179,1,2,0:0:0:0:
82,158,65296,69,2,0:0:0:0:
89,186,65414,1,4,0:0:0:0:
186,127,65532,53,4,0:0:0:0:
172,183,65650,1,4,0:0:0:0:
158,239,65767,21,8,0:0:0:0:
144,295,65885,1,8,0:0:0:0:
136,56,66003,6,0,P|188:39|268:95,1,145.799995550537
330,131,66238,2,0,P|345:82|320:23,1,97.1999970336915,8|0,0:0|0:0,0:0:0:0:
254,163,66473,1,2,0:0:0:0:
410,142,66591,1,2,0:0:0:0:
308,226,66708,1,8,0:0:0:0:
464,246,66826,1,0,0:0:0:0:
356,295,66944,86,0,P|287:297|183:320,1,145.799995550537
245,347,67179,2,0,P|299:343|342:334,1,97.1999970336915,8|0,0:0|0:0,0:0:0:0:
19,185,67414,38,0,P|97:191|192:210,1,145.799995550537
129,237,67650,2,0,P|80:233|33:224,1,97.1999970336915,8|0,0:0|0:0,0:0:0:0:
298,85,67885,86,0,L|176:102,1,97.1999970336915,2|0,0:0|0:0,0:0:0:0:
369,228,68120,1,8,0:0:0:0:
393,71,68238,1,0,0:0:0:0:
280,181,68355,1,0,0:0:0:0:
435,160,68473,1,0,0:0:0:0:
279,71,68591,2,0,L|157:88,1,97.1999970336915,8|0,0:0|0:0,0:0:0:0:
288,355,68826,6,0,P|320:261|266:170,1,194.399994067383,2|8,0:0|0:0,0:0:0:0:
73,249,69179,1,0,0:0:0:0:
208,270,69297,1,2,0:0:0:0:
47,172,69414,1,2,0:0:0:0:
197,168,69532,1,8,0:0:0:0:
15,99,69650,1,0,0:0:0:0:
176,66,69767,86,0,B|255:54|255:54|276:69|276:69|386:54,1,194.399994067383,4|8,0:0|0:0,0:0:0:0:
459,128,70120,2,2,P|475:185|464:231,1,97.1999970336915,0|2,0:0|0:0,0:0:0:0:
354,287,70355,2,0,P|338:332|344:380,1,97.1999970336915,2|8,0:0|0:0,0:0:0:0:
388,188,70591,1,0,0:0:0:0:
245,177,70708,38,0,L|123:195,1,97.1999970336915,2|0,0:0|0:0,0:0:0:0:
36,261,70944,1,8,0:0:0:0:
156,344,71061,86,0,L|278:362,1,97.1999970336915,2|0,0:0|0:0,0:0:0:0:
261,156,71297,2,0,L|139:174,1,97.1999970336915,2|8,0:0|0:0,0:0:0:0:
15,266,71532,1,0,0:0:0:0:
122,2,71650,5,2,0:0:0:0:
164,170,71767,1,0,0:0:0:0:
31,60,71885,1,8,0:0:0:0:
204,72,72003,1,0,0:0:0:0:
58,163,72120,1,0,0:0:0:0:
212,56,72238,85,0,0:0:0:0:
212,56,72297,1,0,0:0:0:0:
214,54,72355,2,0,B|251:40|251:40|345:59,1,97.1999970336915,8|0,0:0|0:0,0:0:0:0:
400,144,72591,37,8,0:0:0:0:
454,362,72708,1,2,0:0:0:0:
281,219,72826,1,8,0:0:0:0:
506,235,72944,1,2,0:0:0:0:
273,372,73061,85,8,0:0:0:0:
512,222,73179,1,8,0:0:0:0:
228,202,73297,1,8,0:0:0:0:
446,382,73414,1,8,0:0:0:0:
378,108,73532,6,2,P|306:92|256:101,1,97.1999970336915
149,156,73767,2,8,P|100:156|54:142,1,97.1999970336915
299,6,74003,1,0,0:0:0:0:
228,202,74120,1,0,0:0:0:0:
115,65,74238,1,8,0:0:0:0:
418,174,74355,1,8,0:0:0:0:
418,174,74414,1,8,0:0:0:0:
418,174,74473,86,0,L|426:292,1,97.1999970336915,4|0,0:0|0:0,0:0:0:0:
180,332,74708,1,8,0:0:0:0:
347,252,74826,1,0,0:0:0:0:
104,384,74944,38,0,P|91:331|116:274,1,97.1999970336915,4|0,0:0|0:0,0:0:0:0:
227,109,75179,2,0,P|240:162|215:219,1,97.1999970336915,8|0,0:0|0:0,0:0:0:0:
154,57,75414,86,0,B|196:29|196:29|356:39,1,194.399994067383,4|8,0:0|0:0,0:0:0:0:
180,332,75767,1,0,0:0:0:0:
148,151,75885,1,2,0:0:0:0:
320,368,76003,1,2,0:0:0:0:
355,168,76120,1,8,0:0:0:0:
165,238,76238,1,8,0:0:0:0:
416,243,76355,6,0,P|449:174|372:67,1,194.399994067383,0|8,0:0|0:0,0:0:0:0:
165,238,76708,1,8,0:0:0:0:
355,168,76826,1,2,0:0:0:0:
160,112,76944,1,2,0:0:0:0:
285,271,77061,1,8,0:0:0:0:
278,68,77179,1,0,0:0:0:0:
62,57,77297,86,0,B|50:136|50:136|65:157|65:157|50:267,1,194.399994067383,4|8,0:0|0:0,0:0:0:0:
160,112,77650,1,0,0:0:0:0:
160,112,77708,1,0,0:0:0:0:
160,112,77767,2,2,P|241:102|271:117,1,97.1999970336915
362,169,78003,2,0,P|409:176|455:162,1,97.1999970336915,8|0,0:0|0:0,0:0:0:0:
213,187,78238,37,4,0:0:0:0:
241,367,78355,1,2,0:0:0:0:
404,96,78473,85,8,0:0:0:0:
376,276,78591,1,8,0:0:0:0:
90,7,78708,5,2,0:0:0:0:
136,317,78826,1,2,0:0:0:0:
282,36,78944,1,8,0:0:0:0:
0,178,79061,1,8,0:0:0:0:
312,230,79179,1,2,0:0:0:0:
312,230,79238,1,0,0:0:0:0:
312,230,79297,1,0,0:0:0:0:
84,130,85297,22,0,P|165:88|235:108,1,145.799995550537
207,316,85650,1,0,0:0:0:0:
174,194,85767,1,0,0:0:0:0:
296,226,85885,1,0,0:0:0:0:
85,284,86003,6,0,L|67:198,1,72.8999977752686
174,194,86238,2,0,L|196:124,1,72.8999977752686
296,226,86473,2,0,L|350:177,1,72.8999977752686
499,306,86708,6,0,P|446:282|349:324,1,145.799995550537
281,108,87061,2,0,P|334:84|431:126,1,145.799995550537
206,140,87414,6,0,P|203:86|216:65,1,72.8999977752686
270,185,87650,2,0,P|273:239|260:260,1,72.8999977752686
201,376,87885,2,0,P|198:322|211:301,1,72.8999977752686
441,318,88120,69,0,0:0:0:0:
274,343,88238,1,0,0:0:0:0:
455,207,88355,1,0,0:0:0:0:
270,185,88473,1,0,0:0:0:0:
486,98,88591,1,0,0:0:0:0:
296,22,88709,1,0,0:0:0:0:
441,318,88826,5,0,0:0:0:0:
240,348,88944,1,0,0:0:0:0:
455,207,89061,1,0,0:0:0:0:
233,181,89179,1,0,0:0:0:0:
486,98,89297,1,0,0:0:0:0:
274,13,89415,1,0,0:0:0:0:
512,85,89532,5,0,0:0:0:0:
300,0,89650,1,0,0:0:0:0:
233,181,89767,5,0,0:0:0:0:
233,181,89885,1,0,0:0:0:0:
354,153,90003,1,0,0:0:0:0:
475,239,90120,69,0,0:0:0:0:
253,213,90355,1,0,0:0:0:0:
441,318,90591,5,0,0:0:0:0:
274,343,90709,1,0,0:0:0:0:
486,98,90943,1,0,0:0:0:0:
177,249,91179,6,0,B|173:191|173:191|188:162|188:162|184:96,1,141.75
254,58,91650,6,0,P|307:46|356:48,1,81
371,222,91885,2,0,P|334:182|311:138,1,81
468,145,92120,70,0,B|485:197|485:197|463:323,1,162
371,222,92473,1,0,0:0:0:0:
279,314,92591,6,0,L|169:324,1,81
73,277,92826,1,0,0:0:0:0:
151,384,92944,1,0,0:0:0:0:
151,252,93061,2,0,B|168:221|168:221|159:143,1,81
104,48,93297,2,8,B|88:76|88:76|96:147,1,72.8999977752686
310,73,93532,6,0,P|359:45|398:48,1,72.8999977752686
251,112,93767,2,0,P|202:83|185:48,1,72.8999977752686
320,148,94002,2,0,P|319:204|241:275,1,145.799995550537
155,355,94355,2,0,B|209:351|209:351|238:366|238:366|296:362,1,145.799995550537
404,260,94708,2,0,B|349:256|349:256|320:270|320:270|262:266,1,145.799995550537
494,300,95061,5,0,0:0:0:0:
404,260,95179,1,0,0:0:0:0:
414,359,95297,1,8,0:0:0:0:
484,201,95414,70,0,B|500:161|500:161|489:36,1,145.799995550537
345,151,95767,1,0,0:0:0:0:
345,151,95885,2,0,P|392:161|426:153,1,72.8999977752686
249,151,96120,2,0,P|263:196|287:222,1,72.8999977752686
288,47,96355,5,0,0:0:0:0:
294,68,96473,1,0,0:0:0:0:
178,123,96591,5,0,0:0:0:0:
172,144,96709,1,0,0:0:0:0:
48,220,96826,6,0,B|102:216|102:216|131:231|131:231|189:227,1,145.799995550537,0|8,0:0|0:0,0:0:0:0:
77,302,97179,1,8,0:0:0:0:
300,295,97297,70,0,P|305:348|287:382,1,72.8999977752686
350,225,97532,2,0,P|380:268|382:306,1,72.8999977752686
316,150,97767,2,0,P|369:145|439:215,1,145.799995550537
268,219,98120,2,0,P|237:175|262:79,1,145.799995550537
350,225,98473,6,0,P|380:268|382:306,1,72.8999977752686
316,150,98708,2,0,P|369:144|403:162,1,72.8999977752686
252,88,98944,2,8,P|199:82|165:100,1,72.8999977752686
32,205,99179,6,0,L|25:116,1,72.8999977752686
180,246,99414,2,0,L|173:335,1,72.8999977752686
109,195,99650,2,0,P|153:164|249:189,1,145.799995550537
318,363,100002,1,0,0:0:0:0:
318,363,100120,6,0,B|331:322|331:322|312:201,1,145.799995550537
304,64,100473,1,0,0:0:0:0:
304,64,100591,2,0,B|296:88|296:88|307:161,1,72.8999977752686
432,221,100826,2,8,B|439:196|439:196|428:123,1,72.8999977752686
180,260,101061,70,0,B|172:284|172:284|183:357,1,72.8999977752686
61,156,101297,2,0,B|69:132|69:132|58:59,1,72.8999977752686
11,227,101532,2,0,P|65:241|142:185,1,145.799995550537
205,86,101885,1,0,0:0:0:0:
205,86,102002,6,0,P|260:71|307:80,1,72.8999977752686
315,244,102238,2,0,P|274:203|258:158,1,72.8999977752686
377,22,102473,2,0,P|384:116|353:152,1,145.799995550537
205,86,102826,1,0,0:0:0:0:
187,246,102944,6,0,L|198:338,1,72.8999977752686
282,384,103179,1,0,0:0:0:0:
282,384,103297,1,0,0:0:0:0:
445,169,103415,6,0,L|436:241,1,72.8999977752686
350,307,103650,1,0,0:0:0:0:
352,316,103767,1,0,0:0:0:0:
239,170,103885,70,0,P|166:157|141:162,1,72.8999977752686
59,220,104120,1,0,0:0:0:0:
64,235,104238,1,0,0:0:0:0:
145,70,104355,6,0,P|218:57|243:62,1,72.8999977752686
325,120,104590,1,0,0:0:0:0:
317,144,104708,1,0,0:0:0:0:
285,20,104826,6,0,P|363:22|426:79,1,145.799995550537
440,229,105179,1,0,0:0:0:0:
440,229,105238,1,0,0:0:0:0:
440,229,105297,2,0,L|341:236,1,72.8999977752686
396,363,105532,2,0,L|298:344,1,72.8999977752686
201,195,105767,5,0,0:0:0:0:
163,274,106002,1,0,0:0:0:0:
63,128,106238,69,0,0:0:0:0:
113,201,106355,1,0,0:0:0:0:
152,122,106473,1,0,0:0:0:0:
350,53,106708,6,0,P|359:131|357:143,1,72.8999977752686
286,295,106944,1,0,0:0:0:0:
245,114,107061,1,0,0:0:0:0:
384,235,107179,6,0,L|389:335,1,72.8999977752686
200,219,107414,1,0,0:0:0:0:
359,124,107531,1,0,0:0:0:0:
286,295,107650,6,0,P|280:369|277:375,1,72.8999977752686
39,351,107885,1,0,0:0:0:0:
188,329,108002,1,0,0:0:0:0:
33,104,108120,70,0,P|39:178|42:184,1,72.8999977752686
280,160,108355,1,0,0:0:0:0:
131,138,108472,1,0,0:0:0:0:
326,5,108592,6,0,L|334:98,1,72.8999977752686
306,260,108826,1,0,0:0:0:0:
220,97,108944,1,0,0:0:0:0:
458,173,109061,6,0,P|421:172|386:178,1,72.8999977752686
204,210,109296,1,0,0:0:0:0:
190,227,109414,1,0,0:0:0:0:
8,307,109532,6,0,P|44:305|80:311,1,72.8999977752686
262,343,109767,1,0,0:0:0:0:
276,360,109885,1,0,0:0:0:0:
458,173,110002,69,0,0:0:0:0:
444,190,110238,1,0,0:0:0:0:
295,98,110473,6,0,P|226:93|191:105,1,72.8999977752686
74,185,110708,1,0,0:0:0:0:
74,185,110767,1,0,0:0:0:0:
74,185,110826,1,0,0:0:0:0:
190,303,110944,2,0,L|193:206,1,72.8999977752686
116,355,111179,5,0,0:0:0:0:
137,371,111237,1,0,0:0:0:0:
163,381,111296,1,0,0:0:0:0:
190,384,111355,1,0,0:0:0:0:
217,381,111414,6,0,P|296:369|305:371,1,72.8999977752686
440,350,111650,1,0,0:0:0:0:
440,350,111708,1,0,0:0:0:0:
440,350,111767,1,0,0:0:0:0:
325,174,111885,2,0,L|327:246,1,72.8999977752686
391,103,112120,69,0,0:0:0:0:
369,86,112178,1,0,0:0:0:0:
343,76,112237,1,0,0:0:0:0:
316,74,112296,1,0,0:0:0:0:
289,76,112355,6,0,P|210:88|201:86,1,72.8999977752686
67,108,112591,1,0,0:0:0:0:
67,108,112649,1,0,0:0:0:0:
67,108,112708,1,0,0:0:0:0:
182,284,112826,2,0,L|179:211,1,72.8999977752686
331,164,113061,5,0,0:0:0:0:
363,195,113119,1,0,0:0:0:0:
382,236,113178,1,0,0:0:0:0:
386,281,113237,1,0,0:0:0:0:
373,325,113296,5,0,0:0:0:0:
115,276,113414,1,0,0:0:0:0:
386,281,113532,69,0,0:0:0:0:
115,177,113650,1,0,0:0:0:0:
382,236,113767,5,0,0:0:0:0:
108,71,113885,1,0,0:0:0:0:
232,365,114002,1,0,0:0:0:0:
304,53,114120,1,0,0:0:0:0:
65,263,114238,6,0,P|129:272|188:252,1,109.349996662903,4|0,0:0|0:0,0:0:0:0:
237,217,114473,2,0,L|251:297,1,72.8999977752686,8|0,0:0|0:0,0:0:0:0:
362,123,114708,2,2,L|354:203,1,72.8999977752686
507,64,114944,2,0,L|479:140,1,72.8999977752686,8|0,0:0|0:0,0:0:0:0:
283,142,115179,6,0,P|234:132|192:142,1,72.8999977752686
156,314,115414,1,8,0:0:0:0:
96,137,115532,1,0,0:0:0:0:
297,40,115650,69,2,0:0:0:0:
237,217,115768,1,2,0:0:0:0:
390,109,115885,1,8,0:0:0:0:
203,106,116002,1,8,0:0:0:0:
353,219,116120,6,0,P|377:289|378:372,1,145.799995550537,2|8,0:0|0:0,0:0:0:0:
235,217,116473,1,0,0:0:0:0:
235,217,116591,6,0,P|175:261|97:288,1,145.799995550537,2|8,0:0|0:0,0:0:0:0:
14,164,116944,1,0,0:0:0:0:
14,164,117061,6,0,P|10:128|20:93,1,72.8999977752686
166,175,117297,2,0,P|136:195|101:205,1,72.8999977752686,8|0,0:0|0:0,0:0:0:0:
100,38,117532,2,2,P|132:53|158:78,1,72.8999977752686
14,164,117767,1,8,0:0:0:0:
247,109,117885,1,8,0:0:0:0:
334,260,118002,69,8,0:0:0:0:
101,205,118120,1,8,0:0:0:0:
357,172,118238,2,2,P|389:187|415:212,1,72.8999977752686
321,89,118473,1,0,0:0:0:0:
321,89,118591,2,2,P|356:85|391:94,1,72.8999977752686
334,260,118826,1,0,0:0:0:0:
334,260,118944,6,0,P|234:250|164:273,1,145.799995550537
80,330,119297,1,0,0:0:0:0:
80,330,119414,2,0,L|69:258,1,72.8999977752686
129,46,119650,1,0,0:0:0:0:
132,205,119767,1,0,0:0:0:0:
36,79,119885,69,0,0:0:0:0:
47,229,120591,21,0,0:0:0:0:
53,245,120708,1,0,0:0:0:0:
59,259,120826,6,0,P|93:284|134:295,1,72.8999977752686
227,237,121061,2,0,P|232:194|221:153,1,72.8999977752686
15,45,121297,1,0,0:0:0:0:
17,63,121355,1,0,0:0:0:0:
20,81,121414,1,0,0:0:0:0:
23,99,121473,1,0,0:0:0:0:
25,116,121532,6,0,L|101:103,1,72.8999977752686
35,190,121767,54,0,P|109:204|182:180,1,145.799995550537,4|0,0:0|0:0,0:0:0:0:
231,139,122002,2,0,P|294:131|337:142,1,97.1999970336915,8|0,0:0|0:0,0:0:0:0:
309,381,122238,1,2,0:0:0:0:
281,215,122355,1,2,0:0:0:0:
457,135,122473,85,8,0:0:0:0:
429,301,122590,1,2,0:0:0:0:
382,94,122708,2,0,P|422:60|531:88,1,145.799995550537,4|0,0:0|0:0,0:0:0:0:
457,135,122944,2,0,L|474:238,1,97.1999970336915,8|0,0:0|0:0,0:0:0:0:
279,384,123179,1,2,0:0:0:0:
295,199,123296,1,2,0:0:0:0:
159,311,123414,2,0,P|98:300|50:324,1,97.1999970336915,8|0,0:0|0:0,0:0:0:0:
316,311,123650,37,4,0:0:0:0:
237,142,123767,1,0,0:0:0:0:
361,233,123885,85,8,0:0:0:0:
328,49,124002,1,8,0:0:0:0:
431,193,124120,5,2,0:0:0:0:
446,6,124237,1,2,0:0:0:0:
512,142,124355,2,0,P|526:208|486:277,1,145.799995550537,8|0,0:0|0:0,0:0:0:0:
431,193,124591,86,0,B|352:181|352:181|331:196|331:196|221:181,1,194.399994067383,4|8,0:0|0:0,0:0:0:0:
306,92,124944,1,0,0:0:0:0:
388,290,125061,37,2,0:0:0:0:
243,184,125179,1,2,0:0:0:0:
299,355,125297,1,8,0:0:0:0:
355,184,125414,1,0,0:0:0:0:
209,290,125532,86,0,P|127:271|8:308,1,194.399994067383,4|8,0:0|0:0,0:0:0:0:
192,82,125885,2,0,P|222:173|292:239,1,194.399994067383,0|2,0:0|0:0,0:0:0:0:
19,209,126238,2,0,P|82:136|94:95,1,97.1999970336915,8|2,0:0|0:0,0:0:0:0:
244,25,126473,6,0,B|323:13|323:13|344:28|344:28|454:13,1,194.399994067383,4|8,0:0|0:0,0:0:0:0:
316,231,126826,2,0,P|293:188|285:140,1,97.1999970336915,2|0,0:0|0:0,0:0:0:0:
458,238,127061,2,0,P|449:285|427:328,1,97.1999970336915,2|8,0:0|0:0,0:0:0:0:
397,161,127297,1,0,0:0:0:0:
182,357,127414,85,4,0:0:0:0:
182,176,127532,1,2,0:0:0:0:
75,322,127650,1,8,0:0:0:0:
247,266,127767,2,0,P|299:330|297:373,1,97.1999970336915,2|0,0:0|0:0,0:0:0:0:
75,210,128003,2,0,P|70:127|97:94,1,97.1999970336915,2|8,0:0|0:0,0:0:0:0:
182,176,128238,1,0,0:0:0:0:
413,214,128355,37,4,0:0:0:0:
456,377,128473,1,2,0:0:0:0:
320,173,128591,1,8,0:0:0:0:
319,358,128709,1,10,0:0:0:0:
232,102,128826,85,0,0:0:0:0:
178,298,128944,1,2,0:0:0:0:
158,0,129061,1,8,0:0:0:0:
45,193,129179,1,10,0:0:0:0:
232,102,129297,6,0,P|309:60|349:68,1,97.1999970336915,4|0,0:0|0:0,0:0:0:0:
312,277,129532,2,0,P|237:231|224:192,1,97.1999970336915,8|0,0:0|0:0,0:0:0:0:
433,117,129768,86,2,L|416:229,1,97.1999970336915
233,225,130002,2,8,L|248:322,1,97.1999970336915,10|8,0:0|0:0,0:0:0:0:
20,343,130238,1,2,0:0:0:0:
160,292,130355,1,2,0:0:0:0:
0,226,130473,1,8,0:0:0:0:
172,195,130590,1,0,0:0:0:0:
0,82,130708,38,0,P|111:34|208:39,1,194.399994067383,2|8,0:0|0:0,0:0:0:0:
302,111,131061,1,0,0:0:0:0:
302,111,131179,86,0,P|388:153|484:159,1,194.399994067383,2|8,0:0|0:0,0:0:0:0:
278,286,131532,1,2,0:0:0:0:
278,286,131650,2,0,P|271:190|250:155,1,97.1999970336915,0|2,0:0|0:0,0:0:0:0:
444,252,131885,2,0,P|364:305|344:341,1,97.1999970336915,8|0,0:0|0:0,0:0:0:0:
176,355,132120,5,2,0:0:0:0:
149,206,132238,1,0,0:0:0:0:
75,284,132355,1,8,0:0:0:0:
100,134,132473,1,8,0:0:0:0:
278,286,132591,85,2,0:0:0:0:
307,122,132709,1,0,0:0:0:0:
389,207,132826,1,8,0:0:0:0:
361,42,132944,1,8,0:0:0:0:
208,67,133061,38,0,P|96:19|-10:53,1,194.399994067383,2|8,0:0|0:0,0:0:0:0:
100,134,133414,1,0,0:0:0:0:
233,180,133532,2,2,P|297:137|320:80,1,97.1999970336915
0,103,133767,2,0,P|5:179|43:228,1,97.1999970336915,8|0,0:0|0:0,0:0:0:0:
233,180,134002,69,4,0:0:0:0:
247,318,134120,1,0,0:0:0:0:
345,117,134238,5,8,0:0:0:0:
320,267,134356,1,8,0:0:0:0:
467,70,134473,5,2,0:0:0:0:
397,222,134591,1,2,0:0:0:0:
512,168,134708,5,8,0:0:0:0:
394,308,134826,1,0,0:0:0:0:
408,325,134944,1,2,0:0:0:0:
53,110,138473,5,0,0:0:0:0:
66,130,138531,1,0,0:0:0:0:
74,153,138590,1,0,0:0:0:0:
76,177,138649,1,0,0:0:0:0:
72,204,138708,6,0,P|147:197|184:206,1,91.125003476143
214,248,138944,2,0,P|265:252|291:246,1,60.7500023174287
380,175,139180,6,0,B|401:155|401:155|392:215|402:229,1,91.125003476143
439,283,139415,2,0,P|442:326|440:351,1,60.7500023174287
272,345,139650,6,0,P|216:332|160:348,1,91.125003476143
114,364,139885,2,0,P|72:364|52:355,1,60.7500023174287
0,171,140120,70,0,L|19:266,1,91.125003476143
89,255,140355,2,0,L|74:184,1,60.7500023174287
146,72,140591,6,0,P|199:58|283:57,1,121.500004634857
387,172,141061,2,0,P|334:158|250:157,1,121.500004634857
125,273,141532,2,0,P|178:259|262:258,1,121.500004634857
480,237,141885,5,0,0:0:0:0:
480,237,141944,1,0,0:0:0:0:
480,237,142003,5,0,0:0:0:0:
486,207,142061,1,0,0:0:0:0:
488,177,142120,1,0,0:0:0:0:
485,146,142179,1,0,0:0:0:0:
477,117,142238,2,0,P|468:66|474:41,1,60.7500023174287
348,44,142473,70,0,P|301:74|44:45,1,324
123,280,143885,6,0,P|112:233|130:152,1,121.5
202,258,144355,2,0,B|181:212|217:168|217:168|230:168|276:263|228:392,1,324
311,180,145767,6,0,B|333:199|333:199|433:183,1,121.5
356,114,146238,2,0,B|333:90|286:83|180:115|225:237|282:251|282:251|299:290|184:375|82:302|82:302|124:155|67:49|67:49|-10:153|5:225|5:225|60:246|157:201|157:201|153:107|207:66,1,1255.5
407,29,150002,6,0,B|482:56|465:166|465:166|373:234|305:171,1,324
181,40,151414,70,0,P|199:112|192:163,1,121.5
125,253,151885,2,0,B|100:295|115:361|115:361|92:326|71:306|71:306|98:220|86:167,1,324
200,313,153297,5,0,0:0:0:0:
391,278,153532,1,0,0:0:0:0:
334,341,153650,1,0,0:0:0:0:
401,177,153767,21,0,0:0:0:0:
314,232,154002,1,0,0:0:0:0:
436,103,154238,69,0,0:0:0:0:
337,133,154473,1,0,0:0:0:0:
496,32,154708,5,0,0:0:0:0:
392,35,154943,1,0,0:0:0:0:
112,244,155179,5,0,0:0:0:0:
199,299,155414,1,0,0:0:0:0:
187,316,155532,1,0,0:0:0:0:
77,170,155650,5,0,0:0:0:0:
176,200,155885,1,0,0:0:0:0:
17,99,156120,69,0,0:0:0:0:
121,102,156355,1,0,0:0:0:0:
225,105,156591,1,0,0:0:0:0:
424,81,156826,6,0,L|414:132,1,40.5
349,172,157061,1,0,0:0:0:0:
349,172,157297,2,8,L|359:223,1,40.5
424,271,157532,5,0,0:0:0:0:
221,295,158238,1,0,0:0:0:0:
211,317,158473,1,0,0:0:0:0:
202,168,159179,5,0,0:0:0:0:
192,190,159414,1,0,0:0:0:0:
331,318,160120,1,0,0:0:0:0:
321,340,160355,1,0,0:0:0:0:
312,191,160826,1,0,0:0:0:0:
312,191,161297,69,0,0:0:0:0:
312,191,162002,5,0,0:0:0:0:
302,213,162237,1,0,0:0:0:0:
331,318,162944,1,0,0:0:0:0:
319,341,163179,6,0,P|373:330|405:336,1,60.7500023174287
468,369,163414,1,0,0:0:0:0:
468,369,163532,1,0,0:0:0:0:
510,188,163650,6,0,P|456:177|424:183,1,60.7500023174287
361,216,163885,1,0,0:0:0:0:
361,216,164003,1,0,0:0:0:0:
343,79,164120,70,0,P|397:68|429:74,1,60.7500023174287
294,151,164355,2,0,P|257:109|246:79,1,60.7500023174287
381,159,164591,2,0,P|363:211|342:235,1,60.7500023174287
278,238,164826,1,0,0:0:0:0:
337,301,164944,1,0,0:0:0:0:
249,321,165061,6,0,P|189:315|122:313,1,121.500004634857
124,116,165414,2,0,P|148:170|180:229,1,121.500004634857
50,255,165767,2,0,P|57:205|48:173,1,60.7500023174287
45,69,166002,6,0,P|82:30|166:31,1,121.500004634857
311,143,166355,2,0,P|274:104|190:105,1,121.500004634857
227,248,166708,2,0,L|239:174,1,60.7500023174287
371,74,166944,6,0,B|413:61|413:61|496:82,1,121.500004634857
353,182,167297,2,0,B|311:169|311:169|228:190,1,121.500004634857
427,235,167650,2,0,P|442:197|436:155,1,60.7500023174287
298,254,167885,70,0,L|312:336,1,60.7500023174287
189,293,168120,2,0,L|181:375,1,60.7500023174287
87,255,168355,2,0,L|58:333,1,60.7500023174287
81,175,168591,2,0,L|27:110,1,60.7500023174287
149,209,168826,6,0,P|184:209|225:179,1,60.7500023174287
137,42,169061,2,0,P|119:72|124:122,1,60.7500023174287
287,115,169297,6,0,L|363:101,1,60.7500023174287
396,237,169532,1,0,0:0:0:0:
324,192,169649,1,0,0:0:0:0:
464,181,169767,6,0,P|481:212|481:245,1,60.7500023174287
434,110,170002,2,0,P|468:103|500:113,1,60.7500023174287
346,103,170238,2,0,P|350:67|369:41,1,60.7500023174287
324,192,170473,2,0,P|292:176|272:150,1,60.7500023174287
396,237,170708,70,0,L|360:297,1,60.7500023174287
278,250,170944,2,0,L|264:318,1,60.7500023174287
163,278,171179,2,0,L|173:347,1,60.7500023174287
97,236,171414,2,0,L|31:210,1,60.7500023174287
173,195,171650,6,0,L|227:150,1,60.7500023174287
126,129,171885,2,0,L|162:68,1,60.7500023174287
58,98,172120,2,0,L|71:29,1,60.7500023174287
36,218,172355,5,0,0:0:0:0:
173,195,172473,1,0,0:0:0:0:
256,192,172591,12,0,173414,0:0:0:0:
404,66,173532,54,0,P|442:138|402:264,1,210.599990359498,4|8,0:0|0:0,0:0:0:0:
246,283,173885,1,0,0:0:0:0:
246,44,174002,1,2,0:0:0:0:
105,237,174120,1,2,0:0:0:0:
332,163,174237,1,8,0:0:0:0:
105,90,174355,1,0,0:0:0:0:
176,355,174473,6,0,P|245:372|309:354,1,105.299995179749,4|0,0:0|0:0,0:0:0:0:
273,68,174708,1,8,0:0:0:0:
246,283,174826,1,0,0:0:0:0:
15,193,174944,70,2,P|20:263|57:319,1,105.299995179749
317,196,175179,1,8,0:0:0:0:
105,237,175297,1,0,0:0:0:0:
398,294,175414,6,0,B|389:235|389:235|400:220|400:220|389:139,1,157.949992769623,4|0,0:0|0:0,0:0:0:0:
315,94,175650,2,0,P|304:150|319:201,1,105.299995179749,8|0,0:0|0:0,0:0:0:0:
476,98,175885,2,2,P|433:60|381:47,1,105.299995179749
470,252,176120,1,8,0:0:0:0:
493,85,176238,1,8,0:0:0:0:
316,92,176355,6,0,P|148:118|107:102,1,210.599990359498,4|8,0:0|0:0,0:0:0:0:
0,152,176708,1,0,0:0:0:0:
127,307,176826,2,0,P|188:148|222:121,1,210.599990359498,2|8,0:0|0:0,0:0:0:0:
288,271,177179,1,0,0:0:0:0:
476,168,177297,6,0,B|396:162|396:162|361:188|361:188|249:180,1,210.599990359498,4|8,0:0|0:0,0:0:0:0:
346,5,177650,1,0,0:0:0:0:
346,5,177708,1,0,0:0:0:0:
346,5,177767,2,2,P|352:62|336:114,1,105.299995179749
182,231,178002,2,8,P|176:174|192:122,1,105.299995179749
427,85,178238,69,4,0:0:0:0:
432,244,178355,1,2,0:0:0:0:
289,167,178473,1,8,0:0:0:0:
494,188,178591,1,0,0:0:0:0:
494,188,178650,1,0,0:0:0:0:
494,188,178708,2,2,P|512:240|490:322,1,105.299995179749
341,63,178944,2,8,P|377:21|459:0,1,105.299995179749
325,266,179179,5,4,0:0:0:0:
145,298,179297,1,0,0:0:0:0:
360,335,179414,5,8,0:0:0:0:
115,221,179532,2,0,P|87:145|106:90,1,105.299995179749,0|2,0:0|0:0,0:0:0:0:
285,164,179767,2,0,P|233:226|176:237,1,105.299995179749,2|8,0:0|0:0,0:0:0:0:
234,56,180002,1,0,0:0:0:0:
234,56,180061,1,0,0:0:0:0:
234,56,180120,6,0,B|313:50|313:50|348:76|348:76|460:68,1,210.599990359498,4|8,0:0|0:0,0:0:0:0:
332,333,180473,1,0,0:0:0:0:
332,333,180532,1,0,0:0:0:0:
332,333,180591,1,2,0:0:0:0:
285,164,180708,1,2,0:0:0:0:
149,317,180826,1,8,0:0:0:0:
164,106,180943,1,8,0:0:0:0:
0,187,181061,70,0,B|79:181|79:181|114:207|114:207|226:199,1,210.599990359498,4|8,0:0|0:0,0:0:0:0:
219,32,181414,1,0,0:0:0:0:
219,32,181473,1,0,0:0:0:0:
219,32,181532,2,2,P|146:19|76:38,1,105.299995179749
250,296,181767,2,8,P|297:239|316:169,1,105.299995179749
162,364,182002,6,0,P|213:389|359:332,1,210.599990359498,4|8,0:0|0:0,0:0:0:0:
237,127,182355,1,0,0:0:0:0:
237,127,182414,1,0,0:0:0:0:
237,127,182473,1,2,0:0:0:0:
168,340,182591,1,2,0:0:0:0:
301,61,182708,1,8,0:0:0:0:
309,284,182826,1,8,0:0:0:0:
374,11,182944,5,4,0:0:0:0:
457,217,183062,1,0,0:0:0:0:
301,61,183179,2,0,P|229:42|179:54,1,105.299995179749,8|0,0:0|0:0,0:0:0:0:
309,284,183414,2,2,P|361:231|376:181,1,105.299995179749
163,201,183650,2,0,P|92:175|-17:234,1,157.949992769623,8|0,0:0|0:0,0:0:0:0:
95,258,183885,6,0,P|144:240|196:243,1,105.299995179749,4|0,0:0|0:0,0:0:0:0:
48,13,184120,2,0,P|39:64|10:107,1,105.299995179749,8|0,0:0|0:0,0:0:0:0:
234,125,184355,2,0,B|313:119|313:119|348:145|348:145|460:137,1,210.599990359498,2|8,0:0|0:0,0:0:0:0:
388,10,184708,1,8,0:0:0:0:
275,205,184826,70,0,P|259:269|290:330,1,105.299995179749
381,115,185061,2,0,P|333:69|265:65,1,105.299995179749,8|0,0:0|0:0,0:0:0:0:
384,257,185297,2,2,P|447:238|484:181,1,105.299995179749
152,102,185532,2,0,L|170:222,1,105.299995179749,8|8,0:0|0:0,0:0:0:0:
326,312,185767,6,0,B|247:306|247:306|212:332|212:332|100:324,1,210.599990359498,2|8,0:0|0:0,0:0:0:0:
26,144,186120,1,0,0:0:0:0:
222,70,186238,1,2,0:0:0:0:
104,244,186355,1,2,0:0:0:0:
97,35,186473,1,8,0:0:0:0:
226,200,186591,1,8,0:0:0:0:
226,200,186650,1,0,0:0:0:0:
226,200,186708,6,0,P|319:173|447:179,1,210.599990359498,4|8,0:0|0:0,0:0:0:0:
333,332,187061,1,0,0:0:0:0:
163,313,187179,2,2,P|89:310|23:335,1,105.299995179749
170,112,187414,2,8,P|204:177|259:222,1,105.299995179749
0,208,187650,6,0,P|39:145|12:6,1,210.599990359498,4|8,0:0|0:0,0:0:0:0:
170,112,188002,1,0,0:0:0:0:
170,112,188061,1,0,0:0:0:0:
170,112,188120,2,2,L|288:97,1,105.299995179749
361,325,188355,1,8,0:0:0:0:
235,242,188473,1,8,0:0:0:0:
457,216,188591,70,0,B|463:137|463:137|437:102|437:102|445:-10,1,210.599990359498,4|8,0:0|0:0,0:0:0:0:
369,174,188944,1,0,0:0:0:0:
369,174,189002,1,0,0:0:0:0:
369,174,189061,1,2,0:0:0:0:
361,325,189179,1,2,0:0:0:0:
204,95,189297,1,8,0:0:0:0:
235,242,189415,1,8,0:0:0:0:
38,61,189532,6,0,P|72:183|53:285,1,210.599990359498,4|8,0:0|0:0,0:0:0:0:
156,353,189885,1,0,0:0:0:0:
235,242,190002,2,2,P|307:231|367:252,1,105.299995179749
224,38,190238,2,8,P|197:105|149:147,1,105.299995179749
388,115,190473,5,4,0:0:0:0:
286,322,190591,1,4,0:0:0:0:
504,181,190708,5,8,0:0:0:0:
192,232,190826,1,4,0:0:0:0:
460,301,191061,69,4,0:0:0:0:
203,116,191297,1,4,0:0:0:0:
460,301,191532,1,4,0:0:0:0:
388,115,191767,5,4,0:0:0:0:
247,38,191885,1,2,0:0:0:0:
203,28,191943,1,0,0:0:0:0:
161,39,192003,1,2,0:0:0:0:
128,69,192061,1,0,0:0:0:0:
112,110,192121,5,2,0:0:0:0:
123,142,192178,1,0,0:0:0:0:
126,175,192238,1,2,0:0:0:0:
122,208,192296,1,0,0:0:0:0:
112,240,192355,6,0,P|101:365|104:378,1,97.1999970336915,4|0,0:0|0:0,0:0:0:0:
310,268,192591,2,8,P|207:196|195:192,1,97.1999970336915
260,351,192826,2,0,B|339:357|339:357|374:331|374:331|486:339,1,194.399994067383,4|8,0:0|0:0,0:0:0:0:
495,147,193179,1,0,0:0:0:0:
495,147,193297,70,0,B|416:153|416:153|381:127|381:127|269:135,1,194.399994067383,4|8,0:0|0:0,0:0:0:0:
194,58,193650,1,0,0:0:0:0:
194,58,193708,1,0,0:0:0:0:
194,58,193767,2,2,P|190:140|204:173,1,97.1999970336915
391,47,194002,2,8,P|321:2|286:-1,1,97.1999970336915
125,18,194238,6,0,P|105:90|127:209,1,194.399994067383,4|8,0:0|0:0,0:0:0:0:
273,301,194591,1,0,0:0:0:0:
273,301,194708,2,2,L|284:196,1,97.1999970336915
69,305,194944,2,8,L|154:367,1,97.1999970336915
453,313,195179,6,0,P|367:276|242:329,1,194.399994067383,4|8,0:0|0:0,0:0:0:0:
481,201,195532,1,0,0:0:0:0:
481,201,195591,1,0,0:0:0:0:
481,201,195650,2,2,P|472:139|491:71,1,97.1999970336915
278,191,195884,2,2,P|331:223|372:280,1,97.1999970336915,8|2,0:0|0:0,0:0:0:0:
356,85,196120,6,0,B|277:91|277:91|242:65|242:65|130:73,1,194.399994067383,4|8,0:0|0:0,0:0:0:0:
184,248,196473,1,0,0:0:0:0:
184,248,196591,2,2,P|201:181|197:146,1,97.1999970336915
65,305,196826,2,8,P|114:353|146:367,1,97.1999970336915
270,276,197061,70,0,P|287:179|251:58,1,194.399994067383,4|8,0:0|0:0,0:0:0:0:
76,118,197414,1,0,0:0:0:0:
76,118,197532,2,0,L|95:227,1,97.1999970336915,2|0,0:0|0:0,0:0:0:0:
266,86,197767,2,8,L|162:47,1,97.1999970336915
288,196,198002,6,0,P|385:213|506:177,1,194.399994067383,4|8,0:0|0:0,0:0:0:0:
266,86,198355,1,0,0:0:0:0:
266,86,198414,1,0,0:0:0:0:
266,86,198473,2,2,P|205:125|174:167,1,97.1999970336915
299,291,198708,2,0,P|295:218|274:170,1,97.1999970336915,8|0,0:0|0:0,0:0:0:0:
50,230,198944,5,4,0:0:0:0:
82,107,199061,1,0,0:0:0:0:
205,140,199179,1,8,0:0:0:0:
172,262,199297,1,0,0:0:0:0:
0,152,199414,5,2,0:0:0:0:
161,60,199531,1,2,0:0:0:0:
250,217,199649,1,8,0:0:0:0:
93,308,199767,1,8,0:0:0:0:
205,140,199885,70,0,P|262:123|432:141,1,194.399994067383,4|8,0:0|0:0,0:0:0:0:
254,311,200238,1,0,0:0:0:0:
254,311,200297,1,0,0:0:0:0:
254,311,200355,2,2,P|245:234|257:200,1,97.1999970336915
434,312,200591,2,0,P|371:358|336:364,1,97.1999970336915,8|8,0:0|0:0,0:0:0:0:
204,139,200826,6,0,B|276:134|276:134|311:160|311:160|390:154,1,194.399994067383,4|8,0:0|0:0,0:0:0:0:
131,66,201179,1,0,0:0:0:0:
131,66,201238,1,0,0:0:0:0:
131,66,201297,2,2,P|103:122|105:177,1,97.1999970336915
313,122,201532,2,0,P|278:69|229:43,1,97.1999970336915,8|8,0:0|0:0,0:0:0:0:
249,216,201767,6,0,P|337:223|416:155,1,194.399994067383,4|8,0:0|0:0,0:0:0:0:
101,155,202120,1,0,0:0:0:0:
101,155,202179,1,0,0:0:0:0:
101,155,202238,2,2,P|106:222|86:284,1,97.1999970336915
313,122,202473,2,8,P|252:92|208:44,1,97.1999970336915
13,198,202708,6,0,B|8:126|8:126|34:91|34:91|28:12,1,194.399994067383,4|8,0:0|0:0,0:0:0:0:
101,155,203061,1,0,0:0:0:0:
101,155,203120,1,0,0:0:0:0:
101,155,203179,2,2,P|170:143|203:151,1,97.1999970336915
70,362,203414,2,0,P|25:308|15:275,1,97.1999970336915,10|8,0:0|0:0,0:0:0:0:
224,275,203650,70,0,P|349:236|430:259,1,194.399994067383,4|8,0:0|0:0,0:0:0:0:
142,324,204002,1,0,0:0:0:0:
142,324,204061,1,0,0:0:0:0:
142,324,204120,2,2,P|138:234|147:220,1,97.1999970336915
303,330,204355,2,8,P|227:378|210:377,1,97.1999970336915
239,89,204591,6,0,B|244:161|244:161|218:196|218:196|224:275,1,194.399994067383,4|8,0:0|0:0,0:0:0:0:
163,33,204944,1,0,0:0:0:0:
163,33,205002,1,0,0:0:0:0:
163,33,205061,2,2,P|236:3|264:6,1,97.1999970336915
118,140,205297,2,8,P|55:91|44:66,1,97.1999970336915
239,89,205532,6,0,P|324:74|443:106,1,194.399994067383,4|8,0:0|0:0,0:0:0:0:
328,268,205885,1,0,0:0:0:0:
328,268,205944,1,0,0:0:0:0:
328,268,206002,2,2,L|314:161,1,97.1999970336915
511,230,206238,2,8,L|425:295,1,97.1999970336915
246,326,206473,6,4,P|230:258|252:194,1,97.1999970336915,4|0,0:0|0:0,0:0:0:0:
359,27,206708,1,8,0:0:0:0:
476,239,206826,1,0,0:0:0:0:
256,136,206944,1,8,0:0:0:0:
496,89,207062,1,0,0:0:0:0:
328,268,207179,1,8,0:0:0:0:
194,61,207297,1,8,0:0:0:0:
194,61,207355,1,8,0:0:0:0:
194,61,207414,70,0,P|97:54|40:82,1,145.799995550537,4|0,0:0|0:0,0:0:0:0:
111,124,207650,2,0,P|79:141|38:193,1,97.1999970336915,8|0,0:0|0:0,0:0:0:0:
115,375,207885,1,2,0:0:0:0:
141,232,208002,1,2,0:0:0:0:
256,309,208120,1,8,0:0:0:0:
244,164,208237,1,8,0:0:0:0:
350,250,208355,6,0,P|447:257|504:229,1,145.799995550537,4|0,0:0|0:0,0:0:0:0:
433,187,208591,2,0,P|465:170|506:118,1,97.1999970336915,8|0,0:0|0:0,0:0:0:0:
357,44,208826,1,2,0:0:0:0:
244,167,208944,1,2,0:0:0:0:
262,0,209062,1,8,0:0:0:0:
347,147,209180,1,8,0:0:0:0:
191,77,209297,6,0,B|117:68|117:68|46:101,1,145.799995550537,2|0,0:0|0:0,0:0:0:0:
114,148,209532,2,8,L|19:198,1,97.1999970336915,8|0,0:0|0:0,0:0:0:0:
233,270,209767,1,2,0:0:0:0:
347,147,209885,1,2,0:0:0:0:
329,314,210003,1,8,0:0:0:0:
244,167,210121,1,8,0:0:0:0:
400,237,210238,5,0,0:0:0:0:
411,261,210473,37,0,0:0:0:0:
422,285,210708,69,0,0:0:0:0:
347,147,211179,6,0,P|343:81|329:37,1,97.1999970336915
231,262,211650,2,0,P|235:196|249:152,1,97.1999970336915
344,384,212120,2,0,P|338:285|317:219,1,145.799995550537
241,70,212826,85,2,0:0:0:0:
