osu file format v14

[General]
AudioFilename: mcos2.mp3
AudioLeadIn: 0
PreviewTime: 173532
Countdown: 1
SampleSet: Normal
StackLeniency: 0.7
Mode: 0
LetterboxInBreaks: 0
WidescreenStoryboard: 1

[Editor]
Bookmarks: 9532,17061,32120,39650,47179,54708,58473,66003,73532,91414,99179,106708,114238,121767,129297,134944,142473,150002,157532,165061,173532,181061,192355,199885
DistanceSpacing: 1.8
BeatDivisor: 4
GridSize: 4
TimelineZoom: 4.399999

[Metadata]
Title:Milk Crown on Sonnetica
TitleUnicode:ミルククラウン・オン・ソーネチカ
Artist:Soraru&Mafumafu
ArtistUnicode:そらる×まふまふ
Creator:Mango Juice
Version:Insane
Source:
Tags:
BeatmapID:1636175
BeatmapSetID:691832

[Difficulty]
HPDrainRate:5
CircleSize:3.8
OverallDifficulty:6
ApproachRate:8
SliderMultiplier:0.9
SliderTickRate:1

[Events]
//Background and Video events
0,0,"bg2.jpg",0,0
//Break Periods
2,37849,65253
//Storyboard Layer 0 (Background)
//Storyboard Layer 1 (Fail)
//Storyboard Layer 2 (Pass)
//Storyboard Layer 3 (Foreground)
//Storyboard Sound Samples

[TimingPoints]
2003,235.294117647059,4,1,1,100,1,0
16826,-100,4,1,1,100,0,0
17061,-95.2380952380952,4,1,1,100,0,1
31650,-153.846153846154,4,1,1,100,0,0
32120,-71.4285714285714,4,1,1,100,0,0
47188,-100,4,1,1,50,0,0
64135,-200,4,1,1,100,0,0
65076,-100,4,1,1,80,0,0
66003,-83.3333333333333,4,1,1,100,0,1
79179,-90.9090909090909,4,1,1,100,0,0
85295,-111.111111111111,4,1,1,100,0,0
91175,-200,4,1,1,100,0,0
91649,-111.111111111111,4,1,1,100,0,0
91650,235.294117647059,4,1,1,100,1,0
93297,-111.111111111111,4,1,1,40,0,0
93532,-111.111111111111,4,1,1,100,0,0
95179,-111.111111111111,4,1,1,40,0,0
95414,-111.111111111111,4,1,1,100,0,0
97061,-111.111111111111,4,1,1,40,0,0
97297,-111.111111111111,4,1,1,100,0,0
98944,-111.111111111111,4,1,1,40,0,0
99179,-111.111111111111,4,1,1,100,0,0
100826,-111.111111111111,4,1,1,40,0,0
101061,-111.111111111111,4,1,1,100,0,0
102708,-111.111111111111,4,1,1,40,0,0
102944,-111.111111111111,4,1,1,100,0,0
104591,-111.111111111111,4,1,1,40,0,0
104826,-111.111111111111,4,1,1,100,0,0
106708,-111.111111111111,4,1,1,60,0,0
121767,-83.3333333333333,4,1,1,100,0,1
134944,-83.3333333333333,4,1,1,100,0,0
138708,-133.333333333333,4,1,1,100,0,0
142428,-200,4,1,1,100,0,0
157295,-200,4,1,1,10,0,0
157532,-133.333333333333,4,1,1,40,0,0
173532,-76.9230769230769,4,1,1,100,0,1
190473,-90.9090909090909,4,1,1,100,0,0
192355,-83.3333333333333,4,1,1,100,0,0
199885,-83.3333333333333,4,1,1,100,0,1
210238,-83.3333333333333,4,1,1,100,0,0
211179,-166.666666666667,4,1,1,100,0,0
212826,-83.3333333333333,4,1,1,100,0,1
212841,-83.3333333333333,4,1,1,100,0,0

[Colours]
Combo1 : 71,181,239
Combo2 : 254,239,137
Combo3 : 236,179,94
Combo4 : 162,189,232
Combo5 : 226,165,166
Combo6 : 243,134,52
Combo7 : 213,38,43
Combo8 : 255,251,64

[HitObjects]
75,211,2003,6,0,L|67:167,2,45
147,272,2355,2,0,P|211:279|250:267,1,90
241,57,2826,6,0,P|203:109|194:149,2,90
328,66,3414,2,0,L|370:50,3,45
404,137,3885,6,0,L|448:133,2,45
356,199,4238,2,0,P|358:250|368:302,1,90
235,367,4708,6,0,P|242:322|243:277,1,90
176,225,5061,1,0,0:0:0:0:
176,225,5179,2,0,L|170:175,1,45
96,133,5414,2,0,P|88:88|87:43,1,90
182,39,5767,70,0,L|176:90,2,45
262,22,6120,2,0,P|334:13|362:16,1,90
449,156,6591,6,0,P|377:147|349:150,1,90
292,195,6944,1,0,0:0:0:0:
292,195,7061,2,0,L|242:201,2,45
349,256,7414,2,0,L|399:262,1,45
449,338,7650,6,0,L|399:344,2,45
503,286,8003,2,0,P|514:247|508:180,1,90
435,74,8473,6,0,L|335:80,1,90
262,55,8826,1,0,0:0:0:0:
262,55,8944,2,0,P|206:53|198:55,1,45
230,130,9179,2,0,P|176:147|169:151,1,45
241,242,9532,69,0,0:0:0:0:
241,242,10002,1,0,0:0:0:0:
241,242,10473,1,0,0:0:0:0:
241,242,10943,1,0,0:0:0:0:
305,198,11414,5,0,0:0:0:0:
305,198,11884,1,0,0:0:0:0:
305,198,12355,1,0,0:0:0:0:
305,198,12825,1,0,0:0:0:0:
369,154,13297,5,0,0:0:0:0:
369,154,13767,1,0,0:0:0:0:
369,154,14238,1,0,0:0:0:0:
369,154,14708,1,0,0:0:0:0:
241,242,15179,85,0,0:0:0:0:
241,242,15649,1,0,0:0:0:0:
241,242,16003,2,0,P|238:295|224:337,1,90
132,280,16355,1,0,0:0:0:0:
132,280,16473,2,0,P|119:236|118:191,1,90
157,113,16826,6,8,P|160:76|158:59,1,45
248,39,17061,70,0,P|279:28|344:35,1,94.499997116089,2|8,0:0|0:0,0:0:0:0:
405,92,17414,1,0,0:0:0:0:
450,162,17532,2,2,P|451:209|447:222,1,47.2499985580445
385,254,17767,2,8,P|384:301|388:314,1,47.2499985580445
274,325,18003,6,0,P|211:306|171:311,1,94.499997116089,2|8,0:0|0:0,0:0:0:0:
87,349,18355,1,0,0:0:0:0:
35,260,18473,2,2,L|28:194,1,47.2499985580445
99,145,18708,2,10,L|106:79,1,47.2499985580445,8|8,0:0|0:0,0:0:0:0:
191,97,18944,70,0,P|200:169|192:190,1,94.499997116089,4|8,0:0|0:0,0:0:0:0:
95,243,19297,1,0,0:0:0:0:
95,243,19414,2,0,P|28:214|13:197,1,94.499997116089,4|8,0:0|0:0,0:0:0:0:
20,98,19767,1,0,0:0:0:0:
20,98,19884,2,0,P|77:54|100:50,1,94.499997116089,4|8,0:0|0:0,0:0:0:0:
191,97,20238,1,0,0:0:0:0:
191,97,20355,2,2,P|236:99|255:95,1,47.2499985580445
316,48,20591,2,8,P|339:46|362:49,1,47.2499985580445
336,164,20826,6,0,L|330:215,3,47.2499985580445,2|0|8|0,0:0|0:0|0:0|0:0,0:0:0:0:
256,264,21297,2,0,P|217:252|148:261,1,94.499997116089,2|8,0:0|0:0,0:0:0:0:
5,74,21766,6,0,L|11:125,3,47.2499985580445,2|0|8|0,0:0|0:0|0:0|0:0,0:0:0:0:
85,174,22237,2,0,P|124:162|193:171,1,94.499997116089,2|8,0:0|0:0,0:0:0:0:
272,75,22708,6,2,L|334:69,1,47.2499985580445
366,162,22944,2,8,L|304:156,1,47.2499985580445
276,256,23179,2,0,L|338:250,1,47.2499985580445
370,343,23414,2,10,L|308:337,1,47.2499985580445
211,315,23650,70,0,P|132:295|106:300,1,94.499997116089
39,335,24003,1,0,0:0:0:0:
23,189,24120,6,2,P|102:169|128:174,1,94.499997116089,2|8,0:0|0:0,0:0:0:0:
195,209,24473,1,8,0:0:0:0:
277,129,24591,6,0,L|288:74,1,47.2499985580445,2|0,0:0|0:0,0:0:0:0:
378,109,24826,2,0,L|387:155,1,47.2499985580445,8|0,0:0|0:0,0:0:0:0:
315,267,25061,6,2,L|326:212,1,47.2499985580445
416,247,25296,2,8,L|425:293,1,47.2499985580445
284,353,25532,70,0,P|236:324|221:278,1,94.499997116089,2|8,0:0|0:0,0:0:0:0:
416,247,26003,2,0,P|414:303|382:339,1,94.499997116089,2|8,0:0|0:0,0:0:0:0:
259,212,26473,6,0,L|250:157,1,47.2499985580445,2|0,0:0|0:0,0:0:0:0:
149,163,26708,2,0,L|141:209,1,47.2499985580445,8|0,0:0|0:0,0:0:0:0:
199,327,26944,6,0,L|190:272,1,47.2499985580445,2|0,0:0|0:0,0:0:0:0:
89,278,27179,2,0,L|81:324,1,47.2499985580445,8|0,0:0|0:0,0:0:0:0:
0,254,27414,6,0,L|15:160,1,94.499997116089,2|8,0:0|0:0,0:0:0:0:
81,101,27767,1,8,0:0:0:0:
81,101,27885,2,2,P|116:93|129:93,1,47.2499985580445
198,140,28120,2,0,P|220:146|244:148,1,47.2499985580445,8|8,0:0|0:0,0:0:0:0:
369,85,28355,70,0,L|377:144,1,47.2499985580445
452,192,28591,2,0,L|444:251,1,47.2499985580445
309,200,28826,6,0,L|301:259,1,47.2499985580445
226,307,29062,2,0,L|234:366,1,47.2499985580445
88,327,29297,6,0,P|82:298|86:274,1,47.2499985580445
137,192,29532,2,0,P|138:168|133:145,1,47.2499985580445
7,186,29767,6,0,P|1:157|5:133,1,47.2499985580445
56,51,30002,2,0,P|57:27|52:4,1,47.2499985580445
160,55,30238,6,0,L|223:46,1,47.2499985580445
356,99,30591,1,0,0:0:0:0:
321,236,30826,1,0,0:0:0:0:
422,167,31061,5,0,0:0:0:0:
349,249,31179,2,0,L|358:305,1,47.2499985580445,8|0,0:0|0:0,0:0:0:0:
219,353,31767,6,0,P|183:348|152:353,1,58.4999973220826
76,350,32120,6,0,L|70:273,1,62.9999980773926
169,188,32355,2,0,L|163:265,1,62.9999980773926
82,162,32591,2,0,P|108:121|196:103,1,125.999996154785
282,143,32944,1,0,0:0:0:0:
282,143,33061,70,0,L|425:148,1,125.999996154785
477,252,33414,1,0,0:0:0:0:
477,252,33532,2,0,P|475:297|466:317,1,62.9999980773926
321,289,33767,2,0,P|360:268|382:266,1,62.9999980773926
343,375,34003,6,0,B|296:378|296:378|272:358|272:358|224:362,1,125.999996154785
117,274,34355,1,0,0:0:0:0:
117,274,34473,2,0,B|163:277|163:277|187:257|187:257|235:261,1,125.999996154785
271,123,34826,1,0,0:0:0:0:
271,123,34944,6,0,P|232:112|142:133,1,125.999996154785
43,132,35297,1,0,0:0:0:0:
43,132,35414,2,0,L|32:204,1,62.9999980773926
160,191,35650,2,0,L|150:128,1,62.9999980773926
103,283,35885,6,0,P|142:294|232:273,1,125.999996154785
302,203,36238,1,0,0:0:0:0:
302,203,36355,2,0,P|308:163|303:132,1,62.9999980773926
243,65,36591,2,0,P|237:25|242:-6,1,62.9999980773926
344,37,36826,70,0,L|420:30,1,62.9999980773926
453,143,37061,2,0,L|377:136,1,62.9999980773926
329,249,37297,2,0,L|405:242,1,62.9999980773926
438,355,37532,2,0,L|362:348,1,62.9999980773926
161,76,66003,86,0,P|185:140|174:194,1,107.999996704102,2|8,0:0|0:0,0:0:0:0:
299,53,66355,1,0,0:0:0:0:
299,53,66472,2,0,P|276:50|235:13,1,53.9999983520508,2|0,0:0|0:0,0:0:0:0:
278,182,66708,2,0,P|291:163|343:146,1,53.9999983520508,8|0,0:0|0:0,0:0:0:0:
422,230,66944,6,0,B|432:263|432:263|421:330,1,80.9999975280763
389,316,67179,2,0,L|401:255,1,53.9999983520508,8|0,0:0|0:0,0:0:0:0:
245,274,67414,70,0,B|235:307|235:307|246:374,1,80.9999975280763
278,360,67649,2,0,L|266:299,1,53.9999983520508,8|0,0:0|0:0,0:0:0:0:
163,232,67885,6,0,P|102:216|46:233,1,107.999996704102,2|8,0:0|0:0,0:0:0:0:
107,311,68238,1,0,0:0:0:0:
203,323,68355,2,0,P|247:278|260:221,1,107.999996704102,2|8,0:0|0:0,0:0:0:0:
203,145,68708,1,0,0:0:0:0:
261,58,68826,6,0,L|376:45,1,107.999996704102
474,132,69179,1,0,0:0:0:0:
416,219,69297,2,0,L|301:232,1,107.999996704102
