osu file format v14

[General]
AudioFilename: audio.mp3
AudioLeadIn: 0
PreviewTime: 43985
Countdown: 0
SampleSet: Normal
StackLeniency: 0.4
Mode: 0
LetterboxInBreaks: 0
WidescreenStoryboard: 0

[Editor]
Bookmarks: 139,22309,43985,67721,80908,102007,125743,136128,153436,155908,177172,200908,211458
DistanceSpacing: 1.1
BeatDivisor: 4
GridSize: 4
TimelineZoom: 2.600001

[Metadata]
Title:Sekaishikku ni Shounen Shoujo
TitleUnicode:セカイシックに少年少女
Artist:Soraru x mafumafu
ArtistUnicode:そらる×まふまふ
Creator:iza-
Version:(placeholder name) sick of the world
Source:Pre-Rhythm Arch
Tags:mafumafu soraru world sick boys girls komine pre-rhythm arch world-chic
BeatmapID:947239
BeatmapSetID:440202

[Difficulty]
HPDrainRate:7
CircleSize:4.2
OverallDifficulty:8
ApproachRate:9.3
SliderMultiplier:2
SliderTickRate:1

[Events]
//Background and Video events
0,0,"ss+(2016-04-08+at+02.33.32).jpg",0,0
//Break Periods
2,152976,155354
2,177207,177937
//Storyboard Layer 0 (Background)
//Storyboard Layer 1 (Fail)
//Storyboard Layer 2 (Pass)
//Storyboard Layer 3 (Foreground)
//Storyboard Sound Samples

[TimingPoints]
469.243747272001,329.67032967033,4,1,0,74,1,0
2447,-133.333333333333,4,1,0,74,0,0
5579,-153.846153846154,4,1,0,74,0,0
6238,-133.333333333333,4,1,0,74,0,0
6897,-100,4,1,0,74,0,0
8216,-200,4,1,0,74,0,0
9370,-100,4,1,0,74,0,0
14315,-133.333333333333,4,1,0,74,0,0
18271,-100,4,1,0,74,0,0
19590,-133.333333333333,4,1,0,74,0,0
21403,-66.6666666666667,4,1,0,74,0,0
22886,-100,4,1,0,74,0,0
30057,-133.333333333333,4,1,0,74,0,0
31293,-100,4,1,0,74,0,0
33601,-166.666666666667,4,1,0,74,0,0
39040,-133.333333333333,4,1,0,74,0,0
41348,-66.6666666666667,4,1,0,74,0,0
43985,-80,4,1,0,74,0,1
45139,-200,4,1,0,74,0,1
47282,-80,4,1,0,74,0,1
47776,-200,4,1,0,74,0,1
49590,-80,4,1,0,74,0,1
53875,-80,4,1,0,74,0,0
54535,-80,4,1,0,74,0,1
55689,-100,4,1,0,74,0,1
57007,-80,4,1,0,74,0,1
67062,-100,4,1,0,74,0,1
67721,-80,4,1,0,50,0,0
68216,-200,4,1,0,50,0,0
70359,-200,4,3,0,25,0,0
71018,-200,4,1,0,25,0,0
79425,-66.6666666666667,4,1,0,74,0,0
80908,-100,4,1,0,74,0,0
85524,-133.333333333333,4,1,0,74,0,0
86101,-100,4,1,0,74,0,0
88079,-133.333333333333,4,1,0,74,0,0
88738,-100,4,1,0,74,0,0
91458,-133.333333333333,4,1,0,74,0,0
96897,-117.647058823529,4,1,0,74,0,0
99370,-66.6666666666667,4,1,0,74,0,0
100194,-80,4,1,0,74,0,0
100524,-66.6666666666667,4,1,0,74,0,0
102007,-100,4,1,0,74,0,1
108436,-66.6666666666667,4,1,0,74,0,1
109590,-100,4,1,0,74,0,1
111073,-66.6666666666667,4,1,0,74,0,1
111897,-66.6666666666667,4,1,0,74,0,0
112557,-100,4,1,0,74,0,1
116348,-80,4,1,0,74,0,1
125743,-100,4,1,0,74,0,0
126897,-133.333333333333,4,1,0,74,0,0
129040,-100,4,1,0,74,0,0
129535,-133.333333333333,4,1,0,74,0,0
130853,-100,4,1,0,74,0,0
132172,-133.333333333333,4,1,0,74,0,0
133491,-100,4,1,0,74,0,0
134809,-133.333333333333,4,1,0,74,0,0
136125,-66.6666666666667,4,1,0,74,0,0
140908,-133.333333333333,4,1,0,74,0,0
142392,-100,4,1,0,74,0,0
142886,-80,4,1,0,74,0,0
145524,-66.6666666666667,4,1,0,74,0,0
152776,-66.6666666666667,4,1,0,25,0,0
155908,-80,4,1,0,74,0,1
157227,-200,4,1,0,74,0,1
158546,-80,4,1,0,74,0,1
163326,-100,4,1,0,74,0,0
163985,-100,4,1,0,74,0,1
165139,-200,4,1,0,74,0,1
166623,-100,4,1,0,74,0,1
167776,-80,4,1,0,74,0,1
173875,-100,4,1,0,74,0,1
174370,-80,4,1,0,74,0,1
177172,-100,4,1,0,74,0,0
178820,-166.666666666667,4,1,0,74,0,0
179068,-166.666666666667,4,1,0,25,0,0
179150,-125,4,1,0,74,0,0
179397,-125,4,1,0,25,0,0
179480,-100,4,1,0,74,0,0
179727,-100,4,1,0,25,0,0
179809,-83.3333333333333,4,1,0,74,0,1
180057,-83.3333333333333,4,1,0,25,0,1
180139,-83.3333333333333,4,1,0,74,0,1
184095,-111.111111111111,4,1,0,74,0,1
184342,-111.111111111111,4,1,0,25,0,1
184425,-90.9090909090909,4,1,0,74,0,1
184672,-90.9090909090909,4,1,0,25,0,1
184754,-76.9230769230769,4,1,0,74,0,1
185002,-76.9230769230769,4,1,0,25,0,1
185084,-66.6666666666667,4,1,0,74,0,1
185331,-66.6666666666667,4,1,0,25,0,1
185414,-100,4,1,0,74,0,1
197282,-133.333333333333,4,1,0,74,0,1
198271,-100,4,1,0,74,0,0
201403,-133.333333333333,4,1,0,74,0,0

[Colours]
Combo1 : 0,0,255
Combo2 : 255,0,128
Combo3 : 0,0,128
Combo4 : 0,255,255
Combo5 : 255,128,255
Combo6 : 255,255,128

[HitObjects]
56,40,469,5,0,0:0:0:0:
88,72,798,1,0,0:0:0:0:
124,104,1128,1,0,0:0:0:0:
160,128,1293,2,0,L|280:104,1,100,4|0,0:0|0:0,0:0:0:0:
512,48,1787,5,4,0:0:0:0:
392,32,2117,2,0,P|392:88|440:144,1,100
480,232,2447,2,0,P|465:248|450:255,1,37.5000014305115,0|0,0:0|2:0,0:0:0:0:
372,224,2612,2,0,P|404:208|432:208,1,37.5000014305115
512,304,2776,1,0,0:0:0:0:
512,384,2941,6,0,B|424:408|368:320,1,150.000005722046,4|0,3:0|0:0,0:0:0:0:
336,228,3436,1,0,0:0:0:0:
260,320,3601,2,0,B|233:347|233:347|121:371,1,150.000005722046,4|0,3:0|0:0,0:0:0:0:
8,376,4095,1,0,0:0:0:0:
8,376,4260,6,0,P|8:304|24:280,1,75.0000028610231,4|0,3:0|0:0,0:0:0:0:
104,152,4590,1,0,0:0:0:0:
216,272,4754,1,0,0:0:0:0:
24,184,4919,1,0,0:0:0:0:
12,140,5002,1,0,0:0:0:0:
32,100,5084,1,0,0:0:0:0:
204,28,5249,1,0,0:0:0:0:
104,152,5414,1,0,0:0:0:0:
284,96,5579,6,0,B|327:73|327:73|360:88|360:88|408:60,1,129.999994049073,4|0,3:0|0:0,0:0:0:0:
496,8,6073,1,0,0:0:0:0:
268,172,6238,2,0,P|244:200|240:244,2,75.0000028610231,4|0|0,3:0|0:0|0:0,0:0:0:0:
480,208,6732,1,0,0:0:0:0:
480,208,6815,1,0,0:0:0:0:
480,208,6897,6,0,B|560:280|488:400,1,200,4|0,0:0|0:0,0:0:0:0:
376,304,7392,1,0,0:0:0:0:
512,140,7557,2,0,P|508:112|428:128,1,100
356,208,7886,1,0,0:0:0:0:
312,216,7968,1,0,0:0:0:0:
268,204,8050,1,0,0:0:0:0:
252,32,8216,6,0,P|244:80|204:120,1,100,4|0,3:0|0:0,0:0:0:0:
129,24,8711,1,0,0:0:0:0:
12,0,8875,2,0,P|12:60|36:108,1,100,4|0,3:0|0:0,0:0:0:0:
104,200,9370,6,0,B|128:248|128:248|120:304,2,100
60,100,9864,2,0,B|8:144|8:144|0:208,1,100
8,352,10194,1,0,0:0:0:0:
8,352,10359,2,0,P|52:376|96:332,1,100
152,264,10689,1,0,0:0:0:0:
208,384,10853,1,0,0:0:0:0:
208,384,10936,1,0,0:0:0:0:
208,384,11018,5,0,0:0:0:0:
288,304,11183,1,0,0:0:0:0:
152,264,11348,1,0,0:0:0:0:
352,208,11513,1,0,0:0:0:0:
103,151,11678,1,0,0:0:0:0:
131,110,11760,1,0,0:0:0:0:
174,85,11842,1,0,0:0:0:0:
224,80,11925,1,0,0:0:0:0:
271,96,12007,1,0,0:0:0:0:
307,129,12090,1,0,0:0:0:0:
327,175,12172,1,0,0:0:0:0:
326,224,12254,1,0,0:0:0:0:
312,264,12337,6,0,B|312:288|208:336|111:275,1,200
16,176,12831,1,0,0:0:0:0:
128,24,12996,2,0,L|168:136,1,100
176,152,13326,1,0,0:0:0:0:
224,264,13491,6,0,B|336:304|400:200,1,200,4|0,0:0|0:0,0:0:0:0:
272,120,13985,1,0,0:0:0:0:
224,264,14150,1,0,0:0:0:0:
112,144,14315,2,0,P|136:64|152:48,1,75.0000028610231
64,0,14645,2,0,P|36:40|28:76,1,75.0000028610231
48,216,14974,1,0,0:0:0:0:
109,195,15139,1,0,0:0:0:0:
8,360,15304,1,0,0:0:0:0:
69,339,15469,1,0,0:0:0:0:
216,360,15634,6,0,P|272:376|296:352,1,75.0000028610231
240,216,15963,1,0,0:0:0:0:
240,216,16046,1,0,0:0:0:0:
240,216,16128,2,0,B|320:184|288:160|368:128,1,150.000005722046
472,200,16623,2,0,B|472:246|472:246|448:288,1,75.0000028610231
296,224,16952,2,0,B|296:184|260:192|252:156,1,75.0000028610231
296,368,17282,2,0,B|265:341|245:377|208:352,1,75.0000028610231
472,336,17612,5,0,0:0:0:0:
464,176,17776,1,0,0:0:0:0:
296,224,17941,1,0,0:0:0:0:
272,68,18106,1,0,0:0:0:0:
128,96,18271,2,0,P|139:35|112:-8,1,100
100,200,18601,1,0,0:0:0:0:
92,228,18765,6,0,B|72:304|120:344|120:344|192:288,1,200
312,208,19260,1,0,0:0:0:0:
352,368,19425,1,0,0:0:0:0:
488,368,19590,6,0,P|512:336|512:288,1,75.0000028610231,0|0,0:0|2:0,0:0:0:0:
496,304,19837,1,0,2:0:0:0:
464,312,19919,2,0,L|504:216,1,75.0000028610231,0|0,0:0|2:0,0:0:0:0:
480,48,20249,2,0,P|504:80|504:128,1,75.0000028610231,0|0,0:0|2:0,0:0:0:0:
480,104,20496,1,0,2:0:0:0:
456,104,20578,2,0,L|496:200,1,75.0000028610231,0|0,0:0|2:0,0:0:0:0:
376,256,20908,1,0,0:0:0:0:
288,112,21073,1,0,0:0:0:0:
0,0,21403,6,0,B|-112:104|124:116|104:264,1,300.000011444092,4|0,0:0|0:0,0:0:0:0:
32,368,21897,1,0,0:0:0:0:
176,380,22062,2,0,P|216:340|288:388,1,150.000005722046
408,368,22392,1,0,0:0:0:0:
412,216,22557,1,0,0:0:0:0:
404,167,22639,1,0,0:0:0:0:
384,122,22721,1,0,0:0:0:0:
352,86,22804,1,0,0:0:0:0:
320,52,22886,6,0,B|240:-24|208:64|120:56,1,200,2|0,0:0|0:0,0:0:0:0:
16,136,23381,1,0,0:0:0:0:
128,192,23546,2,0,P|164:182|184:168,1,50,0|0,0:0|2:0,0:0:0:0:
248,136,23711,2,0,P|224:128|200:144,1,50,0|0,0:0|2:0,0:0:0:0:
160,296,23875,2,0,P|180:272|184:248,1,50,0|0,0:0|2:0,0:0:0:0:
128,192,24040,6,0,P|201:226|332:224,1,200,2|0,0:0|0:0,0:0:0:0:
448,176,24535,1,0,0:0:0:0:
360,324,24700,1,0,0:0:0:0:
276,176,24864,2,0,P|332:164|400:136,1,100,0|0,0:0|2:0,0:0:0:0:
416,128,25112,1,0,2:0:0:0:
456,100,25194,2,0,P|416:68|360:52,1,100,0|0,0:0|2:0,0:0:0:0:
184,64,25524,5,0,0:0:0:0:
48,160,25689,2,0,P|96:224|136:232,1,100
296,196,26018,1,0,0:0:0:0:
408,48,26183,2,0,P|448:112|456:168,1,100
496,360,26513,1,0,0:0:0:0:
496,360,26595,1,0,0:0:0:0:
496,360,26678,6,0,B|508:256|468:164,1,200
348,16,27172,1,0,0:0:0:0:
188,76,27337,1,8,0:0:0:0:
188,76,27502,1,8,0:0:0:0:
48,384,27831,1,8,0:0:0:0:
412,328,28161,6,0,P|428:268|424:224,2,100,8|0|0,0:0|0:0|0:0,0:0:0:0:
296,256,28656,1,0,0:0:0:0:
192,176,28820,2,0,P|168:232|240:368,1,200
64,352,29315,2,0,L|-8:216,1,150,4|0,0:0|0:0,0:0:0:0:
56,264,29645,2,0,L|48:104,1,150,4|0,0:0|0:0,0:0:0:0:
48,24,29974,1,0,0:0:0:0:
228,52,30139,2,0,B|256:12|300:0,1,75.0000028610231
360,128,30469,2,0,P|400:124|436:132,1,75.0000028610231
244,216,30798,6,0,B|164:160,1,75.0000028610231,4|0,0:0|0:0,0:0:0:0:
392,296,31128,1,0,0:0:0:0:
392,296,31293,2,0,P|480:280|432:208,1,200
452,216,31787,1,0,0:0:0:0:
452,216,31870,1,0,0:0:0:0:
452,216,31952,6,0,B|452:160|500:120|353:62,1,200
319,199,32447,1,0,0:0:0:0:
263,0,32612,1,0,0:0:0:0:
206,248,32777,1,0,0:0:0:0:
363,66,32941,1,0,0:0:0:0:
363,66,33024,1,0,0:0:0:0:
363,66,33106,1,0,0:0:0:0:
328,208,33271,1,0,0:0:0:0:
328,208,33353,1,0,0:0:0:0:
328,208,33436,5,0,0:0:0:0:
368,344,33601,2,0,P|374:354|424:384,1,59.9999981689454
216,304,33930,1,0,0:0:0:0:
216,304,34095,2,0,P|192:248|120:228,1,119.999996337891
136,312,34590,1,0,0:0:0:0:
136,312,34754,1,2,0:0:0:0:
264,176,35002,1,2,0:0:0:0:
392,56,35249,1,2,0:0:0:0:
392,56,35414,5,0,0:0:0:0:
504,32,35743,2,0,L|504:104,1,59.9999981689454
408,140,36073,2,0,P|440:180|520:204,1,119.999996337891
504,296,36568,1,0,0:0:0:0:
504,296,36650,1,0,0:0:0:0:
504,296,36732,2,0,B|424:296|424:296|368:320,1,119.999996337891
240,360,37227,6,0,P|160:304|136:320,1,119.999996337891
32,376,37721,1,0,0:0:0:0:
32,376,37886,1,0,0:0:0:0:
24,68,38216,5,0,0:0:0:0:
0,104,38298,1,0,0:0:0:0:
40,140,38380,5,0,0:0:0:0:
48,180,38462,1,0,0:0:0:0:
16,224,38545,5,0,0:0:0:0:
44,260,38627,1,0,0:0:0:0:
72,296,38711,1,0,0:0:0:0:
72,296,38875,5,0,0:0:0:0:
112,224,39040,2,0,L|144:144,1,75.0000028610231
72,24,39370,1,0,0:0:0:0:
256,40,39535,6,0,L|272:136,1,75.0000028610231
112,224,39865,1,0,0:0:0:0:
304,320,40029,1,0,0:0:0:0:
304,320,40112,1,0,0:0:0:0:
304,320,40194,2,0,L|352:240,1,75.0000028610231
392,192,40524,2,0,P|456:144|424:88,1,150.000005722046
433,97,41018,1,0,0:0:0:0:
433,97,41183,1,0,0:0:0:0:
168,16,41348,6,0,B|96:96|96:96|104:192,1,150.000005722046
384,184,41842,1,0,0:0:0:0:
120,328,42172,1,0,0:0:0:0:
416,336,42502,2,0,B|528:360|488:424|432:384|512:296|496:152,1,300.000011444092
336,0,42996,1,0,0:0:0:0:
232,168,43161,1,0,0:0:0:0:
120,16,43326,5,0,0:0:0:0:
88,24,43408,1,0,0:0:0:0:
64,56,43491,1,0,0:0:0:0:
48,96,43573,1,0,0:0:0:0:
48,144,43656,1,0,0:0:0:0:
72,200,43738,1,0,0:0:0:0:
112,248,43820,1,0,0:0:0:0:
168,296,43903,1,0,0:0:0:0:
240,336,43985,5,4,0:0:0:0:
336,208,44150,1,0,0:0:0:0:
216,288,44315,1,0,0:0:0:0:
312,164,44480,5,0,0:0:0:0:
264,376,44645,2,0,B|332:384|332:384|388:352,1,125
480,288,44974,1,0,0:0:0:0:
512,128,45139,2,2,L|488:72,1,50
456,0,45469,1,0,0:0:0:0:
396,240,45634,1,0,0:0:0:0:
340,112,45798,2,2,L|359:157,1,50
168,56,46128,1,0,0:0:0:0:
264,288,46293,1,0,0:0:0:0:
72,224,46458,6,2,L|105:264,1,50
129,289,46705,1,0,0:0:0:0:
153,306,46787,1,0,0:0:0:0:
181,318,46870,1,0,0:0:0:0:
210,324,46952,1,0,0:0:0:0:
241,324,47035,1,0,0:0:0:0:
271,319,47117,5,0,0:0:0:0:
424,216,47282,2,0,B|328:208|328:208|344:232,1,125
448,384,47612,1,0,0:0:0:0:
312,352,47776,2,2,B|328:328|328:328|320:296,1,50
280,160,48106,1,0,0:0:0:0:
312,352,48271,1,0,0:0:0:0:
128,184,48436,2,2,B|112:208|112:208|117:228,1,50
160,368,48766,1,0,0:0:0:0:
128,184,48931,1,0,0:0:0:0:
8,384,49095,6,2,P|0:352|0:328,2,50,2|0|0,0:0|0:0|0:0,0:0:0:0:
168,312,49590,1,0,0:0:0:0:
32,224,49754,1,0,0:0:0:0:
168,312,49919,2,0,B|216:240|216:240|200:184,1,125
164,124,50249,2,0,L|92:132,1,62.5,0|0,0:0|2:0,0:0:0:0:
200,112,50414,2,0,P|264:88|208:184,1,250
248,144,50908,1,0,0:0:0:0:
248,144,51073,1,0,0:0:0:0:
120,16,51403,6,0,B|24:24|24:24|8:56,1,125
144,136,51732,1,0,0:0:0:0:
32,240,51897,2,0,B|41:312|121:400|65:440|25:376|160:352,1,250
144,264,52392,1,0,0:0:0:0:
304,136,52721,1,0,0:0:0:0:
504,16,53051,6,0,B|432:56|408:120|408:120|504:168,1,250
504,16,53546,1,0,0:0:0:0:
344,112,53711,1,0,0:0:0:0:
502,167,53875,5,0,0:0:0:0:
496,200,53957,1,0,0:0:0:0:
480,232,54040,1,0,0:0:0:0:
456,264,54122,1,0,0:0:0:0:
424,280,54205,1,0,0:0:0:0:
370,305,54287,1,0,0:0:0:0:
313,332,54369,1,0,0:0:0:0:
243,351,54452,1,0,0:0:0:0:
160,360,54535,6,0,P|68:316|148:220,1,250
248,216,55029,1,0,0:0:0:0:
160,358,55194,1,0,0:0:0:0:
86,221,55359,1,0,0:0:0:0:
248,216,55524,1,0,0:0:0:0:
248,216,55689,6,0,P|344:220|348:272,1,150,0|0,0:0|2:0,0:0:0:0:
404,296,56018,2,0,B|412:344|412:344|476:368,1,100,0|0,0:0|2:0,0:0:0:0:
504,320,56348,2,0,P|440:252|488:212,1,150,0|0,0:0|2:0,0:0:0:0:
504,176,56677,2,0,B|496:112|496:112|440:88,1,100,0|0,0:0|2:0,0:0:0:0:
368,304,57007,2,0,B|336:120|336:120|264:172,1,250
136,260,57502,1,0,0:0:0:0:
88,104,57667,5,0,0:0:0:0:
280,8,57831,2,0,B|328:44|328:44|288:112,1,125
183,243,58161,1,0,0:0:0:0:
140,384,58326,2,0,B|120:208|120:208|184:244,1,250
384,272,58820,1,0,0:0:0:0:
296,104,58985,2,0,B|224:64|224:64|288:40,1,125
400,0,59315,1,0,0:0:0:0:
504,72,59480,1,0,0:0:0:0:
400,160,59645,6,0,P|448:232|336:224,1,250
312,80,60139,1,0,0:0:0:0:
208,192,60304,2,0,P|176:224|168:240,1,62.5,0|0,0:0|2:0,0:0:0:0:
176,160,60469,2,0,B|126:195|128:120|35:57|35:57|48:152,1,250
80,280,60963,2,0,P|128:328|200:352,1,125
360,328,61293,5,0,0:0:0:0:
208,192,61458,1,0,0:0:0:0:
360,328,61623,1,0,0:0:0:0:
272,336,61952,5,0,0:0:0:0:
408,184,62117,1,0,0:0:0:0:
272,336,62282,2,0,P|152:336|104:304,1,125
0,256,62612,1,0,0:0:0:0:
168,208,62776,1,0,0:0:0:0:
72,104,62941,6,0,B|112:16|112:16|168:16,1,125
256,96,63271,1,0,0:0:0:0:
168,208,63436,1,0,0:0:0:0:
140,16,63601,1,2,0:0:0:0:
288,176,63930,1,2,0:0:0:0:
440,320,64260,1,2,0:0:0:0:
344,216,64425,6,0,P|244:228|268:108,1,250
272,16,64919,1,4,0:0:0:0:
192,160,65084,5,0,0:0:0:0:
160,8,65249,1,0,0:0:0:0:
72,152,65414,1,0,0:0:0:0:
40,0,65579,1,0,0:0:0:0:
72,352,65743,5,4,0:0:0:0:
144,136,65908,1,0,0:0:0:0:
208,344,66073,1,0,0:0:0:0:
288,120,66238,1,0,0:0:0:0:
424,32,66403,5,4,0:0:0:0:
408,304,66568,1,0,0:0:0:0:
296,40,66732,1,0,0:0:0:0:
280,312,66897,1,0,0:0:0:0:
172,72,67062,5,0,0:0:0:0:
132,102,67144,1,0,0:0:0:0:
106,144,67226,1,0,0:0:0:0:
95,193,67309,1,0,0:0:0:0:
102,242,67391,1,0,0:0:0:0:
125,286,67474,1,0,0:0:0:0:
162,319,67556,1,0,0:0:0:0:
208,338,67638,1,0,0:0:0:0:
254,334,67721,6,0,L|396:320,1,125,4|0,0:0|0:0,0:0:0:0:
296,192,68051,1,0,0:0:0:0:
352,64,68216,2,0,P|374:87|392:120,1,50,4|0,0:0|0:0,0:0:0:0:
392,128,68546,1,0,0:0:0:0:
360,344,68711,2,0,P|337:320|320:288,1,50,4|0,0:0|0:0,0:0:0:0:
320,280,69041,1,0,0:0:0:0:
191,80,69205,2,0,P|208:98|222:118,1,50,4|0,0:0|0:0,0:0:0:0:
231,143,69535,1,0,0:0:0:0:
296,192,69700,2,0,P|256:224|192:224,1,100,4|0,0:0|0:0,0:0:0:0:
84,168,70194,5,0,0:0:0:0:
84,168,70276,1,0,0:0:0:0:
84,168,70359,2,0,B|52:124|72:60|42:26,1,150
40,24,71018,1,0,0:0:0:0:
232,176,71348,1,0,0:0:0:0:
232,176,71513,2,0,P|170:193|88:168,1,150
160,59,72337,1,0,0:0:0:0:
232,176,72667,5,0,0:0:0:0:
320,88,72831,2,0,P|335:43|328:24,1,50,0|2,0:0|0:0,0:0:0:0:
480,176,73161,1,0,0:0:0:0:
480,0,73326,1,0,0:0:0:0:
320,88,73491,1,0,0:0:0:0:
328,224,73656,2,2,L|320:296,1,50
176,320,73985,2,0,P|136:312|112:296,1,50
216,200,74315,6,2,L|200:144,1,50
64,72,74645,1,0,0:0:0:0:
264,16,74809,2,0,L|312:40,2,50
168,8,75304,2,0,P|168:48|184:72,1,50
40,144,75634,2,2,B|80:80|80:80|120:104,1,100
256,200,76128,1,0,0:0:0:0:
104,304,76293,1,0,0:0:0:0:
104,304,76623,6,2,B|32:352|32:352|0:344,1,100
8,224,77117,2,0,B|0:192|0:168,1,50
80,48,77447,1,0,0:0:0:0:
152,160,77612,1,0,0:0:0:0:
152,160,77941,2,0,B|232:152|232:152|256:128,1,100
296,0,78601,2,0,B|216:8|216:8|192:32,1,100
202,21,79095,1,0,0:0:0:0:
432,48,79425,6,0,B|292:88|508:248|356:332,1,300.000011444092,4|0,0:0|0:0,0:0:0:0:
200,368,79919,1,0,0:0:0:0:
48,232,80084,1,0,0:0:0:0:
132,68,80249,5,0,0:0:0:0:
168,48,80331,1,0,0:0:0:0:
216,40,80413,1,0,0:0:0:0:
264,44,80496,1,0,0:0:0:0:
308,60,80578,1,0,0:0:0:0:
356,92,80661,1,0,0:0:0:0:
388,144,80743,1,0,0:0:0:0:
408,208,80825,1,0,0:0:0:0:
416,276,80908,6,0,P|384:340|340:368,1,100,4|0,0:0|0:0,0:0:0:0:
240,384,81238,2,0,L|204:284,1,100
148,132,81568,1,0,0:0:0:0:
24,264,81732,1,0,0:0:0:0:
206,289,81897,2,0,B|281:282|281:282|320:264,1,100
472,184,82227,1,0,0:0:0:0:
328,32,82392,2,0,P|252:32|220:52,1,100
296,192,82721,1,0,0:0:0:0:
120,176,82886,6,0,P|64:96|72:56,1,100,0|0,0:0|2:0,0:0:0:0:
76,56,83134,1,0,2:0:0:0:
96,24,83216,2,0,P|139:47|168:88,1,100,0|0,0:0|2:0,0:0:0:0:
192,264,83546,2,0,B|280:262|336:200|336:200|280:168,1,200
264,160,83958,1,0,2:0:0:0:
240,128,84040,2,0,P|312:72|336:76,1,100,0|0,0:0|2:0,0:0:0:0:
452,112,84370,1,0,0:0:0:0:
352,224,84535,1,0,0:0:0:0:
352,224,84700,6,0,B|284:280|172:320,1,200
40,360,85194,1,0,0:0:0:0:
32,200,85359,1,0,0:0:0:0:
32,56,85524,2,0,P|88:24|112:24,1,75.0000028610231,0|0,0:0|2:0,0:0:0:0:
104,56,85771,1,0,2:0:0:0:
104,88,85853,2,0,P|160:56|184:56,1,75.0000028610231,0|0,0:0|2:0,0:0:0:0:
280,80,86183,2,0,L|312:200,2,100
384,8,86678,1,0,0:0:0:0:
496,32,86842,6,0,B|584:80|488:96|472:108|472:216,1,200,4|0,0:0|0:0,0:0:0:0:
464,352,87337,2,0,B|360:336|436:276|376:232|328:192,1,200,4|0,0:0|0:0,0:0:0:0:
216,88,87831,1,0,0:0:0:0:
384,32,87996,1,0,0:0:0:0:
345,206,88161,2,0,P|408:216|431:208,1,75.0000028610231,0|0,0:0|2:0,0:0:0:0:
409,182,88408,1,0,0:0:0:0:
403,152,88491,2,0,P|465:166|489:158,1,75.0000028610231,0|0,0:0|2:0,0:0:0:0:
512,40,88820,2,0,B|352:56|352:56|312:104,1,200,4|0,0:0|0:0,0:0:0:0:
326,86,89315,5,4,0:0:0:0:
173,200,89644,1,4,0:0:0:0:
20,312,89974,1,4,0:0:0:0:
88,216,90139,1,0,0:0:0:0:
144,328,90304,1,0,0:0:0:0:
144,128,90469,1,0,0:0:0:0:
20,312,90634,5,0,0:0:0:0:
28,320,90716,1,0,0:0:0:0:
28,320,90798,1,0,0:0:0:0:
144,328,90963,1,0,0:0:0:0:
181,326,91045,1,0,0:0:0:0:
216,328,91127,1,0,0:0:0:0:
256,328,91210,1,0,0:0:0:0:
296,328,91292,1,0,0:0:0:0:
336,328,91375,1,0,0:0:0:0:
376,328,91458,6,0,P|409:349|417:389,1,75.0000028610231
460,348,91787,6,0,P|470:312|502:293,1,75.0000028610231
504,224,92117,2,0,B|456:208|456:208|496:128|480:96,1,150.000005722046
488,32,92612,1,0,0:0:0:0:
488,32,92776,1,2,0:0:0:0:
296,36,93024,1,2,0:0:0:0:
96,40,93271,1,2,0:0:0:0:
192,136,93436,2,0,B|230:122|231:140|273:116,1,75.0000028610231,0|0,0:0|2:0,0:0:0:0:
88,224,93765,2,0,B|56:246|54:228|16:244,1,75.0000028610231,0|0,0:0|2:0,0:0:0:0:
232,288,94095,6,0,B|281:277|281:277|286:367|316:386,1,150.000005722046
416,288,94590,1,0,0:0:0:0:
392,176,94754,2,0,B|280:152|280:152|312:120,1,150.000005722046
218,77,95249,2,0,B|330:101|330:101|304:126,1,150.000005722046
304,125,95743,1,0,0:0:0:0:
304,125,95908,1,0,0:0:0:0:
136,16,96238,5,0,0:0:0:0:
96,240,96568,1,0,0:0:0:0:
96,240,96897,2,0,P|136:272|152:312,1,85.0000016212464
48,336,97227,1,0,0:0:0:0:
48,336,97392,2,0,P|16:280|112:256,1,170.000003242493
232,288,97886,1,0,0:0:0:0:
128,376,98051,1,0,0:0:0:0:
96,240,98216,1,0,0:0:0:0:
248,360,98381,5,0,0:0:0:0:
304,344,98546,1,0,0:0:0:0:
304,152,98711,1,0,0:0:0:0:
352,120,98876,1,0,0:0:0:0:
252,0,99040,1,0,0:0:0:0:
192,0,99205,1,0,0:0:0:0:
136,16,99370,2,0,B|60:48|179:305|212:0|464:52,1,450.000017166138
472,56,100029,1,0,0:0:0:0:
496,216,100194,2,0,P|424:216|312:144,1,187.5
304,133,100524,6,0,P|364:0|477:104,1,312.5
481,103,100935,1,0,0:0:0:0:
465,150,101017,1,0,0:0:0:0:
427,181,101100,1,0,0:0:0:0:
378,189,101182,1,0,0:0:0:0:
333,171,101265,1,0,0:0:0:0:
303,132,101347,5,4,0:0:0:0:
264,136,101430,1,0,0:0:0:0:
240,152,101513,1,0,0:0:0:0:
224,184,101595,1,0,0:0:0:0:
232,232,101678,1,0,0:0:0:0:
256,272,101760,1,0,0:0:0:0:
304,320,101842,1,0,0:0:0:0:
368,352,101925,1,0,0:0:0:0:
448,384,102007,6,0,B|480:232|480:232|408:248,1,200,4|0,0:0|0:0,0:0:0:0:
256,272,102502,1,0,0:0:0:0:
288,120,102667,2,0,B|312:64|312:64|360:40,1,100
488,16,102996,1,0,0:0:0:0:
432,152,103161,2,0,P|432:224|456:272,1,100,4|0,0:0|2:0,0:0:0:0:
352,176,103491,2,0,P|356:96|300:128,1,150,4|0,0:0|2:0,0:0:0:0:
346,46,103820,2,0,P|274:82|226:66,1,100,4|0,0:0|2:0,0:0:0:0:
84,52,104150,2,0,P|135:23|107:87,1,150,4|0,0:0|2:0,0:0:0:0:
96,80,104480,5,4,0:0:0:0:
32,200,104645,2,0,P|24:248|72:304,1,100
144,368,104974,1,0,0:0:0:0:
264,216,105139,5,0,0:0:0:0:
392,368,105304,2,0,B|416:352|416:352|504:376,1,100
484,370,105634,1,0,0:0:0:0:
496,200,105798,2,0,P|536:132|488:120,1,150,4|0,0:0|2:0,0:0:0:0:
328,148,106128,1,0,0:0:0:0:
328,148,106458,2,0,P|289:179|280:96,1,150,4|0,0:0|2:0,0:0:0:0:
364,24,106787,1,0,0:0:0:0:
364,24,107117,5,4,0:0:0:0:
368,216,107282,1,0,0:0:0:0:
207,125,107447,1,0,0:0:0:0:
408,96,107612,1,0,0:0:0:0:
456,105,107694,1,0,0:0:0:0:
497,133,107776,1,0,0:0:0:0:
512,176,107859,1,0,0:0:0:0:
512,225,107941,1,0,0:0:0:0:
512,272,108024,1,0,0:0:0:0:
492,312,108106,2,0,B|432:296|432:296|396:248,1,100
409,265,108436,6,0,B|383:407|257:306|224:208|200:208|160:208,1,300.000011444092,4|0,0:0|0:0,0:0:0:0:
8,168,108930,1,0,0:0:0:0:
120,40,109095,1,0,0:0:0:0:
120,40,109425,1,0,0:0:0:0:
256,152,109590,2,0,P|213:195|149:211,1,100
8,168,109919,2,0,P|67:251|-16:319,1,200
8,168,110414,2,0,P|81:142|168:136,1,150,0|0,0:0|2:0,0:0:0:0:
88,168,110743,2,0,P|156:196|116:264,1,150,0|0,0:0|2:0,0:0:0:0:
144,344,111073,6,0,B|192:408|224:416|240:408|264:392|272:328|344:248,1,300.000011444092,4|0,0:0|0:0,0:0:0:0:
343,249,111568,1,0,0:0:0:0:
440,192,111732,1,0,0:0:0:0:
308,147,111897,1,0,0:0:0:0:
507,91,112062,1,0,0:0:0:0:
264,32,112226,5,0,0:0:0:0:
220,38,112309,1,0,0:0:0:0:
184,64,112392,1,0,0:0:0:0:
168,104,112474,1,0,0:0:0:0:
160,144,112557,2,0,B|96:144|96:144|64:208,1,100
32,368,112886,1,0,0:0:0:0:
216,304,113051,1,0,0:0:0:0:
79,176,113216,2,0,B|96:144|96:144|160:144,1,100
352,136,113546,1,0,0:0:0:0:
352,136,113711,6,0,P|352:80|336:32,1,100,4|0,0:0|0:0,0:0:0:0:
200,112,114040,1,0,0:0:0:0:
200,272,114205,1,0,0:0:0:0:
56,344,114370,2,0,P|42:296|43:246,1,100,4|0,0:0|0:0,0:0:0:0:
200,112,114700,1,0,0:0:0:0:
200,272,114864,1,0,0:0:0:0:
200,272,115029,6,0,B|272:272|286:240|304:356|312:296|408:304,1,200,4|0,0:0|0:0,0:0:0:0:
387,303,115524,1,0,0:0:0:0:
496,224,115689,1,0,0:0:0:0:
512,200,115771,1,0,0:0:0:0:
512,160,115853,1,0,0:0:0:0:
440,40,116018,1,0,0:0:0:0:
384,160,116183,1,0,0:0:0:0:
384,160,116348,6,0,B|352:24|304:144|176:112,1,250,4|0,0:0|0:0,0:0:0:0:
32,96,116842,1,0,0:0:0:0:
96,248,117007,1,0,0:0:0:0:
96,248,117172,2,0,B|160:288|160:288|208:248,1,125
288,288,117502,2,0,B|224:240|224:240|176:272,1,125
88,344,117831,1,0,0:0:0:0:
232,264,117996,1,0,0:0:0:0:
256,112,118161,1,0,0:0:0:0:
144,16,118326,1,0,0:0:0:0:
104,8,118408,1,0,0:0:0:0:
72,16,118491,6,0,P|3:51|43:195,1,250
72,16,118985,1,0,0:0:0:0:
304,16,119315,1,0,0:0:0:0:
464,136,119480,1,0,0:0:0:0:
296,200,119645,1,0,0:0:0:0:
296,200,119974,1,0,0:0:0:0:
128,264,120139,1,0,0:0:0:0:
288,352,120304,5,4,0:0:0:0:
288,352,120469,1,0,0:0:0:0:
0,152,120799,1,0,0:0:0:0:
40,8,120963,2,0,L|184:16,1,125
280,16,121293,1,0,0:0:0:0:
368,168,121458,1,0,0:0:0:0:
472,8,121623,5,2,0:0:0:0:
280,168,121952,1,2,0:0:0:0:
112,312,122282,1,2,0:0:0:0:
112,312,122447,2,0,B|40:272|80:176,1,125
96,104,122776,2,0,P|144:64|152:-16,1,125
56,0,123106,6,0,P|8:48|16:120,1,125,4|0,0:0|0:0,0:0:0:0:
96,248,123436,1,0,0:0:0:0:
200,120,123601,1,0,0:0:0:0:
56,0,123765,6,0,P|8:48|16:120,1,125,4|0,0:0|0:0,0:0:0:0:
104,304,124095,1,0,0:0:0:0:
248,104,124260,1,0,0:0:0:0:
56,0,124425,6,0,P|8:48|16:120,1,125,4|0,0:0|0:0,0:0:0:0:
112,384,124754,1,0,0:0:0:0:
320,72,124919,1,0,0:0:0:0:
492,272,125084,1,0,0:0:0:0:
480,280,125166,1,0,0:0:0:0:
472,288,125249,5,0,0:0:0:0:
452,260,125331,1,0,0:0:0:0:
424,240,125413,1,0,0:0:0:0:
368,232,125496,1,0,0:0:0:0:
333,267,125579,6,0,P|333:319|397:351,1,125
240,352,125908,1,0,0:0:0:0:
392,352,126073,1,0,0:0:0:0:
512,288,126238,2,0,P|520:216|504:168,2,100
392,232,126732,1,0,0:0:0:0:
392,88,126897,2,0,P|352:88|256:168,1,150.000005722046,4|0,0:0|0:0,0:0:0:0:
392,232,127392,1,0,0:0:0:0:
264,148,127557,2,0,P|318:98|392:88,1,150.000005722046,4|0,0:0|0:0,0:0:0:0:
392,232,128051,1,0,0:0:0:0:
392,232,128216,6,0,B|328:288|320:240|240:296,1,150.000005722046,4|0,0:0|0:0,0:0:0:0:
56,368,128711,1,0,0:0:0:0:
96,176,128875,1,0,0:0:0:0:
254,286,129040,2,0,B|280:312|280:312|256:216,1,100
232,48,129370,1,0,0:0:0:0:
232,48,129452,1,0,0:0:0:0:
232,48,129535,6,0,P|264:112|344:88,1,150.000005722046,4|0,0:0|0:0,0:0:0:0:
464,0,130029,1,0,0:0:0:0:
464,0,130194,2,0,P|435:65|505:111,1,150.000005722046,4|0,0:0|0:0,0:0:0:0:
496,48,130689,1,0,0:0:0:0:
496,48,130853,6,0,B|424:56|424:56|400:88,1,100,4|0,0:0|0:0,0:0:0:0:
344,144,131183,2,0,B|416:136|416:136|432:113,1,100
280,256,131513,2,0,B|284:328|284:328|316:364,1,100
308,224,131842,1,0,0:0:0:0:
168,112,132007,1,0,0:0:0:0:
144,96,132090,1,0,0:0:0:0:
120,88,132172,5,4,0:0:0:0:
16,192,132337,1,0,0:0:0:0:
160,280,132502,1,0,0:0:0:0:
168,112,132667,1,0,0:0:0:0:
16,192,132832,1,0,0:0:0:0:
244,180,132996,1,0,0:0:0:0:
334,354,133161,1,0,0:0:0:0:
128,364,133326,1,0,0:0:0:0:
334,354,133491,6,0,P|428:312|480:204,1,200,4|0,0:0|0:0,0:0:0:0:
448,80,133985,1,0,0:0:0:0:
312,160,134150,2,0,L|288:48,1,100
144,152,134480,1,0,0:0:0:0:
328,224,134645,1,0,0:0:0:0:
88,128,134809,2,0,L|88:312,1,150.000005722046,4|0,0:0|0:0,0:0:0:0:
168,224,135304,1,0,0:0:0:0:
4,80,135469,2,0,L|4:264,1,150.000005722046,4|0,0:0|0:0,0:0:0:0:
168,224,135963,1,0,0:0:0:0:
168,224,136046,1,0,0:0:0:0:
168,224,136128,5,0,0:0:0:0:
448,80,136458,1,0,0:0:0:0:
320,0,136623,2,0,P|296:40|344:168,1,150.000005722046
392,264,136952,1,0,0:0:0:0:
312,384,137117,2,0,P|240:288|248:232,1,150.000005722046
216,152,137447,6,0,P|113:126|1:270,1,300.000011444092
0,304,137859,1,0,0:0:0:0:
0,352,137940,1,0,0:0:0:0:
200,368,138106,1,0,0:0:0:0:
0,208,138271,1,2,0:0:0:0:
256,176,138518,1,2,0:0:0:0:
512,144,138765,6,0,B|616:32|476:56|408:60|328:8,1,300.000011444092,2|0,0:0|0:0,0:0:0:0:
304,16,139177,1,0,0:0:0:0:
264,40,139260,1,0,0:0:0:0:
112,104,139425,1,0,0:0:0:0:
152,128,139508,1,0,0:0:0:0:
200,136,139590,1,0,0:0:0:0:
400,168,139754,1,0,0:0:0:0:
360,192,139837,1,0,0:0:0:0:
312,200,139919,5,0,0:0:0:0:
208,200,140084,1,0,0:0:0:0:
216,384,140414,1,0,0:0:0:0:
328,384,140579,1,0,0:0:0:0:
208,200,140908,5,0,0:0:0:0:
173,184,140990,1,0,0:0:0:0:
145,160,141072,1,0,0:0:0:0:
124,129,141155,1,0,0:0:0:0:
113,93,141237,1,0,0:0:0:0:
112,56,141320,1,0,0:0:0:0:
122,20,141402,5,4,0:0:0:0:
248,72,141732,2,0,B|296:56|296:56|344:72,1,75.0000028610231
368,96,142062,1,0,0:0:0:0:
328,228,142227,1,0,0:0:0:0:
152,272,142392,2,0,L|36:300,2,100
296,368,142886,6,0,P|348:308|396:324,1,125
492,368,143216,1,0,0:0:0:0:
328,228,143381,1,0,0:0:0:0:
512,160,143546,2,0,P|464:120|352:120,1,125
160,112,143876,1,0,0:0:0:0:
280,312,144041,1,0,0:0:0:0:
404,107,144205,6,0,B|232:0|232:0|144:24,1,250
8,64,144864,1,0,0:0:0:0:
8,64,145029,1,0,0:0:0:0:
32,172,145194,2,0,P|72:224|128:256,1,125,0|0,3:0|3:0,3:0:0:0:
328,228,145524,5,0,0:0:0:0:
368,344,145689,2,0,P|432:296|456:216,1,150.000005722046
480,128,146018,2,0,P|520:80|456:80,1,150.000005722046
288,104,146348,1,0,0:0:0:0:
304,0,146513,2,0,P|208:37|185:125,1,150.000005722046
188,208,146842,5,0,0:0:0:0:
64,232,147007,1,0,0:0:0:0:
144,328,147172,1,0,0:0:0:0:
144,328,147502,5,0,0:0:0:0:
188,208,147667,1,0,0:0:0:0:
312,263,147832,1,0,0:0:0:0:
260,379,147996,1,8,0:0:0:0:
152,184,148326,1,8,0:0:0:0:
64,32,148656,1,8,0:0:0:0:
288,72,148985,1,8,0:0:0:0:
496,104,149315,1,8,0:0:0:0:
288,72,149645,5,0,0:0:0:0:
400,336,149809,1,0,0:0:0:0:
112,272,150139,1,0,0:0:0:0:
432,184,150304,1,0,0:0:0:0:
256,192,150634,12,0,152776,3:0:0:0:
112,224,155908,5,4,0:0:0:0:
120,80,156073,2,0,B|184:56|184:56|264:64,1,125
360,80,156403,1,0,0:0:0:0:
448,128,156568,2,0,L|448:200,1,62.5,0|0,0:0|2:0,0:0:0:0:
388,292,156732,2,0,P|400:248|428:220,1,62.5,0|0,0:0|2:0,0:0:0:0:
452,328,156897,2,0,P|428:360|396:368,1,62.5,0|0,0:0|2:0,0:0:0:0:
308,236,157062,1,0,0:0:0:0:
136,368,157227,6,2,P|104:360|80:384,1,50
0,200,157557,1,0,0:0:0:0:
32,24,157721,1,0,0:0:0:0:
191,215,157886,2,2,P|176:216|152:192,1,50
228,74,158216,1,0,0:0:0:0:
381,0,158380,1,0,0:0:0:0:
384,304,158546,6,0,B|464:168|464:168|360:168,1,250,2|0,0:0|0:0,0:0:0:0:
136,184,159040,1,0,0:0:0:0:
90,201,159123,1,0,0:0:0:0:
54,225,159205,1,0,0:0:0:0:
30,263,159287,1,0,0:0:0:0:
15,307,159370,5,0,0:0:0:0:
150,328,159535,1,0,0:0:0:0:
136,184,159700,1,0,0:0:0:0:
136,184,159864,2,0,B|22:110|164:87|192:168|240:80|288:88,1,250,4|0,0:0|0:0,0:0:0:0:
480,8,160359,1,0,0:0:0:0:
480,8,160524,1,0,0:0:0:0:
400,184,160853,6,0,P|344:104|288:64,2,125
480,328,161348,2,0,B|440:392|400:408|400:344|304:296|240:304,1,250
40,264,161842,1,0,0:0:0:0:
269,304,162172,1,0,0:0:0:0:
480,328,162502,2,0,B|544:288|560:248|496:248|448:152|392:88,1,250
376,56,162996,1,0,0:0:0:0:
336,200,163161,1,0,0:0:0:0:
272,0,163326,5,0,0:0:0:0:
232,8,163408,1,0,0:0:0:0:
192,16,163491,1,0,0:0:0:0:
152,32,163573,1,0,0:0:0:0:
112,48,163656,5,0,0:0:0:0:
120,100,163738,1,0,0:0:0:0:
112,153,163820,1,0,0:0:0:0:
85,197,163903,1,0,0:0:0:0:
41,223,163985,5,0,0:0:0:0:
312,104,164480,1,0,0:0:0:0:
426,50,164645,2,0,P|439:109|422:163,1,100
360,288,164974,1,0,0:0:0:0:
450,192,165139,2,2,L|426:136,1,50
296,208,165469,1,0,0:0:0:0:
472,216,165634,1,0,0:0:0:0:
488,240,165798,2,0,L|507:285,1,50,2|0,0:0|0:0,0:0:0:0:
296,208,166128,1,0,0:0:0:0:
512,216,166293,1,0,0:0:0:0:
512,216,166458,5,2,0:0:0:0:
432,48,166623,2,0,B|512:40|512:40|528:96,1,100
304,80,166952,1,0,0:0:0:0:
160,8,167117,5,0,0:0:0:0:
16,64,167282,2,0,L|16:176,1,100
24,208,167612,1,0,0:0:0:0:
24,208,167776,2,0,B|40:296|72:296|88:152|208:144,1,250,4|0,0:0|0:0,0:0:0:0:
296,312,168271,1,0,0:0:0:0:
416,208,168436,1,0,0:0:0:0:
464,360,168601,1,0,0:0:0:0:
464,360,168930,1,0,0:0:0:0:
264,176,169095,6,0,P|243:134|336:24,1,187.5,4|0,0:0|2:0,0:0:0:0:
296,88,169425,2,0,P|424:56|512:176,1,250
488,224,169919,2,0,B|464:384|392:232|280:240,1,250
488,224,170414,5,4,0:0:0:0:
304,0,170743,2,0,P|232:24|176:96,1,125
120,176,171073,1,0,0:0:0:0:
104,120,171403,2,0,P|128:192|200:248,1,125
280,304,171732,2,0,P|296:368|283:387,1,62.5
256,368,171897,6,0,P|200:280|0:384,1,375
88,352,172557,2,0,P|120:376|152:384,1,62.5,0|0,0:0|2:0,0:0:0:0:
134,328,172721,2,0,P|170:312|193:288,1,62.5,0|0,0:0|2:0,0:0:0:0:
158,280,172886,2,0,P|162:240|153:208,1,62.5,0|0,0:0|2:0,0:0:0:0:
126,231,173051,1,2,0:0:0:0:
296,120,173381,1,2,0:0:0:0:
456,32,173711,1,2,0:0:0:0:
456,32,173875,2,0,P|456:152|384:208,1,200
504,168,174370,6,0,P|408:96|248:64,1,250
80,72,174864,1,0,0:0:0:0:
80,72,175029,1,0,0:0:0:0:
56,240,175194,5,0,0:0:0:0:
96,256,175359,1,0,0:0:0:0:
64,304,175524,1,0,0:0:0:0:
136,328,175689,1,0,0:0:0:0:
160,88,175853,5,0,0:0:0:0:
256,72,176018,1,0,0:0:0:0:
160,16,176183,1,0,0:0:0:0:
288,0,176348,1,0,0:0:0:0:
232,280,176513,5,0,0:0:0:0:
256,296,176678,1,0,0:0:0:0:
216,384,176842,1,0,0:0:0:0:
340,120,177007,1,0,0:0:0:0:
80,32,178491,5,4,0:0:0:0:
80,32,178656,1,4,0:0:0:0:
16,248,178820,2,0,P|56:264|120:256,1,89.9999972534181,0|0,0:0|2:0,0:0:0:0:
72,312,179150,2,0,P|152:304|216:272,1,120,0|0,0:0|2:0,0:0:0:0:
136,352,179480,2,0,P|240:320|288:272,1,150,0|0,0:0|2:0,0:0:0:0:
232,384,179809,2,0,P|112:272|88:208,1,179.999994506836,0|0,0:0|2:0,0:0:0:0:
88,224,180139,1,0,0:0:0:0:
288,56,180469,5,0,0:0:0:0:
464,40,180634,1,0,0:0:0:0:
392,200,180798,1,0,0:0:0:0:
392,200,180963,2,0,P|368:304|288:248,1,239.999992675781,4|0,0:0|0:0,0:0:0:0:
320,128,181458,2,0,P|232:136|200:160,1,119.999996337891
64,152,181787,2,0,B|184:232|184:232|128:280,1,179.999994506836,0|0,0:0|2:0,0:0:0:0:
24,344,182117,2,0,B|72:208|72:208|112:240,1,179.999994506836,0|0,0:0|2:0,0:0:0:0:
88,264,182447,6,0,P|96:352|176:256,1,239.999992675781
176,72,182941,2,0,B|115:51|56:48,1,119.999996337891
96,160,183271,2,0,P|176:184|240:184,1,119.999996337891
176,72,183601,1,0,0:0:0:0:
320,32,183765,2,0,P|408:16|456:24,1,119.999996337891
464,48,184095,2,0,P|408:80|448:112,1,134.999995880127,0|0,0:0|2:0,0:0:0:0:
432,32,184425,2,0,P|372:85|456:128,1,165.000005035401,0|0,0:0|2:0,0:0:0:0:
384,0,184754,2,0,P|320:72|400:176,1,194.999991073609,0|0,0:0|2:0,0:0:0:0:
464,80,185084,6,0,P|352:64|224:80,1,225.000008583069
160,96,185414,1,0,0:0:0:0:
84,320,185743,6,0,P|44:368|-4:384,2,100
128,168,186238,2,0,B|152:56|232:168|312:168|336:160,1,200
480,152,186732,2,0,P|448:232|400:280,1,150,0|0,0:0|2:0,0:0:0:0:
368,304,187062,2,0,P|376:344|304:312,1,150,0|0,0:0|2:0,0:0:0:0:
288,232,187392,2,0,P|220:272|196:356,1,150,0|0,0:0|2:0,0:0:0:0:
272,272,187721,6,0,B|216:168|168:256|96:300,1,200,0|0,0:0|2:0,0:0:0:0:
0,384,188216,1,0,0:0:0:0:
124,236,188381,1,0,0:0:0:0:
192,384,188546,1,0,0:0:0:0:
328,280,188711,1,0,0:0:0:0:
336,328,188875,6,0,B|208:384|208:384|136:360,1,200
8,328,189370,1,0,0:0:0:0:
176,192,189535,1,0,0:0:0:0:
16,160,189700,1,0,0:0:0:0:
24,112,189782,1,0,0:0:0:0:
37,67,189864,1,0,0:0:0:0:
56,32,189947,1,0,0:0:0:0:
73,14,190029,1,0,0:0:0:0:
88,0,190112,1,0,0:0:0:0:
102,15,190194,1,0,0:0:0:0:
87,27,190276,1,0,0:0:0:0:
88,0,190359,6,0,P|144:24|200:16,1,100
360,72,190689,2,0,P|288:96|248:128,1,100
288,240,191018,1,0,0:0:0:0:
320,376,191183,1,0,0:0:0:0:
456,248,191348,1,0,0:0:0:0:
477,376,191513,6,0,P|552:312|480:304,1,200
392,344,192007,1,0,0:0:0:0:
348,360,192172,1,0,0:0:0:0:
384,240,192337,1,0,0:0:0:0:
312,188,192502,1,0,0:0:0:0:
472,192,192667,1,0,0:0:0:0:
408,104,192831,1,0,0:0:0:0:
472,192,192996,6,0,B|520:136|520:136|456:104|448:36,1,200
448,38,193491,1,2,0:0:0:0:
252,180,193820,1,2,0:0:0:0:
48,320,194150,5,2,0:0:0:0:
48,320,194480,1,0,0:0:0:0:
48,144,194645,2,0,P|72:80|120:48,1,100
248,24,194974,1,0,0:0:0:0:
208,168,195139,1,0,0:0:0:0:
208,168,195304,2,0,P|240:120|248:200,1,150,0|0,0:0|2:0,0:0:0:0:
264,208,195634,2,0,P|360:256|392:304,1,150,0|0,0:0|2:0,0:0:0:0:
408,336,195963,1,0,0:0:0:0:
408,336,196128,5,2,0:0:0:0:
208,192,196458,1,2,0:0:0:0:
16,16,196787,1,2,0:0:0:0:
8,168,196952,1,0,0:0:0:0:
188,72,197117,1,0,0:0:0:0:
216,76,197200,1,0,0:0:0:0:
240,88,197282,2,0,L|342:135,1,112.500004291535,0|0,0:0|2:0,0:0:0:0:
272,160,197611,2,0,L|374:207,1,112.500004291535,0|0,0:0|2:0,0:0:0:0:
320,248,197941,2,0,L|422:295,1,112.500004291535,0|0,0:0|2:0,0:0:0:0:
464,312,198271,5,0,0:0:0:0:
456,80,198436,1,0,0:0:0:0:
280,152,198601,1,0,0:0:0:0:
280,152,198930,5,0,0:0:0:0:
48,144,199095,1,0,0:0:0:0:
184,32,199260,1,0,0:0:0:0:
152,256,199425,1,0,0:0:0:0:
152,256,199754,5,0,0:0:0:0:
328,352,199919,1,0,0:0:0:0:
224,136,200084,1,0,0:0:0:0:
360,160,200249,5,0,0:0:0:0:
408,152,200331,1,0,0:0:0:0:
445,119,200413,1,0,0:0:0:0:
473,77,200496,1,0,0:0:0:0:
495,33,200578,5,0,0:0:0:0:
504,96,200661,1,0,0:0:0:0:
506,162,200743,1,0,0:0:0:0:
502,230,200825,1,0,0:0:0:0:
491,297,200908,5,4,0:0:0:0:
368,384,201073,1,0,0:0:0:0:
224,304,201238,1,0,0:0:0:0:
368,208,201403,2,0,P|408:176|464:168,2,75.0000028610231
184,328,201897,1,0,0:0:0:0:
184,328,202062,2,0,P|112:240|112:200,1,150.000005722046,4|0,0:0|0:0,0:0:0:0:
216,224,202557,1,0,0:0:0:0:
248,120,202721,2,0,P|319:208|319:248,1,150.000005722046,4|0,0:0|0:0,0:0:0:0:
320,368,203216,1,0,0:0:0:0:
336,144,203381,6,0,P|344:88|416:8,1,150.000005722046,4|0,0:0|0:0,0:0:0:0:
464,128,203875,1,0,0:0:0:0:
280,184,204040,2,0,L|200:208,1,75.0000028610231
16,280,204370,1,0,0:0:0:0:
16,96,204535,1,0,0:0:0:0:
16,384,204700,6,0,P|88:360|144:288,1,150.000005722046,4|0,0:0|0:0,0:0:0:0:
168,144,205194,1,0,0:0:0:0:
64,264,205359,2,0,P|79:189|48:104,1,150.000005722046,4|0,0:0|0:0,0:0:0:0:
0,16,205853,1,0,0:0:0:0:
34,1,205935,1,0,0:0:0:0:
71,0,206017,1,0,0:0:0:0:
107,6,206100,1,0,0:0:0:0:
139,25,206182,5,4,0:0:0:0:
224,216,206348,1,0,0:0:0:0:
232,128,206513,1,0,0:0:0:0:
216,336,206678,2,0,L|272:256,1,75.0000028610231
64,224,207007,2,0,P|110:200|184:192,1,112.500004291535
72,160,207337,2,0,P|144:136|208:144,1,112.500004291535
88,96,207667,5,0,0:0:0:0:
336,80,207831,1,0,0:0:0:0:
104,48,207996,2,0,P|32:112|32:192,1,150.000005722046
32,344,208491,1,0,0:0:0:0:
80,360,208573,1,0,0:0:0:0:
128,368,208656,1,0,0:0:0:0:
136,152,208820,5,0,0:0:0:0:
136,88,209150,1,0,0:0:0:0:
184,304,209315,1,0,0:0:0:0:
184,216,209645,1,0,0:0:0:0:
232,176,209809,1,0,0:0:0:0:
256,384,209974,1,0,0:0:0:0:
256,304,210304,2,0,P|296:264|336:256,1,75.0000028610231
440,232,210634,1,0,0:0:0:0:
408,80,210798,5,0,0:0:0:0:
380,82,210880,1,0,0:0:0:0:
352,81,210962,1,0,0:0:0:0:
325,76,211045,1,0,0:0:0:0:
288,64,211127,5,0,0:0:0:0:
272,100,211210,1,0,0:0:0:0:
251,155,211292,1,0,0:0:0:0:
230,209,211374,1,0,0:0:0:0:
209,265,211457,1,0,0:0:0:0:
