osu file format v14

[General]
AudioFilename: audio.mp3
AudioLeadIn: 0
PreviewTime: 68447
Countdown: 0
SampleSet: Soft
StackLeniency: 0.7
Mode: 0
LetterboxInBreaks: 0
WidescreenStoryboard: 1

[Editor]
Bookmarks: 10394,68920
DistanceSpacing: 0.8
BeatDivisor: 4
GridSize: 8
TimelineZoom: 2.2

[Metadata]
Title:Zen Zen Zense
TitleUnicode:前前前世
Artist:Soraru x Mafumafu
ArtistUnicode:そらる x まふまふ
Creator:Chibi Maruko
Version:Insane
Source:君の名は。
Tags:taki mitsuha your name movie cover RADWIMPS cut ver Noffy Ayyri
BeatmapID:1163115
BeatmapSetID:547946

[Difficulty]
HPDrainRate:7
CircleSize:4
OverallDifficulty:6
ApproachRate:9
SliderMultiplier:1.5
SliderTickRate:1

[Events]
//Background and Video events
0,0,"doesn't watch this movie.png",0,0
//Break Periods
//Storyboard Layer 0 (Background)
//Storyboard Layer 1 (Fail)
//Storyboard Layer 2 (Pass)
//Storyboard Layer 3 (Foreground)
//Storyboard Sound Samples

[TimingPoints]
1397,315.789473684211,4,1,0,100,1,0
1397,-133.333333333333,4,2,1,70,0,0
10239,-111.111111111111,4,2,1,60,0,0
10344,-111.111111111111,4,2,1,5,0,0
10449,-111.111111111111,4,2,1,60,0,0
10554,-111.111111111111,4,2,1,5,0,0
10660,-111.111111111111,4,2,1,60,0,0
10765,-111.111111111111,4,2,1,5,0,0
10870,-111.111111111111,4,2,1,60,0,0
10975,-111.111111111111,4,2,1,5,0,0
11081,-111.111111111111,4,2,1,60,0,0
11186,-111.111111111111,4,2,1,5,0,0
11291,-111.111111111111,4,2,1,60,0,0
11397,-111.111111111111,4,2,1,5,0,0
11502,-100,4,2,1,80,0,0
21607,-133.333333333333,4,2,1,70,0,0
31081,-133.333333333333,4,1,1,70,0,0
31712,-133.333333333333,4,2,1,70,0,0
40554,-133.333333333333,4,1,1,70,0,0
41818,-133.333333333333,4,2,1,70,0,0
46870,-111.111111111111,4,2,1,75,0,0
56975,-133.333333333333,4,2,1,60,0,0
64554,-125,4,2,1,65,0,0
68344,-125,4,2,1,70,0,0
68660,-125,4,2,1,75,0,0
69607,-90.9090909090909,4,2,1,80,0,1
69765,-90.9090909090909,4,2,1,5,0,1
69923,-90.9090909090909,4,2,1,80,0,1
70081,-90.9090909090909,4,2,1,5,0,1
70239,-90.9090909090909,4,2,1,80,0,1
70397,-90.9090909090909,4,2,1,5,0,1
70554,-90.9090909090909,4,2,1,80,0,1
77186,-83.3333333333333,4,2,1,80,0,1
78291,-90.9090909090909,4,2,1,80,0,1
79870,-90.9090909090909,4,2,1,5,0,1
80028,-90.9090909090909,4,2,1,80,0,1
80186,-90.9090909090909,4,2,1,5,0,1
80344,-90.9090909090909,4,2,1,80,0,1
80502,-90.9090909090909,4,2,1,5,0,1
80660,-90.9090909090909,4,2,1,80,0,1
89818,-111.111111111111,4,2,1,70,0,0
94081,-111.111111111111,4,2,1,5,0,0
94239,-111.111111111111,4,2,1,80,0,0

[Colours]
Combo1 : 255,128,0
Combo2 : 0,128,192
Combo3 : 0,128,0
Combo4 : 128,128,255
Combo5 : 255,128,0
Combo6 : 128,128,192

[HitObjects]
144,48,1397,6,0,P|128:112|120:176,1,112.500004291535,4|2,0:0|0:0,0:0:0:0:
216,112,1870,1,0,0:0:0:0:
32,136,2028,2,0,P|40:200|64:264,1,112.500004291535,2|2,0:1|0:0,0:0:0:0:
208,328,2502,6,0,L|200:200,1,112.500004291535,2|0,0:1|0:0,0:0:0:0:
376,208,2975,2,0,L|312:216,1,56.2500021457673,2|0,0:1|0:0,0:0:0:0:
432,144,3291,2,0,L|424:80,1,56.2500021457673,2|0,0:1|0:0,0:0:0:0:
464,224,3607,1,2,0:0:0:0:
202,74,3923,6,0,B|272:80|272:80|312:64,1,112.500004291535,4|2,0:0|0:0,0:0:0:0:
240,160,4397,1,0,0:0:0:0:
72,56,4554,2,0,L|144:64,1,56.2500021457673,2|0,0:1|0:0,0:0:0:0:
160,192,4870,1,2,0:0:0:0:
416,208,5028,6,0,L|296:224,1,112.500004291535,2|0,0:1|0:0,0:0:0:0:
160,192,5502,1,2,0:1:0:0:
104,256,5660,1,0,0:0:0:0:
240,160,5818,2,0,P|248:120|264:88,1,56.2500021457673,2|0,0:1|0:0,0:0:0:0:
416,208,6133,1,2,0:0:0:0:
416,64,6449,6,0,P|368:48|288:40,1,112.500004291535,4|2,0:0|0:0,0:0:0:0:
368,136,6923,1,0,0:0:0:0:
144,129,7081,2,0,P|200:113|256:105,1,112.500004291535,2|2,0:1|0:0,0:0:0:0:
416,208,7554,6,0,B|400:256|400:256|392:336,1,112.500004291535,2|0,0:1|0:0,0:0:0:0:
294,295,8028,2,0,L|288:240,1,56.2500021457673,2|0,0:1|0:0,0:0:0:0:
392,80,8344,1,2,0:1:0:0:
272,112,8502,1,0,0:0:0:0:
416,208,8660,1,2,0:0:0:0:
128,320,8975,6,0,B|136:280|136:280|120:208,1,112.500004291535,4|2,0:0|0:0,0:0:0:0:
184,112,9449,2,0,L|216:232,1,112.500004291535
352,184,9923,2,0,L|344:248,1,56.2500021457673,2|0,0:0|0:0,0:0:0:0:
456,40,10239,6,0,L|464:96,1,44.999998626709,2|0,0:0|0:0,0:0:0:0:
352,40,10449,2,0,L|344:96,1,44.999998626709,2|0,0:0|0:0,0:0:0:0:
462,84,10660,6,0,L|470:140,1,44.999998626709,2|0,0:0|0:0,0:0:0:0:
345,84,10870,2,0,L|337:140,1,44.999998626709,2|0,0:0|0:0,0:0:0:0:
468,128,11081,6,0,L|476:184,1,44.999998626709,2|0,0:0|0:0,0:0:0:0:
338,128,11291,2,0,L|330:184,1,44.999998626709,2|0,0:0|0:0,0:0:0:0:
168,104,11502,6,0,L|176:192,1,75,6|0,0:0|0:0,0:0:0:0:
16,64,11818,1,8,0:0:0:0:
264,64,11975,1,0,0:0:0:0:
72,136,12133,2,0,L|64:224,1,75,10|0,0:0|0:0,0:0:0:0:
280,272,12449,2,0,L|273:197,1,75,8|0,0:0|0:0,0:0:0:0:
144,312,12765,5,10,0:0:0:0:
312,296,12923,1,0,0:0:0:0:
152,112,13081,2,0,P|200:120|256:128,1,75,8|0,0:0|0:0,0:0:0:0:
360,368,13397,1,10,0:0:0:0:
184,240,13554,1,0,0:0:0:0:
424,160,13712,2,0,L|416:248,1,75,8|0,0:0|0:0,0:0:0:0:
368,80,14028,6,0,P|320:72|272:80,1,75,4|0,0:0|0:0,0:0:0:0:
320,240,14344,1,8,0:0:0:0:
216,24,14502,1,0,0:0:0:0:
256,144,14660,2,0,P|240:192|232:240,1,75,10|0,0:0|0:0,0:0:0:0:
72,72,14975,2,0,P|88:120|96:168,1,75,8|0,0:0|0:0,0:0:0:0:
248,240,15291,5,10,0:0:0:0:
176,96,15449,1,0,0:0:0:0:
120,288,15607,2,0,L|128:192,1,75,8|0,0:0|0:0,0:0:0:0:
288,120,15923,1,10,0:0:0:0:
200,320,16081,1,0,0:0:0:0:
376,264,16239,2,0,L|368:352,1,75,4|0,0:0|0:0,0:0:0:0:
400,160,16554,6,0,L|392:80,1,75,4|0,0:0|0:0,0:0:0:0:
216,168,16870,1,8,0:0:0:0:
336,280,17028,1,0,0:0:0:0:
152,320,17186,2,0,P|168:272|176:232,1,75,10|0,0:0|0:0,0:0:0:0:
293,111,17502,2,0,P|304:147|312:184,1,75,8|0,0:0|0:0,0:0:0:0:
432,320,17818,6,0,L|424:224,1,75,8|0,0:0|0:0,0:0:0:0:
512,168,18133,1,8,0:0:0:0:
352,112,18291,1,0,0:0:0:0:
224,232,18449,2,0,L|320:240,1,75,10|0,0:0|0:0,0:0:0:0:
352,112,18765,1,8,0:0:0:0:
192,8,18923,1,0,0:0:0:0:
152,176,19081,5,4,0:0:0:0:
152,176,19160,1,0,0:0:0:0:
152,176,19239,2,0,P|168:136|200:88,1,75,0|8,0:0|0:0,0:0:0:0:
168,304,19554,1,0,0:0:0:0:
32,208,19712,2,0,P|40:168|56:104,1,75,10|0,0:0|0:0,0:0:0:0:
224,120,20028,1,8,0:0:0:0:
264,232,20186,1,0,0:0:0:0:
344,72,20344,5,12,0:0:0:0:
384,216,20502,2,0,L|392:120,1,75
264,232,20818,1,12,0:0:0:0:
224,376,20976,2,0,L|216:280,1,75
256,136,21291,1,10,0:0:0:0:
280,160,21607,6,0,L|288:288,1,112.500004291535,6|2,0:0|0:0,0:0:0:0:
184,256,22081,1,0,0:0:0:0:
120,72,22239,2,0,L|112:184,1,112.500004291535,2|2,0:0|0:0,0:0:0:0:
240,48,22870,5,2,0:0:0:0:
248,56,23186,2,0,L|328:48,1,56.2500021457673,2|0,0:0|0:0,0:0:0:0:
400,160,23502,2,0,L|315:152,2,84.3750032186509,2|0|0,0:0|0:0|0:0,0:0:0:0:
296,240,24133,6,0,P|312:272|320:304,2,56.2500021457673,2|0|2,0:1|0:0|0:0,0:0:0:0:
416,280,24607,1,0,1:0:0:0:
424,128,24765,2,0,L|416:208,1,56.2500021457673,2|0,0:1|1:0,0:0:0:0:
288,152,25081,1,0,1:0:0:0:
304,328,25239,6,0,L|240:336,1,56.2500021457673,2|0,0:1|1:0,0:0:0:0:
160,232,25554,2,0,L|224:240,1,56.2500021457673,2|0,0:1|1:0,0:0:0:0:
216,80,25870,1,0,0:0:0:0:
288,152,26028,5,2,0:0:0:0:
264,128,26344,1,2,0:0:0:0:
240,104,26660,5,4,0:0:0:0:
416,144,26818,1,0,0:0:0:0:
336,200,26975,1,2,0:0:0:0:
376,56,27133,1,0,0:0:0:0:
424,240,27291,2,0,L|432:312,1,56.2500021457673,2|0,0:0|0:0,0:0:0:0:
336,200,27607,2,0,L|329:255,1,56.2500021457673,2|0,0:0|0:0,0:0:0:0:
448,320,27923,5,2,0:0:0:0:
488,192,28081,1,0,0:0:0:0:
352,344,28239,1,2,0:0:0:0:
256,248,28397,1,0,0:0:0:0:
296,128,28554,1,2,0:0:0:0:
144,264,28712,1,0,1:0:0:0:
144,264,28791,1,0,1:0:0:0:
144,264,28870,2,0,L|152:184,1,56.2500021457673
56,304,29186,5,4,0:0:0:0:
48,216,29502,2,0,L|40:152,1,56.2500021457673,2|0,0:0|0:0,0:0:0:0:
149,208,29818,1,0,0:0:0:0:
200,72,29975,2,0,L|136:80,1,56.2500021457673,2|0,0:1|0:0,0:0:0:0:
264,128,30291,1,2,0:1:0:0:
392,24,30449,6,0,P|376:80|368:144,1,112.500004291535,2|2,0:1|0:0,0:0:0:0:
496,80,30923,1,0,0:0:0:0:
424,256,31081,2,0,L|416:184,1,56.2500021457673
200,224,31397,2,0,L|208:168,1,56.2500021457673
296,296,31712,6,0,B|280:248|280:248|288:160,1,112.500004291535,4|2,0:0|0:0,0:0:0:0:
200,144,32186,1,0,0:0:0:0:
160,360,32344,2,0,B|176:312|176:312|168:224,1,112.500004291535,2|2,0:0|0:0,0:0:0:0:
280,96,32975,5,2,0:0:0:0:
296,88,33291,2,0,L|360:96,1,56.2500021457673,2|0,0:0|0:0,0:0:0:0:
504,152,33607,2,0,L|408:160,2,84.3750032186509,2|0|0,0:0|0:0|0:0,0:0:0:0:
368,224,34239,6,0,P|376:256|392:296,1,56.2500021457673,2|0,0:1|0:0,0:0:0:0:
280,160,34554,2,0,P|272:192|256:232,1,56.2500021457673,2|0,0:0|0:0,0:0:0:0:
360,304,34870,1,0,0:0:0:0:
264,224,35028,1,0,0:0:0:0:
217,360,35186,1,0,0:0:0:0:
80,352,35344,1,0,1:0:0:0:
80,352,35423,1,0,1:0:0:0:
80,352,35502,6,0,P|72:320|48:280,1,56.2500021457673,2|0,0:0|0:0,0:0:0:0:
152,208,35818,2,0,P|120:184|80:168,1,56.2500021457673,2|0,0:0|0:0,0:0:0:0:
232,184,36133,5,2,0:0:0:0:
312,160,36449,1,2,0:0:0:0:
392,136,36765,5,4,0:0:0:0:
256,264,36923,1,0,0:0:0:0:
288,80,37081,1,2,0:0:0:0:
424,208,37239,1,0,0:0:0:0:
232,184,37397,2,0,L|160:192,1,56.2500021457673,2|0,0:0|0:0,0:0:0:0:
288,80,37712,2,0,L|232:73,1,56.2500021457673,2|0,0:0|0:0,0:0:0:0:
352,256,38028,5,0,0:0:0:0:
488,96,38186,2,0,L|496:160,2,56.2500021457673,0|2|0,1:0|0:1|0:0,0:0:0:0:
354,19,38660,2,0,L|346:99,1,56.2500021457673,2|0,0:1|1:0,0:0:0:0:
424,208,38975,1,2,0:1:0:0:
232,184,39133,1,0,1:0:0:0:
352,352,39291,6,0,P|344:296|320:224,1,112.500004291535,4|2,0:0|0:0,0:0:0:0:
120,184,39923,2,0,P|128:240|152:312,1,112.500004291535,2|2,0:0|0:0,0:0:0:0:
240,248,40397,1,0,0:0:0:0:
48,272,40554,6,0,P|56:304|80:336,1,56.2500021457673,2|0,2:0|0:0,0:0:0:0:
240,248,40870,2,0,P|232:216|208:184,1,56.2500021457673,2|0,2:0|0:0,0:0:0:0:
320,280,41186,1,2,2:0:0:0:
360,352,41344,1,0,0:0:0:0:
488,256,41502,1,2,2:0:0:0:
448,328,41660,1,0,0:0:0:0:
280,208,41818,5,4,0:0:0:0:
472,176,41975,1,0,0:0:0:0:
376,128,42133,1,2,0:0:0:0:
320,280,42291,1,0,0:0:0:0:
360,96,42449,2,0,L|352:32,1,56.2500021457673,2|0,0:0|0:0,0:0:0:0:
280,208,42765,2,0,L|288:144,1,56.2500021457673,2|0,0:0|0:0,0:0:0:0:
272,344,43081,5,4,0:0:0:0:
400,272,43239,1,0,0:0:0:0:
192,312,43397,2,0,L|184:256,1,56.2500021457673,2|0,0:0|0:0,0:0:0:0:
360,200,43712,1,2,0:0:0:0:
223,298,43870,1,0,0:0:0:0:
400,272,44028,1,0,0:0:0:0:
416,128,44186,1,0,0:0:0:0:
264,280,44344,6,0,L|272:160,1,112.500004291535,4|2,0:0|0:0,0:0:0:0:
360,200,44818,1,0,0:0:0:0:
448,56,44975,2,0,L|440:128,2,56.2500021457673,2|0|2,0:0|0:0|0:0,0:0:0:0:
336,224,45449,5,12,0:0:0:0:
176,256,45765,1,0,0:0:0:0:
176,256,45844,1,0,0:0:0:0:
176,256,45923,2,0,P|168:224|152:184,1,56.2500021457673,2|0,0:0|0:0,0:0:0:0:
272,72,46239,2,0,P|262:98|256:125,1,56.2500021457673,2|0,0:0|0:0,0:0:0:0:
184,32,46554,1,8,0:0:0:0:
392,80,46870,5,12,0:0:0:0:
480,184,47028,1,0,0:0:0:0:
416,48,47186,1,8,0:0:0:0:
336,192,47344,1,0,0:0:0:0:
456,344,47502,2,0,L|448:264,1,67.4999979400635,10|0,0:0|0:0,0:0:0:0:
304,288,47818,1,8,0:0:0:0:
408,160,47975,1,0,0:0:0:0:
304,288,48133,6,0,L|312:216,1,67.4999979400635,10|0,0:0|0:0,0:0:0:0:
344,72,48449,1,8,0:0:0:0:
445,172,48607,1,0,0:0:0:0:
216,216,48765,2,0,P|224:168|240:136,1,67.4999979400635,10|0,0:0|0:0,0:0:0:0:
120,296,49081,2,0,P|104:264|96:216,1,67.4999979400635,8|0,0:0|0:0,0:0:0:0:
136,16,49397,6,0,B|128:64|144:88|144:88|160:112|152:168,2,134.999995880127,4|8|10,0:0|0:0|0:0,0:0:0:0:
64,216,50186,1,0,0:0:0:0:
232,192,50344,1,8,0:0:0:0:
112,312,50502,1,0,0:0:0:0:
176,104,50660,6,0,L|184:24,1,67.4999979400635,10|0,0:0|0:0,0:0:0:0:
256,216,50975,2,0,L|262:283,1,67.4999979400635,10|0,0:0|0:0,0:0:0:0:
360,104,51291,1,2,0:0:0:0:
368,184,51449,1,2,0:0:0:0:
376,264,51607,1,4,0:0:0:0:
448,80,51923,6,0,L|360:88,2,67.4999979400635,4|0|8,0:0|0:0|0:0,0:0:0:0:
280,184,52397,1,0,0:0:0:0:
160,112,52554,1,10,0:0:0:0:
288,32,52712,1,0,0:0:0:0:
72,152,52870,2,0,P|112:136|152:128,1,67.4999979400635,8|0,0:0|0:0,0:0:0:0:
344,112,53186,5,10,0:0:0:0:
208,216,53344,1,0,0:0:0:0:
400,176,53502,2,0,P|384:216|376:264,1,67.4999979400635,8|0,0:0|0:0,0:0:0:0:
264,144,53818,1,8,0:0:0:0:
208,296,53975,1,0,0:0:0:0:
72,208,54133,1,8,0:0:0:0:
104,352,54291,1,0,0:0:0:0:
280,320,54449,6,0,B|346:338|346:338|410:322,1,134.999995880127,4|8,0:0|0:0,0:0:0:0:
328,216,54923,1,0,0:0:0:0:
256,80,55081,2,0,L|248:152,1,67.4999979400635,10|0,0:0|0:0,0:0:0:0:
432,208,55397,1,8,0:0:0:0:
360,64,55554,1,0,0:0:0:0:
176,56,55712,5,2,0:0:0:0:
184,196,55870,1,2,0:0:0:0:
16,88,56028,1,12,0:0:0:0:
232,128,56186,1,2,0:0:0:0:
232,128,56265,1,2,0:0:0:0:
232,128,56344,1,8,0:0:0:0:
32,160,56502,1,0,0:0:0:0:
192,264,56660,2,0,L|184:192,1,67.4999979400635,2|2,0:0|0:0,0:0:0:0:
120,312,56975,5,4,0:0:0:0:
304,288,57291,1,2,0:0:0:0:
304,288,57449,2,0,L|376:296,1,56.2500021457673,0|8,0:0|0:0,0:0:0:0:
264,208,57765,1,0,0:0:0:0:
320,144,57923,2,0,P|328:104|304:32,1,112.500004291535,2|2,0:0|0:0,0:0:0:0:
400,176,58397,6,0,L|472:184,2,56.2500021457673,8|2|0,0:0|0:0|0:0,0:0:0:0:
344,248,58870,1,8,0:0:0:0:
168,104,59186,2,0,L|176:168,1,56.2500021457673,2|0,0:0|0:0,0:0:0:0:
232,48,59502,5,2,0:0:0:0:
80,120,59660,2,0,L|88:64,2,56.2500021457673,8|2|0,0:0|0:0|0:0,0:0:0:0:
40,208,60133,1,8,0:0:0:0:
144,296,60291,2,0,L|64:288,1,56.2500021457673,0|2,0:0|0:0,0:0:0:0:
144,184,60607,1,0,0:0:0:0:
240,200,60765,5,0,0:0:0:0:
208,360,60923,2,0,L|288:352,2,56.2500021457673,8|2|0,0:0|0:0|0:0,0:0:0:0:
304,272,61397,2,0,P|344:264|408:256,1,84.3750032186509,8|0,0:0|0:0,0:0:0:0:
416,288,61712,1,4,0:0:0:0:
424,72,62028,6,0,P|432:112|440:192,1,112.500004291535,2|2,0:0|0:0,0:0:0:0:
336,40,62502,1,0,0:0:0:0:
272,112,62660,2,0,P|280:144|296:184,1,56.2500021457673,8|0,0:0|0:0,0:0:0:0:
176,104,62975,2,0,P|168:144|168:176,1,56.2500021457673,2|0,0:0|0:0,0:0:0:0:
304,76,63291,5,2,0:0:0:0:
224,216,63449,2,0,L|232:280,2,56.2500021457673,8|4|0,0:0|0:0|0:0,0:0:0:0:
336,264,63923,2,0,L|328:320,1,56.2500021457673,2|2,0:0|0:0,0:0:0:0:
304,184,64239,1,2,0:0:0:0:
416,168,64397,1,2,0:0:0:0:
240,136,64554,6,0,P|248:80|264:16,1,120,4|2,0:0|0:1,0:0:0:0:
440,192,65028,1,0,0:0:0:0:
464,88,65186,1,2,0:0:0:0:
328,208,65344,1,0,0:0:0:0:
160,160,65502,2,0,L|240:168,1,60,2|0,0:1|0:0,0:0:0:0:
328,120,65818,5,2,0:0:0:0:
248,248,65975,2,0,P|232:280|224:312,2,60,0|2|0,0:0|0:1|0:0,0:0:0:0:
104,264,66449,2,0,P|112:304|128:336,1,60,2|0,0:0|0:0,0:0:0:0:
48,200,66765,2,0,P|58:172|63:142,1,60,2|0,0:1|0:0,0:0:0:0:
144,32,67081,6,0,L|152:112,1,60,12|0,0:0|0:0,0:0:0:0:
368,32,67397,2,0,L|360:112,1,60,8|0,0:0|0:0,0:0:0:0:
200,192,67712,1,8,0:0:0:0:
280,32,67870,1,0,0:0:0:0:
368,208,68028,1,8,0:0:0:0:
168,112,68186,1,0,0:0:0:0:
280,240,68344,6,0,L|288:288,3,30,8|0|8|0,0:0|0:0|0:0|0:0,0:0:0:0:
264,296,68660,1,8,0:0:0:0:
232,312,68739,1,8,0:0:0:0:
200,320,68818,1,8,0:0:0:0:
168,320,68897,1,8,0:0:0:0:
136,312,68975,1,8,0:0:0:0:
8,176,69607,6,0,P|72:168|136:184,1,123.75000377655,6|0,0:0|0:0,0:0:0:0:
176,104,69923,2,0,P|216:160|200:240,1,123.75000377655,8|0,0:0|0:0,0:0:0:0:
144,264,70239,2,0,P|200:304|280:272,1,123.75000377655,2|0,0:0|0:0,0:0:0:0:
304,224,70554,1,8,0:0:0:0:
344,40,70712,6,0,B|336:72|344:104|344:104|328:136|328:136|344:168|328:208,1,165.000005035401,4|0,0:0|0:0,0:0:0:0:
424,72,71186,1,8,0:0:0:0:
256,96,71344,1,0,0:0:0:0:
456,176,71502,2,0,L|448:88,1,82.5000025177003,2|2,0:0|0:0,0:0:0:0:
400,240,71818,1,8,0:0:0:0:
352,304,71975,1,0,0:0:0:0:
352,136,72133,5,4,0:0:0:0:
160,256,72291,2,0,L|272:264,1,82.5000025177003,0|8,0:0|0:0,0:0:0:0:
432,264,72607,1,0,0:0:0:0:
264,184,72765,2,0,P|256:128|240:88,2,82.5000025177003,2|2|8,0:0|0:0|0:0,0:0:0:0:
160,48,73239,6,0,P|80:64|0:96,1,165.000005035401,4|0,0:0|0:0,0:0:0:0:
144,136,73712,2,0,P|120:176|104:216,1,82.5000025177003,8|0,0:0|0:0,0:0:0:0:
240,272,74028,1,2,0:0:0:0:
328,176,74186,1,2,0:0:0:0:
128,232,74344,1,8,0:0:0:0:
336,264,74502,1,8,0:0:0:0:
352,280,74581,1,0,0:0:0:0:
368,296,74660,6,0,L|464:288,1,82.5000025177003,4|0,0:0|0:0,0:0:0:0:
392,104,74975,1,8,0:0:0:0:
200,96,75133,1,0,0:0:0:0:
352,208,75291,1,2,0:0:0:0:
296,24,75449,1,2,0:0:0:0:
240,200,75607,1,8,0:0:0:0:
160,72,75765,6,0,P|104:80|-8:120,1,165.000005035401,4|0,0:0|0:0,0:0:0:0:
64,288,76239,2,0,L|56:200,1,82.5000025177003,8|0,0:0|0:0,0:0:0:0:
264,224,76554,1,2,0:0:0:0:
144,328,76712,1,0,0:0:0:0:
200,168,76870,1,8,0:0:0:0:
384,240,77186,6,0,L|288:248,1,89.9999972534181,4|0,0:0|0:0,0:0:0:0:
320,80,77502,1,8,0:0:0:0:
145,97,77660,2,0,P|169:137|201:169,1,89.9999972534181,0|2,0:0|0:0,0:0:0:0:
56,240,77975,2,0,P|104:264|160:280,1,89.9999972534181,2|8,0:0|0:0,0:0:0:0:
343,171,78291,6,0,P|269:135|180:202,1,165.000005035401,4|0,0:0|0:0,0:0:0:0:
432,240,78765,1,8,0:0:0:0:
276,376,78923,2,0,L|268:200,1,165.000005035401,4|2,0:0|0:0,0:0:0:0:
432,240,79397,1,8,0:0:0:0:
416,104,79554,1,0,0:0:0:0:
304,16,79712,6,0,B|296:96|296:96|312:160,1,123.75000377655,4|0,0:0|0:0,0:0:0:0:
224,168,80028,2,0,B|234:210|234:210|226:290,1,123.75000377655,8|0,0:0|0:0,0:0:0:0:
144,312,80344,2,0,P|96:320|48:256,1,123.75000377655,2|0,0:0|0:0,0:0:0:0:
104,208,80660,1,8,0:0:0:0:
296,272,80818,6,0,B|352:264|384:280|384:280|416:296|472:280,1,165.000005035401,4|0,0:0|0:0,0:0:0:0:
240,216,81291,1,8,0:0:0:0:
376,64,81449,1,0,0:0:0:0:
496,192,81607,2,0,L|400:200,1,82.5000025177003,2|2,0:0|0:0,0:0:0:0:
296,64,81923,2,8,L|304:120,3,41.2500012588501
256,48,82239,6,0,P|200:56|152:48,1,82.5000025177003,4|0,0:0|0:0,0:0:0:0:
48,128,82554,1,8,0:0:0:0:
176,200,82712,1,0,0:0:0:0:
64,312,82870,2,0,P|88:256|112:224,2,82.5000025177003,2|2|8,0:0|0:0|0:0,0:0:0:0:
328,264,83344,6,0,P|304:208|280:176,1,82.5000025177003,4|0,0:0|0:0,0:0:0:0:
472,224,83660,1,0,0:0:0:0:
416,112,83818,1,8,0:0:0:0:
416,304,83975,1,0,0:0:0:0:
291,190,84133,2,0,L|283:94,1,82.5000025177003,2|2,0:0|0:0,0:0:0:0:
160,64,84449,1,8,0:0:0:0:
304,216,84607,1,0,0:0:0:0:
128,272,84765,6,0,L|136:176,1,82.5000025177003,4|0,0:0|0:0,0:0:0:0:
240,288,85081,1,8,0:0:0:0:
144,352,85239,1,0,0:0:0:0:
224,184,85397,1,2,0:0:0:0:
316,336,85554,1,2,0:0:0:0:
328,144,85712,1,8,0:0:0:0:
391,280,85870,6,0,P|311:256|231:296,1,165.000005035401,4|0,0:0|0:0,0:0:0:0:
328,144,86344,1,8,0:0:0:0:
416,120,86502,1,0,0:0:0:0:
216,24,86660,1,2,0:0:0:0:
256,104,86818,1,0,0:0:0:0:
72,184,86975,2,0,P|120:168|184:160,1,82.5000025177003,8|8,0:0|0:0,0:0:0:0:
160,168,87212,1,0,0:0:0:0:
160,168,87291,6,0,P|152:224|144:344,1,165.000005035401,4|8,0:0|0:0,0:0:0:0:
240,216,87765,1,0,0:0:0:0:
384,104,87923,2,0,L|296:120,1,82.5000025177003,2|2,0:0|0:0,0:0:0:0:
296,288,88239,1,8,0:0:0:0:
448,231,88397,6,0,B|360:247|360:247|296:287,1,165.000005035401,4|0,0:0|0:0,0:0:0:0:
400,328,88870,1,8,0:0:0:0:
416,152,89028,1,0,0:0:0:0:
416,152,89107,1,0,0:0:0:0:
416,152,89186,2,0,P|400:112|392:72,1,82.5000025177003,2|2,0:0|0:0,0:0:0:0:
264,104,89502,2,0,P|272:64|288:24,1,82.5000025177003,2|2,0:0|0:0,0:0:0:0:
184,128,89818,6,0,P|144:136|48:88,1,134.999995880127,4|0,0:0|0:0,0:0:0:0:
24,200,90291,1,0,0:0:0:0:
200,224,90449,2,0,L|112:232,2,67.4999979400635,2|2|2,0:1|0:1|0:1,0:0:0:0:
288,320,90923,6,0,P|304:264|296:160,1,134.999995880127,2|0,0:0|0:0,0:0:0:0:
380,236,91397,2,0,P|380:272|372:304,1,67.4999979400635,2|0,0:0|0:0,0:0:0:0:
456,184,91712,1,2,0:0:0:0:
424,96,91870,1,0,0:0:0:0:
344,48,92028,2,0,L|272:56,1,67.4999979400635,2|0,0:0|0:0,0:0:0:0:
192,152,92344,5,4,0:0:0:0:
256,192,92423,12,0,94081,0:0:0:0:
280,112,94239,5,2,0:1:0:0:
312,288,94397,1,0,1:0:0:0:
119,119,94870,5,6,0:0:0:0:
