osu file format v14

[General]
AudioFilename: audio.mp3
AudioLeadIn: 0
PreviewTime: 68447
Countdown: 0
SampleSet: Soft
StackLeniency: 0.7
Mode: 0
LetterboxInBreaks: 0
WidescreenStoryboard: 1

[Editor]
Bookmarks: 10394,53763,68920,92423
DistanceSpacing: 1.4
BeatDivisor: 4
GridSize: 8
TimelineZoom: 1.4

[Metadata]
Title:Zen Zen Zense
TitleUnicode:前前前世
Artist:Soraru x Mafumafu
ArtistUnicode:そらる x まふまふ
Creator:Chibi Maruko
Version:Hard
Source:君の名は。
Tags:taki mitsuha your name movie cover RADWIMPS cut ver Noffy Ayyri
BeatmapID:1166904
BeatmapSetID:547946

[Difficulty]
HPDrainRate:6
CircleSize:4
OverallDifficulty:6
ApproachRate:7.5
SliderMultiplier:1.4
SliderTickRate:1

[Events]
//Background and Video events
0,0,"doesn't watch this movie.png",0,0
//Break Periods
//Storyboard Layer 0 (Background)
//Storyboard Layer 1 (Fail)
//Storyboard Layer 2 (Pass)
//Storyboard Layer 3 (Foreground)
//Storyboard Sound Samples

[TimingPoints]
1397,315.789473684211,4,1,0,100,1,0
1452,-111.111111111111,4,2,1,70,0,0
10239,-100,4,2,1,60,0,0
10344,-100,4,2,1,5,0,0
10449,-100,4,2,1,60,0,0
10554,-100,4,2,1,5,0,0
10660,-100,4,2,1,60,0,0
10765,-100,4,2,1,5,0,0
10870,-100,4,2,1,60,0,0
10975,-100,4,2,1,5,0,0
11081,-100,4,2,1,60,0,0
11186,-100,4,2,1,5,0,0
11291,-100,4,2,1,60,0,0
11397,-100,4,2,1,5,0,0
11502,-100,4,2,1,80,0,0
21607,-100,4,2,1,70,0,0
31081,-100,4,1,1,70,0,0
31712,-100,4,2,1,70,0,0
40554,-100,4,1,1,70,0,0
41818,-100,4,2,1,70,0,0
46870,-100,4,2,1,75,0,0
56975,-111.111111111111,4,2,1,60,0,0
64554,-100,4,2,1,65,0,0
68344,-100,4,2,1,70,0,0
68660,-100,4,2,1,75,0,0
69607,-100,4,2,1,80,0,1
69765,-100,4,2,1,5,0,1
69923,-100,4,2,1,80,0,1
70081,-100,4,2,1,5,0,1
70239,-100,4,2,1,80,0,1
70397,-100,4,2,1,5,0,1
70554,-100,4,2,1,80,0,1
79870,-100,4,2,1,5,0,1
80028,-100,4,2,1,80,0,1
80186,-100,4,2,1,5,0,1
80344,-100,4,2,1,80,0,1
80502,-100,4,2,1,5,0,1
80660,-100,4,2,1,80,0,1
89818,-100,4,2,1,70,0,0
94081,-100,4,2,1,5,0,0
94239,-100,4,2,1,80,0,0

[Colours]
Combo1 : 255,128,0
Combo2 : 0,128,192
Combo3 : 0,128,0
Combo4 : 128,128,255
Combo5 : 255,128,0
Combo6 : 128,128,192

[HitObjects]
104,32,1397,6,0,P|88:104|112:168,1,140,4|2,0:0|0:0,0:0:0:0:
192,152,1870,1,0,0:0:0:0:
280,144,2028,2,0,P|296:208|272:272,1,125.999996154785,2|2,0:1|0:0,0:0:0:0:
184,277,2502,6,0,L|192:149,1,125.999996154785,2|0,0:1|0:0,0:0:0:0:
224,72,2975,2,0,L|216:8,1,62.9999980773926,2|0,0:1|0:0,0:0:0:0:
296,0,3291,2,0,L|304:64,2,62.9999980773926,2|0|2,0:1|0:0|0:0,0:0:0:0:
456,80,3923,6,0,B|464:120|464:120|456:216,1,125.999996154785,4|2,0:0|0:0,0:0:0:0:
360,184,4397,1,0,0:0:0:0:
272,160,4554,2,0,B|264:200|264:200|272:296,1,125.999996154785,2|2,0:1|0:0,0:0:0:0:
352,309,5028,6,0,L|360:173,1,125.999996154785,2|0,0:1|0:0,0:0:0:0:
336,96,5502,2,0,L|336:32,1,62.9999980773926,2|0,0:1|0:0,0:0:0:0:
248,8,5818,2,0,L|248:80,2,62.9999980773926,2|0|2,0:1|0:0|0:0,0:0:0:0:
80,56,6449,6,0,P|88:128|72:184,1,125.999996154785,4|2,0:0|0:0,0:0:0:0:
112,256,6923,1,0,0:0:0:0:
184,208,7081,2,0,L|320:200,1,125.999996154785,2|2,0:1|0:0,0:0:0:0:
384,152,7554,6,0,B|408:208|408:208|392:288,1,125.999996154785,2|0,0:1|0:0,0:0:0:0:
320,320,8028,2,0,L|248:312,1,62.9999980773926,2|0,0:1|0:0,0:0:0:0:
224,232,8344,2,0,L|232:160,2,62.9999980773926,2|2|2,0:1|0:1|0:0,0:0:0:0:
264,32,8975,6,0,L|136:48,1,125.999996154785,4|2,0:0|0:0,0:0:0:0:
128,136,9449,2,0,P|144:184|152:224,1,62.9999980773926
224,232,9765,2,0,P|232:184|248:144,1,62.9999980773926
264,88,10081,1,0,0:0:0:0:
336,120,10239,6,0,P|352:168|360:232,2,93.3333333333333,2|2|2,0:0|0:0|0:0,0:0:0:0:
208,96,10870,2,0,P|215:50|230:5,2,93.3333333333333,2|2|2,0:0|0:0|0:0,0:0:0:0:
88,40,11502,6,0,P|96:104|136:192,1,140,4|8,0:0|0:0,0:0:0:0:
128,272,11975,1,0,0:0:0:0:
216,232,12133,2,0,L|296:224,1,70,10|0,0:0|0:0,0:0:0:0:
344,144,12449,2,0,L|264:136,1,70,8|0,0:0|0:0,0:0:0:0:
328,56,12765,6,0,B|400:64|400:64|440:120,1,140,10|8,0:0|0:0,0:0:0:0:
424,216,13239,1,0,0:0:0:0:
336,264,13397,2,0,P|288:256|200:280,1,140,10|8,0:0|0:0,0:0:0:0:
24,192,14028,6,0,L|32:272,2,70,4|0|8,0:0|0:0|0:0,0:0:0:0:
80,112,14502,1,0,0:0:0:0:
176,144,14660,2,0,L|184:0,1,140,10|8,0:0|0:0,0:0:0:0:
280,32,15133,1,0,0:0:0:0:
368,72,15291,6,0,B|360:120|360:120|376:216,1,140,10|8,0:0|0:0,0:0:0:0:
456,176,15765,1,0,0:0:0:0:
375,210,15923,2,0,L|295:218,1,70,8|0,0:0|0:0,0:0:0:0:
312,312,16239,2,0,L|382:306,1,70,4|0,0:0|0:0,0:0:0:0:
232,352,16554,6,0,P|192:288|176:192,1,140,4|8,0:0|0:0,0:0:0:0:
88,184,17028,1,0,0:0:0:0:
160,120,17186,2,0,L|168:48,1,70,10|0,0:0|0:0,0:0:0:0:
256,16,17502,2,0,L|263:85,1,70,8|0,0:0|0:0,0:0:0:0:
360,64,17818,6,0,B|352:144|352:144|368:208,1,140,10|8,0:0|0:0,0:0:0:0:
456,168,18291,1,0,0:0:0:0:
440,264,18449,2,0,L|440:336,2,70,10|0|8,0:0|0:0|0:0,0:0:0:0:
264,360,19081,5,4,0:0:0:0:
264,360,19239,2,0,L|264:280,1,70,0|8,0:0|0:0,0:0:0:0:
176,240,19554,1,0,0:0:0:0:
96,184,19712,2,0,P|112:128|128:96,1,70,10|0,0:0|0:0,0:0:0:0:
208,80,20028,2,0,B|248:88|248:88|288:80,1,70,8|0,0:0|0:0,0:0:0:0:
352,144,20344,6,0,P|336:216|352:288,1,140,12|0,0:0|0:0,0:0:0:0:
440,264,20818,1,12,0:0:0:0:
496,192,20975,2,0,P|508:123|492:55,1,140,2|12,0:0|0:0,0:0:0:0:
304,56,21607,6,0,L|144:64,1,140,4|2,0:0|0:0,0:0:0:0:
80,112,22081,1,0,0:0:0:0:
136,192,22239,2,0,L|304:200,1,140,2|2,0:0|0:0,0:0:0:0:
352,136,22712,1,0,0:0:0:0:
408,216,22870,6,0,L|408:288,2,70,2|2|2,0:0|0:0|0:0,0:0:0:0:
464,136,23344,1,0,0:0:0:0:
408,56,23502,2,0,P|360:40|296:32,2,105,2|0|0,0:0|0:0|0:0,0:0:0:0:
352,136,24133,6,0,L|200:144,1,140,2|2,0:0|0:0,0:0:0:0:
128,96,24607,1,0,1:0:0:0:
72,176,24765,2,0,P|80:248|120:304,1,140,2|0,0:1|1:0,0:0:0:0:
208,272,25239,6,0,L|304:264,1,70,2|0,0:1|1:0,0:0:0:0:
336,192,25554,2,0,L|240:184,1,70,2|0,0:1|1:0,0:0:0:0:
224,96,25870,1,0,0:0:0:0:
304,40,26028,2,0,P|384:32|456:56,1,140,2|2,0:0|0:0,0:0:0:0:
424,240,26660,5,4,0:0:0:0:
336,192,26818,1,0,0:0:0:0:
264,256,26975,2,0,L|184:264,1,70,2|0,0:0|0:0,0:0:0:0:
120,200,27291,2,0,P|112:160|120:128,2,70,2|0|2,0:0|0:0|0:0,0:0:0:0:
104,296,27765,1,0,0:0:0:0:
194,262,27923,6,0,L|202:342,1,70,2|0,0:0|0:0,0:0:0:0:
296,304,28239,2,0,L|302:234,1,70,2|0,0:0|0:0,0:0:0:0:
384,176,28554,1,0,0:0:0:0:
472,224,28712,2,0,P|488:160|456:80,1,140,0|0,1:0|1:0,0:0:0:0:
368,64,29186,6,0,B|296:56|296:56|216:88,1,140,4|2,0:0|0:0,0:0:0:0:
40,40,29818,1,2,0:0:0:0:
40,40,29975,2,0,L|48:120,1,70,2|0,0:1|0:0,0:0:0:0:
144,128,30291,1,2,2:1:0:0:
233,81,30449,6,0,P|249:169|233:241,1,140,2|2,0:1|0:0,0:0:0:0:
144,240,30923,1,0,0:0:0:0:
104,328,31081,2,0,L|176:320,1,70
272,344,31397,2,0,L|368:352,1,70
416,280,31712,6,0,B|424:240|424:240|400:144,1,140,4|2,0:0|0:0,0:0:0:0:
320,72,32186,1,0,0:0:0:0:
224,96,32344,2,0,P|160:112|88:96,1,140,2|2,0:0|0:0,0:0:0:0:
32,176,32818,1,0,0:0:0:0:
64,272,32975,6,0,L|56:344,2,70,2|0|2,0:0|0:0|0:0,0:0:0:0:
136,200,33449,1,0,1:0:0:0:
232,224,33607,2,0,P|288:208|344:200,2,105,0|0|2,1:1|1:0|0:1,0:0:0:0:
136,200,34239,6,0,B|128:152|128:152|136:56,1,140,2|2,0:0|0:0,0:0:0:0:
224,16,34712,1,0,0:0:0:0:
320,40,34870,2,0,P|336:112|320:184,1,140,2|2,0:0|0:0,0:0:0:0:
384,256,35344,1,0,0:0:0:0:
384,256,35423,1,0,0:0:0:0:
384,256,35502,6,0,L|392:336,1,70,2|0,0:0|0:0,0:0:0:0:
288,352,35818,2,0,L|294:282,1,70,2|0,0:0|0:0,0:0:0:0:
216,232,36133,2,0,B|208:160|208:160|232:88,1,140,2|2,0:0|0:0,0:0:0:0:
40,144,36765,5,4,0:0:0:0:
120,200,36923,1,0,0:0:0:0:
216,232,37081,2,0,L|304:224,1,70,2|0,0:0|0:0,0:0:0:0:
320,136,37397,2,0,L|313:66,2,70,2|0|2,0:0|0:0|0:0,0:0:0:0:
416,160,37870,1,0,0:0:0:0:
416,160,38028,6,0,L|408:240,1,70,2|0,0:0|1:0,0:0:0:0:
326,205,38344,2,0,L|318:125,1,70,2|0,0:1|1:0,0:0:0:0:
296,40,38660,2,0,P|224:32|144:72,1,140,2|2,0:1|0:1,0:0:0:0:
144,144,39133,1,0,1:0:0:0:
192,221,39291,6,0,P|264:229|344:189,1,140,4|2,0:0|0:0,0:0:0:0:
392,16,39923,2,0,P|400:56|392:88,1,70,2|0,0:0|0:0,0:0:0:0:
327,136,40239,2,0,P|319:176|327:208,1,70,2|0,0:0|0:0,0:0:0:0:
424,216,40554,6,0,L|416:296,1,70,2|0,2:0|0:0,0:0:0:0:
332,273,40870,2,0,L|325:203,1,70,2|0,2:0|0:0,0:0:0:0:
232,240,41186,2,0,L|224:320,1,70,2|0,2:0|0:0,0:0:0:0:
128,288,41502,1,2,2:0:0:0:
48,104,41818,6,0,L|56:184,2,70,4|0|2,0:0|0:0|0:0,0:0:0:0:
112,24,42291,1,0,0:0:0:0:
192,80,42449,2,0,P|264:56|320:80,1,140,2|2,0:0|0:0,0:0:0:0:
288,168,42923,1,0,0:0:0:0:
384,184,43081,6,0,B|392:256|392:256|384:336,2,140,4|2|2,0:0|0:0|0:1,0:0:0:0:
288,168,43870,1,0,0:0:0:0:
216,232,44028,2,0,L|128:224,1,70,2|0,0:0|0:0,0:0:0:0:
104,136,44344,6,0,P|96:64|136:0,1,140,4|2,0:0|0:0,0:0:0:0:
224,24,44818,1,0,0:0:0:0:
304,80,44975,2,0,L|400:72,2,70,2|0|2,0:0|0:0|0:0,0:0:0:0:
288,168,45449,5,12,0:0:0:0:
448,288,45765,1,0,0:0:0:0:
448,288,45923,2,0,L|448:208,1,70,2|0,0:0|0:0,0:0:0:0:
352,318,46239,2,0,L|352:248,1,70,2|2,0:0|0:0,0:0:0:0:
288,168,46554,1,8,0:0:0:0:
200,344,46870,6,0,L|192:264,1,70,4|0,0:0|0:0,0:0:0:0:
96,288,47186,2,0,L|102:218,1,70,8|0,0:0|0:0,0:0:0:0:
96,120,47502,2,0,L|104:40,1,70,10|0,0:0|0:0,0:0:0:0:
200,56,47818,1,8,0:0:0:0:
200,56,47975,1,0,0:0:0:0:
248,144,48133,6,0,B|320:136|320:136|392:168,1,140,2|8,0:0|0:0,0:0:0:0:
360,256,48607,1,0,0:0:0:0:
296,328,48765,2,0,L|216:328,1,70,10|0,0:0|0:0,0:0:0:0:
136,280,49081,2,0,L|56:280,1,70,8|0,0:0|0:0,0:0:0:0:
8,200,49397,6,0,P|0:136|16:56,2,140,4|8|10,0:0|0:0|0:0,0:0:0:0:
66,280,50186,1,0,0:0:0:0:
112,192,50344,2,0,L|200:184,1,70,8|0,0:0|0:0,0:0:0:0:
176,88,50660,6,0,L|245:94,1,70,10|0,0:0|0:0,0:0:0:0:
336,56,50975,1,8,0:0:0:0:
328,152,51133,1,0,0:0:0:0:
416,112,51291,2,0,P|432:152|440:200,2,70,2|2|4,0:0|0:0|0:0,0:0:0:0:
280,256,51923,6,0,P|240:272|192:280,1,70,10|0,0:0|0:0,0:0:0:0:
128,224,52239,2,0,P|114:191|106:157,1,70,8|0,0:0|0:0,0:0:0:0:
144,64,52554,1,10,0:0:0:0:
144,64,52712,2,0,L|232:72,1,70,0|8,0:0|0:0,0:0:0:0:
304,104,53028,1,0,0:0:0:0:
286,186,53186,6,0,L|278:274,1,70,10|0,0:0|0:0,0:0:0:0:
184,288,53502,2,0,L|177:218,1,70,8|0,0:0|0:0,0:0:0:0:
88,176,53818,2,0,L|94:106,2,70,10|0|8,0:0|0:0|0:0,0:0:0:0:
177,218,54291,1,0,0:0:0:0:
216,128,54449,6,0,P|248:80|328:32,2,140,4|8|10,0:0|0:0|0:0,0:0:0:0:
304,168,55239,1,0,0:0:0:0:
400,184,55397,2,0,L|400:272,1,70,10|0,0:0|0:0,0:0:0:0:
352,336,55712,6,0,L|264:336,1,70,2|2,0:0|0:0,0:0:0:0:
216,264,56028,1,12,0:0:0:0:
120,296,56186,2,0,L|112:240,2,35,2|0|8,0:0|0:0|0:0,0:0:0:0:
24,288,56502,1,0,0:0:0:0:
48,192,56660,2,0,P|40:152|48:112,1,70,2|0,0:0|0:0,0:0:0:0:
120,80,56975,6,0,B|160:96|160:96|264:88,1,125.999996154785,4|2,0:0|0:0,0:0:0:0:
320,48,57449,1,0,0:0:0:0:
408,72,57607,2,0,B|424:112|424:112|416:216,1,125.999996154785,8|2,0:0|0:0,0:0:0:0:
328,184,58081,1,0,0:0:0:0:
328,184,58239,5,0,0:0:0:0:
240,208,58397,2,0,L|168:200,2,62.9999980773926,8|2|0,0:0|0:0|0:0,0:0:0:0:
192,280,58870,2,0,B|120:272|120:272|80:208,1,125.999996154785,8|2,0:0|0:0,0:0:0:0:
88,136,59344,1,0,0:0:0:0:
88,136,59502,5,2,0:0:0:0:
152,80,59660,2,0,P|216:96|272:80,1,125.999996154785,8|0,0:0|0:0,0:0:0:0:
360,80,60133,2,0,L|360:152,1,62.9999980773926,8|0,0:0|0:0,0:0:0:0:
440,176,60449,2,0,L|440:248,1,62.9999980773926,2|0,0:0|0:0,0:0:0:0:
376,296,60765,5,0,0:0:0:0:
288,280,60923,2,0,P|216:296|136:304,1,125.999996154785,8|0,0:0|0:0,0:0:0:0:
88,248,61397,2,0,P|80:208|88:176,1,62.9999980773926,8|0,0:0|0:0,0:0:0:0:
168,152,61712,1,4,0:0:0:0:
336,88,62028,6,0,L|208:80,1,125.999996154785,2|2,0:0|0:0,0:0:0:0:
168,152,62502,1,0,0:0:0:0:
200,232,62660,2,0,L|352:240,1,125.999996154785,8|2,0:0|0:0,0:0:0:0:
376,168,63133,1,0,0:0:0:0:
376,168,63291,5,2,0:0:0:0:
336,88,63449,2,0,L|328:24,2,62.9999980773926,8|4|0,0:0|0:0|0:0,0:0:0:0:
248,112,63923,2,0,P|184:104|120:144,1,125.999996154785,2|2,0:0|0:0,0:0:0:0:
72,336,64554,6,0,L|64:192,1,140,4|2,0:0|0:1,0:0:0:0:
131,131,65028,1,0,0:0:0:0:
232,136,65186,1,2,0:0:0:0:
232,136,65344,2,0,L|312:136,2,70,0|2|0,0:0|0:1|0:0,0:0:0:0:
280,48,65818,6,0,B|352:48|352:48|408:96,1,140,2|0,0:0|0:0,0:0:0:0:
480,152,66291,1,0,0:0:0:0:
440,240,66449,2,0,L|432:320,1,70,2|0,0:0|0:0,0:0:0:0:
336,344,66765,2,0,L|329:274,1,70,2|0,0:0|0:0,0:0:0:0:
232,248,67081,6,0,L|152:248,1,70,12|0,0:0|0:0,0:0:0:0:
80,192,67397,2,0,L|72:112,1,70,8|0,0:0|0:0,0:0:0:0:
160,80,67712,2,0,P|204:88|248:80,1,70,10|0,0:0|0:0,0:0:0:0:
288,168,68028,1,8,0:0:0:0:
232,248,68186,1,0,0:0:0:0:
232,248,68344,6,0,L|240:288,3,35,8|0|8|0,0:0|0:0|0:0|0:0,0:0:0:0:
184,232,68660,2,0,L|176:192,3,35,8|8|8|8,0:0|0:0|0:0|0:0,0:0:0:0:
136,168,68975,1,2,0:0:0:0:
24,320,69607,6,0,L|16:248,1,70,6|0,0:0|0:0,0:0:0:0:
88,184,69923,2,0,L|95:114,1,70,8|0,0:0|0:0,0:0:0:0:
184,64,70239,2,0,P|256:48|320:88,1,140,2|8,0:0|0:0,0:0:0:0:
240,144,70712,6,0,P|301:174|367:157,2,140,4|0|0,0:0|0:0|0:0,0:0:0:0:
168,216,71502,1,2,0:0:0:0:
176,312,71660,1,2,0:0:0:0:
88,272,71818,2,0,L|80:192,1,70,8|0,0:0|0:0,0:0:0:0:
64,104,72133,5,4,0:0:0:0:
64,104,72291,2,0,P|112:96|144:104,1,70,0|8,0:0|0:0,0:0:0:0:
224,72,72607,1,0,0:0:0:0:
288,144,72765,2,0,L|296:216,2,70,2|2|8,0:0|0:0|0:0,0:0:0:0:
384,176,73239,6,0,B|392:256|392:256|368:320,1,140,4|0,0:0|0:0,0:0:0:0:
272,304,73712,2,0,L|192:296,1,70,8|0,0:0|0:0,0:0:0:0:
144,216,74028,2,0,L|224:208,1,70,2|2,0:0|0:0,0:0:0:0:
288,144,74344,1,8,0:0:0:0:
248,56,74502,1,8,0:0:0:0:
152,64,74660,6,0,B|80:80|80:80|24:144,1,140,4|8,0:0|0:0,0:0:0:0:
48,224,75133,1,0,0:0:0:0:
144,216,75291,2,0,L|136:288,2,70,2|2|8,0:0|0:0|0:0,0:0:0:0:
232,256,75765,6,0,B|240:208|240:208|232:168|232:168|240:112,1,140,4|0,0:0|0:0,0:0:0:0:
312,48,76239,2,0,L|320:128,1,70,8|0,0:0|0:0,0:0:0:0:
416,96,76554,2,0,L|408:176,1,70,2|2,0:0|0:0,0:0:0:0:
464,248,76870,1,8,0:0:0:0:
288,328,77186,6,0,L|136:320,1,140,4|8,0:0|0:0,0:0:0:0:
80,248,77660,2,0,P|64:176|104:88,1,140,0|2,0:0|0:0,0:0:0:0:
176,56,78133,1,8,0:0:0:0:
264,96,78291,6,0,B|320:104|320:104|408:88,1,140,4|0,0:0|0:0,0:0:0:0:
496,120,78765,1,8,0:0:0:0:
488,216,78923,2,0,B|405:201|405:201|349:209,1,140,4|2,0:0|0:0,0:0:0:0:
264,264,79397,2,0,L|184:264,1,70,8|0,0:0|0:0,0:0:0:0:
96,240,79712,6,0,L|96:160,1,70,6|0,0:0|0:0,0:0:0:0:
184,128,80028,2,0,L|184:56,1,70,8|0,0:0|0:0,0:0:0:0:
280,32,80344,2,0,B|328:24|328:24|432:32,1,140,2|8,0:0|0:0,0:0:0:0:
448,128,80818,6,0,P|464:208|448:280,2,140,4|0|2,0:0|0:0|0:0,0:0:0:0:
360,176,81607,2,0,L|280:168,1,70,2|2,0:0|0:0,0:0:0:0:
232,88,81923,2,0,L|144:96,1,70,8|8,0:0|0:0,0:0:0:0:
112,176,82239,6,0,B|96:224|112:256|112:256|128:288|120:328,1,140,4|8,0:0|0:0,0:0:0:0:
216,296,82712,1,0,0:0:0:0:
312,272,82870,2,0,L|304:200,2,70,2|2|8,0:0|0:0|0:0,0:0:0:0:
408,264,83344,6,0,L|400:192,1,70,4|0,0:0|0:0,0:0:0:0:
464,120,83660,2,0,L|472:48,1,70,0|8,0:0|0:0,0:0:0:0:
384,0,83975,1,0,0:0:0:0:
296,56,84133,2,0,L|224:64,1,70,2|2,0:0|0:0,0:0:0:0:
160,136,84449,2,0,L|90:128,1,70,8|0,0:0|0:0,0:0:0:0:
32,208,84765,5,4,0:0:0:0:
48,304,84923,1,0,0:0:0:0:
128,248,85081,2,0,L|216:240,1,70,8|0,0:0|0:0,0:0:0:0:
288,200,85397,2,0,P|296:168|288:128,2,70,2|2|8,0:0|0:0|0:0,0:0:0:0:
280,296,85870,6,0,P|352:328|424:304,1,140,4|0,0:0|0:0,0:0:0:0:
464,232,86344,2,0,L|464:160,1,70,8|0,0:0|0:0,0:0:0:0:
392,96,86660,1,2,0:0:0:0:
304,144,86818,1,2,0:0:0:0:
280,48,86975,2,0,L|208:40,1,70,8|8,0:0|0:0,0:0:0:0:
136,104,87291,6,0,P|120:176|160:256,1,140,4|8,0:0|0:0,0:0:0:0:
224,208,87765,1,0,0:0:0:0:
216,304,87923,2,0,L|304:296,1,70,2|2,0:0|0:0,0:0:0:0:
384,312,88239,1,8,0:0:0:0:
363,215,88397,6,0,L|211:207,1,140,4|0,0:0|0:0,0:0:0:0:
176,120,88870,1,8,0:0:0:0:
88,160,89028,1,0,0:0:0:0:
72,256,89186,2,0,L|64:328,1,70,2|0,0:0|0:0,0:0:0:0:
160,344,89502,2,0,L|152:256,1,70,2|0,0:0|0:0,0:0:0:0:
224,208,89818,6,0,L|216:64,1,140,4|2,0:0|0:0,0:0:0:0:
304,24,90291,1,0,0:0:0:0:
384,80,90449,2,0,L|480:72,2,70,2|2|2,0:1|0:1|0:1,0:1:0:0:
344,168,90923,6,0,P|360:240|336:304,1,140,2|0,0:0|0:0,0:0:0:0:
248,264,91397,2,0,L|160:256,1,70,2|0,0:0|0:0,0:0:0:0:
128,176,91712,2,0,L|216:168,1,70,2|0,0:0|0:0,0:0:0:0:
248,88,92028,2,0,L|168:80,1,70,2|0,0:0|0:0,0:0:0:0:
304,24,92344,5,4,0:0:0:0:
256,192,92423,12,0,94239,0:0:0:0:
304,176,94870,5,6,0:0:0:0:
