osu file format v14

[General]
AudioFilename: audio.mp3
AudioLeadIn: 0
PreviewTime: 68447
Countdown: 0
SampleSet: Soft
StackLeniency: 0.7
Mode: 0
LetterboxInBreaks: 0
WidescreenStoryboard: 0

[Editor]
Bookmarks: 10394,68920
DistanceSpacing: 0.3
BeatDivisor: 4
GridSize: 8
TimelineZoom: 2

[Metadata]
Title:Zen Zen Zense
TitleUnicode:前前前世
Artist:Soraru x Mafumafu
ArtistUnicode:そらる x まふまふ
Creator:Chibi Maruko
Version:Extra
Source:君の名は。
Tags:taki mitsuha your name movie cover RADWIMPS cut ver Noffy Ayyri
BeatmapID:1160501
BeatmapSetID:547946

[Difficulty]
HPDrainRate:7
CircleSize:4
OverallDifficulty:8
ApproachRate:9.3
SliderMultiplier:1.6
SliderTickRate:1

[Events]
//Background and Video events
0,0,"doesn't watch this movie.png",0,0
//Break Periods
//Storyboard Layer 0 (Background)
//Storyboard Layer 1 (Fail)
//Storyboard Layer 2 (Pass)
//Storyboard Layer 3 (Foreground)
//Storyboard Sound Samples

[TimingPoints]
1397,315.789473684211,4,1,0,100,1,0
1397,-133.333333333333,4,2,1,70,0,0
10239,-111.111111111111,4,2,1,60,0,0
10344,-111.111111111111,4,2,1,5,0,0
10449,-111.111111111111,4,2,1,60,0,0
10554,-111.111111111111,4,2,1,5,0,0
10660,-111.111111111111,4,2,1,60,0,0
10765,-111.111111111111,4,2,1,5,0,0
10870,-111.111111111111,4,2,1,60,0,0
10975,-111.111111111111,4,2,1,5,0,0
11081,-111.111111111111,4,2,1,60,0,0
11186,-111.111111111111,4,2,1,5,0,0
11291,-111.111111111111,4,2,1,60,0,0
11397,-111.111111111111,4,2,1,5,0,0
11502,-100,4,2,1,80,0,0
21607,-133.333333333333,4,2,1,70,0,0
31081,-133.333333333333,4,1,1,70,0,0
31712,-133.333333333333,4,2,1,70,0,0
40554,-133.333333333333,4,1,1,70,0,0
41818,-133.333333333333,4,2,1,70,0,0
46870,-111.111111111111,4,2,1,75,0,0
56975,-133.333333333333,4,2,1,60,0,0
64554,-125,4,2,1,65,0,0
68344,-125,4,2,1,70,0,0
68660,-125,4,2,1,75,0,0
69607,-90.9090909090909,4,2,1,80,0,1
69765,-90.9090909090909,4,2,1,5,0,1
69923,-90.9090909090909,4,2,1,80,0,1
70081,-90.9090909090909,4,2,1,5,0,1
70239,-90.9090909090909,4,2,1,80,0,1
70397,-90.9090909090909,4,2,1,5,0,1
70554,-90.9090909090909,4,2,1,80,0,1
77186,-83.3333333333333,4,2,1,80,0,1
78291,-90.9090909090909,4,2,1,80,0,1
79870,-90.9090909090909,4,2,1,5,0,1
80028,-90.9090909090909,4,2,1,80,0,1
80186,-90.9090909090909,4,2,1,5,0,1
80344,-90.9090909090909,4,2,1,80,0,1
80502,-90.9090909090909,4,2,1,5,0,1
80660,-90.9090909090909,4,2,1,80,0,1
89818,-111.111111111111,4,2,1,70,0,0
92344,-200,4,2,1,70,0,0
94081,-111.111111111111,4,2,1,5,0,0
94239,-111.111111111111,4,2,1,80,0,0

[Colours]
Combo1 : 255,128,0
Combo2 : 0,128,192
Combo3 : 0,128,0
Combo4 : 128,128,255
Combo5 : 255,128,0
Combo6 : 128,128,192

[HitObjects]
144,72,1397,6,0,P|160:136|144:208,1,120.000004577637,4|2,0:0|0:0,0:0:0:0:
64,120,1870,1,0,0:0:0:0:
263,79,2028,2,0,L|135:71,1,120.000004577637,2|2,0:1|0:0,0:0:0:0:
288,160,2502,6,0,L|416:152,1,120.000004577637,2|0,0:1|0:0,0:0:0:0:
248,240,2975,2,0,L|240:304,1,60.0000022888184,2|0,0:1|0:0,0:0:0:0:
144,224,3291,2,0,L|152:288,1,60.0000022888184,2|0,0:1|0:0,0:0:0:0:
48,208,3607,2,0,L|40:280,1,60.0000022888184,2|0,0:0|0:0,0:0:0:0:
154,107,3923,6,0,B|136:176|136:176|144:224,1,120.000004577637,4|2,0:0|0:0,0:0:0:0:
256,136,4397,1,0,0:0:0:0:
38,99,4554,2,0,P|102:115|174:99,1,120.000004577637,2|0,0:1|0:0,0:0:0:0:
372,144,5028,6,0,P|308:128|236:144,1,120.000004577637,2|0,0:1|0:0,0:0:0:0:
424,216,5502,2,0,L|416:288,1,60.0000022888184,2|0,0:1|0:0,0:0:0:0:
464,136,5818,2,0,L|456:64,1,60.0000022888184,2|0,0:1|0:0,0:0:0:0:
328,224,6133,2,0,L|320:296,1,60.0000022888184,2|0,0:0|0:0,0:0:0:0:
256,152,6449,6,0,P|192:168|136:152,1,120.000004577637,4|2,0:0|0:0,0:0:0:0:
224,72,6923,1,0,0:0:0:0:
140,154,7081,2,0,P|153:211|137:269,1,120.000004577637,2|0,0:1|0:0,0:0:0:0:
72,88,7554,6,0,P|58:145|74:203,1,120.000004577637,2|0,0:1|0:0,0:0:0:0:
196,275,8028,2,0,L|124:267,1,60.0000022888184,2|0,0:1|0:0,0:0:0:0:
288,248,8344,2,0,L|360:240,1,60.0000022888184,2|0,0:1|0:0,0:0:0:0:
224,184,8660,2,0,L|152:176,1,60.0000022888184,2|0,0:0|0:0,0:0:0:0:
290,100,8975,6,0,L|320:96,2,30.0000011444092,4|0|0,0:0|0:0|0:0,0:0:0:0:
139,86,9291,1,2,0:0:0:0:
168,248,9449,1,0,0:0:0:0:
80,80,9607,2,0,L|152:88,1,60.0000022888184
80,224,9923,1,0,0:0:0:0:
192,160,10081,1,0,0:0:0:0:
304,224,10239,6,0,L|248:232,1,47.9999985351563,2|0,0:0|0:0,0:0:0:0:
416,168,10449,2,0,L|368:161,1,47.9999985351563,2|0,0:0|0:0,0:0:0:0:
288,248,10660,6,0,L|232:256,1,47.9999985351563,2|0,0:0|0:0,0:0:0:0:
400,192,10870,2,0,L|352:185,1,47.9999985351563,2|0,0:0|0:0,0:0:0:0:
272,272,11081,6,0,L|216:280,1,47.9999985351563,2|0,0:0|0:0,0:0:0:0:
384,216,11291,2,0,L|336:209,1,47.9999985351563,2|0,0:0|0:0,0:0:0:0:
280,352,11502,6,0,L|176:364,1,80,12|0,0:0|0:0,0:0:0:0:
128,248,11818,1,10,0:0:0:0:
88,360,11975,1,0,0:0:0:0:
24,184,12133,2,0,P|32:136|48:88,1,80,10|0,0:0|0:0,0:0:0:0:
232,16,12449,2,0,P|242:54|248:93,1,80,8|0,0:0|0:0,0:0:0:0:
224,272,12765,5,10,0:0:0:0:
120,80,12923,1,0,0:0:0:0:
328,168,13081,1,8,0:0:0:0:
119,215,13239,1,0,0:0:0:0:
312,288,13397,2,0,L|400:296,1,80,10|0,0:0|0:0,0:0:0:0:
199,208,13712,2,0,L|111:216,1,80,8|0,0:0|0:0,0:0:0:0:
368,152,14028,5,4,0:0:0:0:
160,288,14186,1,0,0:0:0:0:
304,367,14344,2,0,L|311:287,1,80,8|0,0:0|0:0,0:0:0:0:
191,128,14660,2,0,L|198:207,1,80,10|0,0:0|0:0,0:0:0:0:
288,72,14975,1,8,0:0:0:0:
312,256,15133,1,0,0:0:0:0:
192,16,15291,6,0,L|112:23,1,80,10|0,0:0|0:0,0:0:0:0:
367,79,15607,2,0,L|287:71,1,80,8|0,0:0|0:0,0:0:0:0:
400,192,15923,1,10,0:0:0:0:
216,224,16081,1,0,0:0:0:0:
287,71,16239,1,12,0:0:0:0:
392,304,16397,1,0,0:0:0:0:
232,136,16554,6,0,L|128:144,1,80,4|0,0:0|0:0,0:0:0:0:
304,240,16870,1,8,0:0:0:0:
287,71,17028,1,0,0:0:0:0:
128,64,17186,2,0,L|48:72,1,80,10|0,0:0|0:0,0:0:0:0:
160,224,17502,1,8,0:0:0:0:
287,71,17660,1,0,0:0:0:0:
224,272,17818,6,0,L|216:352,1,80,10|0,0:0|0:0,0:0:0:0:
376,248,18133,1,8,0:0:0:0:
260,152,18291,1,0,0:0:0:0:
116,356,18449,2,0,L|108:276,1,80,10|0,0:0|0:0,0:0:0:0:
296,296,18765,1,8,0:0:0:0:
360,164,18923,1,0,0:0:0:0:
160,140,19081,5,4,0:0:0:0:
160,140,19160,1,0,0:0:0:0:
160,140,19239,2,0,P|148:88|144:52,1,80,0|8,0:0|0:0,0:0:0:0:
320,72,19554,1,0,0:0:0:0:
208,240,19712,1,10,0:0:0:0:
400,256,19870,1,0,0:0:0:0:
136,312,20028,1,8,0:0:0:0:
320,328,20186,1,0,0:0:0:0:
184,80,20344,5,12,0:0:0:0:
56,175,20502,2,0,L|136:168,1,80,2|0,0:1|0:0,0:0:0:0:
260,152,20818,1,12,0:0:0:0:
387,247,20976,2,0,L|308:240,1,80,2|0,0:1|0:0,0:0:0:0:
136,168,21291,2,0,P|128:216|136:272,1,80,12|0,0:0|0:0,0:0:0:0:
260,152,21607,6,0,P|280:104|360:96,1,120.000004577637,6|2,0:0|0:0,0:0:0:0:
336,200,22081,1,0,0:0:0:0:
184,104,22239,2,0,L|112:112,1,60.0000022888184,2|0,0:0|0:0,0:0:0:0:
24,200,22554,2,0,L|96:208,1,60.0000022888184,2|0,0:0|0:0,0:0:0:0:
256,240,22870,6,0,L|248:312,1,60.0000022888184,2|0,0:0|0:0,0:0:0:0:
336,200,23186,2,0,L|343:260,1,60.0000022888184,2|0,0:0|0:0,0:0:0:0:
296,120,23502,1,2,0:0:0:0:
448,104,23660,1,0,0:0:0:0:
328,40,23818,1,0,0:0:0:0:
424,192,23975,1,0,0:0:0:0:
216,144,24133,6,0,L|136:152,2,60.0000022888184,2|0|2,0:0|0:0|0:0,0:0:0:0:
152,232,24607,1,0,1:0:0:0:
72,96,24765,2,0,L|77:155,1,60.0000022888184,2|0,0:1|1:0,0:0:0:0:
128,32,25081,1,2,0:0:0:0:
248,128,25239,2,0,L|256:216,1,60.0000022888184,2|0,0:1|0:0,0:0:0:0:
160,112,25554,1,2,0:1:0:0:
280,48,25712,2,0,L|208:56,1,60.0000022888184,2|0,0:1|0:0,0:0:0:0:
344,104,26028,2,0,P|336:144|344:184,1,60.0000022888184,2|0,0:0|0:0,0:0:0:0:
432,16,26344,2,0,P|433:45|425:74,1,60.0000022888184,2|0,0:0|0:0,0:0:0:0:
264,320,26660,5,4,0:0:0:0:
256,176,26818,1,0,0:0:0:0:
128,264,26975,1,2,0:0:0:0:
196,104,27133,1,0,0:0:0:0:
304,240,27291,1,2,0:0:0:0:
160,184,27449,1,0,0:0:0:0:
352,312,27607,2,0,L|420:308,1,60.0000022888184,2|0,0:0|0:0,0:0:0:0:
172,328,27923,5,2,0:0:0:0:
84,196,28081,1,0,0:0:0:0:
256,176,28239,1,2,0:0:0:0:
40,124,28397,1,0,0:0:0:0:
128,264,28554,1,2,0:0:0:0:
200,104,28712,1,2,0:1:0:0:
196,74,28790,1,0,1:0:0:0:
192,44,28869,1,0,1:0:0:0:
48,272,29028,1,0,0:0:0:0:
256,176,29186,6,0,B|312:160|312:160|392:176,1,120.000004577637,4|2,0:0|0:0,0:0:0:0:
160,124,29660,1,0,0:0:0:0:
284,96,29818,1,2,0:0:0:0:
284,96,29975,2,0,L|212:88,1,60.0000022888184,2|0,0:1|0:0,0:0:0:0:
360,48,30291,1,2,0:1:0:0:
136,80,30449,6,0,L|128:152,1,60.0000022888184,2|0,0:1|0:0,0:0:0:0:
224,252,30765,1,0,0:0:0:0:
144,152,30923,1,0,0:0:0:0:
208,336,31081,5,0,0:0:0:0:
240,164,31239,1,0,0:0:0:0:
116,320,31397,1,0,0:0:0:0:
320,272,31554,1,0,0:0:0:0:
296,48,31712,6,0,L|168:52,1,120.000004577637,4|2,0:0|0:0,0:0:0:0:
224,136,32186,1,0,0:0:0:0:
88,96,32344,2,0,P|96:136|88:176,1,60.0000022888184,2|0,0:0|0:0,0:0:0:0:
177,306,32660,2,0,P|176:276|184:248,1,60.0000022888184,2|0,0:0|0:0,0:0:0:0:
336,208,32975,6,0,L|264:216,1,60.0000022888184,2|0,0:0|0:0,0:0:0:0:
164,129,33291,2,0,L|236:137,1,60.0000022888184,2|0,0:0|1:0,0:0:0:0:
248,112,33528,1,0,1:0:0:0:
272,88,33607,1,0,1:0:0:0:
456,32,33765,1,0,0:0:0:0:
464,40,33844,1,0,0:0:0:0:
472,48,33923,1,0,1:0:0:0:
447,75,34001,1,0,1:0:0:0:
432,109,34080,1,0,1:0:0:0:
427,145,34159,1,0,0:0:0:0:
432,180,34239,6,0,P|448:232|416:312,1,120.000004577637,2|0,0:1|0:0,0:0:0:0:
280,336,34712,1,2,0:0:0:0:
320,168,34870,2,0,L|328:248,1,60.0000022888184,2|0,0:0|0:0,0:0:0:0:
168,168,35186,1,0,0:0:0:0:
138,169,35264,1,0,0:0:0:0:
108,171,35343,1,0,1:0:0:0:
78,173,35423,1,0,1:0:0:0:
48,176,35502,6,0,L|56:240,1,60.0000022888184,2|0,0:0|0:0,0:0:0:0:
96,96,35818,2,0,L|103:36,1,60.0000022888184,2|0,0:0|0:0,0:0:0:0:
224,64,36133,1,2,0:0:0:0:
256,144,36291,1,0,0:0:0:0:
376,64,36449,1,2,0:0:0:0:
344,144,36607,1,0,0:0:0:0:
152,112,36765,5,4,0:0:0:0:
300,216,36923,1,0,0:0:0:0:
300,4,37081,1,2,0:0:0:0:
192,204,37239,1,0,0:0:0:0:
224,64,37397,1,2,0:0:0:0:
408,228,37554,1,0,0:0:0:0:
435,61,37712,2,0,L|347:65,1,60.0000022888184,2|0,0:0|0:0,0:0:0:0:
344,312,38028,5,2,0:0:0:0:
256,128,38186,1,0,1:0:0:0:
408,228,38344,1,2,0:1:0:0:
232,300,38502,1,0,1:0:0:0:
196,122,38660,2,0,L|276:130,1,60.0000022888184,2|0,0:1|1:0,0:0:0:0:
128,288,38975,1,2,0:1:0:0:
104,88,39133,1,0,1:0:0:0:
24,272,39291,6,0,P|16:200|48:136,1,120.000004577637,4|2,0:0|0:0,0:0:0:0:
192,208,39765,1,0,0:0:0:0:
104,88,39923,2,0,L|96:8,1,60.0000022888184,2|0,0:0|0:0,0:0:0:0:
196,122,40239,2,0,L|204:42,1,60.0000022888184,2|0,0:0|0:0,0:0:0:0:
108,212,40554,5,2,2:0:0:0:
296,192,40712,1,0,0:0:0:0:
160,312,40870,1,2,2:0:0:0:
56,112,41028,1,0,0:0:0:0:
256,280,41186,2,0,P|248:312|232:344,1,60.0000022888184,2|0,2:0|0:0,0:0:0:0:
176,120,41502,2,0,P|184:152|200:184,1,60.0000022888184,2|0,2:0|0:0,0:0:0:0:
368,264,41818,5,4,0:0:0:0:
312,56,41975,1,0,0:0:0:0:
216,184,42133,1,2,0:0:0:0:
424,160,42291,1,0,0:0:0:0:
344,344,42449,1,2,0:0:0:0:
320,152,42607,1,0,0:0:0:0:
272,320,42765,2,0,L|200:312,1,60.0000022888184,2|0,0:0|0:0,0:0:0:0:
320,152,43081,6,0,B|304:104|304:104|312:8,1,120.000004577637,6|2,0:0|0:0,0:0:0:0:
504,96,43554,1,0,0:0:0:0:
368,248,43712,2,0,L|376:328,1,60.0000022888184,2|0,0:0|1:0,0:1:0:0:
256,240,44028,1,2,0:0:0:0:
320,152,44186,1,0,1:0:0:0:
152,232,44344,6,0,B|160:176|160:176|152:96,1,120.000004577637,4|2,0:0|0:0,0:0:0:0:
56,224,44818,1,0,0:0:0:0:
200,328,44975,2,0,L|136:320,1,60.0000022888184
112,144,45291,1,2,0:0:0:0:
216,24,45449,6,0,L|208:96,1,60.0000022888184,12|0,0:0|0:0,0:0:0:0:
304,32,45765,1,0,0:0:0:0:
300,61,45843,1,0,0:0:0:0:
296,96,45923,6,0,L|304:152,1,30.0000011444092,2|0,0:0|0:0,0:0:0:0:
392,48,46081,2,0,L|384:104,1,30.0000011444092,2|0,0:0|0:0,0:0:0:0:
384,200,46239,2,0,L|379:170,1,30.0000011444092,2|0,0:0|0:0,0:0:0:0:
288,248,46397,2,0,L|292:218,1,30.0000011444092,2|0,0:0|0:0,0:0:0:0:
376,312,46554,2,0,P|360:352|352:392,1,60.0000022888184,8|0,0:0|0:0,0:0:0:0:
216,328,46870,6,0,L|128:320,1,71.9999978027344,12|0,0:0|0:0,0:0:0:0:
104,168,47186,1,8,0:0:0:0:
64,280,47344,1,0,0:0:0:0:
216,152,47502,2,0,L|304:160,1,71.9999978027344,10|0,0:0|0:0,0:0:0:0:
16,128,47818,1,8,0:0:0:0:
176,248,47975,1,0,0:0:0:0:
96,72,48133,6,0,L|104:-16,1,71.9999978027344,10|0,0:0|0:0,0:0:0:0:
296,72,48449,2,0,L|224:65,1,71.9999978027344,8|0,0:0|0:0,0:0:0:0:
176,248,48765,1,10,0:0:0:0:
304,200,48923,1,0,0:0:0:0:
280,328,49081,1,8,0:0:0:0:
200,128,49239,1,0,0:0:0:0:
360,280,49397,6,0,B|408:296|408:296|512:280,1,143.999995605469,4|8,0:0|0:0,0:0:0:0:
288,112,49870,1,0,0:0:0:0:
192,328,50028,1,10,0:0:0:0:
136,176,50186,1,0,0:0:0:0:
360,280,50344,2,0,L|368:200,1,71.9999978027344,8|0,0:0|0:0,0:0:0:0:
212,144,50660,5,10,0:0:0:0:
368,128,50818,1,0,0:0:0:0:
152,96,50975,1,8,0:0:0:0:
292,156,51133,1,0,0:0:0:0:
64,208,51291,2,0,L|72:280,1,71.9999978027344,2|2,0:0|0:0,0:0:0:0:
64,120,51607,1,4,0:0:0:0:
152,184,51765,1,0,0:0:0:0:
248,0,51923,6,0,L|240:72,1,71.9999978027344,10|0,0:0|0:0,0:0:0:0:
299,227,52239,2,0,L|291:155,1,71.9999978027344,8|0,0:0|0:0,0:0:0:0:
208,280,52554,1,10,0:0:0:0:
384,160,52712,1,0,0:0:0:0:
200,176,52870,1,8,0:0:0:0:
464,112,53028,1,0,0:0:0:0:
392,264,53186,5,10,0:0:0:0:
288,128,53344,1,0,0:0:0:0:
208,280,53502,2,0,P|176:288|136:280,1,71.9999978027344,8|0,0:0|0:0,0:0:0:0:
176,96,53818,1,10,0:0:0:0:
248,208,53975,1,0,0:0:0:0:
56,152,54133,2,0,L|64:80,1,71.9999978027344,8|0,0:0|0:0,0:0:0:0:
256,16,54449,6,0,B|296:32|296:32|408:24,1,143.999995605469,12|8,0:0|0:0,0:0:0:0:
288,128,54923,1,0,0:0:0:0:
480,104,55081,2,0,L|396:112,1,71.9999978027344,10|0,0:0|0:0,0:0:0:0:
232,224,55397,2,0,L|316:232,1,71.9999978027344,8|0,0:0|0:0,0:0:0:0:
144,176,55712,5,2,0:0:0:0:
144,256,55870,1,2,0:0:0:0:
16,224,56028,1,12,0:0:0:0:
120,96,56186,1,2,0:0:0:0:
120,96,56265,1,2,0:0:0:0:
120,96,56344,5,8,0:0:0:0:
72,288,56502,1,0,0:0:0:0:
64,152,56660,1,2,0:0:0:0:
136,336,56818,1,2,0:0:0:0:
144,176,56975,6,0,P|200:168|264:216,1,120.000004577637,4|2,0:0|0:0,0:0:0:0:
336,192,57449,1,0,0:0:0:0:
327,72,57607,2,0,L|334:176,1,120.000004577637,8|2,0:0|0:0,0:0:0:0:
424,240,58081,1,0,0:0:0:0:
416,152,58239,5,2,0:0:0:0:
344,280,58397,2,0,L|280:288,2,60.0000022888184,8|2|0,0:0|0:0|0:0,0:0:0:0:
224,232,58870,2,0,L|216:168,1,60.0000022888184,8|0,0:0|0:0,0:0:0:0:
144,336,59186,2,0,L|152:272,1,60.0000022888184,2|0,0:0|0:0,0:0:0:0:
284,287,59502,5,2,0:0:0:0:
216,172,59660,2,0,L|224:108,1,60.0000022888184,8|0,0:0|0:0,0:0:0:0:
96,144,59975,2,0,L|103:203,1,60.0000022888184,0|8,0:0|0:0,0:0:0:0:
152,0,60291,2,0,L|144:59,1,60.0000022888184,0|2,0:0|0:0,0:0:0:0:
256,32,60607,1,0,0:0:0:0:
371,102,60765,5,0,0:0:0:0:
371,102,60923,2,0,L|299:94,2,60.0000022888184,8|2|0,0:0|0:0|0:0,0:0:0:0:
257,227,61397,2,0,L|264:168,1,60.0000022888184,8|2,0:0|0:0,0:0:0:0:
120,120,61712,1,4,0:0:0:0:
224,240,61870,1,0,0:0:0:0:
56,240,62028,6,0,L|64:368,1,120.000004577637,2|2,0:0|0:0,0:0:0:0:
192,248,62502,1,0,0:0:0:0:
136,120,62660,2,0,B|184:136|184:136|280:120,1,120.000004577637,8|2,0:0|0:0,0:0:0:0:
192,248,63133,1,0,0:0:0:0:
280,208,63291,5,0,0:0:0:0:
245,64,63449,2,0,L|253:136,2,60.0000022888184,8|4|0,0:0|0:0|0:0,0:0:0:0:
400,152,63923,1,2,0:0:0:0:
376,240,64081,1,2,0:0:0:0:
248,112,64239,1,2,0:0:0:0:
264,200,64397,1,2,0:0:0:0:
176,72,64554,6,0,P|112:56|32:80,1,128,4|2,0:0|0:1,0:0:0:0:
176,160,65028,1,0,0:0:0:0:
311,106,65186,2,0,L|223:114,1,64,2|0,0:0|0:0,0:0:0:0:
40,200,65502,2,0,L|128:208,1,64,2|2,0:0|0:1,0:0:0:0:
256,200,65818,5,0,0:0:0:0:
305,42,65975,2,0,L|310:105,1,64,0|2,0:0|0:1,0:0:0:0:
328,280,66291,1,0,0:0:0:0:
168,136,66449,2,0,L|80:144,1,64,2|0,0:0|0:0,0:0:0:0:
104,272,66765,1,2,0:1:0:0:
208,328,66923,1,0,0:0:0:0:
321,216,67081,6,0,L|329:296,1,64,12|0,0:0|0:0,0:0:0:0:
416,112,67397,2,0,L|408:192,1,64,8|0,0:0|0:0,0:0:0:0:
248,168,67712,1,8,0:0:0:0:
400,256,67870,1,2,0:1:0:0:
176,216,68028,1,8,0:0:0:0:
472,208,68186,1,0,0:0:0:0:
195,342,68344,5,8,0:0:0:0:
190,310,68422,1,0,0:0:0:0:
185,279,68501,1,8,0:0:0:0:
180,247,68580,1,0,0:0:0:0:
176,216,68659,1,8,0:0:0:0:
136,232,68739,1,8,0:0:0:0:
100,252,68818,1,8,0:0:0:0:
64,268,68897,1,8,0:0:0:0:
28,288,68975,1,8,0:0:0:0:
176,152,69607,6,0,L|80:160,1,88.000002685547,6|0,0:0|0:0,0:0:0:0:
280,64,69923,2,0,L|192:56,1,88.000002685547,8|0,0:0|0:0,0:0:0:0:
280,240,70239,2,0,L|192:247,1,88.000002685547,2|2,0:0|0:0,0:0:0:0:
280,152,70554,1,8,0:0:0:0:
384,376,70712,6,0,B|392:328|392:328|360:192,1,176.000005371094,4|0,0:0|0:0,0:0:0:0:
277,330,71186,1,8,0:0:0:0:
208,192,71344,1,0,0:0:0:0:
450,196,71502,2,0,L|362:204,1,88.000002685547,2|2,0:0|0:0,0:0:0:0:
192,288,71818,1,8,0:0:0:0:
224,96,71975,1,0,0:0:0:0:
104,320,72133,5,4,0:0:0:0:
128,48,72291,2,0,L|136:168,1,88.000002685547,0|8,0:0|0:0,0:0:0:0:
16,352,72607,1,0,0:0:0:0:
280,256,72765,1,2,0:0:0:0:
128,232,72923,1,2,0:0:0:0:
256,336,73081,1,8,0:0:0:0:
360,136,73239,6,0,L|368:224,1,88.000002685547,4|0,0:0|0:0,0:0:0:0:
240,264,73554,1,0,0:0:0:0:
336,352,73712,1,8,0:0:0:0:
272,120,73870,1,0,0:0:0:0:
455,216,74028,2,0,L|367:223,1,88.000002685547,2|2,0:0|0:0,0:0:0:0:
448,104,74344,1,8,0:0:0:0:
272,120,74502,1,8,0:0:0:0:
272,120,74581,1,0,0:0:0:0:
272,120,74660,6,0,L|176:112,1,88.000002685547,4|0,0:0|0:0,0:0:0:0:
352,40,74975,1,8,0:0:0:0:
320,224,75133,1,0,0:0:0:0:
184,112,75291,2,0,P|168:160|176:208,1,88.000002685547,2|2,0:0|0:0,0:0:0:0:
384,296,75607,1,8,0:0:0:0:
192,304,75765,6,0,L|304:312,1,88.000002685547,4|0,0:0|0:0,0:0:0:0:
424,208,76081,1,0,0:0:0:0:
272,120,76239,1,8,0:0:0:0:
120,232,76397,1,0,0:0:0:0:
136,32,76554,2,0,L|144:128,1,88.000002685547,2|2,0:0|0:0,0:0:0:0:
0,200,76870,2,0,L|8:80,1,88.000002685547,8|0,0:0|0:0,0:0:0:0:
136,352,77186,6,0,L|128:240,1,95.9999970703126,4|0,0:0|0:0,0:0:0:0:
296,248,77502,1,8,0:0:0:0:
160,112,77660,2,0,P|168:56|200:16,1,95.9999970703126,0|2,0:0|0:0,0:0:0:0:
360,184,77975,1,2,0:0:0:0:
272,24,78133,1,8,0:0:0:0:
424,248,78291,6,0,L|432:336,1,88.000002685547,4|0,0:0|0:0,0:0:0:0:
360,184,78607,1,0,0:0:0:0:
288,360,78765,1,8,0:0:0:0:
480,184,78923,2,0,L|488:96,1,88.000002685547,4|0,0:0|0:0,0:0:0:0:
336,96,79239,5,2,0:0:0:0:
128,136,79396,1,8,0:0:0:0:
216,48,79554,1,0,0:0:0:0:
216,240,79712,6,0,L|224:336,1,88.000002685547,6|0,0:0|0:0,0:0:0:0:
128,136,80028,2,0,L|120:224,1,88.000002685547,8|0,0:0|0:0,0:0:0:0:
304,136,80344,2,0,L|311:224,1,88.000002685547,2|2,0:0|0:0,0:0:0:0:
216,136,80660,1,8,0:0:0:0:
40,288,80818,6,0,L|32:200,1,88.000002685547,4|0,0:0|0:0,0:0:0:0:
160,288,81133,1,0,0:0:0:0:
172,56,81291,1,8,0:0:0:0:
351,179,81449,2,0,L|255:171,1,88.000002685547,0|2,0:0|0:0,0:0:0:0:
448,288,81765,1,2,0:0:0:0:
270,348,81923,1,8,0:0:0:0:
268,304,82001,1,8,0:0:0:0:
266,260,82080,1,8,0:0:0:0:
264,216,82159,1,8,0:0:0:0:
264,172,82239,6,0,L|168:176,2,88.000002685547,4|0|8,0:0|0:0|0:0,0:0:0:0:
176,288,82712,1,0,0:0:0:0:
104,48,82870,2,0,P|88:96|96:160,1,88.000002685547,2|2,0:0|0:0,0:0:0:0:
216,64,83186,1,8,0:0:0:0:
8,208,83344,6,0,P|24:256|16:320,1,88.000002685547,4|0,0:0|0:0,0:0:0:0:
88,132,83660,2,0,P|89:89|103:48,1,88.000002685547,0|8,0:0|0:0,0:0:0:0:
112,240,83975,1,0,0:0:0:0:
320,80,84133,1,2,0:0:0:0:
216,272,84291,1,2,0:0:0:0:
204,107,84449,1,8,0:0:0:0:
136,344,84607,1,0,0:0:0:0:
288,192,84765,6,0,L|400:200,1,88.000002685547,4|0,0:0|0:0,0:0:0:0:
240,0,85081,1,8,0:0:0:0:
432,56,85239,1,0,0:0:0:0:
204,107,85397,2,0,L|92:115,1,88.000002685547,2|2,0:0|0:0,0:0:0:0:
320,80,85712,1,8,0:0:0:0:
176,216,85870,6,0,P|144:304|208:368,1,176.000005371094,4|0,0:0|0:0,0:0:0:0:
288,192,86344,1,8,0:0:0:0:
496,232,86502,1,0,0:0:0:0:
204,107,86660,1,2,0:0:0:0:
376,280,86818,1,2,0:0:0:0:
320,80,86975,1,8,0:0:0:0:
464,328,87133,1,8,0:0:0:0:
480,136,87291,6,0,L|392:144,1,88.000002685547,4|0,0:0|0:0,0:0:0:0:
256,16,87607,1,8,0:0:0:0:
288,192,87765,1,0,0:0:0:0:
109,25,87923,2,0,L|117:129,1,88.000002685547,2|2,0:0|0:0,0:0:0:0:
272,104,88239,1,8,0:0:0:0:
48,168,88397,6,0,B|56:224|112:216|112:216|96:288|160:296,1,176.000005371094,4|0,0:0|0:0,0:0:0:0:
244,218,88870,1,8,0:0:0:0:
424,344,89028,1,0,0:0:0:0:
416,320,89107,1,0,0:0:0:0:
408,296,89186,6,0,L|416:248,1,44.0000013427735,2|0,0:0|0:0,0:0:0:0:
408,128,89344,2,0,L|416:176,1,44.0000013427735,2|0,0:0|0:0,0:0:0:0:
304,96,89502,2,0,L|311:139,1,44.0000013427735,2|0,0:0|0:0,0:0:0:0:
304,312,89660,2,0,L|312:264,1,44.0000013427735,2|0,0:0|0:0,0:0:0:0:
304,96,89818,6,0,B|256:104|256:104|128:88,1,143.999995605469,4|2,0:0|0:0,0:0:0:0:
24,0,90291,1,0,0:0:0:0:
32,128,90449,1,2,0:1:0:0:
40,208,90607,1,2,0:1:0:0:
48,288,90765,1,2,0:1:0:0:
104,160,90923,6,0,L|176:168,1,71.9999978027344,2|0,0:0|0:0,0:0:0:0:
112,240,91239,1,0,0:0:0:0:
312,208,91397,2,0,L|240:216,1,71.9999978027344,2|0,0:0|0:0,0:0:0:0:
360,72,91712,2,0,L|368:144,1,71.9999978027344,2|0,0:0|0:0,0:0:0:0:
381,341,92028,2,0,P|373:293|381:237,1,71.9999978027344,2|0,0:0|0:0,0:0:0:0:
367,143,92344,6,0,P|396:66|283:160,1,440,4|0,0:0|0:0,0:0:0:0:
309,79,94239,5,2,0:1:0:0:
79,109,94397,1,0,1:0:0:0:
255,221,94870,5,6,0:0:0:0:
