osu file format v14

[General]
AudioFilename: audio.mp3
AudioLeadIn: 0
PreviewTime: 68447
Countdown: 0
SampleSet: Soft
StackLeniency: 0.7
Mode: 0
LetterboxInBreaks: 0
WidescreenStoryboard: 1

[Editor]
Bookmarks: 10394,68920
DistanceSpacing: 1.2
BeatDivisor: 4
GridSize: 8
TimelineZoom: 1.7

[Metadata]
Title:Zen Zen Zense
TitleUnicode:前前前世
Artist:Soraru x Mafumafu
ArtistUnicode:そらる x まふまふ
Creator:Chibi Maruko
Version:Easy
Source:君の名は。
Tags:taki mitsuha your name movie cover RADWIMPS cut ver Noffy Ayyri
BeatmapID:1160929
BeatmapSetID:547946

[Difficulty]
HPDrainRate:4
CircleSize:3
OverallDifficulty:4
ApproachRate:5
SliderMultiplier:0.7
SliderTickRate:1

[Events]
//Background and Video events
0,0,"doesn't watch this movie.png",0,0
//Break Periods
//Storyboard Layer 0 (Background)
//Storyboard Layer 1 (Fail)
//Storyboard Layer 2 (Pass)
//Storyboard Layer 3 (Foreground)
//Storyboard Sound Samples

[TimingPoints]
1397,315.789473684211,4,1,0,100,1,0
1397,-100,4,2,1,70,0,0
10239,-100,4,2,1,60,0,0
11502,-100,4,2,1,80,0,0
21607,-100,4,2,1,70,0,0
31081,-100,4,1,1,70,0,0
31712,-100,4,2,1,70,0,0
40554,-100,4,1,1,70,0,0
41818,-100,4,2,1,70,0,0
46870,-100,4,2,1,75,0,0
56975,-100,4,2,1,60,0,0
64554,-100,4,2,1,65,0,0
68344,-100,4,2,1,70,0,0
68660,-100,4,2,1,75,0,0
69607,-100,4,2,1,80,0,1
69765,-100,4,2,1,5,0,1
69923,-100,4,2,1,80,0,1
70081,-100,4,2,1,5,0,1
70239,-100,4,2,1,80,0,1
70397,-100,4,2,1,5,0,1
70554,-100,4,2,1,80,0,1
79870,-100,4,2,1,5,0,1
80028,-100,4,2,1,80,0,1
80186,-100,4,2,1,5,0,1
80344,-100,4,2,1,80,0,1
80502,-100,4,2,1,5,0,1
80660,-100,4,2,1,80,0,1
89818,-100,4,2,1,80,0,0

[Colours]
Combo1 : 255,128,0
Combo2 : 0,128,192
Combo3 : 0,128,0
Combo4 : 128,128,255
Combo5 : 255,128,0
Combo6 : 128,128,192

[HitObjects]
232,112,1397,6,0,L|312:120,2,70,4|2|2,0:0|0:0|0:1,0:0:0:0:
160,64,2344,1,2,0:0:0:0:
96,120,2660,2,0,P|88:160|96:192,1,70,2|2,0:0|0:1,0:0:0:0:
160,248,3291,2,0,P|200:256|232:248,1,70,2|2,0:1|0:0,0:0:0:0:
288,192,3923,6,0,P|322:185|355:193,2,70,4|2|2,0:0|0:0|0:1,0:0:0:0:
248,120,4870,1,2,0:0:0:0:
168,88,5186,2,0,L|96:96,1,70,2|2,0:0|0:1,0:0:0:0:
72,176,5818,2,0,L|144:184,1,70,2|2,0:1|0:0,0:0:0:0:
192,248,6449,6,0,L|272:240,1,70,4|2,0:0|0:0,0:0:0:0:
320,184,7081,2,0,P|328:152|320:112,1,70,2|2,0:1|0:0,0:0:0:0:
235,89,7712,2,0,P|203:81|163:89,1,70,2|2,0:0|0:1,0:0:0:0:
88,104,8344,1,2,0:1:0:0:
32,168,8660,1,2,0:0:0:0:
24,248,8975,6,0,P|72:272|128:256,2,105,4|0|2,0:0|0:0|0:0,0:0:0:0:
32,168,10239,2,0,B|80:152|80:128|72:96|88:48|88:48|152:16|208:88,1,280,0|4,0:0|0:0,0:0:0:0:
288,56,11818,5,8,0:0:0:0:
368,72,12133,2,0,L|448:80,1,70,10|8,0:0|0:0,0:0:0:0:
464,160,12765,2,0,L|384:168,1,70,10|8,0:0|0:0,0:0:0:0:
352,240,13397,2,0,P|360:280|352:320,1,70,10|8,0:0|0:0,0:0:0:0:
272,320,14028,5,4,0:0:0:0:
200,280,14344,2,0,L|192:208,1,70,8|10,0:0|0:0,0:0:0:0:
112,200,14975,1,8,0:0:0:0:
32,192,15291,2,0,L|40:120,2,70,10|8|10,0:0|0:0|0:0,0:0:0:0:
112,200,16239,1,4,0:0:0:0:
192,200,16554,6,0,L|264:192,1,70,4|8,0:0|0:0,0:0:0:0:
264,104,17186,2,0,L|192:96,1,70,10|8,0:0|0:0,0:0:0:0:
112,72,17818,2,0,P|88:136|112:216,1,140,10|10,0:0|0:0,0:0:0:0:
80,280,18765,1,8,0:0:0:0:
128,352,19081,6,0,L|208:352,1,70,4|8,0:0|0:0,0:0:0:0:
256,296,19712,2,0,L|256:216,1,70,10|8,0:0|0:0,0:0:0:0:
320,176,20344,2,0,B|372:192|372:192|432:176,2,105,12|12|12,0:0|0:0|0:0,0:0:0:0:
296,96,21607,6,0,P|240:80|152:104,1,140,4|2,0:0|0:0,0:0:0:0:
88,136,22554,1,0,0:0:0:0:
56,216,22870,2,0,L|64:296,1,70,2|2,0:0|0:0,0:0:0:0:
136,320,23502,2,0,P|176:328|216:312,1,70,2|2,0:0|0:0,0:0:0:0:
272,272,24133,6,0,L|280:200,1,70,2|2,0:0|0:0,0:0:0:0:
352,160,24765,1,0,1:0:0:0:
424,120,25081,2,0,L|416:48,1,70,0|2,1:0|0:1,0:0:0:0:
336,40,25712,1,2,0:1:0:0:
256,32,26028,2,0,L|248:112,1,70,2|2,0:0|0:0,0:0:0:0:
184,160,26660,6,0,B|176:232|176:232|192:304,1,140,4|2,0:0|0:0,0:0:0:0:
272,272,27607,1,0,0:0:0:0:
352,240,27923,2,0,B|360:168|360:168|344:96,1,140,2|2,0:0|0:0,0:0:0:0:
264,72,28870,1,0,1:0:0:0:
184,48,29186,6,0,L|112:56,1,70,4|2,0:0|0:0,0:0:0:0:
88,136,29818,2,0,L|160:144,1,70,0|2,0:0|0:0,0:0:0:0:
232,184,30449,2,0,P|272:192|312:176,1,70,2|2,0:1|0:0,0:0:0:0:
360,128,31081,2,0,P|393:119|427:128,1,70,2|0,0:0|0:0,0:0:0:0:
472,200,31712,6,0,B|456:264|496:264|472:344,1,140,4|2,0:0|0:0,0:0:0:0:
388,328,32660,1,2,0:0:0:0:
304,312,32975,2,0,L|232:320,1,70,2|2,0:0|0:0,0:0:0:0:
160,280,33607,2,0,L|80:272,1,70,0|0,1:0|1:0,0:0:0:0:
40,208,34239,6,0,P|32:128|64:72,1,140,4|2,0:0|0:0,0:0:0:0:
144,56,35186,1,2,0:0:0:0:
228,68,35502,2,0,L|232:144,1,70,2|2,0:0|0:0,0:0:0:0:
312,168,36133,2,0,L|308:244,1,70,2|2,0:0|0:0,0:0:0:0:
240,280,36765,6,0,P|152:320|56:264,1,210,4|2,0:0|0:0,0:0:0:0:
64,184,38028,2,0,P|152:144|248:200,1,210,2|2,0:0|0:1,0:0:0:0:
240,280,39291,5,4,0:0:0:0:
320,296,39607,1,0,0:0:0:0:
400,264,39923,2,0,L|408:192,1,70,2|2,0:0|0:0,0:0:0:0:
352,128,40554,2,0,P|312:120|272:136,1,70,2|2,2:0|2:0,0:0:0:0:
216,184,41186,2,0,P|182:192|148:183,1,70,2|2,2:0|2:0,0:0:0:0:
96,120,41818,6,0,L|96:40,2,70,4|2|2,0:0|0:0|0:0,0:0:0:0:
148,183,42765,1,2,0:0:0:0:
168,264,43081,2,0,P|208:272|240:264,1,70,4|2,0:0|0:0,0:0:0:0:
288,200,43712,2,0,P|296:160|288:128,1,70,2|2,0:0|0:0,0:0:0:0:
248,56,44344,5,4,0:0:0:0:
168,24,44660,1,2,0:0:0:0:
120,96,44975,2,0,B|112:160|112:160|120:216,1,105,2|12,0:0|0:0,0:0:0:0:
232,256,45923,2,0,L|312:248,2,70,2|2|8,0:0|0:0|0:0,0:0:0:0:
176,192,46870,6,0,L|168:112,1,70,4|8,0:0|0:0,0:0:0:0:
248,96,47502,2,0,L|256:16,1,70,10|8,0:0|0:0,0:0:0:0:
336,8,48133,1,10,0:0:0:0:
416,32,48449,1,8,0:0:0:0:
480,88,48765,2,0,P|488:128|480:160,1,70,10|8,0:0|0:0,0:0:0:0:
416,208,49397,6,0,P|360:192|280:232,1,140,4|10,0:0|0:0,0:0:0:0:
208,256,50344,1,8,0:0:0:0:
136,208,50660,2,0,P|74:238|7:223,1,140,10|2,0:0|0:0,0:0:0:0:
32,144,51607,1,4,0:0:0:0:
32,56,51923,6,0,L|112:64,1,70,4|8,0:0|0:0,0:0:0:0:
136,138,52554,2,0,L|136:210,1,70,10|8,0:0|0:0,0:0:0:0:
200,264,53186,2,0,P|240:272|272:264,1,70,10|8,0:0|0:0,0:0:0:0:
336,216,53818,2,0,P|344:176|336:144,1,70,10|8,0:0|0:0,0:0:0:0:
272,96,54449,6,0,B|224:104|224:104|184:96|184:96|120:104,1,140,4|10,0:0|0:0,0:0:0:0:
72,168,55397,1,8,0:0:0:0:
96,248,55712,1,2,0:0:0:0:
160,304,56028,2,0,P|200:312|232:304,1,70,12|8,0:0|0:0,0:0:0:0:
296,256,56660,1,0,0:0:0:0:
376,264,56975,6,0,P|400:208|376:120,1,140,4|8,0:0|0:0,0:0:0:0:
312,96,57923,1,2,0:0:0:0:
232,128,58239,1,2,0:0:0:0:
152,128,58554,2,0,L|72:136,1,70,2|8,0:0|0:0,0:0:0:0:
8,184,59186,1,2,0:0:0:0:
24,264,59502,6,0,P|96:288|160:256,1,140,2|8,0:0|0:0,0:0:0:0:
232,232,60449,1,0,0:0:0:0:
312,248,60765,2,0,B|376:272|384:224|448:240,1,140,2|8,0:0|0:0,0:0:0:0:
480,160,61712,1,4,0:0:0:0:
440,88,62028,6,0,B|392:80|392:80|296:96,1,140,2|8,0:0|0:0,0:0:0:0:
216,104,62975,1,0,0:0:0:0:
144,152,63291,1,0,0:0:0:0:
112,232,63607,2,0,L|120:304,1,70,8|2,0:0|0:0,0:0:0:0:
200,336,64239,1,2,0:0:0:0:
272,296,64554,6,0,P|336:312|464:248,1,210,4|2,0:0|0:1,0:0:0:0:
440,168,65818,2,0,P|376:152|248:216,1,210,2|2,0:0|0:1,0:0:0:0:
184,256,67081,6,0,L|104:264,1,70,12|8,0:0|0:0,0:0:0:0:
56,208,67712,2,0,L|48:128,1,70,8|8,0:0|0:0,0:0:0:0:
120,88,68344,2,0,P|184:72|264:96,1,140,8|8,0:0|0:0,0:0:0:0:
408,160,69607,6,0,L|488:152,2,70,6|8|2,0:0|0:0|0:0,0:0:0:0:
336,264,70712,2,0,P|288:272|224:256,1,105,4|8,0:0|0:0,0:0:0:0:
168,208,71502,2,0,L|160:136,1,70,2|8,0:0|0:0,0:0:0:0:
224,80,72133,6,0,L|296:72,2,70,4|8|2,0:0|0:0|0:0,0:0:0:0:
96,80,73239,2,0,B|79:126|79:126|88:192,1,105,4|8,0:0|0:0,0:0:0:0:
160,224,74028,2,0,P|200:232|232:224,1,70,2|8,0:0|0:0,0:0:0:0:
304,272,74660,6,0,L|304:344,2,70,4|8|2,0:0|0:0|0:0,0:0:0:0:
416,208,75765,2,0,B|416:152|416:152|400:96,1,105,4|8,0:0|0:0,0:0:0:0:
328,64,76554,1,2,0:0:0:0:
248,80,76870,1,8,0:0:0:0:
168,72,77186,6,0,P|144:128|160:184,1,105,4|0,0:0|0:0,0:0:0:0:
136,256,77975,1,0,0:0:0:0:
184,328,78291,2,0,L|328:320,1,140,4|4,0:0|0:0,0:0:0:0:
408,224,79397,1,8,0:0:0:0:
400,144,79712,6,0,L|400:64,2,70,4|8|2,0:0|0:0|0:0,0:0:0:0:
296,216,80818,2,0,P|240:232|184:208,1,105,4|8,0:0|0:0,0:0:0:0:
168,136,81607,1,2,0:0:0:0:
200,56,81923,1,8,0:0:0:0:
280,24,82239,6,0,P|336:16|416:64,1,140,4|2,0:0|0:0,0:0:0:0:
456,168,83344,2,0,L|448:272,1,105,4|8,0:0|0:0,0:0:0:0:
368,296,84133,2,0,P|328:304|288:288,1,70,2|8,0:0|0:0,0:0:0:0:
240,240,84765,6,0,L|232:168,2,70,4|8|2,0:0|0:0|0:0,0:0:0:0:
160,336,85870,2,0,B|144:304|144:304|136:224,1,105,4|8,0:0|0:0,0:0:0:0:
80,168,86660,1,2,0:0:0:0:
112,88,86975,1,8,0:0:0:0:
176,32,87291,6,0,P|256:40|296:96,1,140,4|2,0:0|0:0,0:0:0:0:
208,176,88397,2,0,B|200:224|200:224|208:296,1,105,4|8,0:0|0:0,0:0:0:0:
288,304,89186,2,0,L|360:296,1,70,2|2,0:0|0:0,0:0:0:0:
376,216,89818,6,0,P|384:176|376:136,1,70,4|2,0:0|0:0,0:0:0:0:
304,104,90449,1,2,0:1:0:0:
200,168,90923,2,0,L|200:272,1,105,2|2,0:0|0:0,0:0:0:0:
136,328,91712,2,0,L|64:328,1,70,2|2,0:0|0:0,0:0:0:0:
24,256,92344,5,4,0:0:0:0:
256,192,92423,12,6,94870,0:1:0:0:
