osu file format v14

[General]
AudioFilename: audio.mp3
AudioLeadIn: 0
PreviewTime: 57077
Countdown: 0
SampleSet: Soft
StackLeniency: 0.7
Mode: 0
LetterboxInBreaks: 0
WidescreenStoryboard: 1

[Editor]
Bookmarks: 19077,29149,31720,33934,37863,56292,70292,79149,93720,165863,168292,176934
DistanceSpacing: 0.2
BeatDivisor: 4
GridSize: 4
TimelineZoom: 1

[Metadata]
Title:Streaming Heart
TitleUnicode:ストリーミングハート
Artist:soraru
ArtistUnicode:そらる
Creator:Testo
Version:Insane
Source:
Tags:deco*27 deco27 cover utaite wajinshu djulus kous
BeatmapID:1809653
BeatmapSetID:849740

[Difficulty]
HPDrainRate:5
CircleSize:4
OverallDifficulty:8
ApproachRate:9
SliderMultiplier:1.7
SliderTickRate:2

[Events]
//Background and Video events
0,0,"DaDaYa.jpg",0,0
//Break Periods
2,75762,84105
2,104134,110534
//Storyboard Layer 0 (Background)
//Storyboard Layer 1 (Fail)
//Storyboard Layer 2 (Pass)
//Storyboard Layer 3 (Foreground)
//Storyboard Sound Samples

[TimingPoints]
1277,285.714285714286,4,2,1,55,1,0
1277,-125,4,2,1,55,0,0
10419,-100,4,1,1,66,0,0
19562,-100,4,1,1,66,0,0
28705,-125,4,3,1,55,0,0
29848,-125,4,2,1,55,0,0
38991,-100,4,1,1,66,0,0
48134,-125,4,2,1,55,0,0
52705,-125,4,2,1,65,0,0
57277,-83.3333333333333,4,1,1,77,0,1
65134,-250,4,1,1,66,0,0
65848,-83.3333333333333,4,1,1,66,0,0
66419,-83.3333333333333,4,1,1,77,0,1
68277,-83.3333333333333,4,1,2,77,0,1
68562,-83.3333333333333,4,1,1,77,0,1
70562,-83.3333333333333,4,1,2,77,0,1
70848,-83.3333333333333,4,1,1,77,0,1
72848,-83.3333333333333,4,1,2,77,0,1
73134,-83.3333333333333,4,1,1,77,0,1
75562,-100,4,1,1,77,0,0
84705,-125,4,2,1,55,0,0
92705,-83.3333333333333,4,1,1,55,0,0
93777,-111.111111111111,4,2,1,5,0,0
93848,-100,4,1,1,66,0,0
102062,-111.111111111111,4,2,1,5,0,0
102134,-99.9999999999999,4,1,1,66,0,0
102991,-142.857142857143,4,2,1,66,0,0
112134,-71.4285714285714,4,1,1,77,0,0
112348,-71.4285714285714,4,2,1,5,0,0
112419,-100,4,1,1,77,0,0
113848,-250,4,1,1,77,0,0
114277,-250,4,2,1,5,0,0
114419,-71.4285714285714,4,1,1,77,0,0
114634,-71.4285714285714,4,1,1,5,0,0
114705,-100,4,1,1,77,0,0
115562,-166.666666666667,4,1,1,77,0,0
116134,-125,4,1,1,77,0,0
116562,-125,4,2,1,5,0,0
116705,-71.4285714285714,4,1,1,77,0,0
116919,-71.4285714285714,4,1,1,5,0,0
116991,-100,4,1,1,77,0,0
118419,-250,4,1,1,77,0,0
118848,-250,4,2,1,5,0,0
118991,-71.4285714285714,4,1,1,77,0,0
119205,-71.4285714285714,4,1,1,5,0,0
119277,-100,4,1,1,77,0,0
120705,-500,4,1,1,77,0,0
121277,-125,4,2,1,55,0,0
125848,-125,4,2,1,65,0,0
131562,-83.3333333333333,4,1,1,77,0,1
139419,-250,4,2,1,55,0,0
139705,-250,4,1,1,5,0,0
139848,-250,4,2,1,55,0,0
140705,-100,4,1,1,77,0,1
149848,-83.3333333333333,4,1,1,77,0,0
150134,-83.3333333333333,4,1,1,77,0,1
151705,-83.3333333333333,4,1,2,77,0,1
151991,-83.3333333333333,4,1,1,77,0,1
153991,-83.3333333333333,4,1,2,77,0,1
154277,-83.3333333333333,4,1,1,77,0,1
156277,-83.3333333333333,4,1,2,77,0,1
156562,-83.3333333333333,4,1,1,77,0,1
158705,-83.3333333333333,4,1,1,77,0,0
158991,-83.3333333333333,4,1,1,77,0,1
168134,-142.857142857143,4,2,1,55,0,0
177134,-333.333333333333,4,2,1,55,0,0
177419,-333.333333333333,4,2,1,5,0,0

[Colours]
Combo1 : 107,121,245
Combo2 : 100,255,255
Combo3 : 184,62,193
Combo4 : 251,55,80

[HitObjects]
108,84,1277,6,0,B|178:77,1,68,0|0,1:0|0:0,0:0:0:0:
261,81,1562,1,0,1:0:0:0:
261,81,1705,1,0,0:0:0:0:
261,81,1848,2,0,B|419:66,1,136,0|0,1:0|1:0,0:0:0:0:
464,111,2277,6,0,P|453:153|457:189,1,68,0|0,0:0|1:0,0:0:0:0:
378,212,2562,2,0,P|390:254|386:290,1,68,0|0,0:0|1:0,0:0:0:0:
436,348,2848,2,0,P|381:313|293:333,1,136,0|0,0:0|0:0,0:0:0:0:
152,339,3277,1,0,1:0:0:0:
225,378,3419,2,0,B|237:342|237:342|229:304,1,68,0|0,0:0|1:0,0:0:0:0:
187,246,3705,5,0,0:0:0:0:
187,246,3848,2,0,L|197:175,1,68,0|0,1:0|0:0,0:0:0:0:
265,120,4134,2,0,P|235:139|146:76,1,136,0|0,1:0|1:0,0:0:0:0:
83,55,4562,2,0,L|65:134,1,68,0|0,0:0|1:0,0:0:0:0:
1,177,4848,2,0,L|19:256,1,68,0|0,0:0|1:0,0:0:0:0:
86,282,5134,2,0,P|174:289|219:314,1,136,0|0,0:0|0:0,0:0:0:0:
302,375,5562,1,0,1:0:0:0:
352,313,5705,2,0,L|345:235,1,68,0|0,0:0|1:0,0:0:0:0:
298,178,5991,5,0,0:0:0:0:
298,178,6134,2,0,L|304:100,1,68,0|0,1:0|0:0,0:0:0:0:
244,47,6419,2,0,P|288:72|372:22,1,136,0|0,1:0|1:0,0:0:0:0:
435,69,6848,2,0,L|441:145,1,68,0|0,0:0|1:0,0:0:0:0:
383,199,7134,2,0,L|389:275,1,68,0|0,0:0|1:0,0:0:0:0:
344,332,7419,2,0,B|267:349|289:297|203:314,1,136,0|0,0:0|0:0,0:0:0:0:
97,330,7848,1,0,1:0:0:0:
20,351,7991,2,0,P|23:324|32:280,1,68,0|0,0:0|1:0,0:0:0:0:
259,80,8419,6,0,L|270:148,2,68,0|2|0,0:0|0:0|0:0,0:0:0:0:
13,60,8991,5,0,0:0:0:0:
97,81,9134,1,0,0:0:0:0:
178,103,9277,2,0,L|215:116,1,34,0|0,3:0|3:0,0:0:0:0:
286,32,9419,2,0,L|249:45,1,34,0|0,3:0|3:0,0:0:0:0:
344,205,9562,2,0,L|355:132,1,68,8|2,3:0|0:1,0:0:0:0:
379,103,9777,1,0,0:0:0:0:
379,103,9848,2,0,L|369:30,1,68,0|0,3:0|3:0,0:0:0:0:
263,140,10134,1,0,3:0:0:0:
454,102,10277,1,0,1:0:0:0:
392,287,10419,6,0,P|337:221|236:237,1,170,10|0,0:0|0:0,0:0:0:0:
169,270,10848,2,0,B|156:223|156:223|171:182,1,85,2|8,0:0|0:0,0:0:0:0:
168,189,11277,6,0,L|151:82,1,85,2|0,0:0|0:0,0:0:0:0:
46,70,11562,2,0,P|90:92|175:8,1,170,10|0,0:0|0:0,0:0:0:0:
277,50,11991,2,0,L|290:140,1,85,2|8,0:0|0:0,0:0:0:0:
292,157,12205,1,2,3:0:0:0:
292,157,12277,2,0,L|298:204,1,42.5,2|2,3:0|3:0,0:0:0:0:
247,254,12419,6,0,P|294:233|358:309,1,127.5,2|0,0:0|0:0,0:0:0:0:
353,271,12705,6,0,P|311:320|201:312,1,170,10|0,0:0|0:0,0:0:0:0:
141,253,13134,2,0,L|148:163,1,85,2|8,0:0|0:0,0:0:0:0:
147,168,13562,6,0,P|186:172|229:139,1,85,2|0,0:0|0:0,0:0:0:0:
259,72,13848,2,0,L|240:247,1,170,10|0,0:0|0:0,0:0:0:0:
229,349,14277,2,0,L|319:336,1,85,2|8,0:0|0:0,0:0:0:0:
336,334,14491,1,0,0:0:0:0:
336,334,14563,2,0,L|383:327,1,42.5,0|0,0:0|0:0,0:0:0:0:
433,379,14705,6,0,P|412:332|488:268,1,127.5,2|0,0:0|0:0,0:0:0:0:
450,272,14991,6,0,B|467:184|467:184|442:106,1,170,10|0,0:0|0:0,0:0:0:0:
360,57,15419,2,0,P|322:65|271:42,1,85,2|8,0:0|0:0,0:0:0:0:
279,49,15848,6,0,L|185:55,1,85,2|0,0:0|0:0,0:0:0:0:
68,43,16134,2,0,P|127:38|158:134,1,170,10|0,0:0|0:0,0:0:0:0:
112,195,16562,2,0,P|149:213|214:199,1,85,2|8,0:0|0:0,0:0:0:0:
207,192,16777,1,2,3:0:0:0:
207,192,16848,2,0,P|236:193|253:199,1,42.5,2|2,3:0|3:0,0:0:0:0:
304,257,16991,6,0,L|288:128,1,127.5,2|0,0:0|0:0,0:0:0:0:
288,130,17277,6,0,B|381:107|356:188|482:162,1,170,10|0,0:0|0:0,0:0:0:0:
494,271,17705,2,0,B|450:257|450:257|407:273,1,85,2|8,0:0|0:0,0:0:0:0:
413,270,18134,6,0,L|296:279,1,85,2|0,0:0|0:0,0:0:0:0:
257,323,18419,2,0,L|70:305,1,170,10|0,0:0|0:0,0:0:0:0:
32,250,18848,2,0,B|22:208|22:208|38:165,1,85,2|8,0:0|0:0,0:0:0:0:
45,150,19062,1,0,0:0:0:0:
45,150,19134,1,0,0:0:0:0:
128,80,19277,1,2,0:0:0:0:
228,120,19419,1,2,3:0:0:0:
334,57,19562,6,0,P|286:79|301:207,1,170,10|0,0:0|0:0,0:0:0:0:
344,227,19991,2,0,L|434:238,1,85,2|8,0:0|0:0,0:0:0:0:
505,246,20277,1,0,0:0:0:0:
428,237,20419,6,0,P|423:194|442:152,1,85,2|0,0:0|0:0,0:0:0:0:
505,109,20705,2,0,L|300:134,1,170,10|0,0:0|0:0,0:0:0:0:
246,162,21134,2,0,L|151:152,1,85,2|8,0:0|0:0,0:0:0:0:
134,147,21348,1,2,3:0:0:0:
134,147,21419,2,0,P|133:177|136:196,1,42.5,2|2,3:0|3:0,0:0:0:0:
191,258,21562,6,0,P|141:235|62:275,1,127.5,2|0,0:0|0:0,0:0:0:0:
75,257,21848,6,0,P|106:312|228:335,1,170,10|0,0:0|0:0,0:0:0:0:
271,294,22277,2,0,B|314:288|314:288|352:301,1,85,2|8,0:0|0:0,0:0:0:0:
421,339,22562,1,0,0:0:0:0:
353,301,22705,6,0,P|343:260|359:211,1,85,2|0,0:0|0:0,0:0:0:0:
457,168,22991,2,0,P|409:195|308:119,1,170,10|0,0:0|0:0,0:0:0:0:
272,76,23419,2,0,L|172:69,1,85,2|8,0:0|0:0,0:0:0:0:
166,68,23634,1,2,3:0:0:0:
166,68,23705,2,0,L|98:72,1,42.5,2|2,3:0|3:0,0:0:0:0:
49,78,23848,1,2,0:0:0:0:
144,162,23991,1,0,0:0:0:0:
13,223,24134,6,0,B|97:191|93:270|174:242,1,170,10|0,0:0|0:0,0:0:0:0:
244,209,24562,2,0,L|333:223,1,85,2|8,3:1|0:0,0:0:0:0:
404,230,24848,1,0,0:0:0:0:
327,222,24991,6,0,B|321:176|321:176|340:138,1,85,2|0,0:0|0:0,0:0:0:0:
438,94,25277,2,0,L|254:103,1,170,10|0,0:0|0:0,0:0:0:0:
177,137,25705,2,0,P|138:129|107:91,1,85,2|8,0:0|0:0,0:0:0:0:
105,73,25919,1,2,3:0:0:0:
105,73,25991,2,0,L|62:66,1,42.5,2|0,3:0|0:0,0:0:0:0:
1,141,26134,6,0,L|23:267,1,127.5,2|0,0:0|0:0,0:0:0:0:
22,266,26419,6,0,P|88:297|169:241,1,170,10|0,0:0|0:0,0:0:0:0:
208,180,26848,2,0,L|299:192,1,85,2|8,0:0|0:0,0:0:0:0:
369,199,27134,1,0,0:0:0:0:
292,191,27277,6,0,P|287:146|304:102,1,85,2|0,0:0|0:0,0:0:0:0:
140,61,27562,2,0,P|159:106|125:238,1,170,10|0,0:0|0:0,0:0:0:0:
56,308,27991,2,0,L|146:300,1,85,2|8,0:0|0:0,0:0:0:0:
166,293,28205,1,2,3:0:0:0:
166,293,28277,2,0,L|211:289,1,42.5,2|2,3:0|3:0,0:0:0:0:
282,278,28419,1,2,0:0:0:0:
361,269,28562,1,8,0:0:0:0:
136,71,29848,5,8,3:0:0:0:
86,131,29991,2,0,P|87:173|82:215,2,68,0|0|0,0:0|0:0|1:0,0:0:0:0:
23,80,30419,2,0,P|83:107|142:45,1,136,8|0,1:0|0:0,0:0:0:0:
217,72,30848,6,0,L|295:78,1,68,0|0,0:0|0:0,0:0:0:0:
251,155,31134,2,0,L|183:149,1,68,0|0,1:0|0:0,0:0:0:0:
212,234,31419,2,0,L|290:240,1,68,0|8,0:0|1:0,0:0:0:0:
368,244,31705,5,0,1:0:0:0:
336,160,31848,1,2,0:0:0:0:
368,244,31991,2,0,P|384:286|379:319,1,68,2|8,0:0|3:0,0:0:0:0:
336,160,32277,6,0,L|346:85,2,68,0|0|0,0:0|0:0|1:0,0:0:0:0:
276,205,32705,2,0,P|240:217|149:147,1,136,8|0,1:0|0:0,0:0:0:0:
61,91,33134,6,0,P|78:114|82:157,1,68,0|0,0:0|0:0,0:0:0:0:
181,48,33419,2,0,P|152:51|113:33,1,68,0|0,1:0|0:0,0:0:0:0:
158,173,33705,2,0,P|169:146|204:121,1,68,0|8,0:0|1:0,0:0:0:0:
330,157,33991,5,0,1:0:0:0:
273,106,34134,1,2,0:0:0:0:
330,157,34277,2,0,L|397:163,1,68,2|8,0:0|3:0,0:0:0:0:
448,243,34562,6,0,L|381:249,2,68,0|0|0,0:0|0:0|1:0,0:0:0:0:
512,189,34991,2,0,P|490:227|490:340,1,136,8|0,1:0|0:0,0:0:0:0:
403,355,35419,6,0,L|313:346,1,68,0|0,0:0|0:0,0:0:0:0:
282,286,35705,2,0,L|192:277,1,68,0|0,1:0|1:0,0:0:0:0:
161,217,35991,2,0,L|71:208,1,68,0|8,0:0|1:0,0:0:0:0:
6,102,36277,5,0,1:0:0:0:
75,140,36419,1,2,0:0:0:0:
6,102,36562,2,0,P|2:63|9:25,1,68,2|8,0:0|3:0,0:0:0:0:
132,85,36848,5,2,3:0:0:0:
132,85,36991,2,0,L|214:94,1,68,2|0,3:0|1:0,0:0:0:0:
297,174,37277,2,0,L|135:187,1,136,8|0,1:0|0:0,0:0:0:0:
87,195,37705,1,0,0:0:0:0:
122,343,37848,5,8,1:0:0:0:
184,239,37991,2,0,L|189:282,2,34,8|8|0,1:0|1:0|1:0,0:0:0:0:
279,175,38277,2,0,L|272:256,1,68,0|0,1:0|1:0,0:0:0:0:
113,106,38562,2,0,L|120:187,1,68,8|8,1:0|1:0,0:0:0:0:
282,41,38848,5,8,1:0:0:0:
282,41,38919,1,0,1:0:0:0:
282,41,38991,2,0,L|377:52,1,85,4|0,1:0|0:0,0:0:0:0:
395,157,39277,2,0,L|310:147,1,85,8|0,0:0|0:0,0:0:0:0:
214,133,39562,1,0,0:3:0:0:
214,133,39705,1,0,0:0:0:0:
136,192,39848,1,8,0:0:0:0:
136,192,39991,1,0,0:0:0:0:
62,108,40134,6,0,P|49:150|49:196,1,85,4|0,3:0|0:0,0:0:0:0:
122,287,40419,1,8,0:0:0:0:
195,293,40562,2,0,P|208:251|208:205,1,85,0|0,0:0|0:0,0:0:0:0:
284,137,40848,2,0,P|284:179|297:219,1,85,2|8,0:0|0:0,0:0:0:0:
355,108,41134,2,0,P|313:120|251:27,1,170,2|0,0:0|0:0,0:0:0:0:
366,35,41562,6,0,L|462:46,1,85,8|0,0:0|0:0,0:0:0:0:
427,144,41848,2,0,L|416:240,1,85,0|0,0:0|0:0,0:0:0:0:
330,158,42134,1,8,0:0:0:0:
330,158,42277,1,0,0:0:0:0:
275,265,42419,6,0,P|313:244|402:319,1,170,4|8,3:0|0:0,0:0:0:0:
268,346,42848,2,0,P|236:338|199:291,1,85,0|0,0:0|0:0,0:0:0:0:
135,184,43134,2,0,P|144:215|121:271,1,85,2|8,0:0|0:0,0:0:0:0:
61,380,43419,2,0,P|83:356|143:347,1,85,2|0,0:0|0:0,0:0:0:0:
287,372,43705,5,0,0:0:0:0:
344,324,43848,2,0,P|348:270|356:227,1,85,8|0,0:0|0:0,0:0:0:0:
245,182,44134,2,0,P|251:223|254:266,1,85,0|0,0:0|0:0,0:0:0:0:
343,142,44419,2,0,P|347:88|355:45,1,85,8|0,0:0|0:0,0:0:0:0:
210,24,44705,5,4,3:0:0:0:
253,103,44848,1,0,0:0:0:0:
283,35,44991,1,8,0:0:0:0:
178,98,45134,2,0,P|130:96|76:64,1,85,0|0,0:0|0:0,0:0:0:0:
212,205,45419,2,0,P|251:188|293:188,1,85,2|8,0:0|0:0,0:0:0:0:
394,270,45705,2,0,P|334:212|340:130,1,170,2|0,0:0|0:0,0:0:0:0:
458,64,46134,6,0,B|418:50|418:50|376:60,1,85,8|0,0:0|0:0,0:0:0:0:
426,188,46419,2,0,B|466:202|466:202|507:191,1,85,0|0,0:0|0:0,0:0:0:0:
351,296,46705,2,0,B|311:282|311:282|269:292,1,85,8|0,0:0|0:0,0:0:0:0:
137,367,46991,5,4,3:0:0:0:
204,332,47134,1,0,0:0:0:0:
143,290,47277,1,8,0:0:0:0:
69,323,47419,2,0,P|59:286|68:227,1,85,0|0,0:0|0:0,0:0:0:0:
120,140,47705,2,0,B|223:116|194:191|281:168,1,170,0|0,0:0|0:0,0:0:0:0:
327,109,48134,6,0,L|311:256,1,136,4|0,0:1|0:0,0:0:0:0:
381,310,48562,2,0,L|395:174,1,136,2|0,3:0|0:0,0:0:0:0:
405,97,48991,2,0,P|398:59|381:25,1,68,2|0,0:0|0:0,0:0:0:0:
304,67,49277,6,0,L|231:48,1,68,0|0,3:0|0:0,0:0:0:0:
180,109,49562,2,0,L|100:122,1,68,0|0,0:0|3:0,0:0:0:0:
57,185,49848,6,0,B|68:222|68:222|61:264,1,68,2|0,0:0|0:0,0:0:0:0:
148,304,50134,2,0,B|143:275|143:275|151:237,1,68,0|0,3:0|0:0,0:0:0:0:
209,358,50419,6,0,P|165:345|49:339,1,136,2|0,3:0|0:0,0:0:0:0:
227,280,50848,2,0,P|294:276|360:258,1,136,0|0,3:0|0:0,0:0:0:0:
415,200,51277,2,0,L|422:122,1,68,0|0,3:0|0:0,0:0:0:0:
373,66,51562,6,0,P|339:55|298:58,1,68,0|0,3:0|0:0,0:0:0:0:
261,118,51848,2,0,P|228:128|195:128,1,68,0|0,0:0|3:0,0:0:0:0:
117,96,52134,6,0,L|108:173,1,68,0|0,0:0|0:0,0:0:0:0:
172,216,52419,2,0,L|179:283,1,68,0|0,3:0|0:0,0:0:0:0:
116,370,52705,6,0,P|169:330|234:340,1,136,4|0,3:1|0:0,0:0:0:0:
316,378,53134,2,0,P|327:299|350:225,1,136,0|0,3:0|0:0,0:0:0:0:
434,185,53562,2,0,P|421:125|415:102,1,68,0|0,3:0|0:0,0:0:0:0:
280,63,53848,6,0,L|351:76,1,68,0|0,3:0|0:0,0:0:0:0:
234,129,54134,2,0,L|167:141,1,68,0|0,0:0|3:0,0:0:0:0:
75,200,54419,6,0,P|95:225|107:260,1,68,0|0,0:0|0:0,0:0:0:0:
205,330,54705,2,0,P|215:297|236:271,1,68,0|0,3:0|0:0,0:0:0:0:
383,258,54991,6,0,L|393:334,1,68,0|2,3:0|0:0,0:0:0:0:
245,203,55277,2,0,L|235:279,1,68,0|2,3:0|0:0,0:0:0:0:
373,167,55562,5,0,3:0:0:0:
373,167,55705,1,2,0:0:0:0:
254,115,55848,5,0,3:0:0:0:
254,115,55991,1,2,0:0:0:0:
400,50,56134,6,0,L|405:88,8,34,0|0|0|0|0|0|0|0|12,1:0|1:0|1:0|1:0|1:0|1:0|1:0|1:0|1:0,0:0:0:0:
400,50,57277,6,0,B|297:90|313:-3|206:25,1,203.999993774414,6|8,0:0|0:0,0:0:0:0:
217,179,57705,2,0,B|323:208|307:114|410:154,1,203.999993774414,2|2,0:0|0:0,0:0:0:0:
401,322,58134,2,0,P|376:264|371:212,1,101.999996887207,10|0,0:0|0:0,0:0:0:0:
328,363,58419,6,0,P|276:337|198:323,1,101.999996887207,2|0,0:0|0:0,0:0:0:0:
16,296,58705,1,8,0:0:0:0:
80,346,58848,2,0,B|94:294|94:294|78:248,1,101.999996887207,2|0,0:0|0:0,0:0:0:0:
22,110,59134,1,2,0:0:0:0:
116,151,59277,1,8,0:0:0:0:
230,52,59419,5,0,0:0:0:0:
287,97,59562,2,0,L|276:209,1,101.999996887207,2|0,0:0|0:0,0:0:0:0:
125,252,59848,2,0,L|115:150,1,101.999996887207,8|2,0:0|0:0,0:0:0:0:
76,314,60134,2,0,P|165:284|211:366,1,203.999993774414,0|8,0:0|0:0,0:0:0:0:
378,245,60562,5,0,0:0:0:0:
323,291,60705,2,0,B|327:207|327:207|361:172|361:172|365:77,1,203.999993774414,2|8,0:0|0:0,0:0:0:0:
160,80,61134,1,2,0:0:0:0:
243,100,61277,2,0,P|233:58|190:7,1,101.999996887207,8|2,0:0|0:0,0:0:0:0:
155,199,61562,2,0,L|272:177,1,101.999996887207,8|8,0:0|0:0,0:0:0:0:
437,119,61848,6,0,P|410:177|434:324,1,203.999993774414,4|8,0:0|0:0,0:0:0:0:
265,373,62277,2,0,P|287:274|254:179,1,203.999993774414,2|2,0:0|0:0,0:0:0:0:
78,121,62705,1,8,0:0:0:0:
176,142,62848,1,0,0:0:0:0:
17,77,62991,6,0,L|28:188,1,101.999996887207,2|0,0:0|0:0,0:0:0:0:
200,219,63277,1,8,0:0:0:0:
252,167,63419,2,0,L|262:65,1,101.999996887207,2|0,0:0|0:0,0:0:0:0:
86,17,63705,1,2,0:0:0:0:
134,120,63848,1,8,0:0:0:0:
6,213,63991,1,0,0:0:0:0:
84,198,64134,6,0,P|79:258|64:305,1,101.999996887207,2|0,0:0|0:0,0:0:0:0:
242,334,64419,2,0,L|224:230,1,101.999996887207,10|0,0:0|0:0,0:0:0:0:
330,151,64705,2,0,P|315:182|176:161,1,203.999993774414,2|8,0:0|0:0,0:0:0:0:
358,66,65134,5,8,0:0:0:0:
358,66,65205,1,0,0:0:0:0:
358,66,65277,2,2,L|436:70,1,68,6|0,0:0|0:0,0:0:0:0:
448,197,65848,5,8,0:0:0:0:
448,197,65919,1,0,0:0:0:0:
448,197,65991,1,0,0:0:0:0:
448,197,66062,1,0,0:0:0:0:
448,197,66134,6,0,L|455:251,1,50.9999984436036,8|2,0:0|0:3,0:0:0:0:
320,289,66277,2,0,L|326:238,1,50.9999984436036,2|2,0:3|0:3,0:0:0:0:
494,128,66419,6,0,P|453:156|306:89,1,203.999993774414,4|8,0:0|0:0,0:0:0:0:
150,223,66848,2,0,P|191:195|338:262,1,203.999993774414,2|0,0:0|0:0,0:0:0:0:
482,342,67277,1,8,0:0:0:0:
410,319,67419,2,0,L|398:204,1,101.999996887207,0|0,0:0|0:0,0:0:0:0:
492,93,67705,6,0,P|439:100|376:70,1,101.999996887207,2|8,0:0|0:0,0:0:0:0:
327,38,67991,2,0,P|274:31|211:61,1,101.999996887207,2|0,0:0|0:0,0:0:0:0:
167,101,68277,2,0,L|146:306,1,203.999993774414,2|0,0:0|0:0,0:0:0:0:
42,366,68705,6,0,P|83:338|230:405,1,203.999993774414,4|8,0:0|0:0,0:0:0:0:
361,252,69134,2,0,P|320:280|173:213,1,203.999993774414,2|0,0:0|0:0,0:0:0:0:
361,173,69563,1,8,0:0:0:0:
433,196,69705,2,0,L|445:311,1,101.999996887207,0|0,0:0|0:0,0:0:0:0:
419,113,69991,6,0,P|367:91|311:103,1,101.999996887207,2|8,0:0|0:0,0:0:0:0:
243,190,70277,2,0,P|197:211|147:205,1,101.999996887207,2|0,0:0|0:0,0:0:0:0:
16,120,70562,2,0,P|71:146|101:282,1,203.999993774414,2|0,0:0|0:0,0:0:0:0:
218,336,70991,6,0,B|322:306|326:382|416:350,1,203.999993774414,4|8,0:0|0:0,0:0:0:0:
425,197,71419,2,0,B|321:167|317:243|226:211,1,203.999993774414,2|0,0:0|0:0,0:0:0:0:
210,87,71848,1,8,0:0:0:0:
279,43,71991,2,0,B|286:96|286:96|268:141,1,101.999996887207,0|0,0:0|0:0,0:0:0:0:
66,258,72277,6,0,L|168:241,1,101.999996887207,2|8,0:0|0:0,0:0:0:0:
248,295,72562,2,0,L|350:312,1,101.999996887207,2|0,0:0|0:0,0:0:0:0:
435,243,72848,2,0,P|416:151|458:31,1,203.999993774414,2|0,0:0|0:0,0:0:0:0:
291,122,73277,6,0,P|235:116|179:94,1,101.999996887207,12|0,0:0|0:0,0:0:0:0:
74,254,73562,1,8,0:0:0:0:
134,294,73705,2,0,P|182:277|232:272,1,101.999996887207,2|8,0:0|0:0,0:0:0:0:
427,323,73991,1,0,0:0:0:0:
316,349,74134,1,8,0:0:0:0:
351,235,74277,1,0,0:0:0:0:
326,78,74419,5,8,0:0:0:0:
261,176,74562,2,0,P|224:186|140:152,1,101.999996887207,2|8,0:0|0:0,0:0:0:0:
58,62,74848,1,2,0:0:0:0:
58,62,74919,1,0,0:0:0:0:
58,62,74991,1,8,0:0:0:0:
63,144,75134,1,8,0:0:0:0:
135,44,75277,1,8,0:0:0:0:
217,134,75419,1,8,0:0:0:0:
327,32,75562,5,12,0:0:0:0:
282,316,84705,5,0,3:0:0:0:
239,252,84848,2,0,P|241:218|240:184,2,68,0|8|0,0:0|0:0|3:0,0:0:0:0:
151,303,85277,2,0,P|139:246|83:165,1,136,0|8,0:0|0:0,0:0:0:0:
134,76,85705,6,0,L|212:82,1,68,0|0,0:0|3:0,0:0:0:0:
234,162,85991,2,0,L|302:156,1,68,0|8,0:0|0:0,0:0:0:0:
352,82,86276,2,0,L|430:88,1,68,0|0,3:0|0:0,0:0:0:0:
447,251,86562,5,0,0:0:0:0:
479,167,86705,1,8,0:0:0:0:
447,251,86848,2,0,L|426:326,1,68,0|0,0:0|3:0,0:0:0:0:
301,241,87134,6,0,P|339:227|384:234,2,68,0|8|0,0:0|0:0|3:0,0:0:0:0:
245,314,87562,2,0,P|209:326|118:256,1,136,0|8,0:0|0:0,0:0:0:0:
30,200,87991,6,0,P|47:223|51:266,1,68,0|0,0:0|3:0,0:0:0:0:
150,157,88276,2,0,P|121:160|82:142,1,68,0|8,0:0|0:0,0:0:0:0:
127,282,88562,2,0,P|138:255|173:230,1,68,0|0,3:0|0:0,0:0:0:0:
320,193,88848,5,0,0:0:0:0:
253,136,88991,1,8,0:0:0:0:
320,193,89134,2,0,L|387:199,1,68,0|0,0:0|3:0,0:0:0:0:
448,280,89419,6,0,L|381:286,2,68,0|8|0,0:0|0:0|3:0,0:0:0:0:
493,182,89848,2,0,P|480:140|492:43,1,136,0|8,0:0|0:0,0:0:0:0:
376,115,90277,6,0,P|341:105|286:106,1,68,0|0,0:0|3:0,0:0:0:0:
260,176,90562,2,0,P|225:185|170:185,1,68,0|8,0:0|0:0,0:0:0:0:
148,112,90848,2,0,P|113:102|58:103,1,68,0|0,3:0|0:0,0:0:0:0:
8,208,91134,5,0,0:0:0:0:
93,246,91276,1,8,0:0:0:0:
8,208,91419,2,0,L|0:283,1,68,0|0,0:0|3:0,0:0:0:0:
95,348,91705,5,0,0:0:0:0:
95,348,91848,2,0,P|136:358|175:349,1,68,8|2,0:0|3:0,0:0:0:0:
221,298,92134,2,0,P|232:235|219:152,1,136,0|8,0:0|0:0,0:0:0:0:
185,100,92562,1,0,0:0:0:0:
37,43,92705,5,0,3:0:0:0:
91,130,92848,1,0,3:0:0:0:
200,117,92991,1,0,0:0:0:0:
200,117,93062,1,0,0:0:0:0:
200,117,93134,1,0,0:0:0:0:
200,117,93205,1,0,0:0:0:0:
200,117,93277,2,0,L|255:120,1,50.9999984436036,0|0,0:0|0:0,0:0:0:0:
400,41,93419,2,0,P|286:73|294:190,1,254.999992218018,4|0,3:2|0:0,0:0:0:0:
304,206,93848,6,0,L|219:196,1,85,4|0,1:0|0:0,0:0:0:0:
147,335,94134,2,0,L|231:325,1,85,8|0,0:0|0:0,0:0:0:0:
402,303,94419,1,0,0:3:0:0:
312,283,94562,1,0,0:0:0:0:
414,207,94705,1,8,0:0:0:0:
305,175,94848,1,0,0:0:0:0:
436,40,94991,5,4,3:0:0:0:
471,109,95134,2,0,B|426:119|426:119|383:99,1,85,0|0,0:0|0:0,0:0:0:0:
296,37,95419,2,0,L|198:42,1,85,0|0,0:0|0:0,0:0:0:0:
112,165,95705,2,0,L|210:170,1,85,2|8,0:0|0:0,0:0:0:0:
28,82,95991,2,0,P|73:152|73:236,1,170,2|0,0:0|0:0,0:0:0:0:
141,348,96419,6,0,P|185:358|237:359,1,85,8|0,0:0|0:0,0:0:0:0:
284,215,96705,2,0,P|241:217|200:226,1,85,0|0,0:0|0:0,0:0:0:0:
376,314,96991,1,8,0:0:0:0:
301,291,97134,1,0,0:0:0:0:
415,166,97277,5,4,3:0:0:0:
446,248,97419,1,0,0:0:0:0:
368,233,97562,1,8,0:0:0:0:
338,154,97705,6,0,L|263:109,1,85,2|0,0:0|0:0,0:0:0:0:
211,268,97991,2,0,L|287:225,1,85,2|8,0:0|0:0,0:0:0:0:
175,101,98277,2,0,L|173:188,1,85,0|0,0:0|0:0,0:0:0:0:
267,321,98562,5,0,0:0:0:0:
311,379,98705,2,0,P|361:384|406:367,1,85,8|0,0:0|0:0,0:0:0:0:
477,236,98991,2,0,P|436:225|394:231,1,85,0|0,0:0|0:0,0:0:0:0:
208,182,99277,1,8,0:0:0:0:
274,281,99419,1,0,0:0:0:0:
344,125,99562,6,0,L|362:319,1,170,4|8,3:0|0:0,0:0:0:0:
268,108,99991,2,0,P|220:106|166:74,1,85,2|0,0:0|0:0,0:0:0:0:
64,238,100276,2,0,P|103:221|145:221,1,85,2|8,0:0|0:0,0:0:0:0:
250,331,100562,2,0,P|301:341|406:273,1,170,0|0,0:0|0:0,0:0:0:0:
457,138,100991,6,0,B|417:124|417:124|375:134,1,85,8|0,0:0|0:0,0:0:0:0:
503,208,101277,2,0,L|476:22,1,170,0|8,0:0|0:0,0:0:0:0:
258,91,101705,1,0,0:0:0:0:
300,154,101848,2,0,B|260:168|260:168|218:158,1,85,4|0,3:0|0:0,0:0:0:0:
115,290,102134,1,8,0:0:0:0:
73,227,102277,2,0,B|113:213|113:213|155:223,1,85,0|8,0:0|0:0,0:0:0:0:
316,306,102562,5,8,0:0:0:0:
226,332,102705,1,8,0:0:0:0:
249,244,102848,1,8,0:0:0:0:
249,244,102919,1,0,0:0:0:0:
249,244,102991,1,4,0:1:0:0:
216,122,111134,5,0,0:0:0:0:
241,200,111277,2,0,L|233:273,1,59.4999981842042,0|0,1:0|0:0,0:0:0:0:
65,52,111705,5,0,0:0:0:0:
157,43,111848,1,0,1:0:0:0:
249,34,111991,1,0,1:0:0:0:
384,228,112134,6,0,P|356:182|464:57,1,237.999992736817,4|8,0:0|0:0,0:0:0:0:
361,300,112562,1,0,0:0:0:0:
291,263,112705,2,0,L|190:253,1,85,8|0,0:0|0:0,0:0:0:0:
164,120,112991,2,0,L|248:111,1,85,8|0,0:0|0:0,0:0:0:0:
27,303,113277,5,10,0:0:0:0:
50,206,113419,1,8,0:0:0:0:
132,317,113562,1,8,0:0:0:0:
162,196,113705,1,8,0:0:0:0:
244,331,113848,6,2,L|263:224,1,102,4|0,0:0|0:0,0:0:0:0:
436,221,114419,6,0,P|390:243|256:109,1,237.999992736817,4|8,0:0|0:0,0:0:0:0:
343,28,114848,1,0,0:0:0:0:
398,148,114991,2,0,L|409:53,1,85,8|2,1:1|3:0,0:0:0:0:
436,221,115277,1,0,0:0:0:0:
428,298,115419,1,0,0:0:0:0:
256,238,115562,5,2,1:0:0:0:
316,192,115705,1,0,1:0:0:0:
362,252,115848,1,0,1:0:0:0:
301,298,115991,1,0,1:0:0:0:
134,132,116134,6,2,P|166:128|114:167,1,204,4|0,0:0|0:0,0:0:0:0:
7,296,116705,6,0,B|116:241|131:322|235:259,1,237.999992736817,4|8,0:0|0:0,0:0:0:0:
345,157,117134,1,0,0:0:0:0:
414,187,117277,2,0,L|423:302,1,85,8|0,0:0|0:0,0:0:0:0:
226,342,117562,1,0,0:0:0:0:
340,310,117705,1,0,0:0:0:0:
168,176,117848,5,8,0:0:0:0:
158,273,117991,1,0,0:0:0:0:
255,143,118134,1,0,0:0:0:0:
99,106,118277,1,0,0:0:0:0:
336,66,118419,6,2,L|350:170,1,102,4|0,0:0|0:0,0:0:0:0:
194,243,118991,6,0,B|296:226|296:226|322:252|322:252|429:234,1,237.999992736817,4|8,0:0|0:0,0:0:0:0:
132,180,119419,1,0,0:0:0:0:
86,268,119562,1,8,3:1:0:0:
86,268,119634,1,0,3:0:0:0:
86,268,119705,1,0,3:0:0:0:
21,182,119848,1,0,0:0:0:0:
81,97,119991,1,0,0:0:0:0:
276,41,120134,5,2,1:0:0:0:
322,101,120277,1,0,1:0:0:0:
261,147,120419,1,0,1:0:0:0:
216,87,120562,1,0,1:0:0:0:
428,259,120705,6,2,L|422:190,1,68,6|4,0:0|0:1,0:0:0:0:
415,101,121419,6,0,L|334:92,1,68,0|0,3:0|0:0,0:0:0:0:
276,142,121705,2,0,L|112:163,1,136,2|0,3:0|0:0,0:0:0:0:
76,226,122134,2,0,P|88:265|89:305,1,68,2|0,0:0|0:0,0:0:0:0:
164,343,122419,6,0,L|243:351,1,68,0|0,3:0|0:0,0:0:0:0:
293,297,122705,2,0,L|360:290,1,68,0|0,0:0|3:0,0:0:0:0:
461,232,122991,6,0,P|448:193|450:160,1,68,2|0,0:0|0:0,0:0:0:0:
359,108,123277,2,0,P|358:141|346:173,1,68,0|0,3:0|0:0,0:0:0:0:
422,59,123562,6,0,L|272:74,1,136,2|0,3:0|0:0,0:0:0:0:
226,138,123991,2,0,L|90:124,1,136,0|0,3:0|0:0,0:0:0:0:
27,183,124419,2,0,P|36:224|35:264,1,68,0|0,3:0|0:0,0:0:0:0:
109,317,124705,6,0,B|144:324|144:324|177:313,1,68,0|0,3:0|0:0,0:0:0:0:
236,262,124991,2,0,B|266:251|266:251|301:258,1,68,0|0,0:0|3:0,0:0:0:0:
400,348,125277,6,0,P|399:301|404:276,1,68,0|0,0:0|0:0,0:0:0:0:
474,224,125562,2,0,P|475:177|470:152,1,68,0|0,3:0|0:0,0:0:0:0:
417,85,125848,6,0,B|339:103|354:54|285:68,1,136,4|0,3:1|0:0,0:0:0:0:
199,185,126277,2,0,P|264:192|307:134,1,136,0|0,3:0|0:0,0:0:0:0:
188,112,126705,2,0,L|114:102,1,68,0|0,3:0|0:0,0:0:0:0:
62,180,126991,6,0,P|52:224|59:259,1,68,0|0,3:0|0:0,0:0:0:0:
163,314,127277,2,0,P|165:280|155:247,1,68,0|0,0:0|3:0,0:0:0:0:
57,384,127562,6,0,L|130:376,1,68,0|0,0:0|0:0,0:0:0:0:
229,223,127848,2,0,L|296:230,1,68,0|0,3:0|0:0,0:0:0:0:
453,314,128134,5,0,3:0:0:0:
453,314,128277,1,2,0:0:0:0:
307,310,128419,5,0,3:0:0:0:
307,310,128562,1,2,0:0:0:0:
419,158,128705,5,0,3:0:0:0:
436,234,128848,1,2,0:0:0:0:
323,231,128991,5,0,3:0:0:0:
341,158,129134,1,2,0:0:0:0:
379,54,129277,6,0,L|378:102,8,34,0|0|0|0|0|0|0|0|12,1:0|1:0|1:0|1:0|1:0|1:0|1:0|1:0|1:0,0:0:0:0:
463,256,131277,5,8,1:0:0:0:
232,268,131562,6,0,B|129:308|145:215|38:243,1,203.999993774414,6|8,0:0|0:0,0:0:0:0:
316,210,131991,2,0,B|422:239|406:145|509:185,1,203.999993774414,2|2,0:0|0:0,0:0:0:0:
228,173,132419,2,0,P|203:115|198:63,1,101.999996887207,10|0,0:0|0:0,0:0:0:0:
386,24,132705,6,0,L|371:129,1,101.999996887207,2|0,0:0|0:0,0:0:0:0:
253,257,132990,1,8,0:0:0:0:
317,307,133134,2,0,B|331:255|331:255|315:209,1,101.999996887207,2|0,0:0|0:0,0:0:0:0:
163,103,133419,1,2,0:0:0:0:
188,211,133562,1,8,0:0:0:0:
332,35,133704,5,0,0:0:0:0:
325,108,133848,2,0,L|314:220,1,101.999996887207,2|0,0:0|0:0,0:0:0:0:
118,280,134134,2,0,L|108:178,1,101.999996887207,8|2,0:0|0:0,0:0:0:0:
61,338,134419,2,0,P|150:308|250:365,1,203.999993774414,0|8,0:0|0:0,0:0:0:0:
421,247,134847,5,0,0:0:0:0:
358,312,134991,2,0,P|337:255|401:130,1,203.999993774414,2|8,0:0|0:0,0:0:0:0:
180,119,135419,1,2,0:0:0:0:
123,167,135562,2,0,L|111:273,1,101.999996887207,8|2,0:0|0:0,0:0:0:0:
268,319,135848,2,0,L|256:213,1,101.999996887207,8|8,0:0|0:0,0:0:0:0:
112,84,136134,6,0,P|207:102|297:45,1,203.999993774414,4|8,0:0|0:0,0:0:0:0:
359,238,136562,2,0,P|274:184|176:202,1,203.999993774414,2|2,0:0|0:0,0:0:0:0:
45,305,136990,1,8,0:0:0:0:
173,333,137133,1,0,0:0:0:0:
34,203,137276,6,0,L|45:314,1,101.999996887207,2|0,0:0|0:0,0:0:0:0:
190,149,137562,1,8,0:0:0:0:
253,195,137705,2,0,B|267:142|267:142|246:92,1,101.999996887207,2|0,0:0|0:0,0:0:0:0:
181,223,137990,1,2,0:0:0:0:
342,191,138133,1,8,0:0:0:0:
148,84,138276,1,0,0:0:0:0:
81,129,138419,6,0,L|99:237,1,101.999996887207,2|0,0:0|0:0,0:0:0:0:
258,350,138705,2,0,L|274:249,1,101.999996887207,10|0,0:0|0:0,0:0:0:0:
386,166,138991,2,0,P|371:197|232:176,1,203.999993774414,10|8,0:0|0:0,0:0:0:0:
443,97,139419,5,0,0:0:0:0:
371,219,140705,6,0,L|268:206,1,85,4|0,0:0|0:0,0:0:0:0:
211,197,140991,1,8,0:0:0:0:
370,303,141134,6,0,L|267:290,1,85,0|8,0:0|0:0,0:0:0:0:
210,281,141420,1,0,0:0:0:0:
74,336,141562,2,0,P|86:294|78:250,1,85,8|0,0:0|0:0,0:0:0:0:
11,137,141848,6,0,L|98:143,1,85,8|0,0:0|0:0,0:0:0:0:
225,149,142134,1,8,0:0:0:0:
173,85,142277,2,0,P|143:134|200:229,1,170,0|8,0:0|0:0,0:0:0:0:
390,279,142705,5,8,0:0:0:0:
335,337,142848,2,0,L|351:168,1,170,8|0,0:0|0:0,0:0:0:0:
224,75,143277,6,0,P|231:122|267:161,1,85,8|0,0:0|0:0,0:0:0:0:
241,307,143562,2,0,P|265:272|270:230,1,85,8|0,0:0|0:0,0:0:0:0:
86,186,143848,5,8,0:0:0:0:
38,259,143991,2,0,P|100:278|199:210,1,170,0|0,0:0|0:0,0:0:0:0:
144,84,144419,1,8,0:0:0:0:
263,129,144562,1,0,0:0:0:0:
125,100,144705,2,0,L|31:113,1,85,8|0,0:0|0:0,0:0:0:0:
255,43,144991,2,0,L|339:54,1,85,8|8,0:0|0:0,0:0:0:0:
349,263,145277,6,0,P|344:227|365:169,1,85,8|0,0:0|0:0,0:0:0:0:
417,128,145562,1,8,0:0:0:0:
266,314,145705,6,0,P|243:285|232:224,1,85,0|8,0:0|0:0,0:0:0:0:
257,163,145990,1,0,0:0:0:0:
97,82,146134,2,0,L|115:181,1,85,8|0,0:0|0:0,0:0:0:0:
36,322,146419,6,0,B|81:330|81:330|123:309,1,85,8|0,0:0|0:0,0:0:0:0:
243,219,146705,1,8,0:0:0:0:
295,279,146848,2,0,P|287:219|347:118,1,170,0|2,0:0|3:0,0:0:0:0:
413,105,147277,5,10,0:0:0:0:
249,72,147419,1,2,0:0:0:0:
440,187,147562,1,10,0:0:0:0:
440,187,147848,5,10,0:0:0:0:
249,72,147991,1,2,0:0:0:0:
230,287,148134,1,10,0:0:0:0:
230,287,148419,5,10,0:0:0:0:
249,72,148562,1,2,0:0:0:0:
59,161,148705,2,0,L|48:255,1,85,8|8,0:0|0:3,0:0:0:0:
295,228,148991,2,0,L|284:134,1,85,8|8,0:0|0:3,0:0:0:0:
233,315,149277,5,8,0:0:0:0:
233,315,149419,1,8,0:3:0:0:
395,303,149562,5,8,0:0:0:0:
395,303,149705,1,8,0:3:0:0:
464,147,149848,5,8,3:0:0:0:
464,147,150134,5,4,0:0:0:0:
394,106,150277,2,0,B|288:136|304:53|198:81,1,203.999993774414,2|0,0:0|0:0,0:0:0:0:
110,186,150706,1,8,0:0:0:0:
247,259,150848,2,0,L|235:144,1,101.999996887207,0|0,0:0|0:0,0:0:0:0:
72,278,151134,6,0,P|127:284|170:260,1,101.999996887207,2|8,0:0|0:0,0:0:0:0:
263,343,151419,2,0,P|318:337|361:361,1,101.999996887207,2|0,0:0|0:0,0:0:0:0:
450,248,151705,2,0,L|230:259,1,203.999993774414,2|0,0:0|0:0,0:0:0:0:
139,343,152134,6,0,P|211:275|207:176,1,203.999993774414,4|8,0:0|0:0,0:0:0:0:
312,26,152562,2,0,P|308:124|380:192,1,203.999993774414,2|0,0:0|0:0,0:0:0:0:
351,373,152992,1,8,0:0:0:0:
464,334,153134,2,0,P|470:276|453:232,1,101.999996887207,0|0,0:0|0:0,0:0:0:0:
419,113,153420,6,0,L|311:103,1,101.999996887207,2|8,0:0|0:0,0:0:0:0:
238,183,153706,2,0,L|132:199,1,101.999996887207,2|0,0:0|0:0,0:0:0:0:
5,109,153991,2,0,P|60:135|90:271,1,203.999993774414,2|0,0:0|0:0,0:0:0:0:
185,336,154420,6,0,P|282:362|369:290,1,203.999993774414,4|8,0:0|0:0,0:0:0:0:
470,236,154848,2,0,P|389:178|294:204,1,203.999993774414,2|0,0:0|0:0,0:0:0:0:
120,265,155277,1,8,0:0:0:0:
204,108,155420,2,0,B|211:161|211:161|193:206,1,101.999996887207,0|0,0:0|0:0,0:0:0:0:
27,168,155706,6,0,L|129:151,1,101.999996887207,2|8,0:0|0:0,0:0:0:0:
228,30,155991,2,0,L|330:47,1,101.999996887207,2|0,0:0|0:0,0:0:0:0:
456,132,156277,2,0,P|424:170|447:320,1,203.999993774414,2|0,0:0|0:0,0:0:0:0:
324,355,156706,6,0,P|269:355|212:327,1,101.999996887207,4|0,0:0|0:0,0:0:0:0:
79,188,156991,1,8,0:0:0:0:
132,253,157134,2,0,P|187:253|244:225,1,101.999996887207,2|0,0:0|0:0,0:0:0:0:
406,178,157420,1,0,0:0:0:0:
310,288,157563,1,8,0:0:0:0:
395,155,157706,1,0,0:0:0:0:
424,286,157848,5,0,0:0:0:0:
275,155,157991,2,0,L|152:140,1,101.999996887207,2|8,0:0|0:0,0:0:0:0:
22,127,158277,1,2,0:0:0:0:
22,127,158348,1,0,0:0:0:0:
22,127,158420,1,0,0:0:0:0:
86,200,158563,1,0,0:0:0:0:
119,74,158706,1,8,0:0:0:0:
180,230,158848,1,0,0:0:0:0:
297,204,158991,6,0,P|346:216|444:107,1,203.999993774414,4|8,0:0|0:0,0:0:0:0:
327,317,159419,2,0,P|277:232|179:231,1,203.999993774414,2|0,0:0|0:0,0:0:0:0:
17,331,159848,1,8,0:0:0:0:
97,278,159991,2,0,L|111:170,1,101.999996887207,0|0,0:0|0:0,0:0:0:0:
222,62,160277,6,0,P|218:119|248:164,1,101.999996887207,2|8,0:0|0:0,0:0:0:0:
391,241,160562,2,0,P|343:209|289:212,1,101.999996887207,2|0,0:0|0:0,0:0:0:0:
151,297,160848,2,0,P|202:271|226:223,1,101.999996887207,2|8,0:0|0:0,0:0:0:0:
142,212,161134,1,0,0:0:0:0:
56,331,161277,6,0,L|268:348,1,203.999993774414,4|8,0:0|0:0,0:0:0:0:
345,195,161705,2,0,L|141:211,1,203.999993774414,2|0,0:0|0:0,0:0:0:0:
353,274,162134,1,8,0:0:0:0:
416,234,162277,2,0,B|428:181|428:181|405:133,1,101.999996887207,0|0,0:0|0:0,0:0:0:0:
231,115,162562,6,0,L|335:122,1,101.999996887207,2|8,0:0|0:0,0:0:0:0:
258,256,162848,2,0,L|156:262,1,101.999996887207,2|0,0:0|0:0,0:0:0:0:
129,108,163134,2,0,L|233:115,1,101.999996887207,2|8,0:0|0:0,0:0:0:0:
50,101,163419,1,0,0:0:0:0:
10,293,163562,6,0,P|51:311|153:206,1,203.999993774414,4|8,0:0|0:0,0:0:0:0:
368,259,163991,2,0,P|327:241|225:346,1,203.999993774414,2|0,0:0|0:0,0:0:0:0:
418,323,164419,1,8,0:0:0:0:
448,246,164562,2,0,L|434:141,1,101.999996887207,0|0,0:0|0:0,0:0:0:0:
229,125,164848,6,0,P|286:135|336:110,1,101.999996887207,2|8,0:0|0:0,0:0:0:0:
138,155,165134,2,0,P|171:202|224:220,1,101.999996887207,2|0,0:0|0:0,0:0:0:0:
52,111,165419,2,0,P|41:168|67:218,1,101.999996887207,2|8,0:0|0:0,0:0:0:0:
129,65,165705,1,0,0:0:0:0:
356,27,165848,6,0,B|325:131|411:117|381:221,1,203.999993774414,12|8,0:0|0:0,0:0:0:0:
186,221,166277,2,0,B|156:116|242:130|211:26,1,203.999993774414,0|0,0:0|0:0,0:0:0:0:
263,181,166705,1,8,0:0:0:0:
182,305,166848,2,0,B|135:294|135:294|101:250,1,101.999996887207,0|8,0:0|0:0,0:0:0:0:
261,271,167134,5,0,0:0:0:0:
261,271,167205,1,0,0:0:0:0:
261,271,167277,1,8,0:0:0:0:
172,122,167419,2,0,L|183:233,1,101.999996887207,0|8,0:0|0:0,0:0:0:0:
241,34,167705,5,8,0:0:0:0:
71,104,167848,1,8,0:0:0:0:
280,168,167991,1,8,3:1:0:0:
73,269,168134,5,4,3:1:0:0:
