osu file format v14

[General]
AudioFilename: audio.mp3
AudioLeadIn: 0
PreviewTime: 57077
Countdown: 0
SampleSet: Soft
StackLeniency: 0.7
Mode: 0
LetterboxInBreaks: 0
WidescreenStoryboard: 0

[Editor]
Bookmarks: 19077,29149,31720,33934,37863,56292,79149,93720,165863,168292,176934
DistanceSpacing: 0.8
BeatDivisor: 4
GridSize: 4
TimelineZoom: 1

[Metadata]
Title:Streaming Heart
TitleUnicode:ストリーミングハート
Artist:soraru
ArtistUnicode:そらる
Creator:Testo
Version:Heartbreak
Source:
Tags:deco*27 deco27 cover utaite wajinshu djulus kous
BeatmapID:1776801
BeatmapSetID:849740

[Difficulty]
HPDrainRate:6
CircleSize:4
OverallDifficulty:9
ApproachRate:9.3
SliderMultiplier:2.12
SliderTickRate:2

[Events]
//Background and Video events
0,0,"DaDaYa.jpg",0,0
//Break Periods
2,75792,84151
2,104134,110580
//Storyboard Layer 0 (Background)
//Storyboard Layer 1 (Fail)
//Storyboard Layer 2 (Pass)
//Storyboard Layer 3 (Foreground)
//Storyboard Sound Samples

[TimingPoints]
1277,285.714285714286,4,2,1,55,1,0
1277,-142.857142857143,4,2,1,55,0,0
10419,-125,4,1,1,66,0,0
19562,-125,4,1,1,66,0,0
28705,-125,4,3,1,55,0,0
29848,-125,4,2,1,55,0,0
38991,-111.111111111111,4,1,1,66,0,0
48134,-142.857142857143,4,2,1,55,0,0
52705,-142.857142857143,4,2,1,65,0,0
57277,-100,4,1,1,77,0,1
65134,-250,4,1,1,66,0,0
65848,-100,4,1,1,66,0,0
66419,-100,4,1,1,77,0,1
68277,-100,4,1,2,77,0,1
68562,-100,4,1,1,77,0,1
70562,-100,4,1,2,77,0,1
70848,-100,4,1,1,77,0,1
72848,-100,4,1,2,77,0,1
73134,-100,4,1,1,77,0,1
75562,-100,4,1,1,77,0,0
84705,-142.857142857143,4,2,1,55,0,0
92705,-111.111111111111,4,1,1,55,0,0
93777,-111.111111111111,4,2,1,5,0,0
93848,-111.111111111111,4,1,1,66,0,0
102062,-111.111111111111,4,2,1,5,0,0
102134,-111.111111111111,4,1,1,66,0,0
102991,-142.857142857143,4,2,1,66,0,0
112134,-71.4285714285714,4,1,1,77,0,0
112348,-71.4285714285714,4,2,1,5,0,0
112419,-100,4,1,1,77,0,0
113848,-250,4,1,1,77,0,0
114277,-250,4,2,1,5,0,0
114419,-71.4285714285714,4,1,1,77,0,0
114634,-71.4285714285714,4,1,1,5,0,0
114705,-100,4,1,1,77,0,0
115562,-166.666666666667,4,1,1,77,0,0
116134,-125,4,1,1,77,0,0
116634,-125,4,2,1,5,0,0
116705,-71.4285714285714,4,1,1,77,0,0
116919,-71.4285714285714,4,1,1,5,0,0
116991,-100,4,1,1,77,0,0
118419,-250,4,1,1,77,0,0
118848,-250,4,2,1,5,0,0
118991,-71.4285714285714,4,1,1,77,0,0
119205,-71.4285714285714,4,1,1,5,0,0
119277,-100,4,1,1,77,0,0
120705,-500,4,1,1,77,0,0
121277,-142.857142857143,4,2,1,55,0,0
125848,-142.857142857143,4,2,1,65,0,0
131562,-100,4,1,1,77,0,1
139419,-250,4,2,1,55,0,0
139705,-250,4,2,1,5,0,0
139848,-250,4,2,1,55,0,0
140705,-100,4,1,1,77,0,1
149848,-100,4,1,1,77,0,0
150134,-100,4,1,1,77,0,1
151705,-100,4,1,2,77,0,1
151991,-100,4,1,1,77,0,1
153991,-100,4,1,2,77,0,1
154277,-100,4,1,1,77,0,1
156277,-100,4,1,2,77,0,1
156562,-100,4,1,1,77,0,1
158705,-100,4,1,1,77,0,0
158991,-100,4,1,1,77,0,1
168134,-142.857142857143,4,2,1,55,0,0
177134,-333.333333333333,4,2,1,55,0,0
177419,-333.333333333333,4,2,1,5,0,0

[Colours]
Combo1 : 107,121,245
Combo2 : 100,255,255
Combo3 : 184,62,193
Combo4 : 251,55,80

[HitObjects]
112,199,1277,6,0,B|142:212|142:212|197:207,1,74.1999977355958,0|0,1:0|0:0,0:0:0:0:
256,200,1562,1,0,1:0:0:0:
256,200,1705,1,0,0:0:0:0:
330,193,1848,2,0,B|478:179,1,148.399995471192,0|0,1:0|1:0,0:0:0:0:
509,257,2277,2,0,B|496:287|496:287|501:342,1,74.1999977355958,0|0,0:0|1:0,0:0:0:0:
432,366,2562,2,0,B|358:359,1,74.1999977355958,0|0,0:0|1:0,0:0:0:0:
283,352,2848,2,0,B|135:338,1,148.399995471192,0|0,0:0|0:0,0:0:0:0:
135,338,3277,1,0,1:0:0:0:
135,338,3419,1,0,0:0:0:0:
74,248,3562,6,0,P|38:225|-5:217,1,74.1999977355958,0|0,1:0|0:0,0:0:0:0:
150,212,3848,1,0,1:0:0:0:
150,212,3991,1,0,0:0:0:0:
195,148,4134,2,0,B|277:155|262:102|335:114,1,148.399995471192,0|0,1:0|1:0,0:0:0:0:
399,232,4562,2,0,B|407:194|407:194|395:158,1,74.1999977355958,0|0,0:0|1:0,0:0:0:0:
219,168,4848,2,0,B|207:201|207:201|215:239,1,74.1999977355958,0|0,0:0|1:0,0:0:0:0:
306,313,5134,2,0,P|260:297|138:301,1,148.399995471192,0|0,0:0|0:0,0:0:0:0:
161,295,5562,1,0,1:0:0:0:
161,295,5705,1,0,0:0:0:0:
73,235,5848,6,0,P|78:197|74:136,1,74.1999977355958,0|0,1:0|0:0,0:0:0:0:
177,61,6134,1,0,1:0:0:0:
177,61,6277,1,0,0:0:0:0:
240,104,6419,2,0,P|239:141|256:270,1,148.399995471192,0|0,1:0|1:0,0:0:0:0:
171,64,6848,2,0,P|132:55|78:59,1,74.1999977355958,0|0,0:0|1:0,0:0:0:0:
118,190,7134,2,0,P|155:189|191:181,1,74.1999977355958,0|0,0:0|1:0,0:0:0:0:
49,159,7419,2,0,P|73:183|41:306,1,148.399995471192,0|0,0:0|0:0,0:0:0:0:
64,288,7848,1,0,1:0:0:0:
64,288,7991,1,0,0:0:0:0:
132,375,8134,6,0,B|177:369|177:369|214:382,1,74.1999977355958,0|0,1:0|0:0,0:0:0:0:
275,346,8419,5,0,0:0:0:0:
293,341,8562,1,2,0:0:0:0:
369,363,8705,1,0,0:0:0:0:
446,304,8991,5,0,0:0:0:0:
405,235,9134,1,0,0:0:0:0:
439,164,9277,5,0,3:0:0:0:
390,158,9348,1,0,3:0:0:0:
427,147,9419,1,0,3:0:0:0:
403,144,9490,1,0,3:0:0:0:
416,137,9563,1,8,3:0:0:0:
422,58,9705,5,2,0:1:0:0:
340,43,9848,1,0,3:0:0:0:
340,43,9919,1,0,3:0:0:0:
340,43,9991,1,0,3:0:0:0:
260,139,10134,5,0,3:0:0:0:
182,152,10277,1,0,1:0:0:0:
113,217,10419,6,0,P|130:126|117:32,1,169.6,10|0,0:0|0:0,0:0:0:0:
34,260,10848,1,2,0:0:0:0:
97,302,10991,2,0,P|131:294|180:267,1,84.8,8|0,0:0|0:0,0:0:0:0:
304,225,11277,2,0,L|200:207,1,84.8,2|0,0:0|0:0,0:0:0:0:
361,57,11562,6,0,P|344:116|237:131,1,169.6,10|0,0:0|0:0,0:0:0:0:
111,47,11991,1,2,0:0:0:0:
90,130,12134,1,8,0:0:0:0:
132,150,12205,1,2,3:0:0:0:
102,164,12277,1,2,3:0:0:0:
123,173,12348,1,2,3:0:0:0:
108,178,12419,2,0,P|116:222|120:261,1,84.8,2|0,0:0|0:0,0:0:0:0:
76,322,12705,6,0,B|155:276|161:338|238:292,1,169.6,10|0,0:0|0:0,0:0:0:0:
308,381,13134,2,0,P|343:348|391:328,1,84.8,2|8,0:0|0:0,0:0:0:0:
468,250,13419,1,0,0:0:0:0:
468,250,13491,1,0,0:0:0:0:
468,250,13562,2,0,P|477:211|507:171,1,84.8,2|0,0:0|0:0,0:0:0:0:
319,128,13848,6,0,P|295:87|161:55,1,169.6,10|0,0:0|0:0,0:0:0:0:
44,207,14277,1,2,0:0:0:0:
139,195,14419,2,0,P|167:164|184:125,1,84.8,8|0,0:0|0:0,0:0:0:0:
101,279,14705,2,0,L|94:368,1,84.8,2|0,0:0|0:0,0:0:0:0:
330,210,14991,6,0,B|274:216|274:216|236:263|236:263|183:269,1,169.6,10|0,0:0|0:0,0:0:0:0:
336,295,15419,1,2,0:0:0:0:
403,255,15562,2,0,B|416:213|416:213|403:165,1,84.8,8|0,0:0|0:0,0:0:0:0:
318,88,15848,2,0,B|295:6,1,84.8,2|0,0:0|0:0,0:0:0:0:
267,145,16134,6,0,P|306:121|407:179,1,169.6,10|0,0:0|0:0,0:0:0:0:
451,308,16562,1,2,0:0:0:0:
378,323,16705,1,8,0:0:0:0:
358,365,16776,1,2,3:0:0:0:
344,335,16848,1,2,3:0:0:0:
335,356,16919,1,2,3:0:0:0:
330,341,16991,2,0,P|286:349|247:353,1,84.8,2|0,0:0|0:0,0:0:0:0:
86,234,17277,6,0,P|133:246|167:361,1,169.6,10|0,0:0|0:0,0:0:0:0:
15,274,17705,1,2,0:0:0:0:
96,147,17848,2,0,P|107:117|102:62,1,84.8,8|0,0:0|0:0,0:0:0:0:
164,228,18134,2,0,P|192:214|228:172,1,84.8,2|0,0:0|0:0,0:0:0:0:
287,74,18419,6,0,P|278:153|277:247,1,169.6,10|0,0:0|0:0,0:0:0:0:
407,294,18848,1,2,0:0:0:0:
392,198,18991,1,10,0:0:0:0:
328,335,19134,1,0,0:0:0:0:
494,323,19277,1,2,0:0:0:0:
477,125,19419,1,2,3:0:0:0:
477,125,19491,1,2,3:0:0:0:
477,125,19562,6,0,B|396:103|396:103|289:152,1,169.6,10|0,0:0|0:0,0:0:0:0:
243,239,19991,1,2,0:0:0:0:
243,239,20062,1,0,0:0:0:0:
243,239,20134,2,0,P|251:201|245:153,1,84.8,8|0,0:0|0:0,0:0:0:0:
193,331,20419,2,0,L|278:317,1,84.8,2|0,0:0|0:0,0:0:0:0:
374,375,20705,6,0,P|330:333|349:225,1,169.6,10|0,0:0|0:0,0:0:0:0:
491,84,21134,1,2,0:0:0:0:
419,123,21277,1,8,0:0:0:0:
411,126,21348,1,2,3:0:0:0:
403,129,21420,1,2,3:0:0:0:
395,132,21491,1,2,3:0:0:0:
387,134,21562,1,2,0:0:0:0:
296,160,21705,1,0,0:0:0:0:
235,280,21848,6,0,B|214:192|268:203|238:113,1,169.6,10|0,0:0|0:0,0:0:0:0:
152,7,22277,1,2,0:0:0:0:
96,133,22419,2,0,P|132:154|173:162,1,84.8,8|0,0:0|0:0,0:0:0:0:
21,218,22705,2,0,P|62:225|98:247,1,84.8,2|0,0:0|0:0,0:0:0:0:
200,329,22991,6,0,P|260:313|378:297,1,169.6,10|0,0:0|0:0,0:0:0:0:
505,326,23419,1,2,0:0:0:0:
478,250,23563,1,8,0:0:0:0:
475,242,23634,1,2,3:0:0:0:
471,234,23706,1,2,3:0:0:0:
468,225,23777,1,2,3:0:0:0:
464,217,23848,1,2,0:0:0:0:
406,102,23991,1,0,0:0:0:0:
303,65,24134,6,0,B|281:142|340:157|308:240,1,169.6,10|0,0:0|0:0,0:0:0:0:
455,255,24562,1,2,3:1:0:0:
455,255,24634,1,2,3:0:0:0:
455,255,24705,2,0,P|421:308|420:353,1,84.8,8|0,0:0|0:0,0:0:0:0:
253,323,24991,2,0,L|342:311,1,84.8,2|0,0:0|0:0,0:0:0:0:
235,195,25277,6,0,L|66:172,1,169.6,10|0,0:0|0:0,0:0:0:0:
179,270,25705,1,2,0:0:0:0:
295,127,25848,1,10,0:0:0:0:
295,127,25919,1,2,3:0:0:0:
295,127,25991,1,2,3:0:0:0:
375,259,26134,1,2,0:0:0:0:
178,106,26277,1,10,0:0:0:0:
123,191,26419,6,0,P|176:243|291:219,1,169.6,10|0,0:0|0:0,0:0:0:0:
374,118,26848,1,2,0:0:0:0:
435,158,26991,2,0,P|448:198|448:240,1,84.8,8|0,0:0|0:0,0:0:0:0:
296,237,27277,2,0,P|296:194|309:154,1,84.8,2|0,0:0|0:0,0:0:0:0:
349,293,27562,6,0,P|296:271|209:336,1,169.6,10|0,0:0|0:0,0:0:0:0:
59,360,27991,1,2,0:0:0:0:
71,281,28134,1,8,0:0:0:0:
73,272,28205,1,2,3:0:0:0:
75,263,28277,1,2,3:0:0:0:
76,254,28348,1,2,3:0:0:0:
79,246,28419,1,2,0:0:0:0:
113,64,28562,1,8,0:0:0:0:
282,147,28705,5,2,0:0:0:0:
282,147,28812,1,0,0:0:0:0:
19,197,29098,5,0,0:0:0:0:
183,104,29312,5,0,0:0:0:0:
192,260,29491,5,0,0:0:0:0:
74,115,29634,5,2,0:1:0:0:
40,299,29848,5,8,3:0:0:0:
114,279,29991,2,0,P|119:222|115:182,1,84.8,0|0,0:0|0:0,0:0:0:0:
302,210,30277,1,0,1:0:0:0:
228,190,30420,2,0,P|223:133|227:93,1,84.8,8|0,1:0|0:0,0:0:0:0:
371,171,30705,5,0,0:0:0:0:
248,266,30848,2,0,P|211:289|86:274,1,169.6,0|0,0:0|1:0,0:0:0:0:
17,201,31277,1,0,0:0:0:0:
86,51,31419,1,0,0:0:0:0:
179,192,31562,1,8,1:0:0:0:
85,140,31705,5,0,1:0:0:0:
164,113,31848,1,2,0:0:0:0:
88,159,31991,1,2,0:0:0:0:
161,99,32134,2,0,P|213:101|265:109,1,84.8,8|0,3:0|0:0,0:0:0:0:
369,191,32419,6,0,L|377:282,1,84.8,0|0,0:0|1:0,0:0:0:0:
435,151,32705,2,0,P|381:153|320:48,1,169.6,8|0,1:0|0:0,0:0:0:0:
450,228,33134,2,0,L|458:319,1,84.8,0|0,0:0|0:0,0:0:0:0:
369,191,33419,2,0,L|377:282,1,84.8,0|0,1:0|0:0,0:0:0:0:
290,368,33705,2,0,B|309:345|309:345|302:284,1,84.8,0|8,0:0|1:0,0:0:0:0:
175,137,33991,5,0,1:0:0:0:
186,180,34134,1,2,0:0:0:0:
229,169,34277,1,2,0:0:0:0:
218,126,34419,1,8,3:0:0:0:
161,263,34562,5,0,0:0:0:0:
299,229,34705,2,0,L|396:208,1,84.8,0|0,0:0|1:0,0:0:0:0:
226,304,34991,2,0,B|174:292|174:292|115:317|115:317|64:309,1,169.6,8|0,1:0|0:0,0:0:0:0:
73,154,35419,2,0,B|91:191|91:191|86:234,1,84.8,0|0,0:0|0:0,0:0:0:0:
3,85,35705,1,0,1:0:0:0:
3,85,35848,1,0,1:0:0:0:
99,27,35991,2,0,B|137:40|137:40|165:74,1,84.8,0|8,0:0|1:0,0:0:0:0:
264,209,36277,5,0,1:0:0:0:
171,226,36419,1,2,0:0:0:0:
260,231,36562,1,2,0:0:0:0:
170,202,36705,1,8,3:0:0:0:
334,164,36848,5,2,3:0:0:0:
334,164,36919,1,2,3:0:0:0:
334,164,36991,2,0,P|367:145|413:133,1,84.8,2|0,3:0|1:0,0:0:0:0:
257,252,37277,2,0,P|183:228|92:225,1,169.6,8|0,1:0|0:0,0:0:0:0:
12,297,37705,1,0,0:0:0:0:
290,344,37848,5,8,1:0:0:0:
180,271,37991,1,8,1:0:0:0:
180,271,38062,1,8,1:0:0:0:
180,271,38134,1,0,1:0:0:0:
338,196,38277,1,0,1:0:0:0:
138,109,38419,1,0,1:0:0:0:
336,10,38562,1,8,1:0:0:0:
484,197,38705,5,8,1:0:0:0:
300,329,38848,5,8,1:0:0:0:
300,329,38919,1,0,1:0:0:0:
300,329,38991,1,4,1:0:0:0:
261,247,39134,5,0,0:0:0:0:
361,172,39277,2,0,P|383:116|414:86,1,95.3999970886231,8|0,0:0|0:0,0:0:0:0:
184,249,39562,2,0,P|162:193|134:167,1,95.3999970886231,0|0,0:3|0:0,0:0:0:0:
352,345,39848,1,8,0:0:0:0:
279,198,39991,1,0,0:0:0:0:
138,327,40134,6,0,P|103:350|-28:303,1,190.799994177246,4|8,3:0|0:0,0:0:0:0:
221,362,40562,2,0,P|231:301|252:256,1,95.3999970886231,0|0,0:0|0:0,0:0:0:0:
374,192,40848,2,0,L|269:198,1,95.3999970886231,2|8,0:0|0:0,0:0:0:0:
369,48,41134,2,0,L|464:53,1,95.3999970886231,2|0,0:0|0:0,0:0:0:0:
269,204,41419,5,0,0:0:0:0:
127,209,41562,1,8,0:0:0:0:
271,223,41705,1,0,0:0:0:0:
142,124,41848,5,0,0:0:0:0:
116,291,41991,1,0,0:0:0:0:
287,300,42134,5,8,0:0:0:0:
261,128,42277,1,0,0:0:0:0:
439,196,42419,6,0,P|451:239|446:393,1,190.799994177246,4|8,3:0|0:0,0:0:0:0:
231,347,42848,2,0,P|231:299|239:243,1,95.3999970886231,0|0,0:0|0:0,0:0:0:0:
100,216,43134,2,0,P|133:182|179:148,1,95.3999970886231,2|8,0:0|0:0,0:0:0:0:
100,30,43419,2,0,P|148:30|204:37,1,95.3999970886231,2|0,0:0|0:0,0:0:0:0:
417,146,43705,5,0,0:0:0:0:
339,55,43848,1,8,0:0:0:0:
286,244,43991,1,0,0:0:0:0:
313,152,44134,5,0,0:0:0:0:
383,242,44277,1,0,0:0:0:0:
220,305,44419,5,8,0:0:0:0:
162,232,44562,1,0,0:0:0:0:
223,163,44705,5,4,3:0:0:0:
139,337,44848,1,0,0:0:0:0:
21,191,44991,1,8,0:0:0:0:
21,191,45062,1,0,0:0:0:0:
21,191,45134,2,0,P|25:242|24:290,1,95.3999970886231,0|0,0:0|0:0,0:0:0:0:
226,67,45419,2,0,P|222:118|223:166,1,95.3999970886231,2|8,0:0|0:0,0:0:0:0:
6,62,45705,2,0,B|51:43|51:43|107:56,1,95.3999970886231,2|0,0:0|0:0,0:0:0:0:
310,151,45991,5,0,0:0:0:0:
185,211,46134,1,8,0:0:0:0:
316,43,46277,1,0,0:0:0:0:
403,251,46419,5,0,0:0:0:0:
294,234,46562,1,0,0:0:0:0:
181,300,46705,5,8,0:0:0:0:
134,320,46848,1,0,0:0:0:0:
33,207,46991,5,4,3:0:0:0:
111,222,47134,1,0,0:0:0:0:
317,60,47277,5,8,0:0:0:0:
194,86,47419,1,0,0:0:0:0:
367,250,47562,5,0,0:0:0:0:
292,180,47705,1,0,0:0:0:0:
292,180,47777,1,0,0:0:0:0:
292,180,47848,1,0,0:0:0:0:
292,180,47919,1,0,0:0:0:0:
292,180,47991,1,0,0:0:0:0:
292,180,48062,1,0,0:0:0:0:
292,180,48134,1,4,0:1:0:0:
272,270,48277,6,0,L|124:304,1,148.399995471192,0|2,3:0|3:0,0:0:0:0:
127,303,48705,2,0,L|54:286,1,74.1999977355958,2|0,0:0|0:0,0:0:0:0:
125,150,48991,6,0,P|135:200|133:236,1,74.1999977355958,2|0,0:0|0:0,0:0:0:0:
49,91,49277,2,0,B|117:60|117:60|207:80,1,148.399995471192,0|0,3:0|0:0,0:0:0:0:
261,96,49705,2,0,B|306:106|306:106|342:97,1,74.1999977355958,0|2,3:0|0:0,0:0:0:0:
404,70,49991,1,0,0:0:0:0:
404,70,50134,1,0,3:0:0:0:
473,134,50277,5,0,0:0:0:0:
473,134,50419,2,0,B|449:211|501:202|470:288,1,148.399995471192,2|0,3:0|0:0,0:0:0:0:
309,127,50848,2,0,B|333:204|281:195|312:281,1,148.399995471192,0|0,3:0|0:0,0:0:0:0:
170,193,51277,2,0,P|206:175|246:161,1,74.1999977355958,0|0,3:0|0:0,0:0:0:0:
153,286,51562,2,0,P|191:298|229:317,1,74.1999977355958,0|0,3:0|0:0,0:0:0:0:
72,224,51848,2,0,L|46:147,1,74.1999977355958,0|0,0:0|3:0,0:0:0:0:
144,58,52134,2,0,L|120:128,1,74.1999977355958,0|0,0:0|0:0,0:0:0:0:
221,79,52419,2,0,P|271:65|309:68,1,74.1999977355958,0|0,3:0|0:0,0:0:0:0:
357,22,52705,6,0,P|334:54|349:167,1,148.399995471192,4|0,3:1|0:0,0:0:0:0:
435,235,53134,2,0,P|403:212|290:227,1,148.399995471192,0|0,3:0|0:0,0:0:0:0:
243,277,53562,2,0,P|213:279|151:264,1,74.1999977355958,0|0,3:0|0:0,0:0:0:0:
85,169,53848,6,0,B|100:207|100:207|95:253,1,74.1999977355958,0|0,3:0|0:0,0:0:0:0:
249,154,54134,2,0,B|245:120|245:120|260:82,1,74.1999977355958,0|0,0:0|3:0,0:0:0:0:
273,239,54419,2,0,L|187:228,1,74.1999977355958,0|0,0:0|0:0,0:0:0:0:
109,84,54705,2,0,L|182:74,1,74.1999977355958,0|0,3:0|0:0,0:0:0:0:
82,267,54991,5,0,3:0:0:0:
84,250,55134,1,2,0:0:0:0:
173,181,55277,1,0,3:0:0:0:
164,135,55419,1,2,0:0:0:0:
71,108,55562,5,0,3:0:0:0:
87,39,55705,1,2,0:0:0:0:
269,18,55848,6,0,L|286:97,1,74.1999977355958,0|2,3:0|0:0,0:0:0:0:
324,250,56134,5,0,1:0:0:0:
326,286,56205,1,0,1:0:0:0:
314,321,56276,1,0,1:0:0:0:
290,349,56348,1,0,1:0:0:0:
256,364,56419,1,0,1:0:0:0:
220,366,56491,1,0,1:0:0:0:
185,353,56562,1,0,1:0:0:0:
159,327,56634,1,0,1:0:0:0:
144,294,56705,1,12,1:0:0:0:
40,109,57277,6,0,B|157:120|116:34|234:47,1,212,6|8,0:0|0:0,0:0:0:0:
320,273,57705,2,0,P|230:220|200:121,1,212,2|2,0:0|0:0,0:0:0:0:
395,178,58134,5,10,0:0:0:0:
348,366,58277,1,0,0:0:0:0:
116,211,58419,6,0,L|128:94,1,106,2|0,0:0|0:0,0:0:0:0:
315,134,58705,1,8,0:0:0:0:
384,72,58848,2,0,L|394:177,1,106,2|0,0:0|0:0,0:0:0:0:
294,356,59134,5,2,0:0:0:0:
306,215,59277,1,8,0:0:0:0:
442,293,59419,1,0,0:0:0:0:
459,132,59562,2,0,P|415:108|341:105,1,106,2|0,0:0|0:0,0:0:0:0:
188,174,59848,6,0,B|173:228|173:228|190:274,1,106,8|2,0:0|0:0,0:0:0:0:
251,132,60134,2,0,P|225:139|107:15,1,212,0|8,0:0|0:0,0:0:0:0:
357,261,60562,5,0,0:0:0:0:
289,206,60705,2,0,P|278:246|278:311,1,106,2|0,0:0|0:0,0:0:0:0:
159,124,60991,5,8,0:0:0:0:
256,93,61134,1,2,0:0:0:0:
126,199,61277,5,8,0:0:0:0:
187,38,61419,1,2,0:0:0:0:
213,201,61562,5,8,0:0:0:0:
84,129,61705,1,8,0:0:0:0:
330,54,61848,6,0,P|379:140|380:256,1,212,4|8,0:0|0:0,0:0:0:0:
10,201,62277,2,0,P|10:96|61:4,1,212,2|2,0:0|0:0,0:0:0:0:
266,278,62705,5,8,0:0:0:0:
50,314,62848,1,0,0:0:0:0:
122,250,62991,6,0,P|144:325|131:369,1,106,2|0,0:0|0:0,0:0:0:0:
220,156,63277,1,8,0:0:0:0:
349,291,63419,2,0,P|311:359|271:381,1,106,2|0,0:0|0:0,0:0:0:0:
136,163,63705,5,2,0:0:0:0:
306,197,63848,1,8,0:0:0:0:
341,26,63991,1,0,0:0:0:0:
255,97,64134,2,0,L|370:120,1,106,2|0,0:0|0:0,0:0:0:0:
190,329,64419,6,0,B|206:275|206:275|187:228,1,106,10|0,0:0|0:0,0:0:0:0:
39,177,64705,2,0,B|118:164|118:164|175:193|175:193|242:179,1,212,2|8,0:0|0:0,0:0:0:0:
37,96,65134,5,8,0:0:0:0:
241,255,65277,6,2,L|368:234,1,127.199996118164,6|2,0:0|0:0,0:0:0:0:
482,85,65848,5,8,0:0:0:0:
436,57,65919,1,0,0:0:0:0:
385,47,65990,1,0,0:0:0:0:
333,57,66062,1,0,0:0:0:0:
288,84,66133,5,8,0:0:0:0:
336,105,66205,5,2,0:3:0:0:
295,109,66277,5,2,0:3:0:0:
317,118,66348,5,2,0:3:0:0:
299,133,66419,6,0,P|235:164|135:37,1,212,4|8,0:0|0:0,0:0:0:0:
171,317,66848,1,2,0:0:0:0:
290,253,66991,2,0,L|169:237,1,106,0|0,0:0|0:0,0:0:0:0:
235,374,67277,2,0,L|356:358,1,106,8|0,0:0|0:0,0:0:0:0:
183,139,67562,5,0,0:0:0:0:
109,192,67705,2,0,B|98:248|98:248|118:298,1,106,2|8,0:0|0:0,0:0:0:0:
395,293,67991,2,0,B|414:248|414:248|403:192,1,106,2|0,0:0|0:0,0:0:0:0:
97,102,68277,2,0,P|157:119|225:-4,1,212,2|0,0:0|0:0,0:0:0:0:
447,123,68705,6,0,B|329:96|361:183|247:160,1,212,4|8,0:0|0:0,0:0:0:0:
373,358,69134,1,2,0:0:0:0:
271,281,69277,2,0,P|200:311|176:343,1,106,0|0,0:0|0:0,0:0:0:0:
416,231,69562,2,0,P|344:202|304:207,1,106,8|0,0:0|0:0,0:0:0:0:
75,319,69848,5,0,0:0:0:0:
0,368,69991,2,0,P|-11:316|6:260,1,106,2|8,0:0|0:0,0:0:0:0:
6,29,70277,2,0,P|19:79|8:131,1,106,2|0,0:0|0:0,0:0:0:0:
244,130,70562,2,0,B|176:140|176:140|137:191|137:191|58:197,1,212,2|0,0:0|0:0,0:0:0:0:
318,344,70991,6,0,P|312:256|326:134,1,212,4|8,0:0|0:0,0:0:0:0:
33,73,71419,1,2,0:0:0:0:
113,22,71562,2,0,P|115:77|105:142,1,106,0|0,0:0|0:0,0:0:0:0:
240,315,71848,2,0,P|233:262|235:209,1,106,8|0,0:0|0:0,0:0:0:0:
445,65,72134,5,0,0:0:0:0:
394,135,72277,2,0,B|448:153|448:153|496:133,1,106,2|8,0:0|0:0,0:0:0:0:
309,365,72562,2,0,B|363:347|363:347|411:367,1,106,2|0,0:0|0:0,0:0:0:0:
125,225,72848,2,0,B|179:207|179:207|266:249|266:249|328:227,1,212,2|0,0:0|0:0,0:0:0:0:
62,175,73277,5,12,0:0:0:0:
70,79,73419,1,0,0:0:0:0:
253,161,73562,5,8,0:0:0:0:
270,304,73705,1,2,0:0:0:0:
120,250,73848,5,8,0:0:0:0:
199,237,73991,1,0,0:0:0:0:
315,101,74134,5,8,0:0:0:0:
483,123,74277,1,0,0:0:0:0:
175,323,74419,5,8,0:0:0:0:
44,296,74562,2,0,B|31:244|31:244|47:195,1,106,2|8,0:0|0:0,0:0:0:0:
393,45,74848,5,2,0:0:0:0:
393,45,74919,1,0,0:0:0:0:
393,45,74991,1,8,0:0:0:0:
349,146,75134,1,8,0:0:0:0:
258,183,75277,1,8,0:0:0:0:
177,149,75419,1,8,0:0:0:0:
142,80,75562,5,12,0:0:0:0:
337,190,84705,6,0,P|333:158|350:111,1,74.1999977355958,0|0,3:0|0:0,0:0:0:0:
419,169,84991,1,8,0:0:0:0:
419,169,85134,1,0,3:0:0:0:
393,244,85277,2,0,B|349:223|349:223|234:241,1,148.399995471192,0|8,0:0|0:0,0:0:0:0:
190,284,85705,6,0,B|98:269,1,74.1999977355958,0|0,0:0|3:0,0:0:0:0:
74,210,85991,2,0,B|88:118,1,74.1999977355958,0|8,0:0|0:0,0:0:0:0:
144,89,86277,2,0,P|76:110|22:63,1,148.399995471192,0|0,3:0|0:0,0:0:0:0:
122,182,86705,1,8,0:0:0:0:
189,231,86848,2,0,P|194:202|207:159,1,74.1999977355958,0|0,0:0|3:0,0:0:0:0:
206,159,87134,5,2,0:0:0:0:
206,159,87277,1,8,0:0:0:0:
278,117,87419,1,0,3:0:0:0:
278,117,87562,2,0,P|316:114|353:103,1,74.1999977355958,0|0,0:0|0:0,0:0:0:0:
408,56,87848,1,8,0:0:0:0:
475,93,87991,6,0,P|470:118|467:185,1,74.1999977355958,0|0,0:0|3:0,0:0:0:0:
336,203,88277,2,0,P|340:228|343:295,1,74.1999977355958,0|8,0:0|0:0,0:0:0:0:
396,161,88562,2,0,B|322:177|331:124|253:139,1,148.399995471192,0|0,3:0|0:0,0:0:0:0:
30,240,88991,5,8,0:0:0:0:
30,240,89277,5,0,3:0:0:0:
46,157,89419,1,0,0:0:0:0:
30,240,89562,1,8,0:0:0:0:
46,157,89705,1,0,3:0:0:0:
39,253,89848,2,0,P|121:258|188:209,1,148.399995471192,0|8,0:0|0:0,0:0:0:0:
234,347,90277,6,0,P|230:303|233:266,1,74.1999977355958,0|0,0:0|3:0,0:0:0:0:
385,311,90562,2,0,P|386:348|382:384,1,74.1999977355958,0|8,0:0|0:0,0:0:0:0:
446,268,90848,2,0,P|405:268|340:181,1,148.399995471192,0|0,3:0|0:0,0:0:0:0:
412,167,91277,1,8,0:0:0:0:
363,115,91419,2,0,P|317:120|273:113,1,74.1999977355958,0|0,0:0|3:0,0:0:0:0:
289,116,91705,5,2,0:0:0:0:
289,116,91848,1,8,0:0:0:0:
240,71,91991,1,2,3:0:0:0:
240,71,92134,2,0,P|242:179|234:232,1,148.399995471192,0|8,0:0|0:0,0:0:0:0:
36,329,92705,6,0,B|85:341|85:341|125:322,1,95.3999970886231,0|0,3:0|3:0,0:0:0:0:
317,114,92991,1,0,0:0:0:0:
364,116,93062,1,0,0:0:0:0:
399,147,93133,1,0,0:0:0:0:
407,193,93205,1,0,0:0:0:0:
383,233,93276,1,0,0:0:0:0:
339,250,93348,1,0,0:0:0:0:
295,235,93419,2,0,B|247:209|183:194|184:291|128:301|51:246,1,238.499992721558,4|0,3:2|0:0,0:0:0:0:
76,262,93848,5,4,1:0:0:0:
100,68,93991,1,0,0:0:0:0:
16,215,94134,5,8,0:0:0:0:
28,99,94277,1,0,0:0:0:0:
161,116,94419,1,0,0:3:0:0:
149,232,94562,1,0,0:0:0:0:
335,276,94705,5,8,0:0:0:0:
441,262,94848,1,0,0:0:0:0:
215,183,94991,5,4,3:0:0:0:
262,245,95134,2,0,P|317:248|369:125,1,190.799994177246
269,122,95562,5,0,0:0:0:0:
188,255,95705,2,0,P|164:323|163:345,1,95.3999970886231,2|8,0:0|0:0,0:0:0:0:
456,165,95991,2,0,P|450:117|431:73,1,95.3999970886231,2|0,0:0|0:0,0:0:0:0:
248,83,96277,5,0,0:0:0:0:
241,164,96419,1,8,0:0:0:0:
329,52,96562,1,0,0:0:0:0:
170,116,96705,5,0,0:0:0:0:
307,216,96848,1,0,0:0:0:0:
319,133,96991,5,8,0:0:0:0:
295,298,97134,1,0,0:0:0:0:
241,164,97277,5,4,3:0:0:0:
371,271,97419,1,0,0:0:0:0:
213,330,97562,1,8,0:0:0:0:
83,223,97705,6,0,P|80:159|95:125,1,95.3999970886231,2|0,0:0|0:0,0:0:0:0:
318,72,97991,2,0,P|332:117|326:164,1,95.3999970886231,2|8,0:0|0:0,0:0:0:0:
14,252,98277,6,0,B|103:264|103:264|122:291|122:291|196:300,1,190.799994177246,0|0,0:0|0:0,0:0:0:0:
355,363,98705,6,0,B|370:316|370:316|356:271,1,95.3999970886231,8|0,0:0|0:0,0:0:0:0:
168,144,98991,1,0,0:0:0:0:
217,253,99134,1,0,0:0:0:0:
238,104,99277,5,8,0:0:0:0:
137,257,99419,1,0,0:0:0:0:
321,268,99562,2,0,L|416:271,1,95.3999970886231,4|0,3:0|0:0,0:0:0:0:
248,25,99848,5,8,0:0:0:0:
169,58,99991,2,0,B|155:105|155:105|164:150,1,95.3999970886231,2|0,0:0|0:0,0:0:0:0:
331,119,100277,2,0,B|340:73|340:73|326:26,1,95.3999970886231,2|8,0:0|0:0,0:0:0:0:
271,164,100562,6,0,P|308:153|401:252,1,190.799994177246,0|0,0:0|0:0,0:0:0:0:
265,336,100991,1,8,0:0:0:0:
194,195,101134,1,0,0:0:0:0:
47,261,101277,2,0,P|38:300|50:359,1,95.3999970886231,0|0,0:0|0:0,0:0:0:0:
133,267,101562,1,8,0:0:0:0:
27,55,101705,5,0,0:0:0:0:
27,55,101777,1,0,0:0:0:0:
27,55,101848,2,0,B|100:41|88:104|168:92,1,143.099995632935,4|0,3:0|0:0,0:0:0:0:
159,93,102134,1,8,0:0:0:0:
308,208,102277,1,0,0:0:0:0:
308,208,102348,1,0,0:0:0:0:
308,208,102419,1,8,0:0:0:0:
145,199,102562,1,8,0:0:0:0:
244,52,102705,1,8,0:0:0:0:
456,176,102848,1,8,0:0:0:0:
456,176,102919,1,0,0:0:0:0:
456,176,102991,1,4,0:1:0:0:
180,98,111134,5,0,0:0:0:0:
193,174,111277,2,0,L|199:204,1,18.5499994338989,0|0,1:0|0:0,0:0:0:0:
167,19,111419,1,0,0:0:0:0:
167,19,111705,1,0,0:0:0:0:
96,167,111848,2,0,L|89:224,1,37.0999988677979,0|0,1:0|0:0,0:0:0:0:
257,96,111991,2,0,L|270:154,1,37.0999988677979,0|0,1:0|0:0,0:0:0:0:
57,269,112134,6,0,B|173:205|168:310|268:261,1,222.599993206787,4|0,0:0|0:0,0:0:0:0:
324,157,112419,5,8,0:0:0:0:
352,232,112562,1,0,0:0:0:0:
348,79,112705,5,8,0:0:0:0:
425,264,112848,1,0,0:0:0:0:
421,128,112991,6,0,L|414:192,2,53,8|0|0,0:0|0:0|0:0,0:0:0:0:
487,337,113277,6,0,P|454:343|421:361,1,53,10|0,0:0|2:0,0:0:0:0:
347,243,113419,2,0,P|314:237|281:219,1,53,10|0,0:0|2:0,0:0:0:0:
346,359,113562,6,0,P|313:365|280:383,1,53,10|0,0:0|2:0,0:0:0:0:
206,265,113705,2,0,P|173:259|140:241,1,53,10|0,0:0|2:0,0:0:0:0:
76,384,113848,6,2,P|82:357|46:249,1,127.2,4|0,0:0|0:0,0:0:0:0:
325,167,114419,6,0,B|259:171|259:171|215:233|215:233|134:236,1,222.599993206787,4|0,0:0|0:0,0:0:0:0:
53,147,114705,5,8,0:0:0:0:
174,144,114848,1,0,0:0:0:0:
82,73,114991,5,8,0:1:0:0:
82,73,115062,1,2,0:0:0:0:
82,73,115134,1,0,0:0:0:0:
203,59,115277,1,8,0:0:0:0:
324,45,115419,1,8,0:0:0:0:
446,125,115562,6,0,L|411:118,1,31.799999029541,10|0,3:1|3:0,3:3:0:0:
440,138,115705,2,0,L|405:131,1,31.799999029541,2|0,3:0|3:0,3:3:0:0:
311,175,115848,6,0,L|345:168,1,31.799999029541,10|0,3:1|3:0,3:3:0:0:
317,188,115991,2,0,L|351:181,1,31.799999029541,2|0,3:0|3:0,3:3:0:0:
486,297,116134,6,2,B|417:247|417:247|354:255|354:255|354:255|354:255|284:266|284:266|230:342,1,296.8,4|0,0:0|0:0,0:0:0:0:
119,366,116705,6,0,B|60:237|185:236|111:135,1,222.599993206787,4|0,0:0|0:0,0:0:0:0:
85,87,116991,5,8,0:0:0:0:
59,196,117134,1,0,0:0:0:0:
207,233,117277,5,8,0:0:0:0:
43,21,117419,1,0,0:0:0:0:
274,37,117562,2,0,L|265:108,2,53
360,236,117848,6,0,P|392:228|417:233,1,53,8|0,0:0|0:0,0:0:0:0:
375,307,117991,2,0,P|332:275|281:267,1,106,2|0,0:0|0:0,0:0:0:0:
91,340,118277,1,0,0:0:0:0:
219,78,118419,6,2,L|209:211,1,127.2,4|0,0:0|0:0,0:0:0:0:
91,340,118991,6,0,B|166:342|169:209|289:272,1,222.599993206787,4|0,0:0|0:0,0:0:0:0:
349,313,119277,5,8,0:0:0:0:
108,182,119419,1,0,0:0:0:0:
196,29,119562,5,8,3:1:0:0:
196,29,119634,1,0,3:0:0:0:
196,29,119705,1,0,3:0:0:0:
319,43,119848,1,8,0:1:0:0:
442,57,119991,1,0,0:0:0:0:
201,237,120134,5,2,3:0:0:0:
223,229,120205,5,2,3:0:0:0:
192,216,120276,5,2,3:0:0:0:
237,195,120348,5,2,3:0:0:0:
185,172,120419,5,2,3:0:0:0:
319,279,120562,5,0,0:0:0:0:
178,77,120705,6,2,P|218:83|237:119,1,84.8,6|4,0:0|0:1,0:0:0:0:
254,316,121419,6,0,L|106:282,1,148.399995471192,0|2,3:0|3:0,0:0:0:0:
109,282,121848,2,0,L|88:193,1,74.1999977355958,2|0,0:0|0:0,0:0:0:0:
199,150,122134,6,0,L|182:222,1,74.1999977355958,2|0,3:0|0:0,0:0:0:0:
123,100,122419,2,0,B|172:65|172:65|262:85,1,148.399995471192,0|0,3:0|0:0,0:0:0:0:
258,84,122848,2,0,B|330:100,1,74.1999977355958,0|2,3:0|0:0,0:0:0:0:
407,126,123133,1,0,0:0:0:0:
407,126,123276,1,0,3:0:0:0:
447,197,123419,5,0,0:0:0:0:
447,197,123562,2,0,B|434:265|444:351,1,148.399995471192,2|0,3:0|0:0,0:0:0:0:
301,376,123991,2,0,B|310:296|297:228,1,148.399995471192,0|0,3:0|0:0,0:0:0:0:
244,171,124419,2,0,P|247:129|251:90,1,74.1999977355958,0|0,3:0|0:0,0:0:0:0:
147,207,124705,6,0,P|188:232|202:261,1,74.1999977355958,0|0,3:0|0:0,0:0:0:0:
51,140,124991,2,0,P|62:186|51:217,1,74.1999977355958,0|0,0:0|3:0,0:0:0:0:
113,81,125277,2,0,L|198:72,1,74.1999977355958,0|0,0:0|0:0,0:0:0:0:
240,139,125562,2,0,L|325:148,1,74.1999977355958,0|0,3:0|0:0,0:0:0:0:
379,105,125848,6,0,P|352:133|367:246,1,148.399995471192,4|0,3:1|0:0,0:0:0:0:
450,322,126277,2,0,P|422:295|309:310,1,148.399995471192,0|0,3:0|0:0,0:0:0:0:
256,344,126705,2,0,P|226:346|166:316,1,74.1999977355958,0|0,3:0|0:0,0:0:0:0:
111,215,126991,6,0,B|121:299,1,74.1999977355958,0|0,3:0|0:0,0:0:0:0:
273,239,127277,2,0,B|281:165,1,74.1999977355958,0|0,0:0|3:0,0:0:0:0:
396,42,127562,6,0,B|436:34|436:34|481:45,1,74.1999977355958,0|0,0:0|0:0,0:0:0:0:
427,235,127848,2,0,B|387:243|387:243|342:232,1,74.1999977355958,0|0,3:0|0:0,0:0:0:0:
197,217,128133,5,0,3:0:0:0:
291,196,128276,1,2,0:0:0:0:
229,142,128419,1,0,3:0:0:0:
261,267,128561,1,2,0:0:0:0:
338,265,128704,5,0,3:0:0:0:
148,156,128847,1,2,0:0:0:0:
111,315,128991,6,0,P|146:308|190:294,1,74.1999977355958,0|2,3:0|0:0,0:0:0:0:
399,212,129277,5,0,1:0:0:0:
423,184,129348,1,0,1:0:0:0:
435,149,129419,1,0,1:0:0:0:
430,113,129491,1,0,1:0:0:0:
410,82,129562,1,0,1:0:0:0:
379,62,129634,1,0,1:0:0:0:
343,58,129705,1,0,1:0:0:0:
308,69,129776,1,0,1:0:0:0:
281,94,129848,1,12,1:0:0:0:
20,29,131277,5,8,1:0:0:0:
418,339,131562,6,0,P|422:191|406:127,1,212,6|8,0:0|0:0,0:0:0:0:
108,36,131991,2,0,P|88:139|96:245,1,212,2|2,0:0|0:0,0:0:0:0:
342,23,132419,5,10,0:0:0:0:
188,45,132562,1,0,0:0:0:0:
273,215,132705,6,0,B|284:160|284:160|271:108,1,106,2|0,0:0|0:0,0:0:0:0:
324,345,132991,1,8,0:0:0:0:
196,230,133134,2,0,B|141:219|141:219|89:232,1,106,2|0,0:0|0:0,0:0:0:0:
37,24,133419,5,2,0:0:0:0:
193,90,133562,1,8,0:0:0:0:
17,226,133705,1,0,0:0:0:0:
17,226,133777,1,0,0:0:0:0:
17,226,133848,2,0,L|27:117,1,106,2|0,0:0|0:0,0:0:0:0:
255,135,134134,6,0,L|264:240,1,106,8|2,0:0|0:0,0:0:0:0:
180,117,134419,2,0,P|215:120|318:0,1,212,0|8,0:0|0:0,0:0:0:0:
25,87,134848,1,0,0:0:0:0:
136,186,134991,2,0,P|147:220|162:305,1,106,2|0,0:0|0:0,0:0:0:0:
380,348,135277,5,8,0:0:0:0:
437,196,135419,1,2,0:0:0:0:
339,201,135562,5,8,0:0:0:0:
466,341,135705,1,2,0:0:0:0:
510,237,135848,5,8,0:0:0:0:
312,291,135991,1,8,0:0:0:0:
254,100,136134,6,0,P|295:111|453:22,1,212,4|8,0:0|0:0,0:0:0:0:
238,331,136562,2,0,P|154:268|50:274,1,212,2|2,0:0|0:0,0:0:0:0:
382,365,136991,5,8,0:0:0:0:
336,188,137134,1,0,0:0:0:0:
290,252,137277,6,0,P|245:205|197:181,1,106,2|0,0:0|0:0,0:0:0:0:
368,261,137563,1,8,0:0:0:0:
440,309,137705,2,0,P|441:243|424:193,1,106,2|0,0:0|0:0,0:0:0:0:
320,47,137991,5,2,0:0:0:0:
231,227,138134,1,8,0:0:0:0:
131,48,138277,1,0,0:0:0:0:
131,48,138348,1,0,0:0:0:0:
131,48,138419,2,0,L|118:162,1,106,2|0,0:0|0:0,0:0:0:0:
275,303,138705,6,0,B|223:315|223:315|175:292,1,106,10|0,0:0|0:0,0:0:0:0:
316,365,138991,2,0,P|292:325|329:167,1,212,10|8,0:0|0:0,0:0:0:0:
450,103,139419,6,0,L|348:112,1,84.8
105,136,139848,5,0,0:0:0:0:
105,136,139991,1,0,0:0:0:0:
105,136,140134,1,2,0:0:0:0:
105,136,140419,5,2,0:0:0:0:
105,136,140705,6,0,B|222:154|187:73|303:88,1,212,4|8,0:0|0:0,0:0:0:0:
377,339,141134,1,0,0:0:0:0:
274,273,141277,2,0,B|259:219|259:219|272:171,1,106,8|0,0:0|0:0,0:0:0:0:
479,51,141562,5,8,0:0:0:0:
348,147,141705,1,0,0:0:0:0:
414,200,141848,6,0,B|429:146|429:146|416:98,1,106,8|0,0:0|0:0,0:0:0:0:
282,192,142134,1,8,0:0:0:0:
209,58,142277,2,0,B|196:106|196:106|211:160,1,106,0|8,0:0|0:0,0:0:0:0:
314,356,142562,5,8,0:0:0:0:
157,214,142705,1,8,0:0:0:0:
383,122,142848,1,8,0:0:0:0:
383,122,142919,1,8,0:0:0:0:
383,122,142991,2,0,L|272:110,1,106,8|0,0:0|0:0,0:0:0:0:
90,282,143277,6,0,P|79:248|77:171,1,106,8|0,0:0|0:0,0:0:0:0:
463,57,143562,2,0,P|452:218|437:283,1,212,8|8,0:0|0:0,0:0:0:0:
177,353,143991,1,0,0:0:0:0:
250,266,144134,2,0,P|284:255|361:253,1,106,8|0,0:0|0:0,0:0:0:0:
92,83,144419,5,8,0:0:0:0:
141,265,144562,1,0,0:0:0:0:
193,205,144705,5,8,0:0:0:0:
12,103,144848,1,0,0:0:0:0:
162,36,144991,5,8,0:0:0:0:
75,309,145134,1,8,0:0:0:0:
418,145,145277,6,0,P|342:72|241:42,1,212,8|8,0:0|0:0,0:0:0:0:
137,364,145705,1,0,0:0:0:0:
335,179,145848,2,0,P|289:188|215:231,1,106,8|0,0:0|0:0,0:0:0:0:
470,288,146134,5,8,0:0:0:0:
359,97,146277,1,0,0:0:0:0:
424,44,146419,6,0,B|440:98|440:98|425:145,1,106,8|0,0:0|0:0,0:0:0:0:
236,214,146705,1,8,0:0:0:0:
171,267,146848,2,0,B|155:213|155:213|169:165,1,106,0|8,0:0|0:0,0:0:0:0:
244,323,147134,5,2,3:0:0:0:
244,323,147205,1,2,3:0:0:0:
244,323,147277,1,10,0:0:0:0:
87,251,147419,1,2,0:0:0:0:
28,310,147562,2,0,P|41:240|26:107,1,159,10|0,0:0|2:0,0:0:0:0:
5,87,147848,1,10,0:0:0:0:
274,252,147991,5,2,0:0:0:0:
333,311,148134,2,0,P|320:241|335:108,1,159,10|0,0:0|2:0,0:0:0:0:
356,88,148420,1,10,0:0:0:0:
448,269,148562,1,2,0:0:0:0:
485,190,148705,5,8,0:0:0:0:
282,236,148848,1,8,0:3:0:0:
438,69,148991,1,8,0:0:0:0:
391,320,149134,1,8,0:3:0:0:
238,99,149277,5,8,0:0:0:0:
189,334,149419,1,8,0:3:0:0:
58,132,149562,1,8,0:0:0:0:
5,360,149705,1,8,0:3:0:0:
5,360,149777,1,8,3:0:0:0:
5,360,149848,1,8,3:0:0:0:
5,360,150134,6,0,P|14:308|11:248,1,106,12|2,0:0|0:0,0:0:0:0:
168,77,150419,6,0,B|222:61|222:61|287:77,1,106
312,244,150705,2,0,B|263:255|263:255|209:239,1,106,8|0,0:0|0:0,0:0:0:0:
343,104,150991,5,0,0:0:0:0:
408,149,151134,2,0,L|415:267,1,106,2|8,0:0|0:0,0:0:0:0:
132,261,151419,2,0,L|138:155,1,106,2|0,0:0|0:0,0:0:0:0:
180,319,151705,2,0,P|124:297|1:381,1,212,2|0,0:0|0:0,0:0:0:0:
224,255,152134,6,0,P|214:199|226:41,1,212,4|8,0:0|0:0,0:0:0:0:
286,304,152562,1,2,0:0:0:0:
136,175,152705,2,0,L|142:69,1,106,0|0,0:0|0:0,0:0:0:0:
344,22,152991,2,0,L|350:127,1,106,8|0,0:0|0:0,0:0:0:0:
165,331,153277,5,0,0:0:0:0:
110,274,153419,2,0,P|168:254|213:267,1,106,2|8,0:0|0:0,0:0:0:0:
59,110,153705,2,0,P|114:136|136:177,1,106,2|0,0:0|0:0,0:0:0:0:
258,0,153991,2,0,P|278:58|203:189,1,212,2|0,0:0|0:0,0:0:0:0:
49,229,154419,6,0,B|157:197|153:286|251:260,1,212,4|8,0:0|0:0,0:0:0:0:
453,174,154848,1,2,0:0:0:0:
371,236,154991,2,0,L|380:129,1,106,0|0,0:0|0:0,0:0:0:0:
203,78,155277,2,0,L|211:183,1,106,8|0,0:0|0:0,0:0:0:0:
441,12,155562,5,0,0:0:0:0:
384,59,155705,2,0,B|333:71|333:71|282:53,1,106,2|8,0:0|0:0,0:0:0:0:
200,268,155991,2,0,B|251:256|251:256|301:273,1,106,2|0,0:0|0:0,0:0:0:0:
155,330,156277,2,0,P|174:252|73:173,1,212,2|0,0:0|0:0,0:0:0:0:
5,42,156705,6,0,B|94:30|94:30|124:55|124:55|206:44,1,212,4|8,0:0|0:0,0:0:0:0:
386,162,157134,1,2,0:0:0:0:
299,220,157277,2,0,P|308:163|319:116,1,106,0|0,0:0|0:0,0:0:0:0:
129,225,157562,2,0,P|140:276|149:329,1,106,8|0,0:0|0:0,0:0:0:0:
231,76,157848,5,0,0:0:0:0:
179,137,157991,2,0,L|73:152,1,106,2|8,0:0|0:0,0:0:0:0:
262,0,158277,2,0,L|289:218,1,212,2|0,0:0|0:0,0:0:0:0:
308,384,158705,1,8,0:0:0:0:
308,384,158991,6,0,L|318:273,1,106,4|0,0:0|0:0,0:0:0:0:
336,89,159277,1,8,0:0:0:0:
382,162,159419,2,0,B|334:177|334:177|282:155,1,106,2|0,0:0|0:0,0:0:0:0:
165,272,159705,1,0,0:0:0:0:
119,199,159848,2,0,B|167:184|167:184|218:205,1,106,8|0,0:0|0:0,0:0:0:0:
435,322,160134,5,0,0:0:0:0:
323,363,160277,1,2,0:0:0:0:
323,363,160348,1,0,0:0:0:0:
323,363,160419,1,8,0:0:0:0:
406,222,160562,1,2,0:0:0:0:
406,222,160634,1,0,0:0:0:0:
406,222,160705,1,0,0:0:0:0:
225,137,160848,1,2,0:0:0:0:
225,137,160919,1,0,0:0:0:0:
225,137,160991,2,0,P|209:207|213:241,1,106,8|0,0:0|0:0,0:0:0:0:
36,364,161277,6,0,L|46:259,1,106,4|0,0:0|0:0,0:0:0:0:
70,54,161562,1,8,0:0:0:0:
143,13,161705,2,0,P|147:57|145:136,1,106,2|0,0:0|0:0,0:0:0:0:
171,303,161991,1,0,0:0:0:0:
244,344,162134,2,0,P|248:300|246:221,1,106,8|0,0:0|0:0,0:0:0:0:
428,62,162419,5,0,0:0:0:0:
313,132,162562,1,2,0:0:0:0:
313,132,162634,1,0,0:0:0:0:
313,132,162705,1,8,0:0:0:0:
465,186,162848,1,2,0:0:0:0:
465,186,162919,1,0,0:0:0:0:
465,186,162991,1,0,0:0:0:0:
283,48,163134,1,2,0:0:0:0:
283,48,163205,1,0,0:0:0:0:
283,48,163277,2,0,L|168:56,1,106,8|0,0:0|0:0,0:0:0:0:
40,285,163562,6,0,B|57:234|57:234|43:183,1,106,4|0,0:0|0:0,0:0:0:0:
263,321,163848,1,8,0:0:0:0:
204,374,163991,2,0,B|187:323|187:323|201:272,1,106,2|0,0:0|0:0,0:0:0:0:
316,149,164277,1,0,0:0:0:0:
375,96,164420,2,0,B|392:147|392:147|378:198,1,106,8|0,0:0|0:0,0:0:0:0:
124,98,164705,5,0,0:0:0:0:
297,70,164848,1,2,0:0:0:0:
297,70,164919,1,0,0:0:0:0:
297,70,164991,1,8,0:0:0:0:
136,205,165134,1,2,0:0:0:0:
136,205,165205,1,0,0:0:0:0:
136,205,165277,1,0,0:0:0:0:
205,20,165419,1,2,0:0:0:0:
205,20,165491,1,0,0:0:0:0:
205,20,165562,2,0,L|210:138,1,106,8|0,0:0|0:0,0:0:0:0:
216,356,165848,5,12,0:0:0:0:
228,275,165991,1,0,0:0:0:0:
66,180,166134,5,8,0:0:0:0:
49,106,166277,1,0,0:0:0:0:
201,205,166419,5,8,0:0:0:0:
51,262,166562,1,0,0:0:0:0:
162,135,166705,5,8,0:0:0:0:
112,319,166848,1,0,0:0:0:0:
338,90,166991,5,8,0:0:0:0:
357,167,167133,1,0,0:0:0:0:
357,167,167205,1,0,0:0:0:0:
357,167,167276,1,8,0:0:0:0:
485,59,167419,5,0,0:0:0:0:
485,59,167491,1,0,0:0:0:0:
485,59,167562,1,8,0:0:0:0:
397,253,167705,1,8,0:0:0:0:
232,314,167848,1,8,0:0:0:0:
64,226,167991,1,8,3:1:0:0:
64,226,168062,1,0,3:0:0:0:
64,226,168134,1,4,3:1:0:0:
64,226,168419,5,0,0:0:0:0:
86,133,168562,1,0,0:0:0:0:
64,226,168705,1,2,0:0:0:0:
323,96,168991,5,0,0:0:0:0:
331,108,169134,2,0,L|339:197,1,74.1999977355958,2|0,0:0|0:0,0:0:0:0:
243,231,169419,2,0,L|249:157,1,74.1999977355958,2|0,0:0|0:0,0:0:0:0:
292,293,169705,2,0,P|243:272|171:323,1,148.399995471192,2|2,0:0|0:0,0:0:0:0:
171,322,170134,1,2,0:0:0:0:
171,322,170277,1,2,0:0:0:0:
43,76,170705,5,0,0:0:0:0:
124,98,170848,1,0,0:0:0:0:
43,76,170991,1,2,0:0:0:0:
253,190,171277,5,0,0:0:0:0:
263,175,171419,2,0,P|301:177|335:188,1,74.1999977355958,2|0,0:0|0:0,0:0:0:0:
383,126,171705,2,0,P|421:124|455:113,1,74.1999977355958,2|0,0:0|0:0,0:0:0:0:
496,52,171991,2,0,L|470:209,1,148.399995471192,2|2,0:0|0:0,0:0:0:0:
471,198,172419,1,2,0:0:0:0:
471,198,172562,1,2,0:0:0:0:
289,329,172991,5,0,0:0:0:0:
212,319,173134,1,0,0:0:0:0:
289,329,173277,1,2,0:0:0:0:
78,213,173562,5,0,0:0:0:0:
95,199,173705,2,0,L|102:107,1,74.1999977355958,2|0,0:0|0:0,0:0:0:0:
184,72,173991,2,0,L|189:145,1,74.1999977355958,2|0,0:0|0:0,0:0:0:0:
108,22,174277,2,0,B|151:47|151:47|253:33,1,148.399995471192,2|2,0:0|0:0,0:0:0:0:
248,33,174705,1,2,0:0:0:0:
248,33,174848,1,2,0:0:0:0:
389,268,175277,5,0,0:0:0:0:
401,214,175419,1,0,0:0:0:0:
389,268,175562,1,2,0:0:0:0:
304,108,175848,5,0,0:0:0:0:
293,92,175991,2,0,P|255:85|216:84,1,74.1999977355958,2|0,0:0|0:0,0:0:0:0:
168,173,176277,2,0,P|205:171|241:164,1,74.1999977355958,2|0,0:0|0:0,0:0:0:0:
134,92,176562,2,0,P|96:85|57:84,1,74.1999977355958,2|0,0:0|0:0,0:0:0:0:
28,178,176848,1,2,0:0:0:0:
50,253,176991,1,2,0:0:0:0:
73,327,177134,2,0,L|146:333,1,63.5999980590821,2|0,0:0|0:0,0:0:0:0:
