osu file format v14

[General]
AudioFilename: audio.mp3
AudioLeadIn: 0
PreviewTime: 148582
Countdown: 0
SampleSet: Soft
StackLeniency: 0.7
Mode: 0
LetterboxInBreaks: 0
WidescreenStoryboard: 0

[Editor]
Bookmarks: 16416,27082,37749,48415,59082,64415,69749,75082,85749,96415,101749,112415,123082,133749,139082,144415,149749,160415,171082,176415,187082,197749,208415,213749,219082,224415,235082,245749,251082
DistanceSpacing: 1.2
BeatDivisor: 4
GridSize: 32
TimelineZoom: 2.5

[Metadata]
Title:Watashi, Idol Sengen
TitleUnicode:私、アイドル宣言
Artist:Soramin
ArtistUnicode:そらみん
Creator:bite you death
Version:My Angel Soramin
Source:
Tags:byd s ✩ r a m i n utaite honeyworks cover you are my angel
BeatmapID:1731995
BeatmapSetID:826442

[Difficulty]
HPDrainRate:5.2
CircleSize:3.6
OverallDifficulty:8.9
ApproachRate:9.2
SliderMultiplier:1.7
SliderTickRate:2

[Events]
//Background and Video events
0,0,"soramin idol.png",0,0
//Break Periods
2,176617,186514
//Storyboard Layer 0 (Background)
//Storyboard Layer 1 (Fail)
//Storyboard Layer 2 (Pass)
//Storyboard Layer 3 (Foreground)
//Storyboard Sound Samples

[TimingPoints]
16418,333.333333333333,4,2,2,60,1,0
16418,-100,4,2,2,65,0,1
21751,-142.857142857143,4,2,2,40,0,0
24418,-100,4,2,2,65,0,1
26751,-83.3333333333333,4,2,2,60,0,0
27418,-111.111111111111,4,2,2,60,0,0
29751,-83.3333333333333,4,2,2,60,0,0
30084,-111.111111111111,4,2,2,60,0,0
32418,-83.3333333333333,4,2,2,60,0,0
32751,-111.111111111111,4,2,2,60,0,0
33751,-83.3333333333333,4,2,2,60,0,0
34084,-111.111111111111,4,2,2,60,0,0
37751,-125,4,2,2,40,0,0
48417,-117.647058823529,4,2,2,50,0,0
53751,-111.111111111111,4,2,2,55,0,0
53917,-111.111111111111,4,2,2,45,0,0
54584,-111.111111111111,4,2,2,55,0,0
55251,-111.111111111111,4,2,2,45,0,0
55917,-111.111111111111,4,2,2,55,0,0
59084,-142.857142857143,4,2,2,40,0,0
64417,-105.263157894737,4,2,2,50,0,0
69751,-100,4,2,2,55,0,0
73917,-125,4,2,2,45,0,0
75084,-90.9090909090909,4,2,2,70,0,1
84251,-80,4,2,2,70,0,1
84584,-90.9090909090909,4,2,2,70,0,1
94917,-80,4,2,2,70,0,1
95251,-90.9090909090909,4,2,2,70,0,1
96417,-142.857142857143,4,2,2,45,0,0
97751,-90.9090909090909,4,2,2,65,0,0
101417,-111.111111111111,4,2,2,55,0,0
101751,-83.3333333333333,4,2,2,60,0,0
102084,-111.111111111111,4,2,2,60,0,0
104417,-83.3333333333333,4,2,2,60,0,0
104751,-111.111111111111,4,2,2,60,0,0
107084,-83.3333333333333,4,2,2,60,0,0
107417,-111.111111111111,4,2,2,60,0,0
108417,-83.3333333333333,4,2,2,60,0,0
108751,-111.111111111111,4,2,2,60,0,0
110917,-83.3333333333333,4,2,2,60,0,0
111251,-111.111111111111,4,2,2,60,0,0
112417,-125,4,2,2,50,0,0
117751,-117.647058823529,4,2,2,55,0,0
117917,-117.647058823529,4,2,2,40,0,0
118584,-117.647058823529,4,2,2,55,0,0
119251,-117.647058823529,4,2,2,40,0,0
119917,-117.647058823529,4,2,2,55,0,0
120417,-111.111111111111,4,2,2,55,0,0
122417,-166.666666666666,4,2,2,35,0,0
123084,-100,4,2,2,60,0,0
128584,-100,4,2,2,45,0,0
129251,-100,4,2,2,60,0,0
129917,-100,4,2,2,45,0,0
130584,-100,4,2,2,60,0,0
133751,-125,4,2,2,40,0,0
139084,-100,4,2,2,50,0,0
144417,-95.2380952380952,4,2,2,50,0,0
148584,-125,4,2,2,45,0,0
149751,-86.9565217391304,4,2,2,70,0,1
158917,-74.0740740740741,4,2,2,70,0,1
159251,-86.9565217391304,4,2,2,70,0,1
169584,-74.0740740740741,4,2,2,70,0,1
169917,-86.9565217391304,4,2,2,70,0,1
170751,-74.0740740740741,4,2,2,70,0,1
171084,-125,4,2,2,45,0,0
172417,-90.9090909090909,4,2,2,65,0,0
187084,-142.857142857143,4,2,2,45,0,0
197751,-90.9090909090909,4,2,2,65,0,0
208417,-111.111111111111,4,2,2,45,0,0
213751,-100,4,2,2,55,0,0
219084,-90.9090909090909,4,2,2,60,0,0
223251,-111.111111111111,4,2,2,45,0,0
224417,-81.3008130081301,4,2,2,70,0,1
233584,-66.6666666666667,4,2,2,70,0,1
233917,-81.3008130081301,4,2,2,70,0,1
244251,-64.1025641025641,4,2,2,70,0,1
244584,-81.3008130081301,4,2,2,70,0,1
245751,-111.111111111111,4,2,2,45,0,0
247084,-83.3333333333333,4,2,2,65,0,0

[Colours]
Combo1 : 179,179,255
Combo2 : 255,183,183
Combo3 : 206,255,206
Combo4 : 255,183,219

[HitObjects]
203,109,16418,5,14,0:0:0:0:
253,277,16584,1,0,0:0:0:0:
310,67,16751,1,10,0:0:0:0:
146,319,16918,1,0,0:0:0:0:
100,63,17084,5,10,0:0:0:0:
352,174,17251,1,2,0:0:0:0:
174,214,17418,1,8,0:0:0:0:
327,77,17584,6,0,B|441:70|390:141|524:114,1,170,2|0,0:0|0:0,0:0:0:0:
352,174,18084,1,8,0:0:0:0:
468,34,18251,1,2,0:0:0:0:
414,251,18418,1,10,0:0:0:0:
327,77,18584,1,2,0:0:0:0:
247,292,18751,1,10,0:0:0:0:
169,96,18918,1,0,0:0:0:0:
69,289,19084,6,0,P|114:288|148:266,1,85,10|0,0:0|0:0,0:0:0:0:
233,30,19418,2,0,P|197:8|155:8,1,85,10|0,0:0|0:0,0:0:0:0:
85,209,19751,1,10,0:0:0:0:
327,77,19918,1,2,0:0:0:0:
169,96,20084,1,8,0:0:0:0:
274,256,20251,6,0,B|371:252|327:183|456:194,1,170,2|0,0:0|0:0,0:0:0:0:
278,160,20751,1,8,0:0:0:0:
416,289,20917,1,10,0:0:0:0:
416,289,21001,1,8,0:0:0:0:
416,289,21084,1,10,0:0:0:0:
436,95,21251,1,10,0:0:0:0:
222,269,21418,1,2,3:2:0:0:
242,75,21584,1,2,3:2:0:0:
270,355,21751,6,0,P|226:369|151:338,1,118.999996368408,2|2,0:0|0:0,0:0:0:0:
56,240,22251,2,0,L|77:368,1,118.999996368408,2|2,0:0|0:0,0:0:0:0:
270,125,23084,6,0,P|226:111|151:142,1,118.999996368408,2|2,0:0|0:0,0:0:0:0:
56,240,23584,2,0,L|77:112,1,118.999996368408,2|2,0:0|3:0,0:0:0:0:
95,28,24084,1,8,0:0:0:0:
219,231,24251,1,0,3:0:0:0:
383,51,24418,6,0,B|279:38|323:105|218:96,1,170,6|10,3:2|0:0,0:0:0:0:
90,276,24918,2,0,P|111:231|223:236,1,170,2|2,3:2|3:2,0:0:0:0:
289,312,25418,1,8,0:0:0:0:
428,189,25584,6,0,P|410:108|396:17,1,170,6|10,3:2|0:0,0:0:0:0:
324,209,26084,1,10,0:0:0:0:
226,12,26251,1,10,0:0:0:0:
126,283,26418,2,0,P|65:252|62:152,1,170,10|2,0:0|0:0,0:0:0:0:
57,158,27084,6,0,B|115:151|115:151|148:177|148:177|224:173,1,152.999995330811,2|0,3:1|0:0,0:0:0:0:
311,162,27418,5,10,0:0:0:0:
179,82,27584,1,0,0:0:0:0:
370,86,27751,5,8,0:0:0:0:
200,174,27918,1,0,0:0:0:0:
407,229,28084,5,10,0:0:0:0:
195,306,28251,2,0,B|106:307|145:244|20:256,1,152.999995330811
234,215,28751,6,0,P|271:238|318:254,1,76.4999976654053,10|0,0:0|0:0,0:0:0:0:
243,41,29084,2,0,P|203:61|167:94,1,76.4999976654053,10|0,0:0|0:0,0:0:0:0:
389,135,29418,2,0,P|390:90|380:42,1,76.4999976654053,10|0,0:0|0:0,0:0:0:0:
234,215,29751,6,0,B|225:280|225:280|236:306|236:306|225:373,1,152.999995330811,2|0,3:1|0:0,0:0:0:0:
134,322,30084,5,10,0:0:0:0:
328,261,30251,1,0,0:0:0:0:
70,200,30418,5,8,0:0:0:0:
226,364,30584,1,0,0:0:0:0:
240,107,30751,5,10,0:0:0:0:
34,280,30918,2,0,P|25:205|5:104,1,152.999995330811
172,23,31418,6,0,P|160:65|135:96,1,76.4999976654053,10|0,0:0|0:0,0:0:0:0:
367,163,31751,2,0,P|336:131|322:94,1,76.4999976654053,10|0,0:0|0:0,0:0:0:0:
148,261,32084,2,0,P|190:250|229:256,1,76.4999976654053,10|0,0:0|0:0,0:0:0:0:
447,192,32418,6,0,P|369:182|337:284,1,152.999995330811,2|0,3:1|0:0,0:0:0:0:
341,321,32751,5,10,0:0:0:0:
231,128,32918,1,0,0:0:0:0:
110,360,33084,5,8,0:0:0:0:
328,235,33251,1,0,0:0:0:0:
40,171,33418,5,10,0:0:0:0:
229,352,33584,1,0,0:0:0:0:
273,45,33751,6,0,B|215:29|215:29|132:88,1,152.999995330811,6|0,3:1|0:0,0:0:0:0:
67,150,34084,5,10,0:0:0:0:
328,235,34251,1,0,0:0:0:0:
6,240,34418,5,10,0:0:0:0:
389,145,34584,1,0,0:0:0:0:
132,345,34751,5,10,0:0:0:0:
37,58,34918,1,0,0:0:0:0:
358,249,35084,5,2,3:2:0:0:
163,134,35251,1,0,0:0:0:0:
243,348,35418,1,8,0:3:0:0:
288,151,35584,1,8,0:0:0:0:
288,151,35667,1,8,0:0:0:0:
288,151,35751,1,8,0:0:0:0:
143,314,35918,5,8,0:3:0:0:
212,225,36084,1,8,0:3:0:0:
394,368,36251,6,0,L|240:347,1,152.999995330811,6|0,3:2|0:0,0:0:0:0:
33,229,36751,2,0,P|49:207|67:200,1,25.4999992218018,2|2,0:0|0:0,0:0:0:0:
49,191,36862,2,0,P|73:179|92:182,1,25.4999992218018,2|2,0:0|0:0,0:0:0:0:
81,167,36973,2,0,P|108:169|123:181,1,25.4999992218018,2|2,0:0|0:0,0:0:0:0:
120,163,37084,6,0,L|145:327,1,152.999995330811
229,129,37751,6,0,P|250:100|363:98,1,136,2|0,3:2|3:0,0:0:0:0:
410,153,38418,1,2,3:2:0:0:
353,228,38751,1,2,3:2:0:0:
420,295,39084,6,0,B|342:297|373:345|291:349,1,136,2|0,3:2|3:0,0:0:0:0:
209,317,39751,1,2,3:2:0:0:
122,360,40084,1,2,3:2:0:0:
31,330,40417,5,2,3:2:0:0:
209,317,40751,1,2,3:2:0:0:
196,140,41084,1,2,3:2:0:0:
19,152,41417,1,2,3:2:0:0:
203,229,41751,6,0,B|276:232|251:182|351:193,2,136,2|0|0,3:2|3:0|3:0,0:0:0:0:
115,190,42584,5,2,0:0:0:0:
196,140,42751,1,2,3:2:0:0:
319,289,42917,1,2,0:0:0:0:
214,360,43084,6,0,B|237:279|179:304|206:214,2,136,2|0|0,3:2|3:0|3:0,0:0:0:0:
290,251,43917,1,2,0:0:0:0:
122,332,44084,1,2,3:2:0:0:
196,140,44251,1,2,0:0:0:0:
324,363,44417,6,0,B|406:369|375:314|469:326,2,136,2|0|0,3:2|3:0|3:0,0:0:0:0:
202,228,45417,1,2,3:2:0:0:
367,144,45751,6,0,P|348:216|334:289,2,136,2|0|0,3:2|3:0|3:0,0:0:0:0:
313,64,46751,1,2,3:2:0:0:
235,119,47084,6,0,B|157:127|185:78|92:80,1,136,2|0,3:2|3:0,0:0:0:0:
1,200,47584,1,0,0:0:0:0:
1,200,47667,1,0,0:0:0:0:
1,200,47751,2,0,P|72:210|115:139,1,136,2|2,3:2|3:2,0:0:0:0:
66,92,48251,1,0,0:0:0:0:
189,210,48417,6,0,P|173:279|159:367,1,144.500002756119,6|0,3:2|3:0,0:0:0:0:
255,332,48917,1,0,0:0:0:0:
83,384,49084,2,0,P|75:349|68:305,1,72.2500013780594,2|0,3:2|0:0,0:0:0:0:
189,210,49417,2,0,P|197:175|204:131,1,72.2500013780594,2|0,3:2|0:0,0:0:0:0:
90,57,49751,6,0,B|164:67|141:15|241:34,1,144.500002756119,2|0,3:2|3:0,0:0:0:0:
325,83,50251,1,0,0:0:0:0:
189,210,50417,2,0,P|197:175|204:131,1,72.2500013780594,2|0,3:2|0:0,0:0:0:0:
401,29,50751,2,0,P|409:64|416:108,1,72.2500013780594,2|0,3:2|0:0,0:0:0:0:
325,275,51084,6,0,P|350:248|479:255,1,144.500002756119,2|2,3:2|3:2,0:0:0:0:
410,328,51584,1,0,0:0:0:0:
322,376,51751,2,0,P|286:367|241:359,1,72.2500013780594,2|0,3:2|0:0,0:0:0:0:
135,261,52084,2,0,P|170:252|216:244,1,72.2500013780594,2|0,3:2|0:0,0:0:0:0:
53,373,52417,6,0,B|78:294|19:307|50:219,2,144.500002756119,2|0|0,3:2|3:0|3:0,0:0:0:0:
135,261,53251,1,2,0:0:0:0:
251,360,53417,1,2,3:2:0:0:
195,178,53584,1,0,0:0:0:0:
79,351,53751,5,2,3:2:0:0:
288,261,53917,2,0,P|327:268|377:278,1,76.4999976654053,0|10,0:0|0:0,0:0:0:0:
195,178,54251,2,0,P|234:171|284:161,1,76.4999976654053,2|2,0:0|3:2,0:0:0:0:
388,87,54584,5,2,0:0:0:0:
288,261,54751,1,10,0:0:0:0:
252,65,54917,1,2,0:0:0:0:
406,202,55084,5,2,3:2:0:0:
235,330,55251,2,0,P|209:303|197:256,1,76.4999976654053,2|10,0:0|0:0,0:0:0:0:
110,260,55584,2,0,P|120:223|155:190,1,76.4999976654053,2|2,0:0|3:2,0:0:0:0:
235,162,55917,1,0,0:0:0:0:
48,81,56084,2,0,P|66:128|75:174,1,76.4999976654053,10|0,0:0|0:0,0:0:0:0:
168,29,56417,6,0,B|257:24|218:83|335:65,1,152.999995330811,2|10,3:2|0:0,0:0:0:0:
389,24,56862,2,0,P|416:18|442:24,1,50.9999984436036,2|2,0:0|0:0,0:0:0:0:
497,81,57084,2,0,P|482:136|473:201,1,101.999996887207,2|0,3:2|0:0,0:0:0:0:
384,225,57417,1,10,0:0:0:0:
384,225,57529,2,0,P|376:197|371:164,1,50.9999984436036,8|8,0:0|0:0,0:0:0:0:
456,305,57751,6,0,P|401:332|321:312,1,101.999996887207,2|0,3:2|0:0,0:0:0:0:
276,288,58084,5,0,3:0:0:0:
241,296,58195,1,0,3:0:0:0:
206,304,58306,1,0,3:0:0:0:
171,312,58417,6,0,L|105:295,1,50.9999984436036,10|8,0:3|0:3,0:0:0:0:
73,226,58640,1,8,0:3:0:0:
73,226,58751,6,0,L|7:243,1,50.9999984436036,10|8,0:3|0:3,0:0:0:0:
147,156,58973,1,8,0:3:0:0:
147,156,59084,6,0,B|164:90|114:99|138:27,2,118.999996368408,6|0|0,3:2|0:0|0:0,0:0:0:0:
208,213,59918,1,2,0:0:0:0:
269,156,60084,1,2,0:0:0:0:
330,213,60251,1,2,0:0:0:0:
399,118,60417,6,0,P|380:55|368:-12,2,118.999996368408,2|0|0,3:2|0:0|0:0,0:0:0:0:
391,270,61417,1,2,0:0:0:0:
452,213,61584,1,2,0:0:0:0:
395,356,61751,6,0,B|324:357|352:310|261:319,2,118.999996368408,2|0|0,3:2|0:0|0:0,0:0:0:0:
391,270,62584,1,2,0:0:0:0:
285,317,62751,1,2,0:0:0:0:
324,205,62917,1,2,3:2:0:0:
198,368,63084,6,0,P|189:308|156:234,2,118.999996368408,2|0|0,3:2|0:0|0:0,0:0:0:0:
60,278,64001,5,0,1:0:0:0:
65,262,64084,2,0,L|86:185,1,59.4999981842042,2|2,1:2|0:0,0:0:0:0:
164,76,64417,6,0,P|168:123|186:161,1,80.7499978437424,2|0,3:2|0:0,0:0:0:0:
167,253,64751,2,0,P|209:273|251:276,1,80.7499978437424,0|0,3:0|0:0,0:0:0:0:
321,338,65084,2,0,P|359:311|383:276,1,80.7499978437424,0|0,3:0|0:0,0:0:0:0:
471,247,65417,1,2,3:2:0:0:
317,184,65583,1,2,0:0:0:0:
449,73,65751,6,0,L|423:150,1,80.7499978437424,2|0,3:2|0:0,0:0:0:0:
291,107,66084,2,0,L|317:184,1,80.7499978437424,0|0,3:0|0:0,0:0:0:0:
184,140,66417,2,0,L|158:217,1,80.7499978437424,0|0,3:0|0:0,0:0:0:0:
26,174,66751,1,2,3:2:0:0:
117,62,66917,1,2,0:0:0:0:
121,292,67084,6,0,P|172:300|205:284,1,80.7499978437424,2|0,3:2|0:0,0:0:0:0:
265,354,67417,2,0,P|316:346|349:362,1,80.7499978437424,0|0,3:0|0:0,0:0:0:0:
409,292,67751,1,0,3:0:0:0:
265,209,67917,5,2,0:0:0:0:
461,199,68084,1,2,3:2:0:0:
341,356,68251,1,2,0:0:0:0:
305,128,68417,6,0,P|343:138|391:149,1,80.7499978437424,2|0,3:2|0:0,0:0:0:0:
215,37,68751,2,0,P|253:26|301:16,1,80.7499978437424,0|0,3:0|0:0,0:0:0:0:
125,127,69084,1,2,3:2:0:0:
125,37,69251,1,0,0:0:0:0:
215,127,69417,2,0,P|204:165|194:213,1,80.7499978437424,2|0,3:2|0:0,0:0:0:0:
64,250,69751,6,0,B|156:242|125:319|249:285,1,170,6|0,3:2|3:0,0:0:0:0:
316,250,70251,1,0,0:0:0:0:
304,350,70417,5,2,3:2:0:0:
195,205,70584,1,2,0:0:0:0:
410,250,70751,1,2,3:2:0:0:
222,290,70917,1,2,0:0:0:0:
337,127,71084,6,0,B|436:125|389:188|508:181,1,170,2|2,3:2|3:2,0:0:0:0:
345,30,71584,2,0,P|260:47|146:69,1,170,2|0,0:0|0:0,0:0:0:0:
100,154,72084,2,0,P|142:162|199:173,1,85,2|0,3:2|0:0,0:0:0:0:
72,46,72417,5,2,3:2:0:0:
128,262,72584,1,2,0:0:0:0:
178,63,72751,5,10,0:0:0:0:
43,296,72917,1,10,0:0:0:0:
58,16,73084,5,8,0:0:0:0:
200,319,73251,1,10,0:0:0:0:
294,18,73417,1,8,0:0:0:0:
423,384,73584,1,10,1:2:0:0:
423,384,73917,5,2,0:0:0:0:
423,384,74084,2,0,L|440:311,1,68,2|2,0:0|0:0,0:0:0:0:
325,254,74417,6,0,L|342:327,1,68,2|0,0:0|0:0,0:0:0:0:
472,167,74751,2,0,L|455:240,1,68,2|0,0:0|0:0,0:0:0:0:
334,78,75084,6,0,B|227:78|268:147|150:141,1,187.000005706787,6|10,3:2|0:0,0:0:0:0:
33,105,75584,1,0,0:0:0:0:
177,40,75751,1,10,0:0:0:0:
57,195,75917,2,0,L|31:98,1,93.5000028533936,2|8,0:0|0:0,0:0:0:0:
218,240,76251,6,0,B|111:240|152:309|34:303,1,187.000005706787,2|0,0:0|0:0,0:0:0:0:
204,340,76751,1,8,0:0:0:0:
57,195,76917,1,2,0:0:0:0:
304,264,77084,1,10,0:0:0:0:
48,303,77251,1,2,0:0:0:0:
313,156,77417,1,10,0:0:0:0:
190,368,77584,1,2,0:0:0:0:
164,117,77751,6,0,B|274:117|224:47|349:61,1,187.000005706787,10|10,0:0|0:0,0:0:0:0:
313,156,78251,1,0,0:0:0:0:
177,27,78417,1,10,0:0:0:0:
256,223,78584,2,0,P|295:246|341:242,1,93.5000028533936,2|8,0:0|0:0,0:0:0:0:
143,134,78917,6,0,P|158:229|172:331,1,187.000005706787,2|0,0:0|0:0,0:0:0:0:
226,140,79417,1,8,0:0:0:0:
55,253,79584,1,2,0:0:0:0:
253,334,79751,1,10,0:0:0:0:
0,332,79917,1,2,0:0:0:0:
308,255,80084,1,10,0:0:0:0:
96,341,80251,1,2,0:0:0:0:
405,376,80417,6,0,B|357:280|444:297|377:177,1,187.000005706787,14|10,0:0|0:0,0:0:0:0:
257,90,80917,1,2,0:0:0:0:
308,255,81084,1,8,0:0:0:0:
414,51,81251,2,0,B|306:66|337:-12|222:5,1,187.000005706787,2|0,0:0|0:0,0:0:0:0:
92,65,81751,6,0,B|145:115|145:115|297:80,1,187.000005706787,14|8,0:0|0:0,0:0:0:0:
359,210,82251,2,0,P|312:201|255:187,1,93.5000028533936,2|8,0:0|0:0,0:0:0:0:
82,323,82584,2,0,P|137:251|233:268,1,187.000005706787,2|0,0:0|0:0,0:0:0:0:
401,360,83084,6,0,P|382:273|366:162,1,187.000005706787,14|10,0:0|0:0,0:0:0:0:
429,32,83584,1,10,0:0:0:0:
429,32,83667,1,8,0:3:0:0:
429,32,83751,1,8,0:3:0:0:
273,219,83917,1,10,0:0:0:0:
273,219,84001,1,8,0:0:0:0:
273,219,84084,1,8,0:0:0:0:
70,74,84251,6,0,B|119:61|119:61|169:87|169:87|241:72,1,159.375,6|0,0:0|0:0,0:0:0:0:
304,55,84584,5,10,0:0:0:0:
106,169,84751,1,10,0:0:0:0:
357,212,84917,1,10,0:0:0:0:
66,277,85084,6,0,P|58:293|57:305,6,23.3750007133484,2|2|0|0|0|0|0,0:0|0:0|0:0|0:0|0:0|0:0|0:0,0:0:0:0:
91,256,85417,6,0,L|154:275,1,46.7500014266968,8|8,0:0|0:0,0:0:0:0:
297,158,85584,2,0,L|234:177,1,46.7500014266968,8|8,0:0|0:0,0:0:0:0:
76,90,85751,5,6,3:2:0:0:
374,132,85917,1,8,0:0:0:0:
106,169,86084,1,2,0:0:0:0:
344,53,86251,5,8,0:0:0:0:
260,272,86417,1,0,0:0:0:0:
180,26,86585,5,8,0:0:0:0:
264,245,86751,1,0,0:0:0:0:
435,32,86917,2,0,L|327:56,1,93.5000028533936,10|0,0:0|0:0,0:0:0:0:
185,207,87251,5,8,0:0:0:0:
396,301,87417,1,0,0:0:0:0:
238,97,87584,5,10,0:0:0:0:
132,317,87751,1,2,0:0:0:0:
172,17,87917,5,10,0:0:0:0:
198,237,88084,1,2,0:0:0:0:
343,52,88251,1,10,0:0:0:0:
464,320,88417,6,0,B|351:306|402:391|263:365,1,187.000005706787,2|2,0:0|0:0,0:0:0:0:
89,244,88917,5,10,0:0:0:0:
311,269,89084,1,0,0:0:0:0:
62,334,89251,5,10,0:0:0:0:
338,179,89417,1,0,0:0:0:0:
61,154,89584,2,0,L|92:256,1,93.5000028533936,10|0,0:0|0:0,0:0:0:0:
197,50,89917,5,8,0:0:0:0:
284,254,90084,1,0,0:0:0:0:
325,3,90251,5,10,0:0:0:0:
159,175,90417,1,2,0:0:0:0:
419,236,90584,5,10,0:0:0:0:
188,171,90751,1,2,0:0:0:0:
412,71,90917,1,10,0:0:0:0:
233,328,91084,6,0,B|123:332|176:261|34:269,1,187.000005706787,6|2,3:2|0:0,0:0:0:0:
244,147,91584,2,0,P|227:193|216:253,1,93.5000028533936,10|0,0:0|0:0,0:0:0:0:
48,82,91917,2,0,P|64:128|76:188,1,93.5000028533936,10|0,0:0|0:0,0:0:0:0:
244,17,92251,1,8,0:0:0:0:
330,209,92417,6,0,B|446:223|390:147|531:178,1,187.000005706787,6|2,3:2|0:0,0:0:0:0:
307,113,92917,2,0,P|260:126|200:134,1,93.5000028533936,10|0,0:0|0:0,0:0:0:0:
353,305,93251,2,0,P|399:319|460:326,1,93.5000028533936,10|0,0:0|0:0,0:0:0:0:
398,93,93584,1,8,0:0:0:0:
229,296,93751,5,6,3:2:0:0:
507,173,93917,1,0,3:0:0:0:
507,173,94001,1,8,0:0:0:0:
507,173,94084,1,10,0:0:0:0:
243,60,94251,1,10,0:3:0:0:
364,218,94417,1,8,0:3:0:0:
500,18,94584,5,2,3:2:0:0:
500,18,94667,1,8,0:0:0:0:
500,18,94751,1,8,0:0:0:0:
245,195,94917,6,0,B|184:205|184:205|151:192|151:192|80:209,1,159.375,6|0,3:2|0:0,0:0:0:0:
10,222,95251,5,10,0:0:0:0:
198,101,95417,1,10,0:0:0:0:
131,346,95584,1,2,3:2:0:0:
114,49,95751,5,8,0:0:0:0:
147,16,95834,1,8,0:0:0:0:
191,2,95917,1,8,0:0:0:0:
237,8,96000,1,8,0:0:0:0:
276,33,96084,5,2,0:0:0:0:
276,33,96417,6,0,L|264:111,2,59.4999981842042,2|0|2,0:0|0:0|0:0,0:0:0:0:
226,169,96917,2,0,P|256:143|351:153,1,118.999996368408,2|2,0:0|0:0,0:0:0:0:
215,366,97751,5,10,3:2:0:0:
101,73,98251,5,10,3:2:0:0:
121,343,98584,5,10,3:2:0:0:
195,50,98751,1,10,3:2:0:0:
188,274,98918,1,10,3:2:0:0:
87,46,99084,5,10,3:2:0:0:
504,294,100251,5,10,3:2:0:0:
211,180,100584,5,10,3:2:0:0:
412,267,100750,1,10,3:2:0:0:
188,274,100917,1,10,3:2:0:0:
481,200,101084,1,10,3:2:0:0:
481,200,101417,6,0,P|458:154|491:82,1,114.749996498108,2|0,0:0|0:0,0:0:0:0:
440,18,101751,6,0,B|344:14|393:85|256:77,1,152.999995330811,6|0,3:1|0:0,0:0:0:0:
215,59,102084,5,10,0:0:0:0:
433,111,102251,1,0,0:0:0:0:
263,252,102417,5,10,0:0:0:0:
481,200,102584,1,2,0:0:0:0:
239,155,102751,5,10,0:0:0:0:
362,301,102917,2,0,L|375:202,1,76.4999976654053,2|8,0:0|0:0,0:0:0:0:
236,349,103251,1,2,0:0:0:0:
128,158,103417,5,10,0:0:0:0:
34,318,103584,1,2,0:0:0:0:
142,127,103751,6,0,L|216:143,1,76.4999976654053,10|0,0:0|0:0,0:0:0:0:
336,31,104084,2,0,L|233:53,1,76.4999976654053,10|0,0:0|0:0,0:0:0:0:
378,217,104417,6,0,P|417:177|377:72,1,152.999995330811,2|0,3:1|0:0,0:0:0:0:
336,31,104751,5,10,0:0:0:0:
269,234,104917,1,2,0:0:0:0:
191,3,105084,5,8,0:0:0:0:
258,206,105250,1,2,0:0:0:0:
350,3,105417,5,8,0:0:0:0:
128,158,105584,2,0,L|144:255,1,76.4999976654053,2|8,0:0|0:0,0:0:0:0:
264,64,105917,5,2,0:0:0:0:
41,219,106084,1,10,0:0:0:0:
276,313,106251,1,2,0:0:0:0:
128,158,106417,6,0,L|151:50,1,76.4999976654053,10|0,0:0|0:0,0:0:0:0:
375,298,106751,2,0,L|352:406,1,76.4999976654053,10|0,0:0|0:0,0:0:0:0:
265,96,107084,6,0,B|362:90|321:154|434:132,1,152.999995330811,2|0,3:1|0:0,0:0:0:0:
493,121,107417,5,10,0:0:0:0:
279,194,107584,1,2,0:0:0:0:
512,246,107751,5,8,0:0:0:0:
265,96,107917,1,2,0:0:0:0:
399,322,108084,5,8,0:0:0:0:
394,51,108251,1,0,0:0:0:0:
280,317,108417,6,0,B|192:325|228:267|113:277,1,152.999995330811,2|0,3:1|0:0,0:0:0:0:
49,301,108751,5,10,0:0:0:0:
350,220,108917,1,2,0:0:0:0:
20,209,109084,5,8,0:0:0:0:
399,322,109251,1,2,0:0:0:0:
201,61,109417,5,8,0:0:0:0:
152,369,109584,1,0,0:0:0:0:
57,42,109751,5,2,3:1:0:0:
136,275,109917,1,0,0:0:0:0:
212,30,110084,1,8,0:3:0:0:
280,273,110251,1,8,0:0:0:0:
280,273,110334,1,8,0:0:0:0:
280,273,110417,1,8,0:0:0:0:
60,198,110584,1,8,0:0:0:0:
60,198,110667,1,8,0:0:0:0:
60,198,110751,1,8,0:0:0:0:
272,158,110917,6,0,B|325:150|325:150|367:175|367:175|433:166,1,152.999995330811,2|0,3:1|0:0,0:0:0:0:
512,151,111251,5,2,3:0:0:0:
303,247,111417,1,8,0:0:0:0:
340,48,111584,1,2,3:2:0:0:
340,48,111667,1,8,0:0:0:0:
340,48,111751,5,10,0:3:0:0:
213,238,111917,1,10,0:3:0:0:
417,168,112084,1,2,3:2:0:0:
272,158,112251,1,2,3:0:0:0:
334,336,112417,6,0,P|399:362|473:324,1,136,6|0,3:2|3:2,3:2:0:0:
303,247,113084,1,2,3:2:0:0:
241,318,113417,1,2,3:2:0:0:
179,247,113751,6,0,B|97:241|130:296|40:288,1,136,2|0,3:2|3:0,0:0:0:0:
4,210,114417,1,2,3:2:0:0:
55,131,114751,1,2,3:2:0:0:
4,52,115084,5,2,3:2:0:0:
97,214,115417,1,2,3:2:0:0:
190,52,115751,1,2,3:2:0:0:
4,210,116084,1,2,3:2:0:0:
226,315,116417,6,0,B|307:304|280:361|381:340,2,136,2|0|0,3:2|3:0|3:0,0:0:0:0:
143,363,117251,5,2,0:0:0:0:
341,259,117417,1,2,3:0:0:0:
143,155,117584,1,0,0:0:0:0:
226,315,117751,5,6,3:2:0:0:
315,117,117917,2,0,L|303:188,1,72.2500013780594,2|2,0:0|3:2,0:0:0:0:
226,315,118251,2,0,L|214:243,1,72.2500013780594,2|2,0:2|3:2,0:0:0:0:
403,314,118584,1,10,0:3:0:0:
443,130,118751,5,2,0:0:0:0:
318,282,118917,1,2,0:0:0:0:
297,88,119083,5,2,3:2:0:0:
423,222,119251,2,0,L|508:210,1,72.2500013780594,2|2,0:0|3:0,0:0:0:0:
368,98,119584,2,0,L|283:86,1,72.2500013780594,2|2,0:0|3:2,0:0:0:0:
463,38,119917,1,0,0:0:0:0:
319,188,120084,2,0,L|234:200,1,72.2500013780594,2|0,3:0|0:0,0:0:0:0:
75,123,120417,6,0,P|129:130|160:207,1,114.749996498108,6|0,3:2|0:0,0:0:0:0:
104,243,120751,2,0,L|117:324,1,76.4999976654053,8|0,0:0|0:0,0:0:0:0:
125,350,121001,1,8,0:0:0:0:
125,350,121084,1,8,0:3:0:0:
161,176,121251,1,8,0:3:0:0:
223,298,121417,1,0,3:0:0:0:
266,113,121584,5,10,0:0:0:0:
266,113,122417,6,0,L|254:0,1,101.999996887207,2|2,0:0|0:0,0:0:0:0:
338,187,123084,6,0,B|430:211|411:141|505:160,1,170,6|8,3:2|0:0,0:0:0:0:
474,244,123584,1,0,0:0:0:0:
370,107,123751,2,0,P|381:67|391:12,1,85,2|0,3:2|0:0,0:0:0:0:
238,187,124084,2,0,P|249:226|259:282,1,85,10|0,0:0|0:0,0:0:0:0:
138,71,124417,6,0,P|94:58|12:149,1,170,2|8,3:2|0:0,0:0:0:0:
95,144,124917,1,0,0:0:0:0:
55,295,125084,2,0,L|44:208,1,85,2|0,3:2|0:0,0:0:0:0:
180,145,125417,2,0,L|169:232,1,85,10|0,0:0|0:0,0:0:0:0:
208,318,125667,1,8,0:0:0:0:
208,318,125751,6,0,B|303:303|275:371|383:342,1,170,2|10,3:2|0:0,0:0:0:0:
453,303,126251,1,0,0:0:0:0:
315,186,126417,2,0,P|329:233|339:283,1,85,2|0,3:2|0:0,0:0:0:0:
491,202,126751,2,0,P|505:154|515:105,1,85,10|0,0:0|0:0,0:0:0:0:
418,24,127084,6,0,B|312:13|352:79|240:68,1,170,2|8,3:2|0:0,0:0:0:0:
166,29,127584,1,0,0:0:0:0:
166,29,127667,1,8,0:0:0:0:
166,29,127751,1,0,3:0:0:0:
218,225,127917,1,2,0:0:0:0:
394,122,128084,1,10,0:0:0:0:
192,127,128251,1,2,0:0:0:0:
244,323,128417,5,2,3:2:0:0:
411,202,128584,2,0,P|410:156|378:105,1,85,2|8,0:0|0:0,0:0:0:0:
461,52,128917,2,0,P|421:30|361:31,1,85,2|0,0:0|3:0,0:0:0:0:
192,127,129250,1,2,0:0:0:0:
393,121,129417,1,10,0:0:0:0:
218,22,129584,1,2,0:0:0:0:
257,219,129751,5,2,3:2:0:0:
393,121,129917,2,0,L|300:106,1,85,2|10,0:0|0:0,0:0:0:0:
215,225,130251,2,0,L|261:217,1,42.5,2|8,0:0|0:0,0:0:0:0:
341,204,130417,1,2,3:2:0:0:
161,113,130584,1,0,0:0:0:0:
254,304,130751,2,0,L|347:289,1,85,10|0,0:0|0:0,0:0:0:0:
507,138,131084,6,0,P|446:152|427:243,1,127.5,2|0,3:2|0:0,0:0:0:0:
488,272,131417,1,8,0:0:0:0:
488,272,131529,2,0,P|496:250|496:213,1,56.6666666666667,8|8,0:0|0:0,0:0:0:0:
396,299,131751,6,0,B|329:294|357:339|262:330,1,113.333333333333,2|0,3:2|0:0,0:0:0:0:
193,279,132084,1,10,0:3:0:0:
153,285,132195,1,8,0:3:0:0:
113,291,132305,1,8,0:3:0:0:
73,297,132417,6,0,L|98:146,1,113.333333333333,2|0,3:2|0:0,0:0:0:0:
81,87,132751,5,0,3:0:0:0:
118,88,132862,1,0,3:0:0:0:
151,106,132973,1,0,3:0:0:0:
174,135,133084,6,0,L|236:127,1,56.6666666666667,10|0,0:0|0:0,0:0:0:0:
320,217,133306,1,0,3:0:0:0:
320,217,133417,6,0,L|258:208,1,56.6666666666667,10|8,0:0|0:0,0:0:0:0:
410,127,133640,1,8,0:0:0:0:
410,127,133751,6,0,B|372:198|448:192|371:291,2,136,6|0|0,3:2|0:0|0:0,0:0:0:0:
487,71,134584,1,2,0:0:0:0:
400,32,134751,1,0,0:0:0:0:
483,169,134917,1,2,3:2:0:0:
320,217,135084,6,0,P|245:207|156:196,2,136,2|0|0,3:2|0:0|0:0,0:0:0:0:
132,127,136084,2,0,P|104:161|98:194,1,68,2|0,0:0|0:0,0:0:0:0:
179,331,136417,6,0,B|152:251|211:272|179:179,2,136,2|0|0,3:2|0:0|0:0,0:0:0:0:
259,384,137250,1,2,0:0:0:0:
339,331,137417,1,2,0:0:0:0:
184,198,137584,1,2,3:2:0:0:
291,133,137751,6,0,L|260:277,2,136,2|0|0,3:2|0:0|0:0,0:0:0:0:
139,25,138667,5,0,1:0:0:0:
145,44,138751,2,0,L|160:116,1,68,2|2,1:2|0:0,0:0:0:0:
289,48,139084,6,0,P|339:60|366:93,1,85,2|0,3:2|0:0,0:0:0:0:
429,38,139417,2,0,P|443:87|428:127,1,85,0|0,3:0|0:0,0:0:0:0:
507,154,139751,1,0,3:0:0:0:
361,83,139917,5,2,0:0:0:0:
363,247,140084,1,2,3:2:0:0:
429,38,140251,1,0,0:0:0:0:
295,202,140417,6,0,P|257:190|187:177,1,85,2|0,3:2|0:0,0:0:0:0:
199,87,140751,2,0,P|161:98|91:112,1,85,0|0,3:0|0:0,0:0:0:0:
103,202,141084,2,0,P|65:190|-5:177,1,85,0|0,3:0|0:0,0:0:0:0:
7,87,141417,5,2,3:2:0:0:
212,180,141584,1,2,0:0:0:0:
102,28,141751,6,0,P|99:71|122:115,1,85,2|0,3:2|0:0,0:0:0:0:
47,184,142084,2,0,P|82:208|132:210,1,85,0|0,3:0|0:0,0:0:0:0:
154,309,142417,1,0,3:0:0:0:
116,108,142584,5,2,0:0:0:0:
289,235,142751,1,2,3:2:0:0:
243,47,142917,1,2,0:0:0:0:
249,306,143084,6,0,P|302:319|341:300,1,85,2|0,3:2|0:0,0:0:0:0:
247,164,143417,2,0,P|209:203|206:246,1,85,0|0,3:0|0:0,0:0:0:0:
369,233,143751,5,2,3:2:0:0:
276,49,143917,1,0,0:0:0:0:
249,306,144084,1,2,3:2:0:0:
342,122,144250,1,0,0:0:0:0:
110,247,144417,6,0,B|208:267|178:193|290:215,1,178.499994552612,2|0,3:2|3:0,0:0:0:0:
130,154,144917,1,0,0:0:0:0:
249,306,145084,6,0,P|301:309|377:215,1,178.499994552612,2|2,3:2|3:2,0:0:0:0:
342,122,145584,1,0,0:0:0:0:
454,294,145751,6,0,P|472:202|494:115,1,178.499994552612,2|2,3:2|3:2,0:0:0:0:
366,6,146251,2,0,P|351:68|226:102,1,178.499994552612,2|0,0:0|0:0,0:0:0:0:
162,85,146751,2,0,P|176:130|189:180,1,89.2499972763062,0|0,3:0|0:0,0:0:0:0:
175,335,147084,5,2,3:2:0:0:
252,110,147251,1,2,0:0:0:0:
44,299,147417,5,10,0:0:0:0:
312,370,147584,1,10,0:0:0:0:
24,203,147751,5,8,0:0:0:0:
332,78,147917,1,10,0:0:0:0:
5,108,148084,5,8,0:0:0:0:
415,273,148251,1,10,1:2:0:0:
415,273,148584,5,2,0:0:0:0:
415,273,148751,2,0,L|430:206,1,68,2|2,0:0|0:0,0:0:0:0:
323,251,149084,6,0,P|323:289|338:317,1,68,2|0,0:0|0:0,0:0:0:0:
512,220,149417,2,0,P|513:186|498:155,1,68,2|0,0:0|0:0,0:0:0:0:
324,66,149751,6,0,B|311:141|311:141|335:169|335:169|318:277,1,195.500003728867,6|10,3:2|0:0,0:0:0:0:
402,116,150251,1,0,0:0:0:0:
244,195,150417,1,10,0:0:0:0:
388,320,150584,2,0,P|432:307|498:295,1,97.7500018644333,2|8,0:0|0:0,0:0:0:0:
223,103,150917,2,0,P|179:116|113:128,1,97.7500018644333,2|8,0:0|0:0,0:0:0:0:
341,193,151251,5,0,0:0:0:0:
391,22,151417,1,8,0:0:0:0:
223,220,151584,1,2,0:0:0:0:
472,162,151751,1,10,0:0:0:0:
223,103,151917,1,0,0:0:0:0:
364,298,152084,1,10,0:0:0:0:
375,48,152251,1,2,0:0:0:0:
197,239,152417,6,0,P|146:247|82:219,1,97.7500018644333,10|0,0:0|0:0,0:0:0:0:
375,48,152751,2,0,P|426:40|490:68,1,97.7500018644333,10|0,0:0|0:0,0:0:0:0:
280,289,153084,1,10,0:0:0:0:
214,61,153251,1,2,0:0:0:0:
405,205,153417,1,8,0:0:0:0:
150,243,153584,2,0,L|169:127,1,97.7500018644333,2|8,0:0|0:0,0:0:0:0:
288,322,153917,5,0,0:0:0:0:
303,100,154084,1,8,0:0:0:0:
126,268,154251,1,2,0:0:0:0:
405,205,154417,1,10,0:0:0:0:
153,120,154584,1,2,0:0:0:0:
375,305,154751,1,10,0:0:0:0:
314,69,154917,1,2,0:0:0:0:
199,351,155084,6,0,P|108:377|30:323,1,195.500003728867,14|10,0:0|0:0,0:0:0:0:
55,103,155584,1,0,0:0:0:0:
126,268,155751,1,8,0:0:0:0:
246,81,155917,2,0,B|360:62|324:152|462:120,1,195.500003728867,2|8,0:0|0:3,0:0:0:0:
199,5,156417,6,0,B|152:49|152:49|178:199,1,195.500003728867,14|10,0:2|0:0,0:0:0:0:
202,346,156917,1,2,0:0:0:0:
275,173,157084,1,8,0:0:0:0:
42,347,157251,2,0,P|65:261|88:138,1,195.500003728867,2|0,0:0|0:0,0:0:0:0:
219,315,157751,6,0,P|282:261|397:297,1,195.500003728867,14|8,0:0|0:0,0:0:0:0:
484,384,158251,1,0,0:0:0:0:
421,145,158418,1,8,0:0:0:0:
318,363,158584,1,0,0:0:0:0:
318,363,158668,1,8,0:0:0:0:
318,363,158751,1,8,0:0:0:0:
173,104,158917,6,0,B|230:85|230:85|278:109|278:109|340:89,1,172.125000656605,6|0,0:0|0:0,0:0:0:0:
423,51,159251,5,10,0:0:0:0:
240,267,159417,1,10,0:0:0:0:
285,16,159584,1,10,0:0:0:0:
378,302,159751,2,0,L|364:343,2,24.4375004661083,2|2|2,0:0|0:0|0:0,0:0:0:0:
404,270,159917,6,0,L|390:215,1,48.8750009322167,8|8,0:0|0:0,0:0:0:0:
321,138,160084,2,0,L|335:83,1,48.8750009322167,8|8,0:0|0:0,0:0:0:0:
235,291,160251,5,8,0:0:0:0:
230,315,160334,1,8,0:0:0:0:
226,339,160417,5,6,3:2:0:0:
148,115,160584,1,8,0:0:0:0:
136,367,160751,1,2,0:0:0:0:
238,87,160917,5,10,0:0:0:0:
13,255,161084,1,0,0:0:0:0:
286,214,161251,5,10,0:0:0:0:
27,120,161417,1,0,0:0:0:0:
321,212,161584,2,0,P|364:189|420:172,1,97.7500018644333,10|0,0:0|0:0,0:0:0:0:
130,90,161917,5,8,0:0:0:0:
226,339,162084,1,0,0:0:0:0:
319,79,162251,5,10,0:0:0:0:
74,238,162417,1,2,0:0:0:0:
399,269,162584,1,10,0:0:0:0:
154,110,162750,5,2,0:0:0:0:
238,370,162917,1,10,0:0:0:0:
403,159,163084,6,0,P|449:177|511:194,1,97.7500018644333,2|8,0:0|0:0,0:0:0:0:
324,330,163417,1,2,0:0:0:0:
290,93,163584,5,10,0:0:0:0:
151,321,163751,1,2,0:0:0:0:
165,78,163918,5,10,0:0:0:0:
304,306,164084,1,0,0:0:0:0:
403,36,164251,2,0,P|359:52|294:67,1,97.7500018644333,10|0,0:0|0:0,0:0:0:0:
53,17,164584,5,8,0:0:0:0:
316,160,164751,1,0,0:0:0:0:
0,195,164917,5,10,0:0:0:0:
309,64,165084,1,2,0:0:0:0:
19,8,165251,5,10,0:0:0:0:
277,72,165417,1,2,0:0:0:0:
30,189,165584,1,10,0:0:0:0:
284,310,165751,6,0,B|395:341|357:251|491:296,1,195.500003728867,6|2,3:2|0:0,0:0:0:0:
322,214,166251,2,0,P|272:227|210:238,1,97.7500018644333,10|0,0:0|0:0,0:0:0:0:
402,57,166584,2,0,P|451:70|514:81,1,97.7500018644333,10|0,0:0|0:0,0:0:0:0:
322,214,166917,1,8,0:0:0:0:
196,40,167084,6,0,P|126:22|74:135,1,195.500003728867,6|2,3:2|0:0,0:0:0:0:
201,222,167584,2,0,P|214:168|232:121,1,97.7500018644333,10|0,0:0|0:0,0:0:0:0:
37,288,167917,2,0,P|23:234|6:187,1,97.7500018644333,10|0,0:0|0:0,0:0:0:0:
201,354,168251,1,8,0:0:0:0:
117,186,168417,5,6,3:2:0:0:
338,292,168584,2,0,L|325:358,1,48.8750009322167,8|8,0:0|0:0,0:0:0:0:
201,222,168751,2,0,L|214:288,1,48.8750009322167,10|8,0:0|0:0,0:0:0:0:
338,152,168917,2,0,L|325:218,1,48.8750009322167,10|8,0:3|0:3,0:0:0:0:
201,82,169084,5,0,3:0:0:0:
179,52,169167,1,0,3:0:0:0:
147,34,169250,1,2,3:2:0:0:
111,30,169334,1,0,3:0:0:0:
76,40,169417,1,8,0:0:0:0:
201,222,169584,6,0,B|296:212|258:288|394:255,1,172.125000656605,6|0,3:2|0:0,0:0:0:0:
454,235,169917,5,10,0:0:0:0:
214,319,170084,1,10,0:0:0:0:
346,125,170251,1,2,3:2:0:0:
346,125,170334,1,0,3:0:0:0:
346,125,170417,6,0,L|333:186,1,48.8750009322167,10|8,0:0|0:0,0:0:0:0:
125,262,170584,2,0,L|112:201,1,48.8750009322167,8|8,0:0|0:0,0:0:0:0:
270,48,170751,6,0,P|322:20|434:80,1,172.125000656605,2|0,0:0|0:0,0:0:0:0:
468,136,171084,6,0,L|434:294,1,136,2|2,0:0|0:0,0:0:0:0:
347,331,171584,2,0,L|332:260,1,68,2|0,0:0|0:0,0:0:0:0:
225,259,171917,2,0,L|258:100,1,136,2|0,0:0|0:0,0:0:0:0:
87,320,172417,5,10,3:2:0:0:
384,267,172917,5,10,3:2:0:0:
48,219,173251,5,10,3:2:0:0:
345,368,173417,1,10,3:2:0:0:
56,328,173584,1,10,3:2:0:0:
415,259,173751,5,10,3:2:0:0:
193,49,174917,5,10,3:2:0:0:
246,346,175251,5,10,3:2:0:0:
294,10,175417,1,10,3:2:0:0:
145,307,175584,1,10,3:2:0:0:
185,18,175751,5,10,3:2:0:0:
230,183,175917,1,8,0:3:0:0:
403,0,176084,6,0,L|380:144,1,140.25000428009,2|0,0:0|0:0,0:0:0:0:
364,236,176417,5,6,3:2:0:0:
364,236,187084,6,0,P|283:184|264:366,1,356.999989105225,2|2,3:2|0:0,0:0:0:0:
281,276,188251,1,2,0:0:0:0:
112,167,188417,6,0,B|77:136|72:55|116:35|192:0|246:118|232:207|186:249,1,356.999989105225,2|2,3:2|0:0,0:0:0:0:
127,285,189584,1,2,0:0:0:0:
301,177,189751,6,0,B|451:182|365:278|530:276,2,237.999992736817,2|2|2,3:2|3:2|3:2,0:0:0:0:
301,177,191417,2,0,P|309:212|313:251,2,59.4999981842042,0|0|2,0:0|0:0|3:2,0:0:0:0:
205,82,192084,1,2,0:0:0:0:
205,82,192250,1,2,0:0:0:0:
184,189,192417,6,0,B|334:184|248:88|413:89,1,237.999992736817,2|0,3:2|3:0,0:0:0:0:
434,208,193417,2,0,P|399:203|369:185,1,59.4999981842042,2|2,0:0|0:0,0:0:0:0:
205,82,193751,6,0,P|143:87|89:239,1,237.999992736817,2|0,3:2|3:0,0:0:0:0:
205,348,194751,2,0,P|207:314|218:282,1,59.4999981842042,2|2,0:0|0:0,0:0:0:0:
303,193,195084,6,0,P|348:188|414:288,1,178.499994552612,2|0,3:2|0:0,0:0:0:0:
322,365,195751,2,0,P|263:353|204:347,1,118.999996368408,2|0,3:2|0:0,0:0:0:0:
118,370,196251,1,2,0:0:0:0:
142,284,196417,1,2,0:0:0:0:
142,284,197084,6,0,P|98:292|53:297,1,79.3333309122722,2|2,0:0|0:0,0:0:0:0:
129,144,197751,6,0,B|241:125|195:202|326:173,1,187.000005706787,6|8,3:2|0:0,0:0:0:0:
157,244,198251,1,0,0:0:0:0:
274,85,198417,5,10,0:0:0:0:
338,267,198584,1,0,3:0:0:0:
417,56,198751,5,10,0:0:0:0:
353,238,198918,1,0,3:0:0:0:
253,60,199084,6,0,P|150:34|85:100,1,187.000005706787,10|10,0:0|0:0,0:0:0:0:
57,162,199501,1,0,0:0:0:0:
57,162,199584,2,0,L|71:247,1,46.7500014266968
89,333,199751,5,10,0:0:0:0:
180,128,199917,1,0,3:0:0:0:
338,374,200084,5,10,0:0:0:0:
275,157,200251,1,0,3:0:0:0:
476,319,200417,6,0,P|434:307|365:299,1,93.5000028533936,10|0,0:0|0:0,0:0:0:0:
174,372,200751,5,10,0:0:0:0:
263,186,200917,1,0,0:0:0:0:
338,374,201084,5,8,0:0:0:0:
85,327,201251,1,2,3:2:0:0:
381,165,201417,5,8,0:0:0:0:
128,212,201584,2,0,P|143:162|157:104,1,93.5000028533936,2|8,3:2|0:0,0:0:0:0:
300,280,201917,1,0,0:0:0:0:
267,22,202084,5,10,0:0:0:0:
119,245,202251,1,0,0:0:0:0:
132,32,202417,5,10,0:0:0:0:
280,255,202584,1,0,0:0:0:0:
382,37,202751,5,10,0:0:0:0:
196,128,202917,1,0,0:0:0:0:
394,280,203084,6,0,P|438:265|496:258,1,93.5000028533936,10|0,0:0|0:0,0:0:0:0:
304,139,203417,5,10,0:0:0:0:
256,371,203584,1,2,0:0:0:0:
67,168,203751,5,8,0:0:0:0:
280,255,203917,1,2,0:0:0:0:
57,350,204084,5,8,0:0:0:0:
279,160,204251,2,0,P|326:177|381:191,1,93.5000028533936,2|8,0:0|0:0,0:0:0:0:
91,53,204584,2,0,P|43:70|-11:84,1,93.5000028533936,2|8,0:0|0:0,0:0:0:0:
207,285,204917,5,2,0:0:0:0:
261,71,205084,1,8,0:0:0:0:
60,265,205251,1,0,3:0:0:0:
60,265,205334,1,0,3:0:0:0:
60,265,205417,1,8,0:0:0:0:
321,366,205584,1,0,3:0:0:0:
321,366,205667,1,0,3:0:0:0:
321,366,205751,5,10,0:0:0:0:
279,160,205917,1,0,0:0:0:0:
166,358,206084,1,8,0:0:0:0:
67,168,206251,1,0,3:0:0:0:
67,168,206334,1,0,3:0:0:0:
67,168,206417,1,0,3:0:0:0:
222,259,206584,1,0,3:0:0:0:
30,353,206751,2,0,P|46:310|64:245,1,93.5000028533936,8|0,0:0|0:0,0:0:0:0:
138,118,207084,6,0,P|176:118|214:143,1,62.3333352355958,10|8,0:0|0:3,0:0:0:0:
263,191,207306,1,8,0:3:0:0:
263,191,207417,6,0,P|301:191|339:166,1,62.3333352355958,8|0,0:0|0:0,0:0:0:0:
388,118,207640,1,8,0:3:0:0:
388,118,207751,5,10,0:0:0:0:
413,150,207862,1,8,0:3:0:0:
418,190,207973,1,8,0:3:0:0:
401,228,208084,6,0,L|416:300,1,62.3333352355958,0|0,3:0|3:0,0:0:0:0:
351,358,208306,1,0,3:0:0:0:
351,358,208417,6,0,P|305:325|207:369,2,152.999995330811,6|0|0,3:2|0:0|0:0,0:0:0:0:
413,289,209251,1,2,0:0:0:0:
441,377,209417,1,2,0:0:0:0:
504,309,209584,1,2,3:2:0:0:
416,141,209751,6,0,B|441:230|375:205|415:296,2,152.999995330811,2|0|0,3:2|0:0|0:0,0:0:0:0:
336,175,210751,1,2,0:0:0:0:
489,252,210917,1,2,0:0:0:0:
327,340,211084,6,0,P|249:327|163:317,2,152.999995330811,2|0|0,3:2|0:0|0:0,0:0:0:0:
408,296,211918,1,2,0:0:0:0:
330,248,212084,1,2,0:0:0:0:
410,204,212251,1,2,3:2:0:0:
286,106,212417,6,0,P|245:98|178:179,2,152.999995330811,2|0|0,3:2|0:0|0:0,0:0:0:0:
223,241,213334,5,0,1:0:0:0:
201,255,213417,2,0,P|165:259|117:231,1,76.4999976654053,2|2,1:2|0:0,0:0:0:0:
160,89,213751,6,0,P|171:139|181:195,1,85,2|0,3:2|0:0,0:0:0:0:
335,45,214084,2,0,P|323:95|314:151,1,85,0|0,3:0|0:0,0:0:0:0:
160,1,214417,1,0,3:0:0:0:
314,160,214584,5,2,0:0:0:0:
160,89,214751,1,2,3:2:0:0:
335,45,214917,1,2,0:0:0:0:
194,198,215084,6,0,P|151:190|90:176,1,85,2|0,3:2|0:0,0:0:0:0:
283,328,215417,2,0,P|240:335|179:349,1,85,0|0,3:0|0:0,0:0:0:0:
372,198,215751,2,0,P|329:190|268:176,1,85,0|0,3:0|0:0,0:0:0:0:
461,328,216084,5,2,3:2:0:0:
509,145,216251,1,2,0:0:0:0:
361,303,216417,6,0,P|377:348|384:393,1,85,2|0,3:2|0:0,0:0:0:0:
288,181,216751,2,0,P|304:136|311:91,1,85,0|0,3:0|0:0,0:0:0:0:
215,303,217084,1,0,3:0:0:0:
119,99,217251,5,2,0:0:0:0:
85,301,217417,1,2,3:2:0:0:
259,190,217584,1,2,0:0:0:0:
6,157,217751,6,0,P|14:201|24:262,1,85,2|0,3:2|0:0,0:0:0:0:
119,99,218084,2,0,P|87:66|46:54,1,85,0|0,1:0|0:0,0:0:0:0:
167,201,218417,5,2,3:2:0:0:
213,46,218584,1,0,0:0:0:0:
335,261,218751,5,2,3:2:0:0:
289,106,218918,1,0,0:0:0:0:
222,333,219084,6,0,B|108:358|154:269|4:308,1,187.000005706787,2|0,3:2|3:0,0:0:0:0:
189,239,219584,1,0,0:0:0:0:
26,80,219751,2,0,B|64:202|64:202|88:204|121:170,1,187.000005706787,2|2,3:2|3:2,0:0:0:0:
158,94,220251,1,0,0:0:0:0:
286,209,220417,6,0,P|334:218|375:101,1,187.000005706787,2|2,3:2|3:2,0:0:0:0:
210,155,220917,2,0,B|164:249|240:240|188:346,1,187.000005706787,2|0,0:0|0:0,0:0:0:0:
58,347,221417,2,0,P|87:294|136:279,1,93.5000028533936,0|0,3:0|0:0,0:0:0:0:
344,343,221751,5,2,3:2:0:0:
112,251,221917,1,2,0:0:0:0:
313,63,222084,5,10,0:0:0:0:
193,335,222251,1,10,0:0:0:0:
165,6,222417,5,8,0:0:0:0:
414,217,222584,1,10,0:0:0:0:
4,210,222751,5,8,0:0:0:0:
402,22,222917,1,10,1:2:0:0:
402,22,223251,5,2,0:0:0:0:
356,155,223417,1,2,0:0:0:0:
313,63,223584,1,2,0:0:0:0:
343,238,223751,6,0,P|381:236|414:217,1,76.4999976654053,2|0,0:0|0:0,0:0:0:0:
283,49,224084,2,0,P|245:51|212:70,1,76.4999976654053,2|0,3:2|0:0,0:0:0:0:
133,218,224417,6,0,B|166:94|66:136|134:-8,1,209.100003190613,6|10,3:2|0:0,0:0:0:0:
213,69,224917,1,0,0:0:0:0:
39,173,225084,1,10,0:0:0:0:
221,260,225251,1,0,0:0:0:0:
126,121,225417,1,8,0:0:0:0:
58,354,225584,6,0,L|172:332,1,104.550001595306,2|8,0:0|0:0,0:0:0:0:
334,294,225917,1,0,0:0:0:0:
128,233,226084,1,8,0:0:0:0:
366,193,226251,5,2,0:0:0:0:
160,334,226417,1,10,0:0:0:0:
225,101,226584,1,2,0:0:0:0:
355,325,226751,1,10,0:0:0:0:
98,221,226917,1,2,0:0:0:0:
331,88,227084,6,0,L|463:116,1,104.550001595306,10|0,0:0|0:0,0:0:0:0:
200,242,227417,2,0,L|68:214,1,104.550001595306,10|0,0:0|0:0,0:0:0:0:
267,3,227751,1,10,0:0:0:0:
366,193,227917,1,2,0:0:0:0:
158,142,228084,1,8,0:0:0:0:
415,106,228251,6,0,P|458:151|466:193,1,104.550001595306,2|8,0:0|0:0,0:0:0:0:
332,356,228584,1,0,0:0:0:0:
366,193,228751,1,8,0:0:0:0:
448,379,228917,5,2,0:0:0:0:
227,264,229084,1,10,0:0:0:0:
466,190,229251,1,2,0:0:0:0:
233,373,229417,1,10,0:0:0:0:
315,109,229584,1,2,0:0:0:0:
135,323,229751,6,0,P|67:325|16:204,1,209.100003190613,14|10,0:0|0:0,0:0:0:0:
141,116,230251,1,2,0:0:0:0:
98,240,230417,1,8,0:0:0:0:
66,59,230584,2,0,B|124:13|124:13|259:63,1,209.100003190613,2|0,0:0|0:0,0:0:0:0:
399,137,231084,6,0,P|352:152|285:178,1,104.550001595306,14|0,0:0|0:0,0:0:0:0:
141,116,231417,1,10,0:0:0:0:
293,266,231584,1,2,0:0:0:0:
250,59,231751,1,8,0:0:0:0:
131,317,231917,2,0,B|255:306|192:391|344:366,1,209.100003190613,2|0,0:0|0:0,0:0:0:0:
464,196,232417,5,14,0:0:0:0:
293,266,232584,1,0,0:0:0:0:
512,287,232751,1,10,0:0:0:0:
245,175,232917,1,0,0:0:0:0:
512,105,233084,1,8,0:0:0:0:
512,105,233167,1,8,0:0:0:0:
512,105,233251,5,8,0:3:0:0:
397,328,233417,1,8,0:0:0:0:
261,71,233584,6,0,B|141:59|204:145|55:123,1,191.250007295609,6|0,0:0|0:0,0:0:0:0:
0,109,233917,5,10,0:0:0:0:
281,208,234084,1,10,0:0:0:0:
4,311,234251,1,10,0:0:0:0:
293,78,234417,6,0,L|335:91,6,26.1375003988266,2|2|2|2|2|2|2,0:0|0:0|0:0|0:0|0:0|0:0|0:0,0:0:0:0:
261,71,234751,6,0,L|271:145,1,52.2750007976532,8|8,0:0|0:0,0:0:0:0:
72,234,234917,2,0,L|82:160,1,52.2750007976532,8|8,0:0|0:0,0:0:0:0:
199,322,235084,5,6,3:2:0:0:
158,105,235251,1,8,0:0:0:0:
91,358,235417,1,2,0:0:0:0:
313,175,235584,5,10,0:0:0:0:
72,234,235751,1,0,0:0:0:0:
338,315,235917,5,10,0:0:0:0:
97,256,236084,1,0,0:0:0:0:
375,88,236251,2,0,P|431:100|494:138,1,104.550001595306,10|0,0:0|0:0,0:0:0:0:
248,254,236584,5,8,0:0:0:0:
181,30,236751,1,0,0:0:0:0:
97,256,236917,5,10,0:0:0:0:
353,106,237084,1,2,0:0:0:0:
63,24,237251,1,10,0:0:0:0:
248,254,237417,5,2,0:0:0:0:
424,7,237584,1,10,0:0:0:0:
137,159,237751,6,0,P|95:135|-3:135,1,104.550001595306,2|8,0:0|0:0,0:0:0:0:
180,337,238084,1,2,0:0:0:0:
287,78,238251,5,10,0:0:0:0:
70,272,238417,1,0,0:0:0:0:
361,355,238584,5,10,0:0:0:0:
213,119,238751,1,0,0:0:0:0:
79,360,238917,2,0,P|131:343|194:336,1,104.550001595306,10|0,0:0|0:0,0:0:0:0:
393,367,239251,5,8,0:0:0:0:
164,248,239417,1,0,0:0:0:0:
444,181,239584,5,10,0:0:0:0:
180,336,239751,1,2,0:0:0:0:
287,78,239917,1,10,0:0:0:0:
425,379,240084,5,2,0:0:0:0:
95,305,240251,1,10,0:0:0:0:
364,28,240417,6,0,B|374:110|374:110|340:141|340:141|357:237,1,209.100003190613,6|2,3:2|0:0,0:0:0:0:
229,109,240917,6,0,P|242:57|255:-29,1,104.550001595306,10|0,0:0|0:0,0:0:0:0:
447,277,241251,2,0,P|433:328|421:415,1,104.550001595306,10|0,0:0|0:0,0:0:0:0:
340,142,241584,1,8,0:0:0:0:
203,321,241751,6,0,B|84:340|131:246|-7:274,1,209.100003190613,6|2,3:2|0:0,0:0:0:0:
193,136,242251,2,0,B|205:189|205:189|171:241,1,104.550001595306,10|0,0:0|0:0,0:0:0:0:
27,98,242584,2,0,B|15:45|15:45|49:-7,1,104.550001595306,10|0,0:0|0:0,0:0:0:0:
119,174,242917,1,8,0:0:0:0:
317,76,243084,5,6,3:2:0:0:
221,281,243251,2,0,L|198:204,1,52.2750007976532,8|8,0:0|0:0,0:0:0:0:
410,110,243417,2,0,L|387:187,1,52.2750007976532,10|8,0:0|0:0,0:0:0:0:
314,247,243584,6,0,L|291:170,1,52.2750007976532,10|8,0:3|0:3,0:0:0:0:
503,144,243751,1,0,3:0:0:0:
495,169,243834,1,0,3:0:0:0:
488,194,243917,1,2,3:2:0:0:
480,219,244001,1,0,3:0:0:0:
473,244,244084,1,0,3:0:0:0:
382,15,244251,6,0,B|327:-17|327:-17|179:32,1,198.900006676941,6|0,3:2|0:0,0:0:0:0:
108,68,244584,1,8,0:0:0:0:
410,110,244751,1,8,0:0:0:0:
172,295,244917,1,0,3:0:0:0:
172,295,245001,1,0,3:0:0:0:
172,295,245084,6,0,L|187:231,1,52.2750007976532,8|8,0:0|0:0,0:0:0:0:
6,66,245251,2,0,L|21:130,1,52.2750007976532,8|8,0:0|0:0,0:0:0:0:
198,25,245417,6,0,B|288:15|246:79|364:58,1,156.82500239296,2|0,0:0|0:0,0:0:0:0:
461,78,245751,6,0,P|495:43|417:22,1,152.999995330811,2|2,0:0|0:0,0:0:0:0:
331,99,246251,2,0,P|352:173|366:258,2,152.999995330811,2|2|0,0:0|0:0|0:0,0:0:0:0:
175,363,247084,5,10,3:2:0:0:
331,99,247584,1,10,3:2:0:0:
173,100,247917,5,10,3:2:0:0:
329,364,248084,1,10,3:2:0:0:
331,99,248251,1,10,3:2:0:0:
175,363,248417,1,10,3:2:0:0:
175,363,249584,5,10,3:2:0:0:
389,143,249918,5,10,3:2:0:0:
133,210,250084,1,10,3:2:0:0:
428,292,250251,1,10,3:2:0:0:
175,363,250417,2,0,L|108:354,1,50.9999984436036,10|0,3:2|0:0,0:0:0:0:
60,299,250584,2,0,L|-7:308,1,50.9999984436036
159,189,250751,6,0,P|146:113|125:25,1,152.999995330811,2|0,0:0|0:0,0:0:0:0:
148,10,251084,5,6,3:1:0:0:
