osu file format v14

[General]
AudioFilename: audio.mp3
AudioLeadIn: 0
PreviewTime: 73900
Countdown: 0
SampleSet: Soft
StackLeniency: 0.7
Mode: 0
LetterboxInBreaks: 0
WidescreenStoryboard: 1

[Editor]
Bookmarks: 16456,21789,37789,48455,59122,75122,85122,85789,96455,101789,110955,112789,112900,113011,113122
DistanceSpacing: 1
BeatDivisor: 4
GridSize: 8
TimelineZoom: 1.4

[Metadata]
Title:Watashi, Idol Sengen
TitleUnicode:私、アイドル宣言
Artist:Soramin
ArtistUnicode:そらみん
Creator:Mimari
Version:Normal
Source:
Tags:j私を染める i の歌 wo someru I no uta gom oji 海賊王 shito atsyuk japanese female vocals ヤマコ cut edit ver cover version never log off riana zisa curi [c_u_r_i] reillia dubturt
BeatmapID:2134566
BeatmapSetID:1018549

[Difficulty]
HPDrainRate:2.5
CircleSize:3
OverallDifficulty:3
ApproachRate:4
SliderMultiplier:0.96
SliderTickRate:1

[Events]
//Background and Video events
0,0,"bg12.jpg",0,0
//Break Periods
2,21989,23136
2,59321,63135
//Storyboard Layer 0 (Background)
//Storyboard Layer 1 (Fail)
//Storyboard Layer 2 (Pass)
//Storyboard Layer 3 (Foreground)
//Storyboard Layer 4 (Overlay)
//Storyboard Sound Samples

[TimingPoints]
16456,333.333333333333,4,2,1,75,1,0
16456,-100,4,2,1,75,0,1
21789,-100,4,2,1,75,0,0
75122,-100,4,2,1,45,0,1
85122,-100,4,2,1,45,0,0
85789,-100,4,2,1,45,0,1
96455,-100,4,2,1,45,0,0

[Colours]
Combo1 : 181,249,186
Combo2 : 254,186,206
Combo3 : 137,223,248
Combo4 : 250,247,175

[HitObjects]
9,344,16456,6,0,L|119:339,1,96
192,299,17122,1,0,0:0:0:0:
192,299,17289,2,0,L|249:308,1,48
285,321,17622,2,0,B|366:302|317:261|411:250,1,144
500,265,18456,1,0,0:0:0:0:
511,169,18789,1,0,0:0:0:0:
472,81,19122,6,0,L|362:70,1,96
289,30,19789,1,0,0:0:0:0:
289,30,19956,2,0,L|221:36,1,48
193,25,20289,2,0,B|111:43|160:84|66:95,1,144
5,163,21122,2,0,P|8:195|9:224,1,48
38,248,21456,2,0,P|36:279|34:309,1,48
54,340,21789,5,0,0:0:0:0:
54,340,24456,6,0,P|98:345|158:309,1,96
179,291,24956,2,0,P|226:286|269:306,1,96
292,348,25456,1,0,0:0:0:0:
292,348,25622,1,0,0:0:0:0:
385,368,25956,1,0,0:0:0:0:
413,329,26122,2,0,P|417:303|427:265,1,48
451,242,26456,1,0,0:0:0:0:
372,67,27122,6,0,L|255:60,1,96
185,29,27789,2,0,L|122:32,1,48
88,33,28122,1,0,0:0:0:0:
15,96,28456,2,0,L|30:211,1,96
34,286,29122,1,0,0:0:0:0:
124,319,29456,1,0,0:0:0:0:
208,272,29789,6,0,P|223:229|211:161,1,96
159,103,30456,1,0,0:0:0:0:
217,26,30789,2,0,P|262:13|320:30,1,96
342,58,31289,1,0,0:0:0:0:
342,58,31456,2,0,L|337:123,1,48
333,153,31789,1,0,0:0:0:0:
388,231,32122,1,0,0:0:0:0:
477,196,32456,6,0,P|479:250|483:302,1,96
485,339,32956,1,0,0:0:0:0:
395,374,33289,2,0,P|362:353|297:352,1,96
268,378,33789,1,0,0:0:0:0:
184,331,34122,1,0,0:0:0:0:
184,331,34289,2,0,L|71:340,1,96
40,341,34789,1,0,0:0:0:0:
22,246,35122,6,0,P|21:224|15:185,1,48
6,151,35456,1,0,0:0:0:0:
6,151,35622,2,0,P|7:129|13:90,1,48
36,62,35956,1,0,0:0:0:0:
125,27,36289,2,0,B|168:78|234:47|234:47|296:18|363:74,1,240
499,174,37789,6,0,P|488:220|482:268,1,96
494,363,38456,1,0,0:0:0:0:
399,379,38789,1,0,0:0:0:0:
321,322,39122,2,0,P|266:308|216:326,1,96
148,369,39789,1,0,0:0:0:0:
61,327,40122,1,0,0:0:0:0:
64,231,40455,6,0,P|68:181|106:142,2,96
148,277,41455,1,0,0:0:0:0:
233,233,41789,2,0,B|282:211|322:240|322:240|369:271|418:240,1,192
441,202,42622,2,0,P|452:166|459:147,1,48
488,121,42955,1,0,0:0:0:0:
488,121,43122,5,0,0:0:0:0:
429,44,43455,2,0,P|441:25|459:-3,2,48
344,89,44122,2,0,L|292:71,1,48
255,51,44455,1,0,0:0:0:0:
162,77,44789,2,0,P|153:56|138:25,2,48
226,148,45455,2,0,P|217:168|202:199,1,48
167,219,45789,6,0,P|116:225|66:194,1,96
46,168,46289,1,0,0:0:0:0:
65,25,46789,2,0,P|88:19|115:23,1,48
150,50,47122,1,0,0:0:0:0:
340,25,47789,5,0,0:0:0:0:
433,57,48122,1,0,0:0:0:0:
467,146,48455,2,0,P|449:196|401:220,1,96
317,220,49122,1,0,0:0:0:0:
245,155,49455,1,0,0:0:0:0:
254,59,49789,6,0,B|161:76|192:21|98:34,1,144
70,46,50455,1,0,0:0:0:0:
15,124,50789,1,0,0:0:0:0:
46,215,51122,2,0,P|69:240|133:255,2,96
109,143,52122,1,0,0:0:0:0:
202,123,52455,6,0,P|249:134|273:262,1,192
237,287,53289,2,0,P|220:317|212:344,1,48
229,375,53622,1,0,0:0:0:0:
229,375,53789,5,0,0:0:0:0:
318,341,54122,6,0,P|322:317|330:295,2,48
408,373,54789,2,0,P|433:373|466:367,1,48
493,339,55122,1,0,0:0:0:0:
457,249,55455,2,0,P|443:193|443:190,1,48
461,158,55789,1,0,0:0:0:0:
503,71,56122,1,0,0:0:0:0:
427,12,56455,6,0,P|375:7|329:30,1,96
265,90,57122,1,0,0:0:0:0:
311,276,57789,1,0,0:0:0:0:
142,366,58455,2,0,P|90:371|44:348,2,96
302,323,64455,6,0,P|307:277|312:218,1,96
399,187,65122,2,0,P|394:141|389:82,1,96
393,43,65622,1,0,0:0:0:0:
393,43,65789,2,0,P|363:28|281:29,1,96
219,72,66455,2,0,P|189:87|107:86,1,96
83,71,66955,1,0,0:0:0:0:
83,71,67122,6,0,P|73:122|53:171,1,96
9,246,67789,2,0,P|19:297|39:346,1,96
127,364,68455,2,0,P|176:369|258:317,1,144
261,274,69122,1,0,0:0:0:0:
232,182,69455,1,0,0:0:0:0:
148,135,69789,6,0,P|132:97|127:76,1,48
125,42,70122,1,0,0:0:0:0:
213,3,70455,2,0,P|253:8|274:14,1,48
299,37,70789,2,0,P|322:32|346:30,1,48
393,43,71122,1,0,0:0:0:0:
486,19,71455,1,0,0:0:0:0:
486,19,71622,2,0,P|474:61|498:127,1,96
508,153,72122,2,0,P|502:176|495:199,1,48
453,222,72455,5,0,0:0:0:0:
363,186,72789,1,0,0:0:0:0:
274,223,73122,1,0,0:0:0:0:
251,316,73455,1,0,0:0:0:0:
251,316,73622,1,0,0:0:0:0:
251,316,75122,6,0,P|206:337|152:334,1,96
83,278,75789,1,0,0:0:0:0:
83,278,75955,2,0,P|95:249|94:213,1,48
82,186,76289,2,0,P|118:198|227:160,1,144
265,87,77122,1,0,0:0:0:0:
347,37,77455,1,0,0:0:0:0:
441,56,77789,6,0,P|432:99|425:158,1,96
486,224,78455,1,0,0:0:0:0:
486,224,78622,2,0,P|454:239|442:247,1,48
417,286,78955,2,0,P|360:272|286:319,1,144
200,348,79789,2,0,P|164:343|146:340,1,48
113,313,80122,2,0,P|89:316|65:319,1,48
19,334,80455,6,0,P|33:289|38:227,1,96
23,194,80955,1,0,0:0:0:0:
51,102,81289,2,0,P|85:100|153:91,1,96
175,54,81789,2,0,P|220:68|282:73,1,96
315,58,82289,1,0,0:0:0:0:
407,86,82622,2,0,P|392:114|414:186,1,96
438,207,83122,6,0,L|423:311,1,96
417,349,83622,1,0,0:0:0:0:
417,349,83789,2,0,L|364:339,1,48
324,324,84122,1,0,0:0:0:0:
324,324,84289,1,0,0:0:0:0:
228,325,84622,1,0,0:0:0:0:
228,325,84789,2,0,P|231:301|236:277,1,48
256,233,85122,2,0,P|247:161|234:128,1,96
178,64,85789,6,0,P|215:56|279:35,1,96
306,5,86289,1,0,0:0:0:0:
398,31,86622,1,0,0:0:0:0:
486,67,86955,2,0,L|476:167,1,96
461,208,87455,2,0,L|469:270,1,48
473,303,87789,1,0,0:0:0:0:
399,364,88122,1,0,0:0:0:0:
313,320,88455,6,0,P|266:301|210:311,1,96
179,328,88955,1,0,0:0:0:0:
85,306,89289,1,0,0:0:0:0:
36,223,89622,2,0,L|51:117,1,96
60,81,90122,2,0,P|80:60|105:42,1,48
143,42,90455,1,0,0:0:0:0:
232,76,90789,1,0,0:0:0:0:
322,43,91122,6,0,P|352:89|352:133,1,96
326,169,91622,2,0,P|316:198|317:221,1,48
337,257,91955,1,0,0:0:0:0:
448,348,92455,2,0,P|390:354|336:365,1,96
307,377,92955,1,0,0:0:0:0:
220,335,93289,2,0,P|214:288|165:260,1,96
129,253,93789,6,0,P|87:262|39:233,1,96
33,190,94289,1,0,0:0:0:0:
47,95,94622,1,0,0:0:0:0:
136,61,94955,6,0,P|184:60|243:74,1,96
275,87,95455,2,0,P|306:86|337:76,1,48
363,56,95789,2,0,P|386:61|410:60,2,48
363,56,97789,6,0,L|357:207,1,144
347,295,98622,2,0,L|399:306,2,48
299,304,99122,1,0,0:0:0:0:
299,304,100289,1,0,0:0:0:0:
219,249,100622,1,0,0:0:0:0:
219,249,100789,2,0,P|226:228|230:196,1,48
215,156,101122,1,0,0:1:0:0:
73,26,101789,6,0,P|117:41|179:33,1,96
256,7,102455,2,0,P|288:10|307:15,1,48
345,37,102789,1,0,0:0:0:0:
438,14,103123,2,0,L|423:129,1,96
462,197,103789,1,0,0:0:0:0:
388,259,104123,1,0,0:0:0:0:
420,348,104455,6,0,P|370:350|317:357,1,96
231,380,105123,1,0,0:0:0:0:
149,329,105456,2,0,P|159:282|146:236,1,96
109,205,105956,1,0,0:0:0:0:
109,205,106123,2,0,P|105:177|114:140,1,48
127,113,106456,1,0,0:0:0:0:
217,79,106789,1,0,0:0:0:0:
311,97,107123,6,0,P|361:110|414:89,1,96
438,66,107622,1,0,0:0:0:0:
506,133,107956,2,0,P|485:166|484:231,1,96
500,265,108456,1,0,0:0:0:0:
428,328,108789,1,0,0:0:0:0:
428,328,108956,2,0,L|315:337,1,96
284,338,109456,1,0,0:0:0:0:
191,312,109789,6,0,P|169:311|130:305,1,48
99,287,110122,1,0,0:0:0:0:
99,287,110289,2,0,P|75:290|51:291,1,48
6,272,110623,1,0,0:0:0:0:
256,192,110955,12,0,112455,0:0:0:0:
303,203,112789,6,0,B|308:150|274:154|289:89,1,96
