osu file format v14

[General]
AudioFilename: audio.mp3
AudioLeadIn: 0
PreviewTime: 58820
Countdown: 1
SampleSet: Soft
StackLeniency: 0.7
Mode: 0
LetterboxInBreaks: 0
WidescreenStoryboard: 0

[Editor]
DistanceSpacing: 0.6
BeatDivisor: 4
GridSize: 8
TimelineZoom: 1

[Metadata]
Title:Ninelie
TitleUnicode:Ninelie
Artist:Soramin
ArtistUnicode:Soramin
Creator:DakiniBrave
Version:diff
Source:
Tags:
BeatmapID:1690371
BeatmapSetID:805230

[Difficulty]
HPDrainRate:5
CircleSize:5
OverallDifficulty:8
ApproachRate:9
SliderMultiplier:3.39999990463257
SliderTickRate:1

[Events]
//Background and Video events
0,0,"carbonara of the iron pasta.jpg",0,0
//Break Periods
//Storyboard Layer 0 (Background)
//Storyboard Layer 1 (Fail)
//Storyboard Layer 2 (Pass)
//Storyboard Layer 3 (Foreground)
//Storyboard Sound Samples

[TimingPoints]
2786,689.655172413793,4,2,0,60,1,0
2786,-125,4,2,0,60,0,0
38648,-166.666666666667,4,2,0,60,0,0
60717,-100,4,2,0,60,0,1
82785,-125,4,2,0,60,0,0

[Colours]
Combo1 : 147,68,210
Combo2 : 238,91,147
Combo3 : 196,120,241
Combo4 : 221,13,44

[HitObjects]
109,85,2786,6,0,L|118:152,1,67.9999980926514
186,161,3130,2,0,L|177:228,1,67.9999980926514
142,301,3475,1,0,0:0:0:0:
142,301,3820,2,0,P|174:292|208:297,1,67.9999980926514
229,373,4165,6,0,P|217:336|221:296,1,67.9999980926514
260,250,4510,2,0,P|272:213|268:173,1,67.9999980926514
224,124,4854,1,0,0:0:0:0:
224,124,5199,2,0,L|296:111,1,67.9999980926514
358,63,5544,6,0,L|371:151,1,67.9999980926514
302,254,5889,2,0,L|316:182,1,67.9999980926514
395,210,6234,1,0,0:0:0:0:
395,210,6579,2,0,P|428:196|494:204,1,67.9999980926514
308,176,6923,6,0,P|274:173|243:160,1,67.9999980926514
165,253,7268,2,0,P|196:239|229:237,1,67.9999980926514
221,319,7613,1,0,0:0:0:0:
221,319,7958,2,0,L|213:391,1,67.9999980926514
103,297,8303,6,0,L|92:207,1,67.9999980926514
26,315,8648,2,0,L|17:382,1,67.9999980926514
90,222,8992,1,0,0:0:0:0:
90,222,9337,2,0,P|130:218|163:192,1,67.9999980926514
238,166,9682,6,0,P|226:197|229:231,1,67.9999980926514
312,171,10027,2,0,P|309:137|291:108,1,67.9999980926514
322,264,10372,1,0,0:0:0:0:
322,264,10717,2,0,L|397:255,1,67.9999980926514
419,331,11061,6,0,P|398:292|403:258,1,67.9999980926514
487,217,11406,2,0,P|485:250|467:278,1,67.9999980926514
417,201,11751,2,0,P|396:162|401:128,1,67.9999980926514
485,87,12096,2,0,P|483:120|465:148,1,67.9999980926514
350,84,12441,6,0,L|283:95,1,67.9999980926514
397,139,12784,1,0,0:0:0:0:
422,71,12957,1,0,0:0:0:0:
235,149,13130,6,0,L|168:139,1,67.9999980926514
282,95,13475,1,0,0:0:0:0:
307,163,13648,1,0,0:0:0:0:
157,213,13820,6,0,P|169:178|162:139,1,67.9999980926514
215,271,14165,2,0,P|213:304|224:336,1,67.9999980926514
163,375,14510,1,0,0:0:0:0:
224,336,14682,1,0,0:0:0:0:
289,383,14854,1,0,0:0:0:0:
350,344,15026,1,0,0:0:0:0:
432,382,15199,6,0,L|423:301,1,67.9999980926514
372,192,15544,2,0,L|364:259,1,67.9999980926514
506,190,15889,1,0,0:0:0:0:
445,151,16061,1,0,0:0:0:0:
380,198,16233,1,0,0:0:0:0:
319,159,16405,1,0,0:0:0:0:
119,187,16579,6,0,B|201:166|178:211|269:187,1,135.999996185303
322,146,17096,1,0,0:0:0:0:
372,192,17268,2,0,P|362:222|363:264,1,67.9999980926514
422,299,17613,2,0,P|401:275|364:255,1,67.9999980926514
231,369,17958,6,0,P|297:375|349:333,1,135.999996185303
271,289,18475,1,0,0:0:0:0:
193,230,18648,2,0,L|307:217,1,101.999997138977
308,227,18992,1,0,0:0:0:0:
247,108,19165,1,0,0:0:0:0:
153,149,19337,6,0,P|118:135|86:108,1,67.9999980926514
238,118,19682,2,0,P|243:154|235:196,1,67.9999980926514
99,236,20027,2,0,P|133:230|174:239,1,67.9999980926514
310,274,20372,2,0,P|275:279|235:271,1,67.9999980926514
93,312,20717,6,0,P|105:254|101:239,1,67.9999980926514
46,152,21061,2,0,B|168:114|145:189|255:155,1,203.999994277954
338,179,21751,2,0,P|338:142|351:104,1,67.9999980926514
463,261,22096,6,0,B|426:261|402:233|402:233|380:260|344:263,1,135.999996185303
201,255,22613,2,0,B|282:231|262:280|343:253,1,135.999996185303
240,318,23130,2,0,P|249:347|245:388,1,67.9999980926514
153,336,23475,6,0,B|153:296|172:262|172:262|125:210|145:139,1,203.999994277954
107,84,24165,2,0,P|80:110|65:153,1,67.9999980926514
106,224,24510,1,0,0:0:0:0:
20,210,24682,1,0,0:0:0:0:
0,323,24854,6,0,P|33:312|109:329,1,101.999997138977
108,336,25199,1,0,0:0:0:0:
180,288,25372,2,0,P|213:299|289:282,1,101.999997138977
287,274,25717,1,0,0:0:0:0:
359,337,25889,2,0,P|375:307|401:285,1,67.9999980926514
346,224,26234,6,0,P|309:215|258:171,1,67.9999980926514
153,167,26579,2,0,P|190:158|241:114,1,67.9999980926514
261,2,26923,2,0,P|224:11|173:55,1,67.9999980926514
97,67,27268,2,0,P|134:76|185:120,1,67.9999980926514
312,159,27613,6,0,P|247:198|244:261,1,135.999996185303
319,341,28130,1,0,0:0:0:0:
175,339,28303,2,0,P|208:339|240:328,1,67.9999980926514
378,246,28648,2,0,P|345:246|313:235,1,67.9999980926514
217,79,28992,6,0,B|241:144|194:120|228:200,1,101.999997138977
226,192,29337,2,0,P|177:189|144:204,1,67.9999980926514
46,268,29682,2,0,L|146:282,1,67.9999980926514
93,129,30027,1,0,0:0:0:0:
66,198,30199,1,0,0:0:0:0:
45,67,30372,6,0,P|92:59|132:35,1,67.9999980926514
174,105,30717,2,0,P|206:118|240:122,1,67.9999980926514
322,82,31061,2,0,P|302:148|317:205,1,101.999997138977
314,194,31406,1,0,0:0:0:0:
387,140,31579,1,0,0:0:0:0:
384,263,31751,6,0,P|327:288|291:290,1,67.9999980926514
248,235,32096,2,0,P|191:210|155:208,1,67.9999980926514
372,123,32441,2,0,L|361:232,1,67.9999980926514
241,317,32786,2,0,P|179:323|146:340,1,67.9999980926514
52,232,33130,6,0,B|100:227|100:227|134:246|134:246|197:240,1,135.999996185303
264,230,33648,1,0,0:0:0:0:
175,100,33820,2,0,P|160:130|157:178,1,67.9999980926514
179,253,34165,1,0,0:0:0:0:
85,215,34337,1,0,0:0:0:0:
115,355,34510,6,0,P|158:340|216:357,1,101.999997138977
221,364,34854,2,0,P|265:370|294:365,1,67.9999980926514
366,317,35199,2,0,L|378:417,1,67.9999980926514
261,291,35544,1,0,0:0:0:0:
329,218,35717,1,0,0:0:0:0:
155,182,35889,6,0,P|188:193|263:177,1,101.999997138977
265,173,36234,1,0,0:0:0:0:
435,124,36406,2,0,P|402:135|327:119,1,101.999997138977
325,115,36751,1,0,0:0:0:0:
199,56,36923,2,0,P|238:52|269:35,1,67.9999980926514
336,124,37268,6,0,P|347:154|335:216,1,67.9999980926514
278,304,37613,2,0,P|276:270|287:238,1,67.9999980926514
210,335,37958,2,0,L|128:316,1,67.9999980926514
272,380,38303,2,0,L|338:364,1,67.9999980926514
451,261,38648,6,0,B|284:200|305:322|145:252,1,305.999982078553
99,326,40027,2,0,P|118:274|55:203,1,152.999991039276
5,123,40717,2,0,P|40:165|133:146,1,152.999991039276
213,107,41406,6,0,P|223:145|227:192,1,84.9999950218203
167,287,41981,2,0,B|243:310|298:275|298:275|360:318|360:318|417:279|494:292,1,339.999980087281
444,382,43475,1,0,0:0:0:0:
363,229,43820,2,0,L|373:175,1,50.9999970130922
424,113,44165,5,0,0:0:0:0:
350,72,44337,2,0,P|333:77|295:75,1,50.9999970130922
245,6,44682,2,0,P|172:39|291:72,1,305.999982078553
258,142,45889,2,0,P|242:174|240:199,1,50.9999970130922
356,279,46234,2,0,B|313:281|292:244|292:244|261:276|219:263,1,152.999991039276
168,208,46923,5,0,0:0:0:0:
163,332,47096,2,0,P|160:297|150:279,1,50.9999970130922
96,227,47441,2,0,P|98:184|236:181,1,203.999988052369
299,277,48303,2,0,B|279:190|338:221|305:112,1,152.999991039276
387,123,48992,2,0,P|345:129|284:47,1,152.999991039276
71,54,49682,6,0,B|75:60|109:45|127:14|127:14|129:33|139:49|154:60|154:60|170:69|189:72|207:66|207:66|226:40|263:35|290:54|290:54|316:72|322:109|304:136|311:118,1,356.999979091645
234,184,51061,2,0,P|293:141|372:172,1,152.999991039276
490,197,51751,2,0,P|419:219|359:176,1,152.999991039276
405,237,52441,6,0,L|392:293,1,50.9999970130922
337,349,52785,2,0,L|326:300,1,50.9999970130922
265,335,53130,6,0,B|137:290|147:398|13:338,1,254.999985065461
78,270,54165,2,0,P|49:215|99:142,1,152.999991039276
164,172,54854,2,0,L|233:152,1,50.9999970130922
295,185,55199,5,0,0:0:0:0:
277,112,55372,2,0,P|266:76|267:51,1,50.9999970130922
330,0,55717,2,0,B|252:-7|252:-7|210:13|210:13|132:5,1,203.999988052369
38,78,56579,2,0,P|92:75|149:157,1,152.999991039276
31,223,57268,2,0,B|119:193|99:250|188:225,1,152.999991039276
245,265,57958,6,0,L|254:196,1,50.9999970130922
212,159,58303,2,0,L|205:108,1,50.9999970130922
119,29,58648,2,0,P|162:32|187:24,1,50.9999970130922
240,46,58992,2,0,P|283:43|308:51,1,50.9999970130922
346,98,59337,2,0,P|386:66|399:137,2,152.999991039276
421,220,60717,6,0,B|322:189|352:253|256:225,1,169.999995231629
168,120,61234,1,0,0:0:0:0:
80,305,61406,2,0,P|43:287|-6:285,1,84.9999976158143
161,373,61751,1,0,0:0:0:0:
162,253,61923,1,0,0:0:0:0:
272,338,62096,6,0,P|326:341|360:358,1,84.9999976158143
500,216,62441,2,0,P|460:231|418:231,1,84.9999976158143
372,39,62785,2,0,P|415:64|432:165,1,127.499996423721
437,149,63130,2,0,P|392:140|361:114,1,84.9999976158143
246,64,63475,6,0,B|227:133|269:124|241:199,1,127.499996423721
237,205,63820,2,0,P|285:204|326:222,1,84.9999976158143
187,332,64165,2,0,P|139:331|98:349,1,84.9999976158143
12,197,64510,1,0,0:0:0:0:
157,82,64682,6,0,P|112:151|130:232,1,169.999995231629
312,235,65199,2,0,P|244:222|202:173,1,127.499996423721
197,170,65544,2,0,P|237:121|298:105,1,127.499996423721
310,103,65889,2,0,P|333:162|316:222,1,127.499996423721
386,282,66234,6,0,P|402:243|401:200,1,84.9999976158143
234,255,66579,2,0,P|233:297|249:336,1,84.9999976158143
479,358,66923,2,0,B|412:335|419:381|325:353,1,127.499996423721
342,351,67268,1,0,0:0:0:0:
113,296,67441,6,0,P|173:282|190:177,1,169.999995231629
130,87,67958,2,0,P|166:43|174:8,1,84.9999976158143
187,196,68303,2,0,P|200:235|230:265,1,84.9999976158143
332,62,68648,2,0,L|234:56,1,84.9999976158143
89,270,68992,6,0,B|169:246|144:295|238:267,1,127.499996423721
230,265,69337,2,0,P|274:257|337:278,1,84.9999976158143
445,384,69682,2,0,B|452:355|449:332|449:332|470:322|470:322|468:295|476:263,1,127.499996423721
482,258,70027,1,0,0:0:0:0:
273,235,70199,6,0,P|330:274|393:205,1,169.999995231629
358,47,70717,1,0,0:0:0:0:
459,126,70889,1,0,0:0:0:0:
211,87,71061,2,0,P|223:45|215:-21,1,84.9999976158143
282,226,71406,2,0,P|281:268|292:308,1,84.9999976158143
169,172,71751,6,0,B|118:167|118:167|93:179|93:179|41:175,1,127.499996423721
34,167,72096,1,0,0:0:0:0:
134,242,72268,1,0,0:0:0:0:
0,384,72441,2,0,P|57:362|112:376,1,84.9999976158143
170,384,72785,1,0,0:0:0:0:
126,248,72958,1,0,0:0:0:0:
284,321,73130,6,0,P|281:275|345:213,1,127.499996423721
345,223,73475,2,0,P|293:211|251:164,1,84.9999976158143
79,150,73820,2,0,P|131:138|173:91,1,84.9999976158143
402,67,74165,2,0,P|349:49|264:59,1,127.499996423721
265,50,74510,6,0,P|278:91|271:151,1,84.9999976158143
211,220,74854,2,0,P|262:220|318:246,1,84.9999976158143
497,340,75199,2,0,P|456:352|414:350,1,84.9999976158143
222,326,75544,1,0,0:0:0:0:
304,225,75717,1,0,0:0:0:0:
225,336,75889,2,0,P|184:323|142:325,1,84.9999976158143
19,271,76234,6,0,L|10:368,1,84.9999976158143
152,113,76579,2,0,L|161:210,1,84.9999976158143
0,197,76923,2,0,P|45:194|103:155,1,84.9999976158143
202,46,77268,5,0,0:0:0:0:
273,135,77441,1,0,0:0:0:0:
337,29,77613,2,0,P|275:45|212:36,1,127.499996423721
202,46,77958,2,0,P|145:51|102:73,1,84.9999976158143
37,32,78303,1,0,0:0:0:0:
180,127,78475,1,0,0:0:0:0:
70,208,78648,6,0,P|126:207|162:219,1,84.9999976158143
265,116,78992,2,0,P|321:117|357:105,1,84.9999976158143
282,308,79337,2,0,L|261:214,1,84.9999976158143
108,294,79682,1,0,0:0:0:0:
293,318,79854,1,0,0:0:0:0:
149,56,80027,6,0,L|163:249,1,169.999995231629
170,325,80544,1,0,0:0:0:0:
82,150,80717,2,0,P|41:163|0:158,2,84.9999976158143
223,269,81234,6,0,P|264:263|305:276,1,84.9999976158143
370,335,81579,1,0,0:0:0:0:
405,187,81751,1,0,0:0:0:0:
269,217,81924,1,0,0:0:0:0:
386,95,82096,2,0,P|455:106|484:121,1,84.9999976158143
285,44,82441,2,0,P|244:57|202:60,1,84.9999976158143
99,28,82785,5,0,0:0:0:0:
99,28,83130,5,0,0:0:0:0:
29,108,83303,1,0,0:0:0:0:
66,204,83475,1,0,0:0:0:0:
66,204,83820,5,0,0:0:0:0:
180,169,83992,1,0,0:0:0:0:
91,299,84165,6,0,L|11:292,1,67.9999980926514
154,360,84510,2,0,L|234:353,1,67.9999980926514
281,282,84854,1,0,0:0:0:0:
281,282,85199,5,0,0:0:0:0:
50,364,85372,1,0,0:0:0:0:
