osu file format v14

[General]
AudioFilename: audio.mp3
AudioLeadIn: 0
PreviewTime: 103719
Countdown: 0
SampleSet: Soft
StackLeniency: 0.5
Mode: 0
LetterboxInBreaks: 0
WidescreenStoryboard: 0

[Editor]
Bookmarks: 1058,17999,34940,51881,68822,85763,101646,103763,120705,137646,154587,170469,171528,188469,205410,221293,228352
DistanceSpacing: 1.2
BeatDivisor: 4
GridSize: 32
TimelineZoom: 2.2

[Metadata]
Title:Mama
TitleUnicode:ママ
Artist:Soramin
ArtistUnicode:そらみん
Creator:bite you death
Version:Aishiteru
Source:
Tags:byd s ✩ r a m i n utaite honeyworks cover
BeatmapID:1729371
BeatmapSetID:825314

[Difficulty]
HPDrainRate:5.6
CircleSize:3.6
OverallDifficulty:7.6
ApproachRate:8.6
SliderMultiplier:1.7
SliderTickRate:1

[Events]
//Background and Video events
0,0,"yea sure.jpg",0,0
//Break Periods
//Storyboard Layer 0 (Background)
//Storyboard Layer 1 (Fail)
//Storyboard Layer 2 (Pass)
//Storyboard Layer 3 (Foreground)
//Storyboard Sound Samples

[TimingPoints]
1058,352.941176470588,3,2,2,35,1,0
1058,-125,3,2,2,35,0,0
16940,-111.111111111111,3,2,2,45,0,0
17999,-100,3,2,2,50,0,0
25410,-100,3,2,2,30,0,0
25763,-100,3,2,2,40,0,0
26469,-100,3,2,2,50,0,0
33881,-166.666666666667,3,2,2,45,0,0
34940,-125,3,2,2,40,0,0
43410,-111.111111111111,3,2,2,45,0,0
51528,-166.666666666667,3,2,2,45,0,0
51881,-111.111111111111,3,2,2,45,0,0
68822,-125,3,2,2,40,0,0
85763,-111.111111111111,3,2,2,45,0,0
102705,-111.111111111111,3,2,2,10,0,0
102763,-111.111111111111,3,2,2,13,0,0
102822,-111.111111111111,3,2,2,16,0,0
102881,-111.111111111111,3,2,2,19,0,0
102940,-111.111111111111,3,2,2,22,0,0
102999,-111.111111111111,3,2,2,25,0,0
103057,-111.111111111111,3,2,2,35,0,0
103410,-111.111111111111,3,2,2,45,0,0
103763,-90.9090909090909,3,2,2,55,0,1
119646,-125,3,2,2,45,0,1
120705,-100,3,2,2,50,0,0
128469,-100,3,2,2,30,0,0
128822,-100,3,2,2,40,0,0
129175,-100,3,2,2,50,0,0
136940,-166.666666666667,3,2,2,20,0,0
137293,-166.666666666667,3,2,2,35,0,0
137646,-111.111111111111,3,2,2,45,0,0
154587,-100,3,2,2,40,0,0
170469,-142.857142857143,3,2,2,40,0,0
171528,-83.3333333333333,3,2,2,60,0,1
187410,-111.111111111111,3,2,2,50,0,1
188469,-80,3,2,2,60,0,1
205410,-100,3,2,2,50,0,0
221293,-166.666666666667,3,2,2,40,0,0
228352,-166.666666666667,3,2,2,10,0,0

[Colours]
Combo1 : 255,113,113
Combo2 : 255,66,66

[HitObjects]
137,170,1058,6,0,P|181:126|268:159,1,136,2|2,3:2|0:0,0:0:0:0:
315,214,1587,1,2,0:0:0:0:
204,299,1764,2,0,P|211:259|214:222,1,68,2|0,0:0|0:0,0:0:0:0:
323,123,2117,2,0,B|399:126|366:169|458:171,2,136,2|2|2,0:0|0:0|0:0,0:0:0:0:
209,165,3175,6,0,P|224:101|234:25,2,136,2|2|2,3:2|0:0|0:0,0:0:0:0:
159,313,4234,2,0,P|205:270|273:283,1,136,2|2,0:0|0:0,0:0:0:0:
342,356,4764,1,2,0:0:0:0:
371,259,4940,2,0,P|361:223|353:171,1,68,2|0,0:0|0:0,0:0:0:0:
364,102,5293,6,0,B|283:103|314:143|240:149,1,136,2|2,3:2|0:0,0:0:0:0:
146,108,5822,1,0,0:0:0:0:
253,0,5999,2,0,P|242:36|240:72,1,68,2|0,0:0|0:0,0:0:0:0:
163,211,6352,2,0,P|126:189|32:211,2,136,2|0|2,0:0|0:0|0:0,0:0:0:0:
222,294,7234,1,2,0:0:0:0:
281,211,7411,6,0,P|318:189|412:211,1,136,2|2,3:2|0:0,0:0:0:0:
474,280,7940,1,0,0:0:0:0:
362,368,8117,2,0,P|369:333|374:288,1,68,2|0,0:0|0:0,0:0:0:0:
496,198,8469,2,0,P|476:136|469:57,1,136,2|2,0:0|0:1,0:0:0:0:
383,8,8999,1,2,0:0:0:0:
324,148,9175,1,2,0:0:0:0:
324,148,9528,6,0,P|258:143|202:201,1,136,2|0,3:2|0:0,0:0:0:0:
164,279,10058,1,2,0:0:0:0:
111,191,10234,2,0,P|119:157|124:107,1,68,2|0,0:0|0:0,0:0:0:0:
26,235,10587,2,0,P|50:266|81:281,1,68,2|0,0:0|0:0,0:0:0:0:
158,364,10940,2,0,P|196:358|225:339,1,68,2|0,0:0|0:0,0:0:0:0:
335,314,11293,2,0,P|349:277|347:243,1,68,2|0,0:0|0:0,0:0:0:0:
223,135,11646,6,0,P|237:173|244:212,1,68,2|0,3:2|0:0,0:0:0:0:
341,39,11999,2,0,P|306:40|274:56,1,68,2|0,0:0|0:0,0:0:0:0:
155,79,12352,2,0,P|138:109|136:145,1,68,2|0,0:0|0:0,0:0:0:0:
96,260,12705,2,0,P|141:237|218:273,1,136,2|0,0:0|0:0,0:0:0:0:
266,357,13234,1,2,0:0:0:0:
317,269,13411,1,2,0:0:0:0:
152,319,13587,1,2,0:0:0:0:
315,180,13764,6,0,B|404:189|360:233|453:244,2,136,2|2|2,3:2|0:0|0:0,0:0:0:0:
154,126,14822,2,0,P|183:84|278:103,1,136,2|0,0:0|0:0,0:0:0:0:
216,186,15352,1,0,0:0:0:0:
133,209,15528,2,0,P|98:200|54:192,1,68,2|0,0:0|0:0,0:0:0:0:
141,307,15881,6,0,B|219:305|185:260|272:266,2,136,2|2|2,0:0|0:0|0:0,0:0:0:0:
261,346,16940,6,0,P|313:354|375:369,1,114.749996498108,2|0,1:2|0:0,0:0:0:0:
361,345,17293,1,8,0:3:0:0:
133,209,17469,1,8,0:3:0:0:
393,142,17646,2,0,P|373:197|362:259,1,114.749996498108,8|0,0:3|0:0,0:0:0:0:
369,266,17999,6,0,P|342:236|226:270,1,170,6|10,3:2|0:0,0:0:0:0:
179,352,18528,1,10,0:0:0:0:
124,266,18705,2,0,P|135:222|141:165,1,85,10|0,0:0|0:0,0:0:0:0:
156,35,19058,6,0,P|188:66|234:71,1,85,2|0,3:2|0:0,0:0:0:0:
241,156,19411,2,0,P|283:143|311:106,1,85,10|0,1:2|0:0,0:0:0:0:
388,142,19764,2,0,P|398:98|385:72,1,42.5,10|0,0:0|0:0,0:0:0:0:
355,28,19940,1,0,0:0:0:0:
355,28,20028,1,0,0:0:0:0:
355,28,20117,6,0,P|415:15|487:104,1,170,2|10,3:2|0:0,0:0:0:0:
462,186,20646,1,8,0:0:0:0:
399,102,20822,2,0,P|348:121|314:116,1,85,10|0,0:0|0:0,0:0:0:0:
227,12,21175,5,2,3:2:0:0:
355,28,21352,1,8,0:0:0:0:
170,88,21528,1,8,0:0:0:0:
386,18,21705,1,8,0:0:0:0:
245,208,21881,2,0,P|181:197|111:187,1,127.5,2|0,1:2|0:0,0:0:0:0:
20,175,22234,6,0,P|85:192|96:287,1,170,6|10,3:2|0:0,0:0:0:0:
38,366,22764,1,10,0:0:0:0:
132,274,22940,2,0,P|173:285|218:295,1,85,10|0,0:0|0:0,0:0:0:0:
373,297,23293,6,0,P|333:282|304:236,1,85,2|0,3:2|0:0,0:0:0:0:
222,190,23646,2,0,P|214:149|239:101,1,85,8|0,1:2|0:0,0:0:0:0:
327,18,23999,1,2,3:2:0:0:
298,165,24175,1,2,0:0:0:0:
164,55,24352,6,0,B|59:60|121:118|-11:114,1,170,2|10,3:2|0:0,0:0:0:0:
23,26,24881,1,0,0:0:0:0:
153,144,25058,2,0,P|139:190|135:232,1,85,2|0,3:2|0:0,0:0:0:0:
208,293,25411,6,0,P|228:284|257:281,5,28.3333333333333,2|2|2|2|2|2,0:0|0:0|0:0|0:0|0:0|0:0,0:0:0:0:
251,267,25764,6,0,P|272:269|299:281,2,28.3333333333333,2|0|0,0:0|0:0|0:0,0:0:0:0:
301,265,25940,2,0,P|318:277|335:301,2,28.3333333333333,2|0|0,0:0|0:0|0:0,0:0:0:0:
345,288,26117,2,0,P|353:306|356:336,2,28.3333333333333,2|0|0,0:0|0:0|0:0,0:0:0:0:
371,329,26293,2,0,P|369:349|356:376,2,28.3333333333333,2|0|0,0:0|0:0|0:0,0:0:0:0:
335,384,26469,6,0,P|392:338|478:369,1,170,6|10,3:2|0:0,0:0:0:0:
411,304,26999,1,8,0:0:0:0:
512,192,27175,2,0,P|501:238|494:287,1,85,10|0,0:0|0:0,0:0:0:0:
420,104,27528,6,0,B|316:97|365:158|247:161,2,170,2|2|10,3:2|1:2|0:0,0:0:0:0:
267,63,28411,1,8,0:0:0:0:
267,63,28499,1,8,0:0:0:0:
267,63,28587,6,0,P|181:108|181:203,1,170,2|10,3:2|0:0,0:0:0:0:
207,277,29117,1,8,0:0:0:0:
97,257,29293,2,0,P|116:300|121:352,1,85,10|0,0:0|0:0,0:0:0:0:
279,193,29646,6,0,B|380:205|317:268|459:273,1,170,2|8,3:2|0:0,0:0:0:0:
426,173,30175,1,2,0:0:0:0:
274,288,30352,1,2,0:0:0:0:
256,102,30528,1,2,0:0:0:0:
165,352,30705,6,0,P|153:271|121:185,1,170,6|8,3:2|0:0,0:0:0:0:
50,104,31234,1,8,0:0:0:0:
138,172,31411,2,0,P|185:172|226:136,1,85,8|2,0:0|0:0,0:0:0:0:
286,65,31675,1,2,0:0:0:0:
286,65,31763,6,0,P|341:53|414:147,2,170,2|10|8,3:2|1:2|0:0,0:0:0:0:
215,151,32646,1,8,0:0:0:0:
302,217,32822,2,0,P|313:167|332:134,1,85,2|0,3:2|0:0,0:0:0:0:
187,299,33175,2,0,P|176:249|157:216,1,85,10|0,0:0|0:0,0:0:0:0:
302,381,33528,2,0,P|313:331|332:298,1,85,2|0,3:2|0:0,0:0:0:0:
460,152,33881,6,0,P|515:216|398:202,1,280.49999143982,2|0,3:2|0:0,0:0:0:0:
374,123,34940,6,0,B|288:121|334:173|226:177,1,136,6|10,3:2|0:0,0:0:0:0:
168,147,35469,1,10,0:0:0:0:
235,27,35646,2,0,P|238:60|245:94,1,68,10|0,0:0|0:0,0:0:0:0:
184,239,35999,6,0,P|138:265|47:231,2,136,2|2|10,3:2|1:2|0:0,0:0:0:0:
247,176,36881,1,8,0:0:0:0:
247,176,36969,1,8,0:0:0:0:
247,176,37058,6,0,P|237:241|229:328,1,136,2|10,3:2|0:0,0:0:0:0:
287,379,37587,1,8,0:0:0:0:
357,326,37764,2,0,P|393:330|431:352,1,68,10|0,0:0|0:0,0:0:0:0:
493,177,38117,6,0,P|460:221|357:231,1,136,2|10,3:2|0:0,0:0:0:0:
308,195,38646,1,10,0:0:0:0:
422,85,38822,2,0,P|408:121|404:156,1,68,2|0,1:2|0:0,0:0:0:0:
333,24,39175,6,0,B|250:20|288:69|200:64,1,136,2|10,3:2|0:0,0:0:0:0:
122,42,39705,1,8,0:0:0:0:
146,128,39881,2,0,P|134:160|127:197,1,68,10|0,0:0|0:0,0:0:0:0:
140,327,40234,6,0,P|166:290|268:301,1,136,2|8,3:2|0:0,0:0:0:0:
320,340,40764,1,8,0:0:0:0:
368,265,40940,2,0,P|404:276|447:286,1,68,10|8,0:0|0:0,0:0:0:0:
471,260,41205,1,8,0:0:0:0:
471,260,41293,6,0,P|438:210|464:116,1,136,2|10,3:2|0:0,0:0:0:0:
500,66,41822,1,8,0:0:0:0:
426,116,41999,2,0,P|388:133|346:129,1,68,10|0,0:0|0:0,0:0:0:0:
252,26,42352,6,0,B|232:98|279:82|258:158,1,136,2|8,3:2|0:0,0:0:0:0:
209,232,42881,1,8,0:0:0:0:
112,141,43058,2,0,P|146:136|179:127,1,68,2|0,0:0|0:0,0:0:0:0:
340,296,43411,6,0,B|248:277|289:343|161:325,1,152.999995330811,6|10,3:2|0:0,0:0:0:0:
209,232,43940,1,10,0:0:0:0:
91,339,44117,2,0,P|106:304|109:266,1,76.4999976654053,10|0,0:0|0:0,0:0:0:0:
199,121,44469,6,0,P|251:124|292:237,2,152.999995330811,2|2|8,3:2|1:2|0:0,0:0:0:0:
100,179,45352,1,8,0:0:0:0:
100,179,45440,1,8,0:0:0:0:
100,179,45528,6,0,P|114:101|124:22,1,152.999995330811,2|10,3:2|0:0,0:0:0:0:
31,66,46058,1,8,0:0:0:0:
129,10,46234,2,0,P|169:24|225:31,1,76.4999976654053,10|0,0:0|0:0,0:0:0:0:
386,36,46587,6,0,P|324:49|293:154,1,152.999995330811,2|10,3:2|0:0,0:0:0:0:
302,222,47117,1,10,0:0:0:0:
379,159,47293,2,0,P|424:170|485:181,1,76.4999976654053,2|0,1:2|0:0,0:0:0:0:
322,316,47646,6,0,B|231:330|266:267|154:285,1,152.999995330811,2|10,3:2|0:0,0:0:0:0:
88,327,48175,1,8,0:0:0:0:
53,233,48352,2,0,P|68:193|80:130,1,76.4999976654053,10|0,0:0|0:0,0:0:0:0:
176,55,48705,6,0,P|229:92|326:54,1,152.999995330811,2|8,3:2|0:0,0:0:0:0:
375,6,49234,1,0,0:0:0:0:
405,92,49411,2,0,P|391:132|387:173,1,76.4999976654053,10|8,0:0|0:0,0:0:0:0:
400,210,49675,1,8,0:0:0:0:
400,210,49764,6,0,B|304:203|349:256|247:261,1,152.999995330811,2|8,3:2|0:0,0:0:0:0:
171,242,50293,1,8,0:0:0:0:
189,152,50469,2,0,P|249:160|276:196,1,76.4999976654053,10|0,0:0|0:0,0:0:0:0:
96,294,50822,5,2,3:2:0:0:
261,260,50999,1,0,0:0:0:0:
189,152,51175,1,8,0:0:0:0:
171,242,51352,1,8,0:0:0:0:
63,128,51528,6,2,P|71:169|82:227,1,76.4999976654053,0|0,0:0|0:0,0:0:0:0:
42,371,51881,6,0,P|66:342|180:355,1,152.999995330811,6|8,3:2|0:0,0:0:0:0:
261,260,52411,2,0,P|285:289|399:276,1,152.999995330811,2|0,3:2|0:0,0:0:0:0:
352,149,52940,6,0,P|341:188|332:238,1,76.4999976654053,2|0,3:2|0:0,0:0:0:0:
182,112,53293,2,0,P|192:151|202:201,1,76.4999976654053,10|0,1:2|0:0,0:0:0:0:
352,75,53646,2,0,P|341:114|332:164,1,76.4999976654053,8|8,0:0|0:0,0:0:0:0:
254,20,53911,1,8,0:0:0:0:
254,20,53999,6,0,B|161:22|196:68|112:71,1,152.999995330811,2|10,3:2|0:0,0:0:0:0:
33,26,54528,1,10,0:0:0:0:
48,116,54705,2,0,P|41:166|27:217,1,76.4999976654053,10|0,0:0|0:0,0:0:0:0:
78,302,55058,5,2,3:2:0:0:
132,234,55234,1,10,0:0:0:0:
266,378,55411,5,10,0:0:0:0:
212,310,55587,1,10,0:0:0:0:
340,209,55764,2,0,P|329:249|322:288,1,76.4999976654053,2|0,0:0|0:0,0:0:0:0:
285,107,56117,6,0,B|192:94|229:159|112:143,1,152.999995330811,6|8,3:2|0:0,0:0:0:0:
37,4,56646,2,0,P|79:-9|153:61,1,152.999995330811,2|0,0:0|0:0,0:0:0:0:
24,163,57175,6,0,P|10:119|-4:82,1,76.4999976654053,2|0,3:2|0:0,0:0:0:0:
122,220,57528,2,0,P|135:176|150:139,1,76.4999976654053,10|0,1:2|0:0,0:0:0:0:
22,273,57881,1,10,0:0:0:0:
155,356,58058,1,8,0:0:0:0:
155,356,58146,1,8,0:0:0:0:
155,356,58234,6,0,P|217:306|311:312,1,152.999995330811,2|10,3:2|0:0,0:0:0:0:
365,352,58764,1,8,0:0:0:0:
287,303,58940,2,0,P|255:263|264:181,1,114.749996498108,10|0,0:0|0:0,0:0:0:0:
312,124,59293,6,0,P|369:82|330:195,1,305.999990661621,2|2,3:2|0:0,0:0:0:0:
180,81,60175,1,0,0:0:0:0:
155,65,60264,1,0,0:0:0:0:
125,61,60352,6,0,P|141:138|150:217,1,152.999995330811,2|8,3:2|0:0,0:0:0:0:
79,326,60881,2,0,B|169:314|142:374|230:365,1,152.999995330811,2|0,0:0|0:0,0:0:0:0:
274,247,61411,6,0,P|229:261|204:297,1,76.4999976654053,2|0,3:2|0:0,0:0:0:0:
86,175,61764,2,0,P|130:189|155:225,1,76.4999976654053,10|0,1:2|0:0,0:0:0:0:
274,103,62117,2,0,P|229:117|204:153,1,76.4999976654053,10|8,0:0|0:0,0:0:0:0:
186,178,62381,1,8,0:0:0:0:
186,178,62469,6,0,P|171:96|155:16,1,152.999995330811,2|10,3:2|0:0,0:0:0:0:
84,84,62999,1,8,0:0:0:0:
156,15,63175,2,0,P|199:15|232:35,1,76.4999976654053,10|0,0:0|0:0,0:0:0:0:
308,108,63528,5,2,3:2:0:0:
186,178,63705,1,2,0:0:0:0:
318,222,63881,1,2,0:0:0:0:
138,329,64058,2,0,P|122:287|136:241,1,76.4999976654053,2|0,0:0|1:0,0:0:0:0:
223,370,64411,1,2,0:0:0:0:
318,222,64587,6,0,B|410:232|366:276|456:290,1,152.999995330811,6|10,3:2|0:0,0:0:0:0:
455,203,65117,1,8,0:0:0:0:
324,309,65293,2,0,P|340:352|351:393,1,76.4999976654053,8|2,0:0|0:0,0:0:0:0:
244,283,65558,1,2,0:0:0:0:
244,283,65646,6,0,P|265:212|283:127,1,152.999995330811,2|10,3:2|1:2,0:0:0:0:
233,56,66175,1,0,0:0:0:0:
324,47,66352,1,10,0:0:0:0:
195,141,66528,1,8,0:0:0:0:
195,141,66617,1,8,0:0:0:0:
195,141,66705,6,0,P|159:122|106:124,1,76.4999976654053,2|0,3:2|0:0,0:0:0:0:
233,233,67058,2,0,P|267:211|292:164,1,76.4999976654053,2|0,3:2|0:0,0:0:0:0:
134,219,67411,2,0,P|135:259|163:304,1,76.4999976654053,2|0,3:2|0:0,0:0:0:0:
244,364,67764,6,0,P|290:341|375:326,1,114.749996498108
448,343,68117,6,0,P|441:328|435:301,5,25.4999992218018,2|2|2|2|2|2,0:3|0:0|0:0|0:0|0:0|0:0,0:0:0:0:
415,299,68469,6,0,P|416:282|424:256,2,25.4999992218018,2|0|0,0:3|0:0|0:0,0:0:0:0:
408,244,68646,2,0,P|417:230|437:211,2,25.4999992218018
456,198,68822,6,0,P|442:126|431:53,1,136,6|10,3:2|0:0,0:0:0:0:
367,3,69352,1,10,0:0:0:0:
298,58,69528,2,2,P|261:65|215:45,1,68,10|0,0:0|0:0,0:0:0:0:
116,17,69881,6,0,P|136:80|154:161,2,136,2|10|8,3:2|1:2|0:0,0:0:0:0:
16,166,70764,1,8,0:0:0:0:
16,166,70852,1,8,0:0:0:0:
16,166,70940,6,0,B|96:178|49:228|142:239,1,136,2|10,3:2|0:0,0:0:0:0:
212,215,71469,1,8,0:0:0:0:
183,298,71646,2,0,P|199:337|204:375,1,68,10|0,0:0|0:0,0:0:0:0:
288,270,71999,6,0,P|333:217|420:220,1,136,2|10,3:2|0:0,0:0:0:0:
476,247,72528,1,10,0:0:0:0:
394,192,72705,2,0,P|385:140|426:90,1,102,2|0,1:2|0:0,0:0:0:0:
445,73,73058,6,0,P|378:65|301:48,1,136,2|10,3:2|0:0,0:0:0:0:
226,79,73587,1,8,0:0:0:0:
278,150,73764,2,0,P|284:188|261:240,1,68,10|0,0:0|0:0,0:0:0:0:
144,270,74117,6,0,B|229:267|191:318|289:312,1,136,2|8,3:2|1:2,0:0:0:0:
356,294,74646,1,0,0:0:0:0:
300,153,74822,2,0,P|280:190|279:243,1,68,10|8,0:0|0:0,0:0:0:0:
232,69,75175,6,0,B|152:84|176:37|82:58,1,136,2|10,3:2|0:0,0:0:0:0:
21,98,75705,1,8,0:0:0:0:
110,207,75881,2,0,P|113:166|125:126,1,68,10|0,0:0|0:0,0:0:0:0:
3,187,76234,6,0,P|17:252|34:341,2,136,2|2|0,3:2|0:0|1:0,0:0:0:0:
107,125,77293,6,0,P|150:106|225:171,1,136,6|10,3:2|0:0,0:0:0:0:
242,235,77822,1,10,0:0:0:0:
301,169,77999,2,0,P|299:137|318:96,1,68,10|0,0:0|0:0,0:0:0:0:
504,109,78352,6,0,B|422:100|454:154|367:151,2,136,2|10|10,3:2|1:2|0:0,0:0:0:0:
377,63,79234,1,8,0:0:0:0:
377,63,79322,1,8,0:0:0:0:
377,63,79411,6,0,P|334:74|302:105,1,68,2|0,3:2|0:0,0:0:0:0:
227,42,79764,2,0,P|215:84|225:127,1,68,10|8,0:0|0:0,0:0:0:0:
133,161,80117,2,0,P|164:192|206:204,1,68,10|0,0:0|0:0,0:0:0:0:
317,283,80469,6,0,P|263:269|193:337,1,136,2|10,3:2|0:0,0:0:0:0:
161,384,80999,1,2,0:0:0:0:
81,253,81175,2,0,P|91:202|101:138,1,102,2|0,1:2|0:0,0:0:0:0:
129,124,81528,6,0,B|203:118|173:176|283:162,1,136,2|10,3:2|0:0,0:0:0:0:
334,145,82058,1,8,0:0:0:0:
283,28,82234,2,0,P|251:61|247:84,1,68,10|0,0:0|0:0,0:0:0:0:
367,222,82587,6,0,P|380:159|406:77,2,136,2|8|10,3:2|0:0|0:0,0:0:0:0:
396,298,83469,1,10,0:0:0:0:
289,343,83646,6,0,P|203:312|161:338,1,136,2|10,3:2|0:0,0:0:0:0:
104,380,84175,1,8,0:0:0:0:
73,304,84352,2,0,P|82:273|87:223,1,68,10|0,0:0|0:0,0:0:0:0:
119,145,84705,6,0,P|156:100|149:209,1,272,2|0,3:2|1:0,0:0:0:0:
87,237,85764,6,0,P|129:297|217:303,1,152.999995330811,6|2,3:2|0:0,0:0:0:0:
289,272,86293,1,10,0:0:0:0:
347,342,86469,2,0,P|389:348|430:331,1,76.4999976654053,10|8,0:0|0:0,0:0:0:0:
402,116,86822,6,0,P|388:186|374:277,2,152.999995330811,2|2|2,3:2|0:0|0:0,0:0:0:0:
279,9,87881,6,0,B|188:7|232:62|117:55,2,152.999995330811,2|10|2,3:2|0:0|3:2,0:0:0:0:
402,116,88940,6,0,P|335:136|263:87,2,152.999995330811,2|2|2,3:2|0:0|0:0,0:0:0:0:
463,185,89999,6,0,P|448:255|436:340,2,152.999995330811,2|2|10,3:2|0:0|0:0,0:0:0:0:
402,116,90881,1,8,0:0:0:0:
324,165,91058,6,0,B|251:130|253:201|169:167,2,152.999995330811,2|0|2,3:2|0:0|0:0,0:0:0:0:
209,91,92117,6,0,P|154:86|97:187,2,152.999995330811,2|2|2,3:2|0:0|3:2,0:0:0:0:
149,265,93175,6,0,P|108:249|60:253,1,76.4999976654053,2|0,3:2|0:0,0:0:0:0:
130,365,93528,2,0,P|168:363|203:349,1,76.4999976654053,2|2,0:0|0:0,0:0:0:0:
296,319,93881,2,0,P|314:285|318:247,1,76.4999976654053,2|2,0:0|0:0,0:0:0:0:
339,152,94234,6,0,B|242:140|288:203|174:182,1,152.999995330811,2|2,3:2|0:0,0:0:0:0:
117,135,94764,1,8,0:0:0:0:
230,27,94940,2,0,P|220:68|213:111,1,76.4999976654053,10|8,0:0|0:0,0:0:0:0:
119,221,95293,6,0,P|63:206|34:110,2,152.999995330811,2|2|2,3:2|0:0|0:0,0:0:0:0:
254,346,96352,6,0,P|324:291|398:313,2,152.999995330811,2|10|2,3:2|0:0|3:2,0:0:0:0:
119,221,97411,6,0,P|137:156|156:68,2,152.999995330811,2|2|2,3:2|0:0|0:0,0:0:0:0:
303,223,98469,6,0,P|330:170|253:143,1,152.999995330811,2|2,3:2|0:0,0:0:0:0:
210,215,98999,1,8,0:0:0:0:
249,297,99175,2,0,P|295:318|329:314,1,76.4999976654053,10|8,0:0|0:0,0:0:0:0:
158,289,99528,6,0,B|69:292|117:346|22:355,2,152.999995330811,2|0|2,3:2|0:0|0:0,0:0:0:0:
73,125,100587,6,0,P|39:183|26:277,2,152.999995330811,2|10|2,3:2|0:0|3:2,0:0:0:0:
256,192,101646,5,6,3:2:0:0:
256,192,102705,6,0,P|267:175|283:162,5,25.4999992218018
257,144,103058,2,0,P|275:134|295:131,5,25.4999992218018,2|0|0|0|0|0,3:2|0:0|0:0|0:0|0:0|0:0,0:0:0:0:
282,103,103411,2,0,P|302:104|321:111,5,25.4999992218018,2|0|0|0|0|0,3:2|0:0|0:0|0:0|0:0|0:0,0:0:0:0:
324,79,103764,6,0,B|211:71|262:12|159:5,1,187.000005706787,6|10,3:2|0:0,0:0:0:0:
55,50,104293,1,10,0:0:0:0:
146,186,104469,2,0,P|155:131|170:86,1,93.5000028533936,10|0,0:0|0:0,0:0:0:0:
44,225,104822,6,0,P|80:276|118:289,1,93.5000028533936,2|0,3:2|0:0,0:0:0:0:
183,361,105175,2,0,P|245:354|276:328,1,93.5000028533936,10|0,0:0|0:0,0:0:0:0:
370,308,105528,2,0,P|395:250|388:210,1,93.5000028533936,10|8,0:0|0:0,0:0:0:0:
339,146,105793,1,8,0:0:0:0:
339,146,105881,6,0,P|384:131|482:221,1,187.000005706787,2|10,3:2|0:0,0:0:0:0:
391,221,106410,1,8,0:0:0:0:
287,71,106587,1,10,0:0:0:0:
260,257,106763,1,0,0:0:0:0:
185,147,106940,6,0,B|81:132|109:211|-3:193,2,187.000005706787,2|10|2,3:2|0:0|1:2,0:0:0:0:
185,147,107999,6,0,P|162:235|151:333,1,187.000005706787,6|8,3:2|0:0,0:0:0:0:
255,288,108528,1,0,0:0:0:0:
88,188,108705,2,0,P|76:232|70:281,1,93.5000028533936,10|0,0:0|0:0,0:0:0:0:
208,128,109057,6,0,B|319:124|268:203|409:190,2,187.000005706787,2|8|10,3:2|0:0|0:0,0:0:0:0:
401,16,109940,1,8,0:0:0:0:
401,16,110028,1,8,0:0:0:0:
401,16,110116,6,0,P|378:62|364:111,1,93.5000028533936,2|0,3:2|0:0,0:0:0:0:
387,279,110469,1,10,0:0:0:0:
225,221,110645,1,8,0:0:0:0:
383,129,110822,1,10,0:0:0:0:
290,300,110999,1,8,0:0:0:0:
186,130,111175,6,0,P|265:131|316:203,1,140.25000428009,6|0,3:2|0:0,0:0:0:0:
225,221,111528,6,0,P|201:232|157:229,1,62.3333352355958,10|2,0:0|0:0,0:0:0:0:
123,304,111763,1,2,0:0:0:0:
123,304,111881,2,0,P|101:288|82:249,1,62.3333352355958,2|2,0:0|0:0,0:0:0:0:
0,257,112116,1,2,0:0:0:0:
0,257,112234,6,0,P|22:161|44:56,1,187.000005706787,6|10,3:2|0:0,0:0:0:0:
134,11,112764,1,8,0:0:0:0:
202,99,112940,2,0,P|248:100|288:78,1,93.5000028533936,10|0,0:0|0:0,0:0:0:0:
401,25,113293,6,0,P|368:123|353:217,2,187.000005706787,2|10|10,3:2|0:0|0:0,0:0:0:0:
507,236,114175,1,8,0:0:0:0:
507,236,114263,1,8,0:0:0:0:
507,236,114352,6,2,B|394:225|446:296|333:293,1,187.000005706787,6|10,3:2|0:0,0:0:0:0:
221,235,114881,1,8,0:0:0:0:
377,115,115057,2,0,P|360:162|354:211,1,93.5000028533936,10|0,0:0|0:0,0:0:0:0:
230,343,115410,6,0,P|160:322|119:205,1,187.000005706787,2|8,3:2|0:0,0:0:0:0:
166,106,115940,1,2,0:0:0:0:
221,235,116116,1,2,1:2:0:0:
65,155,116293,1,2,0:0:0:0:
299,118,116469,6,0,B|406:126|352:186|471:193,1,187.000005706787,6|10,3:2|0:0,0:0:0:0:
307,213,116999,1,8,0:0:0:0:
452,99,117175,2,0,P|440:51|432:-3,1,93.5000028533936,10|0,0:0|0:0,0:0:0:0:
307,213,117528,6,0,B|188:175|235:270|102:232,1,187.000005706787,2|8,3:2|0:0,0:0:0:0:
24,200,118057,1,8,0:0:0:0:
182,64,118234,2,0,P|165:110|155:177,1,93.5000028533936,10|0,0:0|0:0,0:0:0:0:
291,305,118587,6,0,P|342:301|378:270,1,93.5000028533936,2|0,3:2|0:0,0:0:0:0:
383,115,118940,1,10,0:0:0:0:
307,213,119116,1,8,0:0:0:0:
320,48,119293,1,10,0:0:0:0:
446,182,119469,1,8,0:0:0:0:
245,148,119646,6,0,P|177:182|305:202,1,340,6|0,3:2|0:0,0:0:0:0:
261,140,120705,6,0,B|158:127|204:206|74:184,1,170,6|10,3:2|0:0,0:0:0:0:
9,148,121234,1,10,0:0:0:0:
141,19,121410,2,0,P|126:65|121:118,1,85,10|0,0:0|0:0,0:0:0:0:
261,251,121763,6,0,P|305:213|362:206,1,85,2|0,3:2|0:0,0:0:0:0:
334,114,122116,2,0,P|388:133|423:178,1,85,10|0,0:0|0:0,0:0:0:0:
489,108,122469,2,0,P|499:165|477:217,1,85,10|8,0:0|0:0,0:0:0:0:
464,232,122734,1,0,0:0:0:0:
464,232,122822,6,0,B|367:241|418:297|316:320,2,170,2|10|10,3:2|0:0|0:0,0:0:0:0:
174,222,123881,6,0,P|262:192|325:253,1,170,2|8,3:2|0:0,0:0:0:0:
236,297,124410,1,8,0:0:0:0:
137,326,124587,2,0,P|96:312|44:301,1,85,0|0,1:2|0:0,0:0:0:0:
27,150,124940,6,0,B|125:160|64:229|204:221,1,170,2|8,3:2|0:0,0:0:0:0:
298,141,125469,2,0,P|201:96|160:150,1,170,2|0,0:0|0:0,0:0:0:0:
264,243,125999,6,0,P|346:222|441:204,1,170,2|8,3:2|1:2,0:0:0:0:
496,284,126528,1,0,0:0:0:0:
442,204,126705,2,0,P|443:161|477:114,1,85,10|10,0:0|0:0,0:0:0:0:
502,93,126969,1,8,0:0:0:0:
502,93,127057,6,0,P|436:66|345:140,1,170,2|10,3:2|0:0,0:0:0:0:
304,201,127587,1,8,0:0:0:0:
247,116,127763,2,0,P|200:107|159:131,1,85,10|0,0:0|0:0,0:0:0:0:
67,178,128116,6,0,P|84:113|96:51,1,127.5,2|0,3:2|0:0,0:0:0:0:
167,122,128469,6,0,P|168:141|180:164,5,28.3333333333333,2|2|2|2|2|2,0:0|0:0|0:0|0:0|0:0|0:0,0:0:0:0:
153,178,128822,6,0,P|163:193|185:207,2,28.3333333333333,2|0|0,0:0|0:0|0:0,0:0:0:0:
168,233,128999,2,0,P|185:241|210:242,2,28.3333333333333,2|0|0,0:0|0:0|0:0,0:0:0:0:
208,273,129175,6,0,B|309:262|267:329|387:307,1,170,6|10,3:2|0:0,0:0:0:0:
463,271,129705,1,10,0:0:0:0:
366,146,129881,2,0,P|349:193|343:240,1,85,10|0,0:0|0:0,0:0:0:0:
449,60,130234,6,0,B|340:47|390:116|262:104,2,170,2|10|10,3:2|0:0|0:0,0:0:0:0:
300,8,131116,1,8,0:0:0:0:
300,8,131205,1,8,0:0:0:0:
300,8,131293,6,0,P|234:29|204:71,1,85,2|0,3:2|0:0,0:0:0:0:
128,20,131646,2,0,P|113:87|134:134,1,85,10|8,0:0|0:0,0:0:0:0:
52,174,131999,2,0,P|103:220|154:225,1,85,10|0,0:0|0:0,0:0:0:0:
270,196,132352,5,2,3:2:0:0:
137,128,132528,1,2,0:0:0:0:
282,84,132705,1,10,0:0:0:0:
179,224,132881,2,0,P|188:270|197:328,1,85,2|0,0:0|0:0,0:0:0:0:
257,101,133234,1,2,0:0:0:0:
334,291,133410,6,0,B|430:295|388:227|500:247,1,170,6|10,3:2|0:0,0:0:0:0:
336,191,133940,1,10,0:0:0:0:
471,337,134116,1,10,0:0:0:0:
509,153,134293,1,2,0:0:0:0:
411,263,134469,5,2,3:2:0:0:
257,101,134646,1,2,0:0:0:0:
471,66,134822,1,10,0:0:0:0:
257,230,134999,2,0,P|178:216|75:202,1,170,2|8,0:0|0:0,0:0:0:0:
37,199,135440,1,8,0:0:0:0:
37,199,135528,6,0,B|9:98|84:133|46:17,2,170,2|10|10,3:2|0:0|0:0,0:0:0:0:
181,344,136587,5,2,3:2:0:0:
271,261,136940,2,0,L|386:280,1,101.999996887207,0|0,1:0|1:0,0:0:0:0:
371,277,137646,6,0,P|355:240|417:151,1,152.999995330811,6|10,3:2|0:0,0:0:0:0:
471,84,138175,1,8,0:0:0:0:
380,67,138352,2,0,P|343:91|281:80,1,76.4999976654053,10|0,0:0|0:0,0:0:0:0:
199,24,138705,6,0,B|173:108|236:89|200:185,2,152.999995330811,2|10|10,3:2|1:2|0:0,0:0:0:0:
112,136,139587,1,8,0:0:0:0:
112,136,139675,1,8,0:0:0:0:
112,136,139763,6,0,P|66:125|23:118,1,76.4999976654053,2|0,3:2|0:0,0:0:0:0:
220,262,140116,2,0,P|174:272|131:280,1,76.4999976654053,10|8,0:0|0:0,0:0:0:0:
328,136,140469,2,0,P|282:125|239:118,1,76.4999976654053,10|0,0:0|0:0,0:0:0:0:
390,37,140822,6,0,P|437:71|439:169,1,152.999995330811,2|10,3:2|0:0,0:0:0:0:
389,235,141352,1,10,0:0:0:0:
321,173,141528,2,0,P|269:189|241:220,1,76.4999976654053,10|0,1:2|0:0,0:0:0:0:
104,280,141881,6,0,B|192:276|159:326|251:323,2,152.999995330811,2|10|10,3:2|0:0|0:0,0:0:0:0:
263,75,142940,6,0,P|243:156|233:226,1,152.999995330811,2|8,3:2|1:2,0:0:0:0:
149,132,143469,1,0,0:0:0:0:
236,236,143646,2,0,P|287:221|330:227,1,76.4999976654053,10|8,0:0|0:0,0:0:0:0:
351,242,143910,1,8,0:0:0:0:
351,242,143999,6,0,P|402:178|474:205,2,152.999995330811,2|10|10,3:2|0:0|0:0,0:0:0:0:
177,302,145057,6,0,P|192:233|206:145,2,152.999995330811,2|8|0,3:2|0:0|1:2,0:0:0:0:
114,132,146116,6,0,P|147:79|260:74,1,152.999995330811,2|10,3:2|0:0,0:0:0:0:
312,105,146646,1,10,0:0:0:0:
227,224,146822,2,0,P|210:177|201:132,1,76.4999976654053,10|0,0:0|0:0,0:0:0:0:
355,30,147175,6,0,P|387:58|400:98,1,76.4999976654053,2|0,3:2|0:0,0:0:0:0:
482,144,147528,2,0,P|473:185|445:216,1,76.4999976654053,10|0,1:2|0:0,0:0:0:0:
446,310,147881,2,0,P|405:323|364:314,1,76.4999976654053,10|8,0:0|0:0,0:0:0:0:
337,289,148146,1,0,0:0:0:0:
337,289,148234,6,0,B|236:278|287:339|182:338,1,152.999995330811,2|10,3:2|0:0,0:0:0:0:
109,315,148763,1,8,0:0:0:0:
214,173,148940,2,0,P|204:217|200:271,1,76.4999976654053,10|0,0:0|0:0,0:0:0:0:
79,57,149293,6,0,P|145:26|206:79,1,152.999995330811,2|10,3:2|0:0,0:0:0:0:
241,153,149822,1,10,0:0:0:0:
309,92,149999,2,0,P|364:109|426:118,1,114.749996498108,10|0,1:2|0:0,0:0:0:0:
462,97,150352,6,0,P|403:138|413:241,1,152.999995330811,2|10,3:2|0:0,0:0:0:0:
437,296,150881,1,10,0:0:0:0:
356,339,151057,2,0,P|315:326|259:314,1,76.4999976654053,10|0,0:0|0:0,0:0:0:0:
207,224,151410,6,0,P|139:220|84:302,2,152.999995330811,2|8|10,3:2|0:0|0:0,0:0:0:0:
287,170,152293,1,8,0:0:0:0:
287,170,152381,1,8,0:0:0:0:
287,170,152469,6,0,P|325:177|380:185,1,76.4999976654053,2|0,3:2|0:0,0:0:0:0:
190,53,152822,2,0,P|228:45|283:38,1,76.4999976654053,10|8,0:0|0:0,0:0:0:0:
93,170,153175,2,0,P|131:177|186:185,1,76.4999976654053,10|0,0:0|0:0,0:0:0:0:
405,108,153528,6,0,P|286:90|366:180,1,305.999990661621,2|0,3:2|1:0,0:0:0:0:
359,182,154587,6,0,B|401:268|326:257|375:353,2,170,6|2|2,3:2|0:0|0:0,0:0:0:0:
173,138,155645,6,0,P|190:193|307:224,2,170,2|2|10,3:2|0:0|0:0,0:0:0:0:
271,107,156528,1,10,0:0:0:0:
187,49,156705,6,0,B|85:44|133:112|10:104,2,170,2|2|2,3:2|0:0|3:2,0:0:0:0:
306,214,157763,6,0,P|322:123|345:37,2,170,2|2|2,3:2|0:0|0:0,0:0:0:0:
162,359,158822,6,0,P|210:309|304:339,2,170,2|2|2,3:2|0:0|3:2,0:0:0:0:
44,191,159881,6,0,B|79:102|3:116|41:21,2,170,2|2|10,3:2|0:0|0:0,0:0:0:0:
94,280,160763,1,0,0:0:0:0:
137,187,160940,6,0,P|178:148|298:182,2,170,2|0|2,3:2|0:0|3:2,0:0:0:0:
284,329,161999,6,0,P|363:315|456:302,1,170,2|2,3:2|0:0,0:0:0:0:
382,227,162528,1,2,0:0:0:0:
464,303,162705,1,2,0:0:0:0:
300,248,162881,1,2,0:0:0:0:
512,48,163057,6,0,P|487:126|466:216,2,170,6|2|2,3:2|0:0|3:2,0:0:0:0:
342,89,164116,6,0,B|237:71|282:141|145:123,2,170,2|2|10,3:2|0:0|0:0,0:0:0:0:
197,26,164999,1,8,0:0:0:0:
311,182,165175,6,0,P|296:260|284:351,2,170,2|2|2,3:2|0:0|3:2,0:0:0:0:
173,281,166234,6,0,P|135:230|7:240,2,170,2|2|2,3:2|0:0|0:0,0:0:0:0:
265,115,167293,6,0,P|337:81|404:138,2,170,6|2|2,3:2|0:0|0:0,0:0:0:0:
146,204,168352,6,0,P|160:123|173:33,2,170,2|0|10,3:2|0:0|0:0,0:0:0:0:
103,297,169234,1,8,0:0:0:0:
204,293,169410,6,0,B|306:292|267:349|369:348,1,170,2|2,3:2|0:0,0:0:0:0:
456,203,170116,1,2,0:0:0:0:
424,202,170204,1,2,0:0:0:0:
394,212,170292,1,2,0:0:0:0:
369,232,170380,1,2,0:0:0:0:
352,259,170469,6,0,P|239:197|264:271,1,297.499990921021,2|0,3:2|0:0,0:0:0:0:
275,352,171528,6,0,B|155:357|211:283|89:287,1,203.999993774414,6|10,3:2|0:0,0:0:0:0:
110,383,172057,1,10,0:0:0:0:
251,259,172234,2,0,P|234:207|227:152,1,101.999996887207,10|0,0:0|0:0,0:0:0:0:
356,19,172587,6,0,P|329:72|290:90,1,101.999996887207,2|0,3:2|0:0,0:0:0:0:
320,180,172940,2,0,P|260:183|225:158,1,101.999996887207,10|0,0:0|0:0,0:0:0:0:
162,229,173293,2,0,P|129:179|133:136,1,101.999996887207,10|8,0:0|0:0,0:0:0:0:
187,46,173557,1,8,0:0:0:0:
187,46,173646,6,0,B|60:31|108:125|-17:99,1,203.999993774414,2|10,3:2|0:0,0:0:0:0:
15,6,174175,1,8,0:0:0:0:
157,144,174352,2,0,P|140:191|129:250,1,101.999996887207,10|0,0:0|0:0,0:0:0:0:
218,353,174705,6,0,P|269:308|403:348,2,203.999993774414,2|10|2,3:2|0:0|1:2,0:0:0:0:
218,353,175763,6,0,P|236:261|254:147,1,203.999993774414,6|10,3:2|0:0,0:0:0:0:
234,30,176293,1,0,0:0:0:0:
349,75,176469,2,0,P|400:55|464:47,1,101.999996887207,10|0,0:0|0:0,0:0:0:0:
253,152,176822,6,0,B|127:163|192:83|45:90,2,203.999993774414,2|8|10,3:2|0:0|0:0,0:0:0:0:
357,83,177705,1,8,0:0:0:0:
357,83,177793,1,8,0:0:0:0:
357,83,177881,5,2,3:2:0:0:
228,58,178057,1,8,0:0:0:0:
333,171,178234,1,10,0:0:0:0:
446,60,178410,1,8,0:0:0:0:
253,152,178587,1,10,0:0:0:0:
445,243,178763,1,8,0:0:0:0:
228,58,178940,6,0,B|106:53|169:141|9:131,2,203.999993774414,2|2|2,3:2|0:0|1:2,0:0:0:0:
228,58,179999,6,0,P|204:167|189:278,1,203.999993774414,6|10,3:2|0:0,0:0:0:0:
251,365,180528,1,8,0:0:0:0:
119,326,180705,2,0,P|107:271|99:215,1,101.999996887207,10|0,0:0|0:0,0:0:0:0:
228,58,181057,6,0,P|285:75|310:113,1,101.999996887207,2|0,3:2|0:0,0:0:0:0:
394,61,181410,2,0,P|407:119|387:160,1,101.999996887207,10|0,0:0|0:0,0:0:0:0:
474,206,181763,2,0,P|430:246|385:250,1,101.999996887207,10|8,0:0|0:0,0:0:0:0:
304,196,182028,1,8,0:0:0:0:
304,196,182116,6,0,P|206:226|192:321,1,203.999993774414,2|10,3:2|0:0,0:0:0:0:
278,287,182646,1,8,0:0:0:0:
261,378,182822,1,10,0:0:0:0:
390,250,182999,1,2,0:0:0:0:
190,315,183175,6,0,B|72:319|132:241|-12:256,1,203.999993774414,2|8,3:2|0:0,0:0:0:0:
26,361,183705,1,2,0:0:0:0:
172,215,183881,1,2,1:2:0:0:
3,254,184057,1,2,0:0:0:0:
190,315,184234,6,0,P|246:279|240:139,1,203.999993774414,6|10,3:2|0:0,0:0:0:0:
161,67,184763,1,8,0:0:0:0:
279,32,184940,2,0,P|329:53|381:70,1,101.999996887207,10|0,0:0|0:0,0:0:0:0:
168,165,185293,6,0,B|55:163|107:82|-17:90,2,203.999993774414,2|8|10,3:2|0:0|0:0,0:0:0:0:
263,117,186175,1,8,0:0:0:0:
263,117,186263,1,8,0:0:0:0:
263,117,186352,5,2,3:2:0:0:
213,245,186528,1,8,0:0:0:0:
156,71,186704,1,10,0:0:0:0:
342,148,186881,1,8,0:0:0:0:
110,222,187057,1,10,0:0:0:0:
275,14,187234,1,8,0:0:0:0:
362,256,187410,6,0,P|391:317|435:173,1,382.499988327027,6|0,3:2|0:0,0:0:0:0:
353,165,188469,6,0,B|237:161|285:253|155:252,1,212.5,6|10,3:2|0:0,0:0:0:0:
47,209,188999,1,10,0:0:0:0:
203,58,189175,2,0,P|187:118|182:179,1,106.25,10|0,0:0|0:0,0:0:0:0:
354,257,189528,6,0,P|414:238|443:179,1,106.25,2|0,3:2|0:0,0:0:0:0:
284,91,189881,2,0,P|270:152|307:207,1,106.25,10|0,0:0|0:0,0:0:0:0:
462,113,190234,2,0,P|415:70|349:74,1,106.25,10|8,0:0|0:0,0:0:0:0:
284,91,190499,1,8,0:0:0:0:
284,91,190587,6,0,B|156:114|206:22|57:42,1,212.5,2|10,3:2|0:0,0:0:0:0:
109,141,191116,1,10,0:0:0:0:
263,5,191293,2,0,P|325:9|361:41,1,106.25,10|0,0:0|0:0,0:0:0:0:
278,293,191646,6,0,B|332:183|233:201|284:90,1,212.5,2|10,3:2|0:0,0:0:0:0:
374,143,192175,1,10,0:0:0:0:
200,239,192352,2,0,P|144:227|85:217,1,106.25,2|0,1:2|0:0,0:0:0:0:
270,339,192705,6,0,P|315:278|454:298,1,212.5,2|10,3:2|0:0,0:0:0:0:
373,369,193234,1,8,0:0:0:0:
321,237,193410,2,0,P|335:181|349:114,1,106.25,10|0,0:0|0:0,0:0:0:0:
191,19,193763,6,0,P|164:53|262:161,2,212.5,2|8|8,3:2|0:0|0:0,0:0:0:0:
412,211,194822,6,0,B|287:189|345:293|166:248,1,212.5,2|10,3:2|0:0,0:0:0:0:
248,163,195352,1,8,0:0:0:0:
377,305,195528,1,10,0:0:0:0:
447,116,195705,1,8,0:0:0:0:
212,257,195881,6,0,P|159:204|201:76,1,212.5,6|10,3:2|0:0,0:0:0:0:
346,7,196410,5,10,0:0:0:0:
248,163,196587,1,2,1:2:0:0:
134,1,196763,1,2,0:0:0:0:
352,127,196940,6,0,P|324:230|304:338,1,212.5,6|10,3:2|0:0,0:0:0:0:
404,283,197469,1,10,0:0:0:0:
248,163,197646,2,0,P|234:111|224:57,1,106.25,10|0,0:0|0:0,0:0:0:0:
73,209,197999,6,0,B|201:204|135:288|295:274,2,212.5,2|2|10,3:2|0:0|0:0,0:0:0:0:
246,162,198881,1,8,0:0:0:0:
246,162,198969,1,8,0:0:0:0:
246,162,199057,6,0,P|307:165|357:208,1,106.25,2|0,3:2|0:0,0:0:0:0:
187,333,199410,2,0,P|159:278|171:213,1,106.25,10|8,0:0|0:0,0:0:0:0:
365,299,199763,2,0,P|331:350|269:372,1,106.25,10|0,0:0|0:0,0:0:0:0:
99,257,200116,6,0,P|132:234|177:241,1,70.8333333333333,2|0,3:2|0:0,0:0:0:0:
246,162,200352,2,0,P|279:185|324:178,1,70.8333333333333,2|0,0:0|0:0,0:0:0:0:
393,257,200587,2,0,P|426:234|471:241,1,70.8333333333333,2|0,0:0|0:0,0:0:0:0:
334,169,200822,2,0,P|345:108|366:40,1,106.25,2|0,1:2|0:0,0:0:0:0:
170,110,201175,6,0,B|121:221|231:203|149:343,2,212.5,6|10|10,3:2|0:0|0:0,0:0:0:0:
87,257,202057,1,0,0:0:0:0:
246,162,202234,6,0,P|331:149|410:261,2,212.5,2|8|10,3:2|0:0|0:0,0:0:0:0:
187,251,203116,1,8,0:0:0:0:
187,251,203205,1,8,0:0:0:0:
187,251,203293,5,2,3:2:0:0:
155,92,203469,1,8,0:0:0:0:
24,266,203646,1,10,0:0:0:0:
77,38,203822,1,8,0:0:0:0:
139,332,203999,1,10,0:0:0:0:
248,76,204175,1,0,0:0:0:0:
319,340,204352,6,0,B|441:338|376:254|515:267,1,212.5,2|8,3:2|0:0,0:0:0:0:
482,364,204881,1,8,0:0:0:0:
329,240,205057,2,0,P|341:191|351:121,1,106.25,0|0,1:2|0:0,0:0:0:0:
267,36,205410,6,0,P|185:51|149:152,1,170,6|10,3:2|0:0,0:0:0:0:
170,222,205940,1,10,0:0:0:0:
72,193,206116,2,0,P|88:238|96:282,1,85,10|0,0:0|0:0,0:0:0:0:
196,356,206469,6,0,P|244:335|296:365,1,85,2|0,3:2|0:0,0:0:0:0:
294,244,206822,2,0,P|336:275|336:335,1,85,10|0,1:2|0:0,0:0:0:0:
439,272,207175,2,0,P|433:324|381:354,1,85,10|8,0:0|0:0,0:0:0:0:
360,355,207440,1,8,0:0:0:0:
360,355,207528,6,0,P|347:268|332:162,1,170,2|10,3:2|0:0,0:0:0:0:
321,85,208057,1,8,0:0:0:0:
243,151,208234,2,0,P|199:164|144:146,1,85,10|0,0:0|0:0,0:0:0:0:
77,92,208587,5,2,3:2:0:0:
159,47,208763,1,8,0:0:0:0:
68,189,208940,1,10,0:0:0:0:
0,37,209116,1,2,0:0:0:0:
161,156,209293,1,2,1:2:0:0:
2,279,209469,1,2,0:0:0:0:
159,47,209646,6,0,B|270:48|217:112|331:113,2,170,6|10|10,3:2|0:0|0:0,0:0:0:0:
30,155,210705,6,0,P|79:182|179:121,2,170,2|0|10,3:2|1:0|0:0,0:0:0:0:
64,271,211587,1,10,0:0:0:0:
64,271,211675,1,8,0:0:0:0:
64,271,211763,6,0,P|52:316|48:377,1,85,2|0,3:2|0:0,0:0:0:0:
191,160,212116,2,0,P|202:205|207:266,1,85,10|8,0:0|0:0,0:0:0:0:
64,49,212469,2,0,P|52:94|48:155,1,85,10|0,0:0|0:0,0:0:0:0:
198,33,212822,5,2,3:2:0:0:
110,187,212999,1,8,0:0:0:0:
273,136,213175,1,10,0:0:0:0:
200,274,213352,1,10,0:0:0:0:
386,183,213528,2,0,P|370:119|360:51,1,127.5,2|0,1:2|0:0,0:0:0:0:
358,6,213881,6,0,B|252:3|300:75|174:64,1,170,6|10,3:2|0:0,0:0:0:0:
103,49,214410,1,10,0:0:0:0:
141,143,214587,2,0,P|122:190|111:233,1,85,10|0,0:0|0:0,0:0:0:0:
201,337,214940,6,0,P|236:314|284:316,1,85,2|0,3:2|0:0,0:0:0:0:
309,229,215293,2,0,P|346:247|368:290,1,85,2|0,1:2|0:0,0:0:0:0:
456,268,215646,2,0,P|458:309|432:350,1,85,10|8,0:0|0:0,0:0:0:0:
391,368,215910,1,0,0:0:0:0:
391,368,215999,6,0,B|279:381|328:309|202:329,2,170,2|10|10,3:2|0:0|0:0,0:0:0:0:
142,374,217057,6,0,P|138:291|196:232,1,170,2|10,3:2|0:0,0:0:0:0:
334,187,217587,2,0,B|231:200|274:139|173:149,1,170,2|2,0:0|0:0,0:0:0:0:
60,220,218116,6,0,P|75:134|91:37,1,170,6|8,3:2|0:0,0:0:0:0:
174,148,218646,1,0,0:0:0:0:
259,52,218822,5,10,0:0:0:0:
272,41,218940,2,0,P|309:24|347:31,1,56.6666666666667,2|2,0:0|0:0,0:0:0:0:
442,151,219175,5,2,3:2:0:0:
320,113,219351,1,2,0:0:0:0:
491,76,219528,1,10,1:2:0:0:
393,226,219705,1,2,0:0:0:0:
324,24,219881,1,10,0:0:0:0:
169,295,220057,1,8,0:0:0:0:
169,295,220146,1,8,0:0:0:0:
169,295,220234,6,0,B|66:276|113:353|-17:331,2,170,2|10|10,3:2|0:0|0:0,0:0:0:0:
471,137,221293,6,0,B|503:116|517:72|517:72|539:-15|444:-31|414:44|414:44|373:-23|290:-1|312:85|312:85|331:139|375:135|388:187|388:187|390:307|274:300|255:164|388:187|388:187|466:251|468:321|389:356|343:363|285:355|245:312|224:258|224:258|131:236|68:298|115:367|187:367|225:325|224:258|224:258|196:192|128:178|81:217|81:217|43:190|35:126|67:75|123:68|179:56|217:64|217:64|192:82|178:112,1,2039.99993774414,2|0,3:2|0:0,0:0:0:0:
