osu file format v14

[General]
AudioFilename: audio.mp3
AudioLeadIn: 0
PreviewTime: 149950
Countdown: 0
SampleSet: Soft
StackLeniency: 0.7
Mode: 0
LetterboxInBreaks: 0
WidescreenStoryboard: 0

[Editor]
Bookmarks: 10900,20500,39700,49300,66100,75700,84100,85300,94900,104500,121300,130900,140500,147700,150100,168100,177700,179950
DistanceSpacing: 1
BeatDivisor: 4
GridSize: 32
TimelineZoom: 1.4

[Metadata]
Title:FPS
TitleUnicode:エフピーエス
Artist:SoraMafuUraSaka feat. Knives Out
ArtistUnicode:そらまふうらさか feat. 荒野行動
Creator:AirinCat
Version:Normal
Source:
Tags:mafumafu soraru uratanuki aho no sakata りゅうせー ryuusee 八三 hachisan あほの坂田 うらたぬき まふまふ そらる utaite original
BeatmapID:1843200
BeatmapSetID:881581

[Difficulty]
HPDrainRate:3
CircleSize:3.2
OverallDifficulty:4
ApproachRate:5.5
SliderMultiplier:1
SliderTickRate:1

[Events]
//Background and Video events
Video,0,"video.mp4"
0,0,"screenshot.jpg",0,0
//Break Periods
2,39900,45775
2,75900,82900
2,95100,100975
//Storyboard Layer 0 (Background)
//Storyboard Layer 1 (Fail)
//Storyboard Layer 2 (Pass)
//Storyboard Layer 3 (Foreground)
//Storyboard Sound Samples

[TimingPoints]
1300,300,4,2,1,40,1,0
8500,-100,4,2,1,40,0,0
10300,-100,4,2,1,20,0,0
10900,-100,4,2,1,70,0,0
20500,-100,4,2,1,40,0,0
29350,-100,4,2,2,55,0,0
29500,-100,4,2,1,55,0,0
30100,-100,4,2,1,62,0,0
34750,-100,4,2,2,62,0,0
34900,-100,4,2,1,62,0,0
39700,-100,4,2,1,40,0,0
44500,-100,4,2,1,42,0,0
45100,-100,4,2,1,46,0,0
45700,-100,4,2,1,50,0,0
45850,-100,4,2,2,50,0,0
46000,-100,4,2,1,54,0,0
46150,-100,4,2,2,54,0,0
46300,-100,4,2,1,60,0,0
46900,-100,4,2,1,65,0,0
49300,-100,4,2,1,75,0,1
53950,-100,4,2,2,75,0,1
54100,-100,4,2,1,75,0,1
64900,-100,4,2,1,65,0,0
65875,-100,4,2,2,65,0,0
66100,-100,4,2,1,70,0,0
70000,-100,4,2,1,70,0,0
84100,-100,4,2,1,70,0,0
85300,-100,4,2,1,62,0,0
89950,-100,4,2,2,62,0,0
90100,-100,4,2,1,62,0,0
94900,-100,4,2,1,62,0,0
96700,-100,4,2,1,40,0,0
99700,-100,4,2,1,42,0,0
100300,-100,4,2,1,46,0,0
100900,-100,4,2,1,50,0,0
101050,-100,4,2,2,50,0,0
101200,-100,4,2,1,54,0,0
101350,-100,4,2,2,54,0,0
101500,-100,4,2,1,58,0,0
102100,-100,4,2,1,65,0,0
104500,-100,4,2,1,75,0,1
109150,-100,4,2,2,75,0,1
109300,-100,4,2,1,75,0,1
120100,-100,4,2,1,75,0,0
121300,-100,4,2,1,52,0,0
140500,-100,4,2,1,58,0,0
145300,-100,4,2,1,62,0,0
149800,-100,4,2,2,65,0,0
150100,-100,4,2,1,75,0,1
154750,-100,4,2,2,75,0,1
154900,-100,4,2,1,75,0,1
165700,-100,4,2,1,80,0,0
166900,-100,4,2,1,75,0,0
167200,-100,4,2,1,80,0,0
168100,-100,4,2,1,75,0,1
170500,-100,4,2,1,72,0,0
176800,-100,4,2,1,60,0,0
177700,-100,4,2,1,62,0,0
178450,-100,4,2,1,66,0,0
178750,-100,4,2,1,70,0,0

[Colours]
Combo1 : 243,133,133
Combo2 : 113,221,121
Combo3 : 108,108,253
Combo4 : 205,205,205

[HitObjects]
256,192,8500,12,0,10300,0:0:0:0:
91,306,10900,6,0,P|145:291|203:310,1,100,4|10,1:2|0:0,0:0:0:0:
227,329,11350,1,2,0:0:0:0:
227,329,11500,2,0,L|343:327,1,100,2|8,1:2|0:0,0:0:0:0:
426,325,12100,1,0,1:0:0:0:
487,245,12400,2,0,B|485:207|485:207|493:181|493:181|491:135,1,100,10|0,0:0|1:0,0:0:0:0:
430,67,13000,2,0,B|392:63|392:63|363:71|363:71|321:66,1,100,10|0,0:0|1:0,0:0:0:0:
254,3,13600,6,0,P|231:48|237:103,1,100,10|0,0:0|1:0,0:0:0:0:
291,178,14200,1,10,0:0:0:0:
370,238,14500,2,0,L|361:295,1,50,2|2,1:2|1:2,0:0:0:0:
349,335,14800,2,0,P|308:353|247:341,1,100,10|2,0:0|1:2,0:0:0:0:
171,288,15400,1,10,0:0:0:0:
86,342,15700,6,0,P|82:299|47:241,1,100,4|10,1:2|0:0,0:0:0:0:
23,210,16150,1,2,0:0:0:0:
23,210,16300,2,0,L|27:97,1,100,2|8,1:2|0:0,0:0:0:0:
59,15,16900,1,0,1:0:0:0:
146,62,17200,2,0,P|196:80|254:72,1,100,10|0,0:0|1:0,0:0:0:0:
317,142,17800,6,0,L|311:257,1,100,10|0,0:0|1:0,0:0:0:0:
374,320,18400,2,0,P|436:329|478:307,1,100,10|0,0:0|1:0,0:0:0:0:
496,221,19000,1,8,0:0:0:0:
476,121,19300,2,0,L|462:69,1,50,8|8,0:3|0:3,0:0:0:0:
433,32,19600,2,0,P|377:50|327:41,1,100,2|2,1:2|1:2,0:0:0:0:
239,21,20200,2,0,L|180:23,1,50,2|2,1:2|1:2,0:0:0:0:
139,20,20500,6,0,L|135:128,1,100,6|2,1:2|1:2,0:0:0:0:
35,117,21100,2,0,L|31:221,1,100,2|2,1:2|1:2,0:0:0:0:
26,316,21700,2,0,P|76:304|134:322,1,100,2|2,1:2|1:2,0:0:0:0:
213,356,22300,2,0,P|265:369|324:359,1,100,0|0,1:2|1:2,0:0:0:0:
385,298,22900,5,0,1:2:0:0:
321,219,23200,2,0,P|311:171|321:122,1,100,2|2,1:2|1:2,0:0:0:0:
384,45,23800,1,0,1:2:0:0:
450,119,24100,2,0,P|459:174|441:231,1,100,2|2,1:2|1:2,0:0:0:0:
385,298,24700,1,0,1:2:0:0:
285,305,25000,1,2,1:2:0:0:
201,249,25300,6,0,L|86:249,1,100,6|2,1:2|1:2,0:0:0:0:
24,184,25900,2,0,P|18:126|39:77,1,100,2|2,1:2|1:2,0:0:0:0:
123,46,26500,2,0,L|226:51,1,100,2|2,1:2|1:2,0:0:0:0:
302,111,27100,2,0,L|411:113,1,100,0|0,1:2|1:2,0:0:0:0:
497,143,27700,5,0,1:2:0:0:
421,208,28000,2,0,P|384:249|376:305,1,100,2|2,1:2|1:2,0:0:0:0:
296,354,28600,1,0,1:2:0:0:
224,283,28900,2,0,P|212:235|177:199,1,100,2|2,1:2|1:2,0:0:0:0:
88,155,29500,2,0,P|122:116|179:101,1,100,8|8,0:3|1:3,0:0:0:0:
266,108,30100,6,0,P|315:113|375:88,1,100,6|10,1:2|0:2,0:0:0:0:
428,21,30700,1,2,1:2:0:0:
509,78,31000,1,10,0:2:0:0:
450,161,31300,2,0,P|438:208|461:276,1,100,2|10,1:2|0:2,0:0:0:0:
469,303,31750,1,2,0:0:0:0:
469,303,31900,2,0,L|359:312,1,100,0|8,1:2|0:2,0:0:0:0:
280,265,32500,5,0,1:2:0:0:
207,195,32800,2,0,P|155:186|102:203,1,100,10|2,0:2|1:2,0:0:0:0:
43,272,33400,1,8,0:2:0:0:
113,343,33700,2,0,P|165:352|218:335,1,100,2|10,1:2|0:2,0:0:0:0:
280,265,34300,1,0,1:2:0:0:
273,165,34600,1,10,0:2:0:0:
321,77,34900,6,0,P|381:61|437:75,1,100,6|10,1:2|0:2,0:0:0:0:
504,117,35500,1,2,1:2:0:0:
501,216,35800,1,10,0:2:0:0:
429,285,36100,2,0,L|315:280,1,100,2|10,1:2|0:2,0:0:0:0:
283,260,36550,1,2,0:0:0:0:
283,260,36700,2,0,L|172:255,1,100,0|8,1:2|0:2,0:0:0:0:
83,251,37300,5,0,1:2:0:0:
2,192,37600,2,0,P|1:120|18:91,1,100,8|2,0:2|1:2,0:0:0:0:
77,19,38200,1,10,0:2:0:0:
162,71,38500,2,0,B|207:80|207:80|274:65,1,100,2|10,1:2|0:2,0:0:0:0:
307,53,38950,1,8,0:3:0:0:
307,53,39100,2,0,B|364:43|364:43|401:66|401:66|466:59,1,150,2|8,1:2|0:3,0:0:0:0:
498,50,39700,5,4,1:2:0:0:
399,110,46900,6,0,L|409:43,2,50,8|8|8,1:3|1:3|1:3,0:0:0:0:
326,179,47500,2,0,L|270:167,1,50,8|8,1:3|1:3,0:0:0:0:
205,98,47950,2,0,L|223:-11,2,100,8|8|8,1:3|1:3|1:3,0:0:0:0:
190,145,48700,1,8,1:3:0:0:
7,225,49300,6,0,P|57:210|111:229,1,100,6|10,1:2|0:2,0:0:0:0:
142,252,49750,1,2,0:0:0:0:
142,252,49900,2,0,L|251:261,1,100,2|10,1:2|0:2,0:0:0:0:
320,321,50500,2,0,P|335:285|325:209,1,100,2|10,1:2|0:2,0:0:0:0:
306,128,51100,1,2,1:2:0:0:
399,92,51400,1,10,0:2:0:0:
476,153,51700,6,0,P|494:200|488:249,1,100,0|8,1:2|0:2,0:0:0:0:
458,290,52151,1,2,0:0:0:0:
458,290,52300,2,0,L|351:288,1,100,2|10,1:2|0:2,0:0:0:0:
270,239,52900,2,0,P|226:232|169:257,1,100,0|10,1:2|0:2,0:0:0:0:
81,287,53500,1,2,1:2:0:0:
15,211,53800,1,10,0:2:0:0:
40,114,54100,6,0,L|141:115,1,100,6|10,1:2|0:2,0:0:0:0:
188,101,54550,1,2,0:0:0:0:
188,101,54700,2,0,P|233:85|299:98,1,100,2|10,1:2|0:2,0:0:0:0:
372,137,55300,2,0,P|388:182|375:248,1,100,2|10,1:2|0:2,0:0:0:0:
332,320,55900,1,2,1:2:0:0:
421,365,56200,1,10,0:2:0:0:
485,288,56500,6,0,P|478:231|496:188,1,100,0|10,1:2|0:2,0:0:0:0:
488,91,57100,1,2,1:2:0:0:
401,40,57400,1,10,0:2:0:0:
310,83,57700,2,0,B|257:91|257:91|199:70,1,100,6|8,1:2|0:2,0:0:0:0:
165,62,58150,1,2,0:2:0:0:
165,62,58300,2,0,B|112:55|112:55|59:71,1,100,2|2,1:2|1:2,0:0:0:0:
28,160,58900,6,0,P|55:200|62:253,1,100,6|10,1:2|0:2,0:0:0:0:
59,300,59350,1,2,0:0:0:0:
59,300,59500,2,0,L|168:304,1,100,2|10,1:2|0:2,0:0:0:0:
253,270,60100,2,0,P|265:224|254:165,1,100,2|10,1:2|0:2,0:0:0:0:
265,72,60700,1,2,1:2:0:0:
359,39,61000,1,10,0:2:0:0:
456,63,61300,6,0,P|482:98|490:160,1,100,0|10,1:2|0:2,0:0:0:0:
465,195,61750,1,2,0:0:0:0:
465,195,61900,2,0,P|454:244|466:295,1,100,2|10,1:2|0:2,0:0:0:0:
388,357,62500,2,0,L|287:357,1,100,2|10,1:2|0:2,0:0:0:0:
201,307,63100,1,2,1:2:0:0:
112,353,63400,1,10,0:2:0:0:
63,265,63700,6,0,L|60:204,2,50,8|8|8,1:3|1:3|1:3,0:0:0:0:
149,214,64300,2,0,L|147:158,2,50,8|8|2,1:3|1:3|0:0,0:0:0:0:
241,175,64900,1,8,1:3:0:0:
294,330,66100,6,0,P|352:340|405:325,1,100,4|10,1:2|0:0,0:0:0:0:
436,308,66550,1,2,0:0:0:0:
436,308,66700,2,0,L|431:200,1,100,2|8,1:2|0:0,0:0:0:0:
476,119,67300,1,0,1:0:0:0:
404,49,67600,2,0,B|359:45|359:45|345:54|345:54|297:48,1,100,10|0,0:0|1:0,0:0:0:0:
230,113,68200,2,0,B|182:108|182:108|166:116|166:116|124:111,1,100,10|0,0:0|1:0,0:0:0:0:
63,39,68800,6,0,P|38:79|38:141,1,100,10|0,0:0|1:0,0:0:0:0:
98,207,69400,1,10,0:0:0:0:
191,243,69700,2,0,L|192:299,1,50,2|2,1:2|1:2,0:0:0:0:
205,340,70000,2,0,P|252:355|317:339,1,100,10|2,0:0|1:2,0:0:0:0:
364,268,70600,2,0,L|422:273,1,50,8|8,0:0|0:0,0:0:0:0:
464,266,70900,6,0,P|449:220|462:157,1,100,4|10,1:2|0:0,0:0:0:0:
461,120,71350,1,2,0:0:0:0:
461,120,71500,2,0,L|344:121,1,100,0|8,1:0|0:0,0:0:0:0:
289,50,72100,1,0,1:0:0:0:
204,103,72400,2,0,P|184:144|192:215,1,100,8|0,0:0|1:0,0:0:0:0:
122,276,73000,1,10,0:0:0:0:
61,196,73300,6,0,P|53:136|20:93,1,100,0|10,1:0|0:0,0:0:0:0:
90,22,73900,1,0,1:0:0:0:
168,83,74200,1,8,0:0:0:0:
252,29,74500,2,0,L|311:37,1,50,8|8,0:3|0:3,0:0:0:0:
351,42,74800,2,0,P|329:73|323:141,1,100,2|2,1:2|1:2,0:0:0:0:
366,223,75400,2,0,L|422:231,1,50,2|2,1:2|1:2,0:0:0:0:
464,240,75700,5,4,1:2:0:0:
120,131,84100,6,0,B|160:130|193:97|193:97|224:123|259:138|259:138|297:84|356:96|401:127,1,300,2|0,1:2|0:0,0:0:0:0:
447,193,85300,6,0,P|415:231|407:295,1,100,6|10,1:2|0:2,0:0:0:0:
336,351,85900,2,0,P|309:292|314:246,1,100,2|10,1:2|0:2,0:0:0:0:
237,189,86500,2,0,L|138:192,1,100,2|10,1:2|0:2,0:0:0:0:
99,158,86950,1,2,0:0:0:0:
99,158,87100,2,0,P|108:105|92:55,1,100,0|8,1:2|0:2,0:0:0:0:
186,19,87700,5,0,1:2:0:0:
258,87,88000,2,0,P|302:98|358:82,1,100,10|2,0:2|1:2,0:0:0:0:
453,92,88600,1,8,0:2:0:0:
442,191,88900,2,0,P|406:225|391:272,1,100,2|10,1:2|0:2,0:0:0:0:
366,369,89500,1,0,1:2:0:0:
266,367,89800,1,10,0:2:0:0:
234,272,90100,6,0,L|232:158,1,100,6|10,1:2|0:2,0:0:0:0:
174,90,90700,2,0,P|120:78|68:97,1,100,2|10,1:2|0:2,0:0:0:0:
18,170,91300,2,0,L|21:280,1,100,2|10,1:2|0:2,0:0:0:0:
47,311,91750,1,2,0:0:0:0:
47,311,91900,2,0,P|87:296|161:311,1,100,0|8,1:2|0:2,0:0:0:0:
240,324,92500,5,0,1:2:0:0:
337,299,92800,2,0,P|357:247|346:187,1,100,8|2,0:2|1:2,0:0:0:0:
282,133,93400,1,10,0:2:0:0:
338,50,93700,2,0,P|390:30|450:41,1,100,2|10,1:2|0:2,0:0:0:0:
479,54,94150,1,8,0:3:0:0:
479,54,94300,2,0,B|488:103|488:103|475:156|475:156|481:211,1,150,2|8,1:2|0:3,0:0:0:0:
496,248,94900,5,4,1:2:0:0:
102,185,102100,6,0,L|101:117,2,50,8|8|8,1:3|1:3|1:3,0:0:0:0:
190,231,102700,2,0,L|256:231,1,50,8|8,1:3|1:3,0:0:0:0:
320,171,103150,2,0,L|319:58,2,100,8|8|8,1:3|1:3|1:3,0:0:0:0:
355,206,103900,1,8,1:3:0:0:
195,325,104500,6,0,P|130:323|85:348,1,100,6|10,1:2|0:2,0:0:0:0:
51,352,104950,1,2,0:0:0:0:
51,352,105100,2,0,L|51:240,1,100,2|10,1:2|0:2,0:0:0:0:
103,167,105700,2,0,L|94:62,1,100,2|10,1:2|0:2,0:0:0:0:
182,20,106300,1,2,1:2:0:0:
271,65,106600,1,10,0:2:0:0:
362,25,106900,6,0,P|411:10|464:23,1,100,0|8,1:2|0:2,0:0:0:0:
498,48,107350,1,2,0:0:0:0:
498,48,107500,2,0,L|502:153,1,100,2|10,1:2|0:2,0:0:0:0:
458,237,108100,2,0,P|415:250|358:236,1,100,0|10,1:2|0:2,0:0:0:0:
296,163,108700,1,2,1:2:0:0:
197,145,109000,1,10,0:2:0:0:
128,217,109300,6,0,L|131:321,1,100,6|10,1:2|0:2,0:0:0:0:
139,366,109750,1,2,0:0:0:0:
139,366,109900,2,0,P|187:351|244:361,1,100,2|10,1:2|0:2,0:0:0:0:
333,377,110500,2,0,P|391:379|430:358,1,100,2|10,1:2|0:2,0:0:0:0:
499,290,111100,1,2,1:2:0:0:
494,190,111400,1,10,0:2:0:0:
445,102,111700,6,0,P|399:90|341:102,1,100,0|10,1:2|0:2,0:0:0:0:
266,157,112300,1,2,1:2:0:0:
167,140,112600,1,10,0:2:0:0:
94,71,112900,2,0,B|65:111|65:111|70:179,1,100,6|8,1:2|0:2,0:0:0:0:
86,208,113350,1,2,0:2:0:0:
86,208,113500,2,0,B|99:258|99:258|81:306,1,100,2|0,1:2|1:2,0:0:0:0:
172,346,114100,6,0,P|205:329|268:337,1,100,6|10,1:2|0:2,0:0:0:0:
311,343,114550,1,2,0:0:0:0:
311,343,114700,2,0,L|304:232,1,100,2|10,1:2|0:2,0:0:0:0:
328,146,115300,2,0,P|370:122|432:130,1,100,2|10,1:2|0:2,0:0:0:0:
497,189,115900,1,2,1:2:0:0:
490,288,116200,1,10,0:2:0:0:
397,333,116500,6,0,L|293:329,1,100,0|8,1:2|0:2,0:0:0:0:
247,322,116950,1,2,0:0:0:0:
247,322,117100,2,0,L|145:331,1,100,2|10,1:2|0:2,0:0:0:0:
56,290,117700,2,0,P|43:241|63:179,1,100,2|10,1:2|0:2,0:0:0:0:
119,117,118300,2,0,P|131:76|112:15,1,100,2|10,1:2|0:2,0:0:0:0:
215,7,118900,6,0,L|268:11,2,50,8|8|8,1:3|1:3|1:3,0:0:0:0:
225,106,119500,2,0,L|278:110,2,50,8|8|2,1:3|1:3|0:0,0:0:0:0:
245,203,120100,1,8,1:3:0:0:
379,301,121300,6,0,B|335:297|335:297|282:317|282:317|227:312,1,150,4|0,1:2|1:2,0:0:0:0:
183,302,121900,1,4,1:2:0:0:
70,136,122500,2,0,L|76:46,2,66.6666666666667,8|8|8,1:3|1:3|1:3,0:0:0:0:
124,174,123100,2,0,L|264:163,1,133.333333333333,8|8,1:3|1:3,0:0:0:0:
323,159,123700,6,0,B|318:210|318:210|337:249|337:249|338:314,1,150,4|0,1:2|1:0,0:0:0:0:
330,353,124300,1,4,1:2:0:0:
134,311,124900,2,0,L|59:329,2,66.6666666666667,8|8|8,1:3|1:3|1:3,0:0:0:0:
167,253,125500,2,0,P|175:199|147:118,1,133.333333333333,8|8,1:3|1:3,0:0:0:0:
111,71,126100,6,0,B|180:68|180:68|207:76|207:76|269:74,1,150,4|0,1:2|1:0,0:0:0:0:
309,74,126700,1,4,1:2:0:0:
441,224,127300,2,0,L|515:227,2,66.6666666666667,8|8|8,1:3|1:3|1:3,0:0:0:0:
391,269,127900,2,0,L|250:263,1,133.333333333333,8|8,1:3|1:3,0:0:0:0:
191,270,128500,6,0,P|149:299|61:268,1,150,4|0,1:2|1:0,0:0:0:0:
33,227,129100,1,4,1:2:0:0:
178,90,129700,2,0,L|184:8,2,66.6666666666667,8|8|8,1:3|1:3|1:3,0:0:0:0:
239,116,130300,2,0,B|284:100|313:133|313:133|342:140|388:121,1,133.333333333333,8|8,1:3|0:3,0:0:0:0:
424,101,130900,6,0,L|421:251,1,150,4|0,1:2|1:0,0:0:0:0:
423,301,131500,1,4,1:2:0:0:
256,190,132100,2,0,L|262:103,2,66.6666666666667,8|8|8,1:3|1:3|1:3,0:0:0:0:
220,246,132700,2,0,B|169:232|169:232|86:242,1,133.333333333333,8|8,1:3|1:3,0:0:0:0:
23,251,133300,6,0,P|49:185|30:105,1,150,4|0,1:2|1:0,0:0:0:0:
13,63,133900,1,4,1:2:0:0:
211,88,134500,2,0,L|294:55,2,66.6666666666667,8|8|8,1:3|1:3|1:3,0:0:0:0:
188,150,135100,2,0,P|225:204|217:292,1,133.333333333333,8|8,1:3|1:3,0:0:0:0:
200,331,135700,6,0,L|368:335,1,150,4|0,1:2|1:0,0:0:0:0:
399,335,136300,1,4,1:2:0:0:
473,149,136900,2,0,L|467:64,2,66.6666666666667,8|8|8,1:3|1:3|1:3,0:0:0:0:
424,195,137500,2,0,B|383:189|383:189|354:197|354:197|279:192,1,133.333333333333,8|8,1:3|1:3,0:0:0:0:
225,192,138100,6,0,P|158:158|150:73,1,150,4|0,1:2|1:0,0:0:0:0:
161,42,138700,1,4,1:2:0:0:
65,217,139300,2,0,L|-25:213,2,66.6666666666667,8|8|8,1:3|1:3|1:3,0:0:0:0:
114,261,139900,2,0,P|143:295|238:311,1,133.333333333333,8|8,1:3|1:3,0:0:0:0:
282,277,140500,6,0,L|288:210,2,50,4|8|8,1:2|1:3|1:3,0:0:0:0:
378,304,141100,2,0,L|383:249,2,50,8|8|8,1:3|1:3|1:3,0:0:0:0:
476,325,141700,2,0,L|482:265,1,50,8|8,1:3|1:3,0:0:0:0:
495,176,142150,1,8,1:3:0:0:
425,103,142450,2,0,L|430:35,1,50,8|8,1:3|1:3,0:0:0:0:
330,32,142900,6,0,L|271:28,2,50,8|8|8,1:3|1:3|1:3,0:0:0:0:
286,121,143500,2,0,L|229:119,2,50,8|8|8,1:3|1:3|1:3,0:0:0:0:
258,217,144100,2,0,L|198:213,1,50,8|8,1:3|1:3,0:0:0:0:
108,199,144550,1,8,1:3:0:0:
43,275,144850,2,0,L|43:332,1,50,8|8,1:3|1:3,0:0:0:0:
136,360,145300,6,0,L|193:364,2,50,4|8|8,1:2|1:3|1:3,0:0:0:0:
186,273,145900,2,0,L|248:275,2,50,8|8|8,1:3|1:3|1:3,0:0:0:0:
234,185,146500,2,0,L|292:185,1,50,8|8,1:3|1:3,0:0:0:0:
363,124,146950,1,8,1:3:0:0:
444,181,147250,2,0,L|442:248,1,50,8|8,1:3|1:3,0:0:0:0:
437,330,147700,5,4,1:2:0:0:
256,192,148300,12,8,149500,0:0:0:0:
280,310,150100,6,0,P|220:301|165:322,1,100,6|10,1:2|0:2,0:0:0:0:
136,330,150550,1,2,0:0:0:0:
136,330,150700,2,0,L|132:229,1,100,2|10,1:2|0:2,0:0:0:0:
53,167,151300,2,0,P|42:111|62:60,1,100,2|10,1:2|0:2,0:0:0:0:
138,16,151900,1,2,1:2:0:0:
222,69,152200,1,10,0:2:0:0:
317,39,152500,6,0,L|421:38,1,100,0|8,1:2|0:2,0:0:0:0:
461,60,152950,1,2,0:0:0:0:
461,60,153100,2,0,P|431:103|428:158,1,100,2|10,1:2|0:2,0:0:0:0:
478,234,153700,2,0,P|503:279|499:338,1,100,0|10,1:2|0:2,0:0:0:0:
419,382,154300,1,2,1:2:0:0:
319,382,154600,1,10,0:2:0:0:
238,322,154900,6,0,L|242:214,1,100,6|10,1:2|0:2,0:0:0:0:
276,186,155350,1,2,0:0:0:0:
276,186,155500,2,0,L|279:75,1,100,2|10,1:2|0:2,0:0:0:0:
204,19,156100,2,0,P|151:6|92:26,1,100,2|10,1:2|0:2,0:0:0:0:
36,86,156700,1,2,1:2:0:0:
82,174,157000,1,10,0:2:0:0:
16,249,157300,6,0,L|31:358,1,100,0|10,1:2|0:2,0:0:0:0:
76,365,157750,1,2,0:0:0:0:
76,365,157900,2,0,P|121:353|184:363,1,100,2|10,1:2|0:2,0:0:0:0:
265,321,158500,2,0,B|278:272|278:272|259:217,1,100,6|8,1:2|0:2,0:0:0:0:
233,184,158950,1,2,0:2:0:0:
233,184,159100,2,0,B|216:129|216:129|235:71,1,100,2|0,1:2|1:2,0:0:0:0:
318,44,159700,6,0,L|432:46,1,100,6|10,1:2|0:2,0:0:0:0:
466,56,160150,1,2,0:0:0:0:
466,56,160300,2,0,P|448:95|454:158,1,100,2|10,1:2|0:2,0:0:0:0:
511,231,160900,2,0,L|505:332,1,100,2|10,1:2|0:2,0:0:0:0:
408,356,161500,1,2,1:2:0:0:
310,333,161800,1,10,0:2:0:0:
312,233,162100,6,0,L|307:120,1,100,0|10,1:2|0:2,0:0:0:0:
286,87,162550,1,2,0:0:0:0:
286,87,162700,2,0,P|235:68|178:84,1,100,2|10,1:2|0:2,0:0:0:0:
108,132,163300,2,0,P|90:176|98:230,1,100,2|10,1:2|0:2,0:0:0:0:
148,312,163900,1,2,1:2:0:0:
245,290,164200,1,10,0:2:0:0:
338,325,164500,6,0,L|394:332,2,50,8|8|8,1:3|1:3|1:3,0:0:0:0:
349,225,165100,2,0,L|407:232,2,50,8|8|2,1:3|1:3|0:0,0:0:0:0:
358,125,165700,1,8,1:3:0:0:
358,125,166900,2,0,L|429:131,2,50,8|8|2,1:3|1:3|0:0,0:0:0:0:
293,48,167500,1,2,0:0:0:0:
193,39,167800,1,2,1:2:0:0:
105,87,168100,6,0,L|99:199,1,100,4|10,1:2|0:0,0:0:0:0:
60,218,168550,1,2,0:0:0:0:
60,218,168700,2,0,L|57:327,1,100,2|8,1:2|0:0,0:0:0:0:
151,353,169300,1,0,1:0:0:0:
228,290,169600,2,0,B|281:275|281:275|340:288,1,100,10|0,0:0|1:0,0:0:0:0:
423,285,170200,2,0,B|466:260|466:260|492:213,1,100,10|0,0:0|1:0,0:0:0:0:
484,116,170800,6,0,P|468:83|409:50,1,100,10|0,0:0|1:0,0:0:0:0:
315,41,171400,1,10,0:0:0:0:
228,90,171700,2,0,L|161:83,1,50,2|2,1:2|1:2,0:0:0:0:
128,86,172000,2,0,L|127:197,1,100,10|2,0:0|1:2,0:0:0:0:
212,238,172600,2,0,L|213:294,1,50,8|8,0:0|0:0,0:0:0:0:
204,337,172900,6,0,P|145:326|92:342,1,100,4|10,1:2|0:0,0:0:0:0:
58,344,173350,1,2,0:0:0:0:
58,344,173500,2,0,L|57:235,1,100,0|8,1:0|0:0,0:0:0:0:
51,144,174100,1,0,1:0:0:0:
104,59,174400,2,0,P|147:43|212:54,1,100,10|0,0:0|1:0,0:0:0:0:
291,89,175000,1,10,0:0:0:0:
379,43,175300,6,0,P|428:36|474:53,1,100,0|10,1:0|0:0,0:0:0:0:
420,137,175900,1,0,1:0:0:0:
324,165,176200,1,8,0:0:0:0:
224,155,176500,2,0,L|223:210,1,50,8|8,0:3|0:3,0:0:0:0:
208,253,176800,2,0,B|155:248|155:248|109:268,1,100,2|2,1:2|1:2,0:0:0:0:
168,349,177400,1,2,1:2:0:0:
267,345,177700,6,0,L|331:340,1,50,8|8,1:3|1:3,0:0:0:0:
407,298,178150,2,0,B|422:249|422:249|406:189,1,100,8|8,1:3|1:3,0:0:0:0:
356,116,178750,2,0,B|345:65|345:65|357:8,2,100,12|12|12,1:3|1:3|1:3,0:0:0:0:
285,186,179650,1,12,1:3:0:0:
198,136,179950,5,12,3:3:0:0:
