osu file format v14

[General]
AudioFilename: audio.mp3
AudioLeadIn: 0
PreviewTime: 77013
Countdown: 0
SampleSet: Normal
StackLeniency: 0.7
Mode: 1
LetterboxInBreaks: 0
WidescreenStoryboard: 1

[Editor]
Bookmarks: 14973,20899,26825,32751,38677,41640,43584,53492,65344,71270
DistanceSpacing: 1
BeatDivisor: 2
GridSize: 8
TimelineZoom: 0.4999999

[Metadata]
Title:role-playing game (Cut Ver.)
TitleUnicode:ロールプレイングゲーム (Cut Ver.)
Artist:SoraMafuUraSaka
ArtistUnicode:そらまふうらさか
Creator:[-E S I A-]
Version:kantan
Source:
Tags:smus そらる soraru まふまふ mafumafu うらたぬき uratanuki あほの坂田 aho no sakata sora mafu ura saka りゅうせー Ryuuseee roleplaying rpg utaite original electronic japanese pop j-pop jpop short version E_S_I_A [-E_S_I_A-] ESIA [-ESIA-]
BeatmapID:4405323
BeatmapSetID:2099904

[Difficulty]
HPDrainRate:8
CircleSize:2
OverallDifficulty:3
ApproachRate:10
SliderMultiplier:1.4
SliderTickRate:1

[Events]
//Background and Video events
0,0,"elpiji.jpg",0,-180
//Break Periods
//Storyboard Layer 0 (Background)
//Storyboard Layer 1 (Fail)
//Storyboard Layer 2 (Pass)
//Storyboard Layer 3 (Foreground)
//Storyboard Layer 4 (Overlay)
//Storyboard Sound Samples

[TimingPoints]
69,370.37037037037,4,1,0,50,1,0
3031,370.37037037037,4,1,0,50,1,8
3032,370.37037037037,4,1,0,50,1,0
14420,-100,4,1,0,80,0,0
14791,-100,4,1,0,90,0,0
26735,-100,4,1,0,70,0,0
41550,370.37037037037,4,1,0,80,1,0
41550,-100,4,1,0,80,0,0
65161,-100,4,1,0,70,0,0
71087,-100,4,1,0,80,0,0
74050,-100,4,1,0,85,0,0
75531,-100,4,1,0,90,0,0
77105,370.37037037037,4,1,0,100,1,8
77108,370.37037037037,4,1,0,100,1,1
77108,-100,4,1,0,100,0,1
100811,-100,4,1,0,90,0,0
112661,-100,4,1,0,20,0,0
113864,-100,4,1,0,90,0,0

[HitObjects]
237,190,3032,5,0,0:0:0:0:
303,184,4513,1,8,0:0:0:0:
281,200,5254,1,8,0:0:0:0:
451,197,5994,1,0,0:0:0:0:
287,205,7476,1,8,0:0:0:0:
275,190,8217,1,0,0:0:0:0:
318,153,8957,1,0,0:0:0:0:
193,229,10439,1,8,0:0:0:0:
302,217,11180,1,0,0:0:0:0:
223,188,11920,1,8,0:0:0:0:
238,289,13402,1,8,0:0:0:0:
297,219,14513,1,12,0:0:0:0:
259,178,14883,1,4,0:0:0:0:
341,207,15624,1,8,0:0:0:0:
258,200,16365,1,8,0:0:0:0:
233,170,16735,1,8,0:0:0:0:
267,179,17106,1,0,0:0:0:0:
392,203,17846,1,0,0:0:0:0:
329,172,18587,1,8,0:0:0:0:
283,234,18957,1,0,0:0:0:0:
391,203,19328,1,8,0:0:0:0:
338,190,20809,1,4,0:0:0:0:
239,183,21550,1,8,0:0:0:0:
239,183,22291,1,8,0:0:0:0:
276,241,22661,1,8,0:0:0:0:
309,186,23031,1,0,0:0:0:0:
210,227,23772,1,0,0:0:0:0:
121,153,24513,1,8,0:0:0:0:
203,186,24883,1,0,0:0:0:0:
340,167,25254,1,8,0:0:0:0:
342,203,25994,1,0,0:0:0:0:
342,203,26365,1,0,0:0:0:0:
449,204,27106,1,12,0:0:0:0:
410,69,28217,1,8,0:0:0:0:
189,100,28587,1,8,0:0:0:0:
331,191,28957,1,0,0:0:0:0:
72,138,29698,1,0,0:0:0:0:
331,203,30439,1,8,0:0:0:0:
346,163,31180,1,0,0:0:0:0:
286,213,32661,1,12,0:0:0:0:
168,235,33402,1,0,0:0:0:0:
332,216,34143,1,0,0:0:0:0:
332,216,34513,1,0,0:0:0:0:
300,187,34883,1,8,0:0:0:0:
440,230,35624,1,0,0:0:0:0:
370,223,36365,1,8,0:0:0:0:
268,196,37106,1,8,0:0:0:0:
268,196,37476,1,8,0:0:0:0:
268,196,37846,1,0,0:0:0:0:
268,195,38587,1,8,0:0:0:0:
271,200,39328,1,8,0:0:0:0:
319,193,40069,1,0,0:0:0:0:
238,188,41550,1,12,0:0:0:0:
287,274,42290,1,0,0:0:0:0:
309,182,43031,1,0,0:0:0:0:
210,161,43401,1,0,0:0:0:0:
277,173,43772,1,8,0:0:0:0:
310,182,44512,1,8,0:0:0:0:
324,143,45253,1,0,0:0:0:0:
201,68,45624,1,8,0:0:0:0:
374,167,45994,1,0,0:0:0:0:
272,178,47475,1,12,0:0:0:0:
295,202,48216,1,0,0:0:0:0:
252,159,48957,1,8,0:0:0:0:
260,159,49327,1,8,0:0:0:0:
217,202,49698,1,0,0:0:0:0:
322,174,50438,1,0,0:0:0:0:
323,181,51179,1,8,0:0:0:0:
253,210,51549,1,0,0:0:0:0:
253,210,51920,1,8,0:0:0:0:
253,210,53401,1,12,0:0:0:0:
340,250,54142,1,8,0:0:0:0:
296,209,54883,1,0,0:0:0:0:
428,240,55624,1,8,0:0:0:0:
387,307,56364,1,0,0:0:0:0:
464,228,57105,1,8,0:0:0:0:
336,193,57846,1,8,0:0:0:0:
209,164,58587,1,0,0:0:0:0:
367,206,59327,1,0,0:0:0:0:
316,241,59698,1,0,0:0:0:0:
316,241,60068,1,8,0:0:0:0:
316,241,60809,1,8,0:0:0:0:
316,241,61179,1,8,0:0:0:0:
316,241,61549,1,0,0:0:0:0:
247,236,62290,1,0,0:0:0:0:
308,202,62661,1,8,0:0:0:0:
407,169,63401,1,8,0:0:0:0:
343,147,63772,1,0,0:0:0:0:
342,188,64512,1,8,0:0:0:0:
210,258,65253,1,4,0:0:0:0:
306,190,66735,1,8,0:0:0:0:
201,185,67475,1,0,0:0:0:0:
201,185,68216,1,8,0:0:0:0:
218,177,69698,1,8,0:0:0:0:
253,168,70438,1,8,0:0:0:0:
202,108,71179,1,0,0:0:0:0:
267,218,71920,1,8,0:0:0:0:
267,218,72290,1,8,0:0:0:0:
267,218,72661,1,0,0:0:0:0:
267,218,73401,1,8,0:0:0:0:
267,218,74142,1,0,0:0:0:0:
267,218,74512,1,0,0:0:0:0:
350,197,74883,1,8,0:0:0:0:
342,237,75253,5,8,0:0:0:0:
366,193,75624,1,0,0:0:0:0:
293,185,77108,5,4,0:0:0:0:
275,191,77848,1,0,0:0:0:0:
245,209,78219,1,8,0:0:0:0:
343,200,78959,1,0,0:0:0:0:
210,162,79330,1,8,0:0:0:0:
233,255,79700,1,8,0:0:0:0:
354,180,80070,1,0,0:0:0:0:
317,188,80811,1,8,0:0:0:0:
167,194,81552,1,0,0:0:0:0:
208,168,81922,1,8,0:0:0:0:
169,163,82293,1,0,0:0:0:0:
308,228,83033,1,4,0:0:0:0:
229,163,83774,1,8,0:0:0:0:
213,235,84145,1,0,0:0:0:0:
308,199,84515,1,8,0:0:0:0:
331,154,84885,1,8,0:0:0:0:
233,209,85256,1,0,0:0:0:0:
177,181,85996,1,8,0:0:0:0:
237,214,86737,1,0,0:0:0:0:
237,214,87107,1,0,0:0:0:0:
356,211,87478,1,8,0:0:0:0:
205,175,88959,1,4,0:0:0:0:
287,203,89700,1,0,0:0:0:0:
261,186,90070,1,8,0:0:0:0:
217,208,90811,1,0,0:0:0:0:
183,212,91182,1,8,0:0:0:0:
290,166,91552,1,8,0:0:0:0:
325,193,91922,1,0,0:0:0:0:
290,166,92663,1,8,0:0:0:0:
272,210,93404,1,0,0:0:0:0:
368,226,93774,1,8,0:0:0:0:
256,175,94145,1,0,0:0:0:0:
252,174,94885,1,4,0:0:0:0:
274,233,95626,1,8,0:0:0:0:
259,209,95996,1,0,0:0:0:0:
328,208,96367,1,8,0:0:0:0:
257,174,96737,1,8,0:0:0:0:
257,174,97107,1,0,0:0:0:0:
357,208,97848,1,8,0:0:0:0:
287,179,98589,1,0,0:0:0:0:
155,132,98959,1,0,0:0:0:0:
357,184,99330,1,8,0:0:0:0:
259,178,100811,1,4,0:0:0:0:
294,178,101552,1,8,0:0:0:0:
258,200,102293,1,8,0:0:0:0:
233,170,102663,1,8,0:0:0:0:
267,179,103033,1,0,0:0:0:0:
392,203,103774,1,0,0:0:0:0:
329,172,104515,1,8,0:0:0:0:
283,234,104885,1,0,0:0:0:0:
391,203,105256,1,8,0:0:0:0:
338,190,106737,1,4,0:0:0:0:
239,183,107478,1,8,0:0:0:0:
239,183,108219,1,8,0:0:0:0:
276,241,108589,1,8,0:0:0:0:
309,186,108959,1,0,0:0:0:0:
210,227,109700,1,0,0:0:0:0:
121,153,110441,1,8,0:0:0:0:
203,186,110811,1,0,0:0:0:0:
340,167,111182,1,8,0:0:0:0:
342,203,111922,1,0,0:0:0:0:
342,203,112293,1,8,0:0:0:0:
194,189,113959,5,4,0:0:0:0:
