osu file format v14

[General]
AudioFilename: audio.mp3
AudioLeadIn: 0
PreviewTime: 77013
Countdown: 0
SampleSet: Normal
StackLeniency: 0.7
Mode: 1
LetterboxInBreaks: 0
WidescreenStoryboard: 1

[Editor]
Bookmarks: 14973,20899,26825,32751,38677,41640,43584,53492,65344,71270
DistanceSpacing: 1
BeatDivisor: 2
GridSize: 8
TimelineZoom: 0.9

[Metadata]
Title:role-playing game (Cut Ver.)
TitleUnicode:ロールプレイングゲーム (Cut Ver.)
Artist:SoraMafuUraSaka
ArtistUnicode:そらまふうらさか
Creator:[-E S I A-]
Version:futsuu
Source:
Tags:smus そらる soraru まふまふ mafumafu うらたぬき uratanuki あほの坂田 aho no sakata sora mafu ura saka りゅうせー Ryuuseee roleplaying rpg utaite original electronic japanese pop j-pop jpop short version E_S_I_A [-E_S_I_A-] ESIA [-ESIA-]
BeatmapID:4405322
BeatmapSetID:2099904

[Difficulty]
HPDrainRate:7
CircleSize:2
OverallDifficulty:4
ApproachRate:10
SliderMultiplier:1.4
SliderTickRate:1

[Events]
//Background and Video events
0,0,"elpiji.jpg",0,-180
//Break Periods
//Storyboard Layer 0 (Background)
//Storyboard Layer 1 (Fail)
//Storyboard Layer 2 (Pass)
//Storyboard Layer 3 (Foreground)
//Storyboard Layer 4 (Overlay)
//Storyboard Sound Samples

[TimingPoints]
69,370.37037037037,4,1,0,50,1,0
3031,370.37037037037,4,1,0,50,1,8
3032,370.37037037037,4,1,0,50,1,0
14420,-100,4,1,0,80,0,0
14791,-100,4,1,0,90,0,0
26735,-100,4,1,0,70,0,0
41550,370.37037037037,4,1,0,80,1,0
41550,-100,4,1,0,80,0,0
65161,-100,4,1,0,70,0,0
71087,-100,4,1,0,80,0,0
74050,-100,4,1,0,85,0,0
75531,-100,4,1,0,90,0,0
77105,370.37037037037,4,1,0,100,1,8
77108,370.37037037037,4,1,0,100,1,1
77108,-100,4,1,0,100,0,1
100811,-100,4,1,0,90,0,0
112661,-100,4,1,0,20,0,0
113864,-100,4,1,0,90,0,0

[HitObjects]
237,190,3032,5,0,0:0:0:0:
269,244,3772,1,0,0:0:0:0:
303,184,4513,1,8,0:0:0:0:
281,200,5069,1,8,0:0:0:0:
270,210,5254,1,0,0:0:0:0:
198,166,5624,1,8,0:0:0:0:
451,197,5994,1,0,0:0:0:0:
201,208,6735,1,0,0:0:0:0:
287,205,7476,1,8,0:0:0:0:
306,174,8031,1,8,0:0:0:0:
314,213,8217,1,0,0:0:0:0:
275,190,8587,1,8,0:0:0:0:
318,153,8957,1,0,0:0:0:0:
284,249,9698,1,0,0:0:0:0:
193,229,10439,1,8,0:0:0:0:
223,188,10994,1,8,0:0:0:0:
302,217,11180,1,0,0:0:0:0:
307,163,11550,1,8,0:0:0:0:
223,188,11920,1,8,0:0:0:0:
383,183,12476,1,8,0:0:0:0:
295,259,12661,1,0,0:0:0:0:
407,183,13031,1,0,0:0:0:0:
238,289,13402,1,8,0:0:0:0:
198,190,13587,1,8,0:0:0:0:
198,190,13772,1,0,0:0:0:0:
276,161,14143,1,8,0:0:0:0:
297,219,14513,1,12,0:0:0:0:
259,178,14883,1,4,0:0:0:0:
206,302,15254,1,8,0:0:0:0:
341,207,15624,1,8,0:0:0:0:
207,174,15994,1,0,0:0:0:0:
258,200,16365,1,0,0:0:0:0:
324,178,16550,1,0,0:0:0:0:
233,170,16735,1,8,0:0:0:0:
324,178,16920,1,8,0:0:0:0:
267,179,17106,1,0,0:0:0:0:
392,203,17846,1,0,0:0:0:0:
324,178,18217,1,8,0:0:0:0:
329,172,18587,1,8,0:0:0:0:
283,234,18957,1,0,0:0:0:0:
259,183,19328,1,0,0:0:0:0:
336,220,19513,1,0,0:0:0:0:
391,203,19698,1,8,0:0:0:0:
322,214,20069,1,0,0:0:0:0:
336,220,20254,1,8,0:0:0:0:
336,220,20439,1,8,0:0:0:0:
338,190,20809,1,4,0:0:0:0:
239,183,21180,1,8,0:0:0:0:
239,183,21550,1,8,0:0:0:0:
239,183,21920,1,0,0:0:0:0:
239,183,22291,1,0,0:0:0:0:
239,183,22476,1,0,0:0:0:0:
276,241,22661,1,8,0:0:0:0:
254,174,22846,1,8,0:0:0:0:
309,186,23031,1,0,0:0:0:0:
210,227,23772,1,0,0:0:0:0:
309,186,24143,1,8,0:0:0:0:
121,153,24513,1,8,0:0:0:0:
203,186,24883,1,0,0:0:0:0:
340,167,25254,1,0,0:0:0:0:
281,191,25439,1,0,0:0:0:0:
340,167,25624,1,8,0:0:0:0:
340,167,25994,1,0,0:0:0:0:
340,167,26180,1,0,0:0:0:0:
165,193,26365,1,8,0:0:0:0:
197,182,26550,1,0,0:0:0:0:
449,204,27106,1,12,0:0:0:0:
449,204,27476,1,0,0:0:0:0:
317,214,27846,1,8,0:0:0:0:
262,191,28217,1,0,0:0:0:0:
262,191,28402,1,0,0:0:0:0:
262,191,28587,1,8,0:0:0:0:
331,191,28957,1,0,0:0:0:0:
331,203,29698,1,0,0:0:0:0:
261,228,30069,1,8,0:0:0:0:
256,182,30439,1,0,0:0:0:0:
225,179,30809,1,8,0:0:0:0:
286,213,30994,1,0,0:0:0:0:
286,213,31365,1,0,0:0:0:0:
286,213,31550,1,8,0:0:0:0:
286,213,31920,1,0,0:0:0:0:
286,213,32661,1,12,0:0:0:0:
168,235,33031,1,0,0:0:0:0:
237,217,33402,1,8,0:0:0:0:
354,231,33772,1,8,0:0:0:0:
332,216,34143,1,0,0:0:0:0:
300,187,34328,1,8,0:0:0:0:
332,216,34513,1,0,0:0:0:0:
300,187,34883,1,8,0:0:0:0:
440,230,35624,1,0,0:0:0:0:
300,216,35994,1,8,0:0:0:0:
370,223,36365,1,8,0:0:0:0:
268,196,36550,1,0,0:0:0:0:
268,196,36735,1,8,0:0:0:0:
268,196,37106,1,0,0:0:0:0:
268,196,37476,1,8,0:0:0:0:
268,196,37846,1,0,0:0:0:0:
268,195,38587,1,8,0:0:0:0:
178,92,38957,1,8,0:0:0:0:
271,200,39328,1,8,0:0:0:0:
172,88,39698,1,0,0:0:0:0:
248,198,40069,1,8,0:0:0:0:
248,198,40254,1,8,0:0:0:0:
206,254,40439,1,0,0:0:0:0:
166,188,40624,1,0,0:0:0:0:
301,212,40809,1,8,0:0:0:0:
238,188,41550,1,12,0:0:0:0:
287,274,41920,1,8,0:0:0:0:
287,274,42290,1,0,0:0:0:0:
218,221,42475,1,0,0:0:0:0:
207,211,42661,1,8,0:0:0:0:
309,182,43031,1,0,0:0:0:0:
210,161,43401,1,8,0:0:0:0:
344,187,43587,1,0,0:0:0:0:
277,173,43772,1,8,0:0:0:0:
310,182,44512,1,8,0:0:0:0:
342,151,44883,1,0,0:0:0:0:
305,211,45068,1,8,0:0:0:0:
324,143,45253,1,0,0:0:0:0:
201,68,45624,1,8,0:0:0:0:
374,167,45809,1,0,0:0:0:0:
358,306,46179,1,0,0:0:0:0:
315,238,46364,1,8,0:0:0:0:
272,178,46735,1,0,0:0:0:0:
272,178,47475,1,12,0:0:0:0:
407,212,47846,1,8,0:0:0:0:
295,202,48216,1,0,0:0:0:0:
322,151,48401,1,0,0:0:0:0:
252,159,48587,1,8,0:0:0:0:
295,202,48957,1,0,0:0:0:0:
252,159,49327,1,8,0:0:0:0:
252,159,49512,1,8,0:0:0:0:
111,180,49698,1,0,0:0:0:0:
322,174,50438,1,0,0:0:0:0:
323,181,50809,1,8,0:0:0:0:
218,167,51179,1,0,0:0:0:0:
323,181,51364,1,0,0:0:0:0:
323,181,51549,1,8,0:0:0:0:
253,210,51920,1,8,0:0:0:0:
253,210,52105,1,0,0:0:0:0:
286,201,52290,1,8,0:0:0:0:
360,193,52661,1,0,0:0:0:0:
339,221,53031,1,0,0:0:0:0:
253,210,53401,1,12,0:0:0:0:
340,250,54142,1,8,0:0:0:0:
296,209,54883,1,0,0:0:0:0:
428,240,55253,1,8,0:0:0:0:
254,220,55624,1,0,0:0:0:0:
387,307,56364,1,0,0:0:0:0:
464,228,57105,1,8,0:0:0:0:
473,224,57846,1,0,0:0:0:0:
336,193,58216,1,8,0:0:0:0:
209,164,58587,1,0,0:0:0:0:
367,206,59327,1,0,0:0:0:0:
316,241,59698,1,0,0:0:0:0:
316,241,60068,1,8,0:0:0:0:
316,241,60438,1,0,0:0:0:0:
316,241,60809,1,8,0:0:0:0:
316,241,61179,1,8,0:0:0:0:
316,241,61549,1,0,0:0:0:0:
247,236,62290,1,0,0:0:0:0:
308,202,62661,1,8,0:0:0:0:
340,190,62846,1,0,0:0:0:0:
407,169,63216,1,8,0:0:0:0:
377,192,63401,1,0,0:0:0:0:
343,147,63772,1,0,0:0:0:0:
283,183,64142,1,8,0:0:0:0:
342,188,64512,1,8,0:0:0:0:
376,183,64698,1,8,0:0:0:0:
342,188,64883,1,8,0:0:0:0:
210,258,65253,1,4,0:0:0:0:
306,190,65994,1,0,0:0:0:0:
197,167,66364,1,0,0:0:0:0:
306,190,66735,1,8,0:0:0:0:
306,190,67475,1,8,0:0:0:0:
201,185,67846,1,0,0:0:0:0:
201,185,68216,1,8,0:0:0:0:
323,164,68957,1,0,0:0:0:0:
323,164,69327,1,0,0:0:0:0:
218,177,69698,1,8,0:0:0:0:
253,168,70438,1,8,0:0:0:0:
286,272,70809,1,8,0:0:0:0:
202,108,71179,1,0,0:0:0:0:
267,218,71549,1,8,0:0:0:0:
267,218,71920,1,8,0:0:0:0:
267,218,72290,1,8,0:0:0:0:
267,218,72661,1,0,0:0:0:0:
267,218,73031,1,8,0:0:0:0:
267,218,73401,1,8,0:0:0:0:
267,218,73772,1,8,0:0:0:0:
267,218,74142,1,0,0:0:0:0:
267,218,74327,1,0,0:0:0:0:
267,218,74512,1,8,0:0:0:0:
350,197,74883,1,0,0:0:0:0:
342,237,75253,5,8,0:0:0:0:
298,180,75438,1,0,0:0:0:0:
255,126,75624,1,8,0:0:0:0:
366,193,75994,1,0,0:0:0:0:
340,188,76364,1,8,0:0:0:0:
293,185,77108,5,4,0:0:0:0:
405,225,77478,1,8,0:0:0:0:
275,191,77848,1,0,0:0:0:0:
245,209,78219,1,8,0:0:0:0:
245,209,78404,1,8,0:0:0:0:
210,162,78774,1,8,0:0:0:0:
221,205,78959,1,0,0:0:0:0:
217,163,79330,1,8,0:0:0:0:
343,200,79515,1,0,0:0:0:0:
233,255,79700,1,8,0:0:0:0:
354,180,80070,1,0,0:0:0:0:
221,205,80441,1,8,0:0:0:0:
248,173,80811,1,0,0:0:0:0:
213,176,80996,1,0,0:0:0:0:
317,188,81182,1,8,0:0:0:0:
167,194,81552,1,0,0:0:0:0:
242,195,81737,1,0,0:0:0:0:
208,168,81922,1,8,0:0:0:0:
208,168,82108,1,8,0:0:0:0:
169,163,82293,1,0,0:0:0:0:
308,228,83033,1,4,0:0:0:0:
182,216,83404,1,8,0:0:0:0:
286,207,83774,1,0,0:0:0:0:
229,163,83959,1,8,0:0:0:0:
213,235,84145,1,0,0:0:0:0:
308,199,84515,1,8,0:0:0:0:
331,154,84885,1,8,0:0:0:0:
339,169,85070,1,8,0:0:0:0:
233,209,85256,1,0,0:0:0:0:
177,181,85996,1,8,0:0:0:0:
311,184,86367,1,0,0:0:0:0:
356,184,86737,1,8,0:0:0:0:
204,210,86922,1,8,0:0:0:0:
237,214,87107,1,0,0:0:0:0:
237,214,87293,1,0,0:0:0:0:
356,211,87478,1,8,0:0:0:0:
271,217,87848,1,0,0:0:0:0:
195,281,88219,1,8,0:0:0:0:
205,175,88959,1,4,0:0:0:0:
188,233,89330,1,8,0:0:0:0:
287,203,89700,1,0,0:0:0:0:
261,186,90070,1,8,0:0:0:0:
261,186,90256,1,8,0:0:0:0:
222,206,90626,1,8,0:0:0:0:
217,208,90811,1,0,0:0:0:0:
183,212,91182,1,8,0:0:0:0:
195,169,91367,1,0,0:0:0:0:
290,166,91552,1,8,0:0:0:0:
325,193,91922,1,0,0:0:0:0:
290,166,92293,1,8,0:0:0:0:
290,166,92663,1,8,0:0:0:0:
214,263,92848,1,8,0:0:0:0:
264,218,93033,1,0,0:0:0:0:
272,210,93404,1,8,0:0:0:0:
239,228,93589,1,0,0:0:0:0:
368,226,93774,1,8,0:0:0:0:
327,184,93959,1,8,0:0:0:0:
256,175,94145,1,0,0:0:0:0:
252,174,94885,1,4,0:0:0:0:
258,236,95256,1,8,0:0:0:0:
274,233,95626,1,8,0:0:0:0:
328,208,95811,1,0,0:0:0:0:
328,208,95996,1,8,0:0:0:0:
259,209,96367,1,0,0:0:0:0:
257,174,96737,1,8,0:0:0:0:
296,229,96922,1,8,0:0:0:0:
257,174,97107,1,0,0:0:0:0:
357,208,97848,1,8,0:0:0:0:
286,130,98219,1,0,0:0:0:0:
323,180,98589,1,8,0:0:0:0:
287,179,98774,1,8,0:0:0:0:
357,184,98959,1,0,0:0:0:0:
357,184,99330,1,8,0:0:0:0:
357,184,99700,1,8,0:0:0:0:
308,189,100070,1,0,0:0:0:0:
242,164,100256,1,0,0:0:0:0:
357,184,100441,1,8,0:0:0:0:
259,178,100811,1,4,0:0:0:0:
206,302,101182,1,8,0:0:0:0:
341,207,101552,1,8,0:0:0:0:
207,174,101922,1,0,0:0:0:0:
258,200,102293,1,0,0:0:0:0:
324,178,102478,1,0,0:0:0:0:
233,170,102663,1,8,0:0:0:0:
302,177,102848,1,8,0:0:0:0:
267,179,103033,1,0,0:0:0:0:
392,203,103774,1,0,0:0:0:0:
324,178,104145,1,8,0:0:0:0:
329,172,104515,1,8,0:0:0:0:
283,234,104885,1,0,0:0:0:0:
259,183,105256,1,0,0:0:0:0:
336,220,105441,1,0,0:0:0:0:
391,203,105626,1,8,0:0:0:0:
322,214,105996,1,0,0:0:0:0:
336,220,106182,1,8,0:0:0:0:
336,220,106367,1,8,0:0:0:0:
338,190,106737,1,4,0:0:0:0:
239,183,107107,1,8,0:0:0:0:
239,183,107478,1,8,0:0:0:0:
239,183,107848,1,0,0:0:0:0:
239,183,108219,1,0,0:0:0:0:
239,183,108404,1,0,0:0:0:0:
276,241,108589,1,8,0:0:0:0:
239,183,108774,1,8,0:0:0:0:
309,186,108959,1,0,0:0:0:0:
210,227,109700,1,0,0:0:0:0:
309,186,110070,1,8,0:0:0:0:
121,153,110441,1,8,0:0:0:0:
203,186,110811,1,0,0:0:0:0:
340,167,111182,1,0,0:0:0:0:
281,191,111367,1,0,0:0:0:0:
340,167,111552,1,8,0:0:0:0:
340,167,111922,1,0,0:0:0:0:
340,167,112107,1,0,0:0:0:0:
165,193,112293,1,8,0:0:0:0:
197,182,112478,1,0,0:0:0:0:
194,189,113959,5,4,0:0:0:0:
