osu file format v14

[General]
AudioFilename: audio.mp3
AudioLeadIn: 0
PreviewTime: 77003
Countdown: 0
SampleSet: Soft
StackLeniency: 0.7
Mode: 3
LetterboxInBreaks: 0
SpecialStyle: 0
WidescreenStoryboard: 1

[Editor]
DistanceSpacing: 1.3
BeatDivisor: 2
GridSize: 4
TimelineZoom: 2.3

[Metadata]
Title:Role-Playing Game
TitleUnicode:ロールプレイングゲーム
Artist:SoraMafuUraSaka
ArtistUnicode:そらまふうらさか
Creator:Angki
Version:>Hitsound<
Source:
Tags:そらる まふまふ うらたぬき あほの坂田 soraru sora saka ura mafumafu aho no sakata uratanuki Ryuuseee rpg utaite
BeatmapID:1924567
BeatmapSetID:921595

[Difficulty]
HPDrainRate:8
CircleSize:8
OverallDifficulty:8
ApproachRate:5
SliderMultiplier:1.4
SliderTickRate:1

[Events]
//Background and Video events
0,0,"Role.Playing.Game.(Song).full.2310370.jpg",0,0
//Break Periods
2,222587,224136
//Storyboard Layer 0 (Background)
//Storyboard Layer 1 (Fail)
//Storyboard Layer 2 (Pass)
//Storyboard Layer 3 (Foreground)
//Storyboard Layer 4 (Overlay)
//Storyboard Sound Samples

[TimingPoints]
2374,370.37037037037,4,2,1,70,1,0

[HitObjects]
109,192,14596,5,4,1:0:0:0:
51,192,14596,1,2,1:0:0:0:
448,192,14966,1,2,0:0:0:0:
288,192,14966,1,4,0:0:0:0:
402,192,15336,1,8,0:0:0:0:
448,192,15707,1,2,0:0:0:0:
402,192,16077,1,8,0:0:0:0:
448,192,16448,1,2,0:0:0:0:
402,192,16818,1,8,0:0:0:0:
448,192,17188,1,2,0:0:0:0:
402,192,17559,1,8,0:0:0:0:
448,192,17929,1,2,0:0:0:0:
402,192,18299,1,8,0:0:0:0:
448,192,18670,1,2,0:0:0:0:
402,192,19040,1,8,0:0:0:0:
448,192,19411,1,2,0:0:0:0:
402,192,19781,1,8,0:0:0:0:
448,192,20151,1,2,0:0:0:0:
36,192,20336,1,2,1:0:0:0:
402,192,20522,1,8,0:0:0:0:
36,192,20522,1,2,1:0:0:0:
448,192,20892,1,2,0:0:0:0:
256,192,20892,1,4,0:0:0:0:
402,192,21262,1,8,0:0:0:0:
448,192,21633,1,2,0:0:0:0:
402,192,22003,1,8,0:0:0:0:
448,192,22373,1,2,0:0:0:0:
402,192,22744,1,8,0:0:0:0:
448,192,23114,1,2,0:0:0:0:
402,192,23485,1,8,0:0:0:0:
448,192,23855,1,2,0:0:0:0:
402,192,24225,1,8,0:0:0:0:
448,192,24596,1,2,0:0:0:0:
402,192,24966,1,8,0:0:0:0:
448,192,25336,1,2,0:0:0:0:
402,192,25707,1,8,0:0:0:0:
448,192,25892,1,2,0:0:0:0:
448,192,25985,1,2,0:0:0:0:
448,192,26077,1,2,0:0:0:0:
448,192,26170,1,2,0:0:0:0:
448,192,26262,1,2,0:0:0:0:
448,192,26355,1,2,0:0:0:0:
448,192,26448,1,2,0:0:0:0:
448,192,26540,1,2,0:0:0:0:
448,192,26633,1,2,0:0:0:0:
448,192,26725,1,2,0:0:0:0:
448,192,27188,1,2,0:0:0:0:
256,192,27188,1,4,0:0:0:0:
448,192,27559,1,2,0:0:0:0:
402,192,27929,1,8,0:0:0:0:
448,192,28299,1,2,0:0:0:0:
402,192,28670,1,8,0:0:0:0:
448,192,29040,1,2,0:0:0:0:
402,192,29411,1,8,0:0:0:0:
448,192,29781,1,2,0:0:0:0:
402,192,30151,1,8,0:0:0:0:
448,192,30522,1,2,0:0:0:0:
402,192,30892,1,8,0:0:0:0:
448,192,31262,1,2,0:0:0:0:
402,192,31633,1,8,0:0:0:0:
448,192,32003,1,2,0:0:0:0:
402,192,32373,1,8,0:0:0:0:
448,192,32744,1,2,0:0:0:0:
256,192,32744,1,4,0:0:0:0:
402,192,33114,1,8,0:0:0:0:
448,192,33485,1,2,0:0:0:0:
402,192,33855,1,8,0:0:0:0:
448,192,34225,1,2,0:0:0:0:
402,192,34596,1,8,0:0:0:0:
448,192,34966,1,2,0:0:0:0:
402,192,35336,1,8,0:0:0:0:
448,192,35707,1,2,0:0:0:0:
402,192,36077,1,8,0:0:0:0:
448,192,36448,1,2,0:0:0:0:
402,192,36818,1,8,0:0:0:0:
448,192,37188,1,2,0:0:0:0:
402,192,37559,1,8,0:0:0:0:
448,192,37929,1,2,0:0:0:0:
448,192,38299,1,2,0:0:0:0:
448,192,38670,1,8,1:0:0:0:
51,192,38670,1,2,1:0:0:0:
51,192,39040,1,2,1:0:0:0:
448,192,39040,1,8,1:0:0:0:
448,192,39411,1,8,1:0:0:0:
51,192,39411,1,2,1:0:0:0:
51,192,39781,1,2,1:0:0:0:
448,192,39781,1,8,1:0:0:0:
109,192,39781,1,4,1:0:0:0:
448,192,40151,1,2,0:0:0:0:
448,192,40522,1,2,0:0:0:0:
448,192,40892,1,2,0:0:0:0:
448,192,41262,1,2,0:0:0:0:
256,192,41633,1,4,0:0:0:0:
448,192,41633,1,2,0:0:0:0:
402,192,42003,1,8,0:0:0:0:
448,192,42373,1,2,0:0:0:0:
402,192,42744,1,8,0:0:0:0:
448,192,43114,1,2,0:0:0:0:
402,192,43485,1,8,0:0:0:0:
448,192,43855,1,2,0:0:0:0:
402,192,44225,1,8,0:0:0:0:
448,192,44596,1,2,0:0:0:0:
402,192,44966,1,8,0:0:0:0:
448,192,45336,1,2,0:0:0:0:
402,192,45707,1,8,0:0:0:0:
448,192,46077,1,2,0:0:0:0:
402,192,46448,1,8,0:0:0:0:
448,192,46818,1,2,0:0:0:0:
402,192,47188,1,8,0:0:0:0:
256,192,47559,1,4,0:0:0:0:
448,192,47559,1,2,0:0:0:0:
402,192,47929,1,8,0:0:0:0:
448,192,48299,1,2,0:0:0:0:
402,192,48670,1,8,0:0:0:0:
448,192,49040,1,2,0:0:0:0:
402,192,49411,1,8,0:0:0:0:
448,192,49781,1,2,0:0:0:0:
402,192,50151,1,8,0:0:0:0:
448,192,50522,1,2,0:0:0:0:
402,192,50892,1,8,0:0:0:0:
448,192,51262,1,2,0:0:0:0:
402,192,51633,1,8,0:0:0:0:
448,192,52003,1,2,0:0:0:0:
402,192,52373,1,8,0:0:0:0:
480,192,52744,1,2,0:0:0:0:
448,192,53114,1,2,0:0:0:0:
448,192,53485,1,2,0:0:0:0:
256,192,53485,1,4,0:0:0:0:
448,192,53855,1,2,0:0:0:0:
448,192,54225,1,2,0:0:0:0:
448,192,54596,1,2,0:0:0:0:
448,192,54966,1,2,0:0:0:0:
448,192,55336,1,2,0:0:0:0:
448,192,55707,1,2,0:0:0:0:
448,192,56077,1,2,0:0:0:0:
448,192,56448,1,2,0:0:0:0:
448,192,56818,1,2,0:0:0:0:
448,192,57188,1,2,0:0:0:0:
448,192,57559,1,2,0:0:0:0:
448,192,57929,1,2,0:0:0:0:
448,192,58299,1,2,0:0:0:0:
448,192,58670,1,2,0:0:0:0:
448,192,59040,1,2,0:0:0:0:
448,192,59411,1,2,0:0:0:0:
448,192,59781,1,2,0:0:0:0:
448,192,60151,1,2,0:0:0:0:
448,192,60522,1,2,0:0:0:0:
448,192,60892,1,2,0:0:0:0:
448,192,61262,1,2,0:0:0:0:
448,192,61633,1,2,0:0:0:0:
448,192,62003,1,2,0:0:0:0:
448,192,62373,1,2,0:0:0:0:
448,192,62744,1,2,0:0:0:0:
448,192,63114,1,2,0:0:0:0:
448,192,63485,1,2,0:0:0:0:
448,192,63855,1,2,0:0:0:0:
448,192,64225,1,2,0:0:0:0:
448,192,64596,1,2,0:0:0:0:
448,192,64966,1,2,0:0:0:0:
109,192,64966,1,4,1:0:0:0:
182,192,65336,1,0,0:0:0:100:twinkling.wav
448,192,65336,1,2,0:0:0:0:
448,192,65707,1,2,0:0:0:0:
448,192,66077,1,2,0:0:0:0:
448,192,66448,1,2,0:0:0:0:
448,192,66818,1,2,0:0:0:0:
448,192,67188,1,2,0:0:0:0:
448,192,67559,1,2,0:0:0:0:
448,192,67929,1,2,0:0:0:0:
480,192,68299,1,2,0:0:0:0:
448,192,68670,1,2,0:0:0:0:
448,192,69040,1,2,0:0:0:0:
448,192,69411,1,2,0:0:0:0:
448,192,69781,1,2,0:0:0:0:
448,192,70151,1,2,0:0:0:0:
448,192,70522,1,2,0:0:0:0:
448,192,70892,1,2,0:0:0:0:
402,192,71262,1,8,0:0:0:0:
402,192,71633,1,8,0:0:0:0:
402,192,72003,1,8,0:0:0:0:
402,192,72373,1,8,0:0:0:0:
402,192,72744,1,8,0:0:0:0:
402,192,73114,1,8,0:0:0:0:
402,192,73485,1,8,0:0:0:0:
402,192,73855,1,8,0:0:0:0:
448,192,74225,1,2,0:0:0:0:
448,192,74411,1,2,0:0:0:0:
448,192,74596,1,2,0:0:0:0:
448,192,74781,1,2,0:0:0:0:
448,192,74966,1,2,0:0:0:0:
448,192,75151,1,2,0:0:0:0:
448,192,75336,1,2,0:0:0:0:
448,192,75522,1,2,0:0:0:0:
448,192,75614,1,2,0:0:0:0:
448,192,75707,1,2,0:0:0:0:
448,192,75799,1,2,0:0:0:0:
448,192,75892,1,2,0:0:0:0:
448,192,75985,1,2,0:0:0:0:
448,192,76077,1,2,0:0:0:0:
448,192,76170,1,2,0:0:0:0:
448,192,76262,1,2,0:0:0:0:
448,192,76355,1,2,0:0:0:0:
448,192,76448,1,2,0:0:0:0:
448,192,76509,1,2,0:0:0:0:
448,192,76571,1,2,0:0:0:0:
448,192,76633,1,2,0:0:0:0:
448,192,76694,1,2,0:0:0:0:
448,192,76756,1,2,0:0:0:0:
256,192,77188,1,4,0:0:0:0:
182,192,77188,1,0,0:0:0:100:twinkling.wav
448,192,77188,1,2,0:0:0:0:
402,192,77559,1,8,0:0:0:0:
448,192,77929,1,2,0:0:0:0:
402,192,78299,1,8,0:0:0:0:
448,192,78670,1,2,0:0:0:0:
402,192,79040,1,8,0:0:0:0:
448,192,79411,1,2,0:0:0:0:
402,192,79781,1,8,0:0:0:0:
448,192,80151,1,2,0:0:0:0:
402,192,80522,1,8,0:0:0:0:
448,192,80892,1,2,0:0:0:0:
402,192,81262,1,8,0:0:0:0:
448,192,81633,1,2,0:0:0:0:
402,192,82003,1,8,0:0:0:0:
448,192,82373,1,2,0:0:0:0:
36,192,82559,1,2,1:0:0:0:
329,192,82559,1,8,1:0:0:0:
36,192,82744,1,2,1:0:0:0:
329,192,82744,1,8,1:0:0:0:
402,192,82744,1,8,0:0:0:0:
256,192,83114,1,4,0:0:0:0:
448,192,83114,1,2,0:0:0:0:
402,192,83485,1,8,0:0:0:0:
448,192,83855,1,2,0:0:0:0:
402,192,84225,1,8,0:0:0:0:
448,192,84596,1,2,0:0:0:0:
402,192,84966,1,8,0:0:0:0:
448,192,85336,1,2,0:0:0:0:
402,192,85707,1,8,0:0:0:0:
448,192,86077,1,2,0:0:0:0:
402,192,86448,1,8,0:0:0:0:
448,192,86818,1,2,0:0:0:0:
402,192,87188,1,8,0:0:0:0:
448,192,87559,1,2,0:0:0:0:
402,192,87929,1,8,0:0:0:0:
475,192,88114,1,2,0:0:0:0:
475,192,88176,1,2,0:0:0:0:
475,192,88238,1,2,0:0:0:0:
475,192,88299,1,2,0:0:0:0:
475,192,88392,1,2,0:0:0:0:
475,192,88485,1,2,0:0:0:0:
475,192,88577,1,2,0:0:0:0:
475,192,88670,1,2,0:0:0:0:
475,192,88762,1,2,0:0:0:0:
475,192,88855,1,2,0:0:0:0:
475,192,88948,1,2,0:0:0:0:
256,192,89040,1,4,0:0:0:0:
182,192,89040,1,0,0:0:0:100:twinkling.wav
448,192,89040,1,2,0:0:0:0:
402,192,89411,1,8,0:0:0:0:
448,192,89781,1,2,0:0:0:0:
402,192,90151,1,8,0:0:0:0:
448,192,90522,1,2,0:0:0:0:
402,192,90892,1,8,0:0:0:0:
448,192,91262,1,2,0:0:0:0:
402,192,91633,1,8,0:0:0:0:
448,192,92003,1,2,0:0:0:0:
402,192,92373,1,8,0:0:0:0:
448,192,92744,1,2,0:0:0:0:
402,192,93114,1,8,0:0:0:0:
448,192,93485,1,2,0:0:0:0:
402,192,93855,1,8,0:0:0:0:
448,192,94225,1,2,0:0:0:0:
36,192,94411,1,2,1:0:0:0:
329,192,94411,1,8,1:0:0:0:
36,192,94596,1,2,1:0:0:0:
329,192,94596,1,8,1:0:0:0:
402,192,94596,1,8,0:0:0:0:
256,192,94966,1,4,0:0:0:0:
448,192,94966,1,2,0:0:0:0:
402,192,95336,1,8,0:0:0:0:
448,192,95707,1,2,0:0:0:0:
402,192,96077,1,8,0:0:0:0:
448,192,96448,1,2,0:0:0:0:
402,192,96818,1,8,0:0:0:0:
448,192,97188,1,2,0:0:0:0:
402,192,97559,1,8,0:0:0:0:
448,192,97929,1,2,0:0:0:0:
402,192,98299,1,8,0:0:0:0:
448,192,98670,1,2,0:0:0:0:
402,192,99040,1,8,0:0:0:0:
36,192,99411,1,2,1:0:0:0:
448,192,99411,1,2,0:0:0:0:
36,192,99781,1,2,1:0:0:0:
416,192,99781,1,8,0:0:0:0:
475,192,100151,1,2,0:0:0:0:
36,192,100151,1,2,1:0:0:0:
475,192,100522,1,2,0:0:0:0:
256,192,100892,1,4,0:0:0:0:
448,192,100892,1,2,0:0:0:0:
402,192,101262,1,8,0:0:0:0:
448,192,101633,1,2,0:0:0:0:
402,192,102003,1,8,0:0:0:0:
448,192,102373,1,2,0:0:0:0:
402,192,102744,1,8,0:0:0:0:
448,192,103114,1,2,0:0:0:0:
402,192,103485,1,8,0:0:0:0:
448,192,103855,1,2,0:0:0:0:
402,192,104225,1,8,0:0:0:0:
448,192,104596,1,2,0:0:0:0:
402,192,104966,1,8,0:0:0:0:
448,192,105336,1,2,0:0:0:0:
402,192,105707,1,8,0:0:0:0:
448,192,106077,1,2,0:0:0:0:
36,192,106262,1,2,1:0:0:0:
36,192,106448,1,2,1:0:0:0:
402,192,106448,1,8,0:0:0:0:
256,192,106818,1,4,0:0:0:0:
448,192,106818,1,2,0:0:0:0:
402,192,107188,1,8,0:0:0:0:
448,192,107559,1,2,0:0:0:0:
402,192,107929,1,8,0:0:0:0:
448,192,108299,1,2,0:0:0:0:
402,192,108670,1,8,0:0:0:0:
448,192,109040,1,2,0:0:0:0:
402,192,109411,1,8,0:0:0:0:
448,192,109781,1,2,0:0:0:0:
402,192,110151,1,8,0:0:0:0:
448,192,110522,1,2,0:0:0:0:
402,192,110892,1,8,0:0:0:0:
448,192,111262,1,2,0:0:0:0:
402,192,111633,1,8,0:0:0:0:
475,192,111818,1,2,0:0:0:0:
475,192,111911,1,2,0:0:0:0:
475,192,112003,1,2,0:0:0:0:
475,192,112096,1,2,0:0:0:0:
475,192,112188,1,2,0:0:0:0:
475,192,112281,1,2,0:0:0:0:
475,192,112373,1,2,0:0:0:0:
475,192,112466,1,2,0:0:0:0:
475,192,112559,1,2,0:0:0:0:
475,192,112651,1,2,0:0:0:0:
475,192,112744,1,2,0:0:0:0:
256,192,112744,1,4,0:0:0:0:
475,192,113114,1,2,0:0:0:0:
475,192,113485,1,2,0:0:0:0:
475,192,113855,1,2,0:0:0:0:
475,192,114225,1,2,0:0:0:0:
475,192,114596,1,2,0:0:0:0:
475,192,114966,1,2,0:0:0:0:
475,192,115336,1,2,0:0:0:0:
475,192,115707,1,2,0:0:0:0:
475,192,116077,1,2,0:0:0:0:
475,192,116448,1,2,0:0:0:0:
475,192,116818,1,2,0:0:0:0:
475,192,117188,1,2,0:0:0:0:
475,192,117559,1,2,0:0:0:0:
475,192,117929,1,2,0:0:0:0:
475,192,118299,1,2,0:0:0:0:
475,192,118670,1,2,0:0:0:0:
256,192,118670,1,4,0:0:0:0:
475,192,119040,1,2,0:0:0:0:
475,192,119411,1,2,0:0:0:0:
475,192,119781,1,2,0:0:0:0:
475,192,120151,1,2,0:0:0:0:
475,192,120522,1,2,0:0:0:0:
475,192,120892,1,2,0:0:0:0:
475,192,121262,1,2,0:0:0:0:
475,192,121633,1,2,0:0:0:0:
475,192,122003,1,2,0:0:0:0:
475,192,122373,1,2,0:0:0:0:
475,192,122744,1,2,0:0:0:0:
475,192,123114,1,2,0:0:0:0:
475,192,123485,1,2,0:0:0:0:
475,192,123855,1,2,0:0:0:0:
475,192,124225,1,2,0:0:0:0:
256,192,124596,1,4,0:0:0:0:
475,192,124596,1,2,0:0:0:0:
475,192,124966,1,2,0:0:0:0:
475,192,125336,1,2,0:0:0:0:
475,192,125707,1,2,0:0:0:0:
475,192,126077,1,2,0:0:0:0:
475,192,126448,1,2,0:0:0:0:
475,192,126818,1,2,0:0:0:0:
475,192,127188,1,2,0:0:0:0:
475,192,127559,1,2,0:0:0:0:
475,192,127929,1,2,0:0:0:0:
475,192,128299,1,2,0:0:0:0:
475,192,128670,1,2,0:0:0:0:
475,192,129040,1,2,0:0:0:0:
475,192,129411,1,2,0:0:0:0:
475,192,129781,1,2,0:0:0:0:
475,192,130151,1,2,0:0:0:0:
475,192,130522,1,2,0:0:0:0:
475,192,130892,1,2,0:0:0:0:
475,192,131262,1,2,0:0:0:0:
475,192,131633,1,2,0:0:0:0:
475,192,132003,1,2,0:0:0:0:
475,192,132373,1,2,0:0:0:0:
475,192,132744,1,2,0:0:0:0:
475,192,133114,1,2,0:0:0:0:
475,192,133485,1,2,0:0:0:0:
475,192,133855,1,2,0:0:0:0:
475,192,134225,1,2,0:0:0:0:
475,192,134596,1,2,0:0:0:0:
416,192,134966,1,8,0:0:0:0:
416,192,135336,1,8,0:0:0:0:
475,192,135707,1,2,0:0:0:0:
109,192,136077,1,4,1:0:0:0:
182,192,136448,1,0,0:0:0:100:twinkling.wav
448,192,136448,1,2,0:0:0:0:
256,192,136448,1,4,0:0:0:0:
448,192,136818,1,2,0:0:0:0:
448,192,137188,1,2,0:0:0:0:
448,192,137559,1,2,0:0:0:0:
448,192,137929,1,2,0:0:0:0:
448,192,138299,1,2,0:0:0:0:
448,192,138670,1,2,0:0:0:0:
448,192,139040,1,2,0:0:0:0:
448,192,139411,1,2,0:0:0:0:
448,192,139781,1,2,0:0:0:0:
448,192,140151,1,2,0:0:0:0:
448,192,140522,1,2,0:0:0:0:
448,192,140892,1,2,0:0:0:0:
448,192,141262,1,2,0:0:0:0:
448,192,141633,1,2,0:0:0:0:
448,192,142003,1,2,0:0:0:0:
402,192,142373,1,8,0:0:0:0:
402,192,142744,1,8,0:0:0:0:
402,192,143114,1,8,0:0:0:0:
402,192,143485,1,8,0:0:0:0:
402,192,143855,1,8,0:0:0:0:
402,192,144225,1,8,0:0:0:0:
402,192,144596,1,8,0:0:0:0:
402,192,144966,1,8,0:0:0:0:
448,192,145336,1,2,0:0:0:0:
448,192,145522,1,2,0:0:0:0:
448,192,145707,1,2,0:0:0:0:
448,192,145892,1,2,0:0:0:0:
448,192,146077,1,2,0:0:0:0:
448,192,146262,1,2,0:0:0:0:
448,192,146448,1,2,0:0:0:0:
448,192,146633,1,2,0:0:0:0:
448,192,146725,1,2,0:0:0:0:
448,192,146818,1,2,0:0:0:0:
448,192,146911,1,2,0:0:0:0:
448,192,147003,1,2,0:0:0:0:
448,192,147096,1,2,0:0:0:0:
448,192,147188,5,2,0:0:0:0:
448,192,147281,1,2,0:0:0:0:
448,192,147373,1,2,0:0:0:0:
448,192,147466,1,2,0:0:0:0:
448,192,147559,1,2,0:0:0:0:
448,192,147620,1,2,0:0:0:0:
448,192,147682,1,2,0:0:0:0:
448,192,147744,1,2,0:0:0:0:
448,192,147806,1,2,0:0:0:0:
448,192,147867,1,2,0:0:0:0:
448,192,148299,1,2,0:0:0:0:
182,192,148299,1,0,0:0:0:100:twinkling.wav
256,192,148299,1,4,0:0:0:0:
402,192,148670,1,8,0:0:0:0:
448,192,149040,1,2,0:0:0:0:
402,192,149411,1,8,0:0:0:0:
448,192,149781,1,2,0:0:0:0:
402,192,150151,1,8,0:0:0:0:
448,192,150522,1,2,0:0:0:0:
402,192,150892,1,8,0:0:0:0:
448,192,151262,1,2,0:0:0:0:
402,192,151633,1,8,0:0:0:0:
448,192,152003,1,2,0:0:0:0:
402,192,152373,1,8,0:0:0:0:
448,192,152744,1,2,0:0:0:0:
402,192,153114,1,8,0:0:0:0:
448,192,153485,1,2,0:0:0:0:
329,192,153670,1,8,1:0:0:0:
36,192,153670,1,2,1:0:0:0:
402,192,153855,1,8,0:0:0:0:
329,192,153855,1,8,1:0:0:0:
36,192,153855,1,2,1:0:0:0:
448,192,154225,1,2,0:0:0:0:
256,192,154225,1,4,0:0:0:0:
402,192,154596,1,8,0:0:0:0:
448,192,154966,1,2,0:0:0:0:
402,192,155336,1,8,0:0:0:0:
448,192,155707,1,2,0:0:0:0:
402,192,156077,1,8,0:0:0:0:
448,192,156448,1,2,0:0:0:0:
402,192,156818,1,8,0:0:0:0:
448,192,157188,1,2,0:0:0:0:
402,192,157559,1,8,0:0:0:0:
448,192,157929,1,2,0:0:0:0:
402,192,158299,1,8,0:0:0:0:
448,192,158670,1,2,0:0:0:0:
402,192,159040,1,8,0:0:0:0:
475,192,159225,1,2,0:0:0:0:
475,192,159287,1,2,0:0:0:0:
475,192,159349,1,2,0:0:0:0:
475,192,159411,1,2,0:0:0:0:
475,192,159503,1,2,0:0:0:0:
475,192,159596,1,2,0:0:0:0:
475,192,159688,1,2,0:0:0:0:
475,192,159781,1,2,0:0:0:0:
475,192,159873,1,2,0:0:0:0:
475,192,159966,1,2,0:0:0:0:
475,192,160059,1,2,0:0:0:0:
448,192,160151,1,2,0:0:0:0:
182,192,160151,1,0,0:0:0:100:twinkling.wav
256,192,160151,1,4,0:0:0:0:
402,192,160522,1,8,0:0:0:0:
448,192,160892,1,2,0:0:0:0:
402,192,161262,1,8,0:0:0:0:
448,192,161633,1,2,0:0:0:0:
402,192,162003,1,8,0:0:0:0:
448,192,162373,1,2,0:0:0:0:
402,192,162744,1,8,0:0:0:0:
448,192,163114,1,2,0:0:0:0:
402,192,163485,1,8,0:0:0:0:
448,192,163855,1,2,0:0:0:0:
402,192,164225,1,8,0:0:0:0:
448,192,164596,1,2,0:0:0:0:
402,192,164966,1,8,0:0:0:0:
448,192,165336,1,2,0:0:0:0:
329,192,165522,1,8,1:0:0:0:
36,192,165522,1,2,1:0:0:0:
402,192,165707,1,8,0:0:0:0:
329,192,165707,1,8,1:0:0:0:
36,192,165707,1,2,1:0:0:0:
448,192,166077,1,2,0:0:0:0:
256,192,166077,1,4,0:0:0:0:
402,192,166448,1,8,0:0:0:0:
448,192,166818,1,2,0:0:0:0:
402,192,167188,1,8,0:0:0:0:
448,192,167559,1,2,0:0:0:0:
402,192,167929,1,8,0:0:0:0:
448,192,168299,1,2,0:0:0:0:
402,192,168670,1,8,0:0:0:0:
448,192,169040,1,2,0:0:0:0:
402,192,169411,1,8,0:0:0:0:
448,192,169781,1,2,0:0:0:0:
402,192,170151,1,8,0:0:0:0:
448,192,170522,1,2,0:0:0:0:
36,192,170522,1,2,1:0:0:0:
416,192,170892,1,8,0:0:0:0:
36,192,170892,1,2,1:0:0:0:
36,192,171262,1,2,1:0:0:0:
475,192,171262,1,2,0:0:0:0:
475,192,171633,1,2,0:0:0:0:
448,192,172003,1,2,0:0:0:0:
256,192,172003,1,4,0:0:0:0:
329,192,172003,1,8,1:0:0:0:
329,192,172373,1,8,1:0:0:0:
448,192,172373,1,2,0:0:0:0:
329,192,172744,1,8,1:0:0:0:
448,192,172744,1,2,0:0:0:0:
329,192,173114,1,8,1:0:0:0:
448,192,173114,1,2,0:0:0:0:
329,192,173485,1,8,1:0:0:0:
448,192,173485,1,2,0:0:0:0:
329,192,173855,1,8,1:0:0:0:
448,192,173855,1,2,0:0:0:0:
329,192,174225,1,8,1:0:0:0:
448,192,174225,1,2,0:0:0:0:
329,192,174596,1,8,1:0:0:0:
448,192,174596,1,2,0:0:0:0:
329,192,174966,1,8,1:0:0:0:
448,192,174966,1,2,0:0:0:0:
329,192,175336,1,8,1:0:0:0:
448,192,175336,1,2,0:0:0:0:
329,192,175707,1,8,1:0:0:0:
448,192,175707,1,2,0:0:0:0:
329,192,176077,1,8,1:0:0:0:
448,192,176077,1,2,0:0:0:0:
329,192,176448,1,8,1:0:0:0:
448,192,176448,1,2,0:0:0:0:
329,192,176818,1,8,1:0:0:0:
448,192,176818,1,2,0:0:0:0:
329,192,177188,1,8,1:0:0:0:
448,192,177188,1,2,0:0:0:0:
329,192,177559,1,8,1:0:0:0:
448,192,177559,1,2,0:0:0:0:
329,192,177929,1,8,1:0:0:0:
448,192,177929,1,2,0:0:0:0:
329,192,178299,1,8,1:0:0:0:
448,192,178299,1,2,0:0:0:0:
329,192,178670,1,8,1:0:0:0:
448,192,178670,1,2,0:0:0:0:
329,192,179040,1,8,1:0:0:0:
448,192,179040,1,2,0:0:0:0:
329,192,179411,1,8,1:0:0:0:
448,192,179411,1,2,0:0:0:0:
329,192,179781,1,8,1:0:0:0:
448,192,179781,1,2,0:0:0:0:
329,192,180151,1,8,1:0:0:0:
448,192,180151,1,2,0:0:0:0:
329,192,180522,1,8,1:0:0:0:
448,192,180522,1,2,0:0:0:0:
329,192,180892,1,8,1:0:0:0:
448,192,180892,1,2,0:0:0:0:
329,192,181262,1,8,1:0:0:0:
448,192,181262,1,2,0:0:0:0:
329,192,181633,1,8,1:0:0:0:
448,192,181633,1,2,0:0:0:0:
329,192,182003,1,8,1:0:0:0:
448,192,182003,1,2,0:0:0:0:
329,192,182373,1,8,1:0:0:0:
448,192,182373,1,2,0:0:0:0:
329,192,182744,1,8,1:0:0:0:
448,192,182744,1,2,0:0:0:0:
329,192,183114,1,8,1:0:0:0:
448,192,183114,1,2,0:0:0:0:
329,192,183485,1,8,1:0:0:0:
448,192,183485,1,2,0:0:0:0:
329,192,183855,1,8,1:0:0:0:
448,192,183855,1,2,0:0:0:0:
329,192,184225,1,8,1:0:0:0:
448,192,184225,1,2,0:0:0:0:
329,192,184596,1,8,1:0:0:0:
448,192,184596,1,2,0:0:0:0:
329,192,184966,1,8,1:0:0:0:
448,192,184966,1,2,0:0:0:0:
329,192,185336,1,8,1:0:0:0:
448,192,185336,1,2,0:0:0:0:
329,192,185707,1,8,1:0:0:0:
448,192,185707,1,2,0:0:0:0:
329,192,186077,1,8,1:0:0:0:
448,192,186077,1,2,0:0:0:0:
329,192,186448,1,8,1:0:0:0:
448,192,186448,1,2,0:0:0:0:
329,192,186818,1,8,1:0:0:0:
448,192,186818,1,2,0:0:0:0:
329,192,187188,1,8,1:0:0:0:
448,192,187188,1,2,0:0:0:0:
329,192,187559,1,8,1:0:0:0:
448,192,187559,1,2,0:0:0:0:
329,192,187929,1,8,1:0:0:0:
448,192,187929,1,2,0:0:0:0:
329,192,188299,1,8,1:0:0:0:
448,192,188299,1,2,0:0:0:0:
329,192,188670,1,8,1:0:0:0:
448,192,188670,1,2,0:0:0:0:
329,192,189040,1,8,1:0:0:0:
448,192,189040,1,2,0:0:0:0:
329,192,189411,1,8,1:0:0:0:
448,192,189411,1,2,0:0:0:0:
329,192,189781,1,8,1:0:0:0:
448,192,189781,1,2,0:0:0:0:
329,192,190151,1,8,1:0:0:0:
448,192,190151,1,2,0:0:0:0:
329,192,190522,1,8,1:0:0:0:
448,192,190522,1,2,0:0:0:0:
329,192,190892,1,8,1:0:0:0:
448,192,190892,1,2,0:0:0:0:
329,192,191262,1,8,1:0:0:0:
448,192,191262,1,2,0:0:0:0:
329,192,191633,1,8,1:0:0:0:
448,192,191633,1,2,0:0:0:0:
329,192,192003,1,8,1:0:0:0:
448,192,192003,1,2,0:0:0:0:
329,192,192373,1,8,1:0:0:0:
448,192,192373,1,2,0:0:0:0:
329,192,192744,1,8,1:0:0:0:
448,192,192744,1,2,0:0:0:0:
329,192,193114,1,8,1:0:0:0:
448,192,193114,1,2,0:0:0:0:
329,192,193485,1,8,1:0:0:0:
448,192,193485,1,2,0:0:0:0:
329,192,193855,1,8,1:0:0:0:
448,192,193855,1,2,0:0:0:0:
329,192,194225,1,8,1:0:0:0:
448,192,194225,1,2,0:0:0:0:
329,192,194596,1,8,1:0:0:0:
448,192,194596,1,2,0:0:0:0:
329,192,194966,1,8,1:0:0:0:
448,192,194966,1,2,0:0:0:0:
329,192,195336,1,8,1:0:0:0:
448,192,195336,1,2,0:0:0:0:
329,192,195707,1,8,1:0:0:0:
448,192,195707,1,2,0:0:0:0:
329,192,196077,1,8,1:0:0:0:
448,192,196077,1,2,0:0:0:0:
329,192,196448,1,8,1:0:0:0:
448,192,196448,1,2,0:0:0:0:
329,192,196818,1,8,1:0:0:0:
448,192,196818,1,2,0:0:0:0:
329,192,197188,1,8,1:0:0:0:
448,192,197188,1,2,0:0:0:0:
329,192,197559,1,8,1:0:0:0:
448,192,197559,1,2,0:0:0:0:
329,192,197929,1,8,1:0:0:0:
448,192,197929,1,2,0:0:0:0:
329,192,198299,1,8,1:0:0:0:
448,192,198299,1,2,0:0:0:0:
329,192,198670,1,8,1:0:0:0:
448,192,198670,1,2,0:0:0:0:
329,192,199040,1,8,1:0:0:0:
448,192,199040,1,2,0:0:0:0:
329,192,199411,1,8,1:0:0:0:
448,192,199411,1,2,0:0:0:0:
329,192,199781,1,8,1:0:0:0:
448,192,199781,1,2,0:0:0:0:
329,192,200151,1,8,1:0:0:0:
448,192,200151,1,2,0:0:0:0:
329,192,200522,1,8,1:0:0:0:
448,192,200522,1,2,0:0:0:0:
329,192,200892,1,8,1:0:0:0:
448,192,200892,1,2,0:0:0:0:
329,192,201262,1,8,1:0:0:0:
448,192,201262,1,2,0:0:0:0:
329,192,201633,1,8,1:0:0:0:
448,192,201633,1,2,0:0:0:0:
329,192,202003,1,8,1:0:0:0:
448,192,202003,1,2,0:0:0:0:
329,192,202373,1,8,1:0:0:0:
448,192,202373,1,2,0:0:0:0:
329,192,202744,1,8,1:0:0:0:
448,192,202744,1,2,0:0:0:0:
329,192,203114,1,8,1:0:0:0:
448,192,203114,1,2,0:0:0:0:
329,192,203485,1,8,1:0:0:0:
448,192,203485,1,2,0:0:0:0:
329,192,203855,1,8,1:0:0:0:
448,192,203855,1,2,0:0:0:0:
329,192,204225,1,8,1:0:0:0:
448,192,204225,1,2,0:0:0:0:
329,192,204596,1,8,1:0:0:0:
448,192,204596,1,2,0:0:0:0:
329,192,204966,1,8,1:0:0:0:
448,192,204966,1,2,0:0:0:0:
329,192,205336,1,8,1:0:0:0:
448,192,205336,1,2,0:0:0:0:
329,192,205707,1,8,1:0:0:0:
448,192,205707,1,2,0:0:0:0:
329,192,206077,1,8,1:0:0:0:
448,192,206077,1,2,0:0:0:0:
36,192,206077,1,2,1:0:0:0:
329,192,206448,1,8,1:0:0:0:
448,192,206448,1,2,0:0:0:0:
36,192,206448,1,2,1:0:0:0:
329,192,206818,1,8,1:0:0:0:
448,192,206818,1,2,0:0:0:0:
36,192,206818,1,2,1:0:0:0:
329,192,207188,1,8,1:0:0:0:
448,192,207188,1,2,0:0:0:0:
36,192,207188,1,2,1:0:0:0:
329,192,207559,1,8,1:0:0:0:
475,192,207559,1,2,0:0:0:0:
329,192,207929,1,8,1:0:0:0:
475,192,207929,1,2,0:0:0:0:
329,192,208299,1,8,1:0:0:0:
475,192,208299,1,2,0:0:0:0:
329,192,208670,1,8,1:0:0:0:
475,192,208670,1,2,0:0:0:0:
329,192,209040,1,8,1:0:0:0:
475,192,209040,1,2,0:0:0:0:
329,192,209411,1,8,1:0:0:0:
475,192,209411,1,2,0:0:0:0:
329,192,209781,1,8,1:0:0:0:
475,192,209781,1,2,0:0:0:0:
329,192,210151,1,8,1:0:0:0:
475,192,210151,1,2,0:0:0:0:
329,192,210522,1,8,1:0:0:0:
475,192,210522,1,2,0:0:0:0:
329,192,210892,1,8,1:0:0:0:
475,192,210892,1,2,0:0:0:0:
329,192,211262,1,8,1:0:0:0:
475,192,211262,1,2,0:0:0:0:
329,192,211633,1,8,1:0:0:0:
475,192,211633,1,2,0:0:0:0:
329,192,212003,1,8,1:0:0:0:
475,192,212003,1,2,0:0:0:0:
329,192,212373,1,8,1:0:0:0:
475,192,212373,1,2,0:0:0:0:
329,192,212744,1,8,1:0:0:0:
475,192,212744,1,2,0:0:0:0:
329,192,213114,1,8,1:0:0:0:
475,192,213114,1,2,0:0:0:0:
329,192,213485,1,8,1:0:0:0:
475,192,213485,1,2,0:0:0:0:
224,192,213670,1,2,3:0:0:0:
329,192,213855,1,8,1:0:0:0:
475,192,213855,1,2,0:0:0:0:
224,192,214040,1,2,3:0:0:0:
329,192,214225,1,8,1:0:0:0:
475,192,214225,1,2,0:0:0:0:
224,192,214411,1,2,3:0:0:0:
329,192,214596,1,8,1:0:0:0:
475,192,214596,1,2,0:0:0:0:
224,192,214781,1,2,3:0:0:0:
329,192,214966,1,8,1:0:0:0:
475,192,214966,1,2,0:0:0:0:
224,192,215151,1,2,3:0:0:0:
329,192,215336,1,8,1:0:0:0:
475,192,215336,1,2,0:0:0:0:
224,192,215522,1,2,3:0:0:0:
329,192,215707,1,8,1:0:0:0:
475,192,215707,1,2,0:0:0:0:
224,192,215892,1,2,3:0:0:0:
329,192,216077,1,8,1:0:0:0:
475,192,216077,1,2,0:0:0:0:
224,192,216262,1,2,3:0:0:0:
475,192,216448,1,2,0:0:0:0:
329,192,216448,1,8,1:0:0:0:
475,192,216633,1,2,0:0:0:0:
224,192,216633,1,2,3:0:0:0:
475,192,216818,1,2,0:0:0:0:
329,192,216818,1,8,1:0:0:0:
475,192,217003,1,2,0:0:0:0:
224,192,217003,1,2,3:0:0:0:
475,192,217188,1,2,0:0:0:0:
329,192,217188,1,8,1:0:0:0:
475,192,217373,1,2,0:0:0:0:
224,192,217373,1,2,3:0:0:0:
475,192,217559,1,2,0:0:0:0:
329,192,217559,1,8,1:0:0:0:
475,192,217744,1,2,0:0:0:0:
224,192,217744,1,2,3:0:0:0:
475,192,217929,1,2,0:0:0:0:
329,192,217929,1,8,1:0:0:0:
475,192,218022,1,2,0:0:0:0:
475,192,218114,1,2,0:0:0:0:
475,192,218207,1,2,0:0:0:0:
475,192,218299,1,2,0:0:0:0:
329,192,218299,1,8,1:0:0:0:
475,192,218392,1,2,0:0:0:0:
475,192,218485,1,2,0:0:0:0:
475,192,218577,1,2,0:0:0:0:
475,192,218670,1,2,0:0:0:0:
329,192,218670,1,8,1:0:0:0:
475,192,218762,1,2,0:0:0:0:
475,192,218855,1,2,0:0:0:0:
475,192,218948,1,2,0:0:0:0:
475,192,219040,1,2,0:0:0:0:
329,192,219040,1,8,1:0:0:0:
475,192,219133,1,2,0:0:0:0:
475,192,219225,1,2,0:0:0:0:
475,192,219318,1,2,0:0:0:0:
182,192,222373,1,0,0:0:0:100:twinkling.wav
475,192,228299,5,2,0:0:0:0:
475,192,228670,1,2,0:0:0:0:
475,192,229040,1,2,0:0:0:0:
475,192,229411,1,2,0:0:0:0:
475,192,229781,1,2,0:0:0:0:
475,192,230151,1,2,0:0:0:0:
475,192,230522,1,2,0:0:0:0:
475,192,230892,1,2,0:0:0:0:
475,192,231262,1,2,0:0:0:0:
475,192,231448,1,2,0:0:0:0:
475,192,231633,1,2,0:0:0:0:
475,192,231818,1,2,0:0:0:0:
475,192,232003,1,2,0:0:0:0:
475,192,232188,1,2,0:0:0:0:
475,192,232373,1,2,0:0:0:0:
475,192,232559,1,2,0:0:0:0:
475,192,232744,1,2,0:0:0:0:
475,192,232836,1,2,0:0:0:0:
475,192,232929,1,2,0:0:0:0:
475,192,233022,1,2,0:0:0:0:
475,192,233114,5,2,0:0:0:0:
475,192,233207,1,2,0:0:0:0:
475,192,233299,1,2,0:0:0:0:
475,192,233392,1,2,0:0:0:0:
475,192,233485,1,2,0:0:0:0:
475,192,233577,1,2,0:0:0:0:
475,192,233670,1,2,0:0:0:0:
475,192,233762,1,2,0:0:0:0:
448,192,234225,1,2,0:0:0:0:
182,192,234225,1,0,0:0:0:100:twinkling.wav
256,192,234225,1,4,0:0:0:0:
402,192,234596,1,8,0:0:0:0:
448,192,234966,1,2,0:0:0:0:
402,192,235336,1,8,0:0:0:0:
448,192,235707,1,2,0:0:0:0:
402,192,236077,1,8,0:0:0:0:
448,192,236448,1,2,0:0:0:0:
402,192,236818,1,8,0:0:0:0:
448,192,237188,1,2,0:0:0:0:
402,192,237559,1,8,0:0:0:0:
448,192,237929,1,2,0:0:0:0:
402,192,238299,1,8,0:0:0:0:
448,192,238670,1,2,0:0:0:0:
402,192,239040,1,8,0:0:0:0:
448,192,239411,1,2,0:0:0:0:
329,192,239596,1,8,1:0:0:0:
36,192,239596,1,2,1:0:0:0:
402,192,239781,1,8,0:0:0:0:
329,192,239781,1,8,1:0:0:0:
36,192,239781,1,2,1:0:0:0:
448,192,240151,1,2,0:0:0:0:
256,192,240151,1,4,0:0:0:0:
402,192,240522,1,8,0:0:0:0:
448,192,240892,1,2,0:0:0:0:
402,192,241262,1,8,0:0:0:0:
448,192,241633,1,2,0:0:0:0:
402,192,242003,1,8,0:0:0:0:
448,192,242373,1,2,0:0:0:0:
402,192,242744,1,8,0:0:0:0:
448,192,243114,1,2,0:0:0:0:
402,192,243485,1,8,0:0:0:0:
448,192,243855,1,2,0:0:0:0:
402,192,244225,1,8,0:0:0:0:
448,192,244596,1,2,0:0:0:0:
402,192,244966,1,8,0:0:0:0:
475,192,245151,1,2,0:0:0:0:
475,192,245213,1,2,0:0:0:0:
475,192,245275,1,2,0:0:0:0:
475,192,245336,1,2,0:0:0:0:
475,192,245429,1,2,0:0:0:0:
475,192,245522,1,2,0:0:0:0:
475,192,245614,1,2,0:0:0:0:
475,192,245707,1,2,0:0:0:0:
475,192,245799,1,2,0:0:0:0:
475,192,245892,1,2,0:0:0:0:
475,192,245985,1,2,0:0:0:0:
448,192,246077,1,2,0:0:0:0:
182,192,246077,1,0,0:0:0:100:twinkling.wav
256,192,246077,1,4,0:0:0:0:
402,192,246448,1,8,0:0:0:0:
448,192,246818,1,2,0:0:0:0:
402,192,247188,1,8,0:0:0:0:
448,192,247559,1,2,0:0:0:0:
402,192,247929,1,8,0:0:0:0:
448,192,248299,1,2,0:0:0:0:
402,192,248670,1,8,0:0:0:0:
448,192,249040,1,2,0:0:0:0:
402,192,249411,1,8,0:0:0:0:
448,192,249781,1,2,0:0:0:0:
402,192,250151,1,8,0:0:0:0:
448,192,250522,1,2,0:0:0:0:
402,192,250892,1,8,0:0:0:0:
448,192,251262,1,2,0:0:0:0:
329,192,251448,1,8,1:0:0:0:
36,192,251448,1,2,1:0:0:0:
402,192,251633,1,8,0:0:0:0:
329,192,251633,1,8,1:0:0:0:
36,192,251633,1,2,1:0:0:0:
448,192,252003,1,2,0:0:0:0:
256,192,252003,1,4,0:0:0:0:
402,192,252373,1,8,0:0:0:0:
448,192,252744,1,2,0:0:0:0:
402,192,253114,1,8,0:0:0:0:
448,192,253485,1,2,0:0:0:0:
402,192,253855,1,8,0:0:0:0:
448,192,254225,1,2,0:0:0:0:
402,192,254596,1,8,0:0:0:0:
448,192,254966,1,2,0:0:0:0:
402,192,255336,1,8,0:0:0:0:
448,192,255707,1,2,0:0:0:0:
402,192,256077,1,8,0:0:0:0:
448,192,256448,1,2,0:0:0:0:
36,192,256448,1,2,1:0:0:0:
416,192,256818,1,8,0:0:0:0:
36,192,256818,1,2,1:0:0:0:
36,192,257188,1,2,1:0:0:0:
475,192,257188,1,2,0:0:0:0:
475,192,257559,1,2,0:0:0:0:
448,192,257929,1,2,0:0:0:0:
256,192,257929,1,4,0:0:0:0:
402,192,258299,1,8,0:0:0:0:
475,192,258670,1,2,0:0:0:0:
402,192,259040,1,8,0:0:0:0:
475,192,259411,1,2,0:0:0:0:
402,192,259781,1,8,0:0:0:0:
475,192,260151,1,2,0:0:0:0:
402,192,260522,1,8,0:0:0:0:
475,192,260892,1,2,0:0:0:0:
402,192,261262,1,8,0:0:0:0:
475,192,261633,1,2,0:0:0:0:
402,192,262003,1,8,0:0:0:0:
475,192,262373,1,2,0:0:0:0:
402,192,262744,1,8,0:0:0:0:
475,192,263114,1,2,0:0:0:0:
36,192,263299,1,2,1:0:0:0:
402,192,263485,1,8,0:0:0:0:
36,192,263485,1,2,1:0:0:0:
475,192,263855,1,2,0:0:0:0:
256,192,263855,1,4,0:0:0:0:
402,192,264225,1,8,0:0:0:0:
475,192,264596,1,2,0:0:0:0:
402,192,264966,1,8,0:0:0:0:
475,192,265336,1,2,0:0:0:0:
402,192,265707,1,8,0:0:0:0:
475,192,266077,1,2,0:0:0:0:
402,192,266448,1,8,0:0:0:0:
475,192,266818,1,2,0:0:0:0:
402,192,267188,1,8,0:0:0:0:
475,192,267559,1,2,0:0:0:0:
402,192,267929,1,8,0:0:0:0:
475,192,268299,1,2,0:0:0:0:
402,192,268670,1,8,0:0:0:0:
475,192,268855,1,2,0:0:0:0:
475,192,268917,1,2,0:0:0:0:
475,192,268978,1,2,0:0:0:0:
475,192,269040,1,2,0:0:0:0:
475,192,269133,1,2,0:0:0:0:
475,192,269225,1,2,0:0:0:0:
475,192,269318,1,2,0:0:0:0:
475,192,269411,1,2,0:0:0:0:
475,192,269503,1,2,0:0:0:0:
475,192,269596,1,2,0:0:0:0:
475,192,269688,1,2,0:0:0:0:
475,192,271077,1,2,0:0:0:0:
256,192,271077,1,4,0:0:0:0:
