osu file format v14

[General]
AudioFilename: audio.mp3
AudioLeadIn: 0
PreviewTime: 77010
Countdown: 0
SampleSet: Soft
StackLeniency: 0.4
Mode: 0
LetterboxInBreaks: 0
WidescreenStoryboard: 0

[Editor]
Bookmarks: 14973,26825,41640,47566,53492,65344,69603,71270,77196,89047,100899,112751
DistanceSpacing: 1.5
BeatDivisor: 4
GridSize: 32
TimelineZoom: 2.2

[Metadata]
Title:role-playing game
TitleUnicode:ロールプレイングゲーム
Artist:SoraMafuUraSaka
ArtistUnicode:そらまふうらさか
Creator:AirinCat
Version:R-P-G
Source:
Tags:そらる まふまふ うらたぬき あほの坂田 soraru sora saka ura mafumafu aho no sakata uratanuki Ryuuseee rpg utaite original
BeatmapID:1745849
BeatmapSetID:833454

[Difficulty]
HPDrainRate:5
CircleSize:3.6
OverallDifficulty:8
ApproachRate:9.2
SliderMultiplier:1.6
SliderTickRate:1

[Events]
//Background and Video events
Video,-80,"Rpgsongprojectvid (convert-video-online.com).avi"
0,0,"Role.Playing.Game.(Song).full.2310370.jpg",0,0
//Break Periods
//Storyboard Layer 0 (Background)
//Storyboard Layer 1 (Fail)
//Storyboard Layer 2 (Pass)
//Storyboard Layer 3 (Foreground)
//Storyboard Sound Samples

[TimingPoints]
3122,370.37037037037,4,2,1,20,1,0
14603,-142.857142857143,4,2,2,80,0,0
14973,-76.9230769230769,4,2,1,80,0,0
18677,-47.6190476190476,4,2,1,80,0,0
19047,-66.6666666666667,4,2,1,80,0,0
19418,-76.9230769230769,4,2,1,80,0,0
20159,-55.5555555555556,4,2,1,80,0,0
20899,-76.9230769230769,4,2,1,80,0,0
24603,-90.9090909090909,4,2,1,80,0,0
24973,-47.6190476190476,4,2,1,80,0,0
25344,-66.6666666666667,4,2,1,80,0,0
26825,-142.857142857143,4,2,1,60,0,0
27196,-90.9090909090909,4,2,1,60,0,0
38307,-136.986301369863,4,2,1,60,0,0
38677,-136.986301369863,4,2,2,60,0,0
40159,-136.986301369863,4,2,1,60,0,0
40899,-71.4285714285714,4,2,1,60,0,0
41270,-100,4,2,1,70,0,0
41640,-76.9230769230769,4,2,1,70,0,0
53492,-111.111111111111,4,2,1,60,0,0
56084,-71.4285714285714,4,2,1,80,0,0
56455,-100,4,2,1,60,0,0
59047,-71.4285714285714,4,2,1,80,0,0
59418,-90.9090909090909,4,2,1,70,0,0
62010,-200,4,2,1,80,0,0
62381,-83.3333333333333,4,2,1,80,0,0
63862,-71.4285714285714,4,2,1,80,0,0
64973,-62.5,4,2,1,80,0,0
65344,-90.9090909090909,4,2,1,52,0,0
71270,-83.3333333333333,4,2,1,80,0,0
76455,-83.3333333333333,4,2,1,70,0,0
77196,-71.4285714285714,4,2,1,80,0,1
79788,-76.9230769230769,4,2,1,80,0,1
82566,-45.4545454545455,4,2,2,80,0,1
83122,-66.6666666666667,4,2,1,80,0,1
83492,-76.9230769230769,4,2,1,80,0,1
85344,-66.6666666666667,4,2,1,80,0,1
85714,-76.9230769230769,4,2,1,80,0,1
88122,-76.9230769230769,4,2,1,80,0,1
88492,-76.9230769230769,4,2,1,90,0,1
88862,-76.9230769230769,4,2,1,100,0,1
89047,-66.6666666666667,4,2,1,80,0,1
89418,-76.9230769230769,4,2,1,80,0,1
94418,-45.4545454545455,4,2,2,80,0,1
94973,-66.6666666666667,4,2,1,80,0,1
97566,-76.9230769230769,4,2,1,80,0,1
99418,-40,4,2,1,80,0,1
99788,-50,4,2,1,80,0,1
100159,-58.8235294117647,4,2,1,80,0,1
100899,-76.9230769230769,4,2,1,80,0,0
104603,-50,4,2,1,80,0,0
104973,-66.6666666666667,4,2,1,80,0,0
106084,-58.8235294117647,4,2,1,80,0,0
106825,-76.9230769230769,4,2,1,80,0,0
110899,-50,4,2,1,80,0,0
111270,-76.9230769230769,4,2,1,80,0,0
112751,-100,4,2,1,40,0,0

[Colours]
Combo1 : 139,203,75
Combo2 : 77,85,238
Combo3 : 160,166,173
Combo4 : 196,64,64

[HitObjects]
139,101,14603,6,0,P|134:65|108:21,1,83.9999974365235,8|0,0:0|0:0,0:0:0:0:
145,127,14973,6,0,P|202:117|260:147,1,103.999995239258,12|0,1:0|0:0,0:0:0:0:
342,306,15344,1,8,0:0:0:0:
348,333,15436,1,0,0:0:0:0:
354,362,15529,1,0,0:0:0:0:
382,218,15714,2,0,P|325:208|267:238,1,103.999995239258,8|0,0:1|0:0,0:0:0:0:
98,290,16084,1,8,0:0:0:0:
92,317,16176,1,0,0:0:0:0:
86,346,16269,1,0,0:0:0:0:
56,204,16455,6,0,P|113:194|171:224,1,103.999995239258,8|0,0:1|0:0,0:0:0:0:
172,123,16733,1,0,0:0:0:0:
192,134,16825,2,0,P|243:131|287:105,1,103.999995239258,8|0,0:0|0:0,0:0:0:0:
426,213,17196,2,0,P|382:186|330:184,1,103.999995239258,8|0,0:1|0:0,0:0:0:0:
426,336,17566,1,8,0:0:0:0:
455,320,17658,1,0,0:0:0:0:
487,302,17751,1,0,0:0:0:0:
209,329,17936,6,0,L|318:347,1,103.999995239258,8|0,0:1|0:0,0:0:0:0:
330,183,18307,1,8,0:0:0:0:
296,191,18399,1,0,0:0:0:0:
257,199,18492,1,0,0:0:0:0:
353,5,18677,2,0,P|380:33|383:87,3,83.9999974365235,8|0|0|0,0:1|0:0|0:0|0:0,0:0:0:0:
312,69,19047,2,0,B|251:58|251:58|191:75|191:75|127:63,1,180.000006866455,8|0,0:0|0:0,0:0:0:0:
112,59,19418,5,8,0:1:0:0:
103,237,19603,1,0,0:0:0:0:
0,37,19788,1,8,0:0:0:0:
2,258,19973,1,0,0:0:0:0:
210,146,20159,2,0,B|265:142|265:142|294:156|294:156|350:152|350:152|372:134|372:134|435:126,1,215.999993408203,8|0,0:1|0:0,0:0:0:0:
470,70,20529,1,10,0:0:0:0:
493,109,20622,1,2,0:0:0:0:
493,146,20714,1,2,0:0:0:0:
464,187,20807,1,2,0:0:0:0:
428,210,20899,6,0,P|414:271|427:322,1,103.999995239258,12|0,1:0|0:0,0:0:0:0:
255,244,21270,1,8,0:0:0:0:
252,215,21362,1,0,0:0:0:0:
247,178,21455,1,0,0:0:0:0:
333,308,21640,2,0,P|279:341|215:333,1,103.999995239258,8|0,0:1|0:0,0:0:0:0:
99,246,22010,1,8,0:0:0:0:
106,217,22102,1,0,0:0:0:0:
114,181,22195,1,0,0:0:0:0:
17,308,22381,6,0,P|71:341|135:333,1,103.999995239258,8|0,0:1|0:0,0:0:0:0:
202,363,22659,1,0,0:0:0:0:
216,344,22751,2,0,P|270:311|334:319,1,103.999995239258,8|0,0:0|0:0,0:0:0:0:
420,238,23122,2,0,P|368:234|326:204,1,103.999995239258,8|0,0:1|0:0,0:0:0:0:
468,112,23492,1,8,0:0:0:0:
478,140,23584,1,0,0:0:0:0:
488,174,23677,1,0,0:0:0:0:
354,22,23862,5,8,0:1:0:0:
326,204,24047,1,0,0:0:0:0:
201,44,24233,1,8,0:0:0:0:
197,87,24325,1,0,0:0:0:0:
195,122,24418,1,0,0:0:0:0:
45,36,24603,6,0,L|61:126,1,88.000002685547,8|0,0:1|0:0,0:0:0:0:
94,215,24881,1,0,0:0:0:0:
62,229,24973,2,0,B|20:249|20:249|-1:290,3,83.9999974365235,8|0|0|0,0:0|0:0|0:0|0:0,0:0:0:0:
108,328,25344,6,0,B|82:309|82:309|123:294|123:294|170:331|222:306,1,180.000006866455,8|0,0:1|0:0,0:0:0:0:
181,237,25714,1,8,0:0:0:0:
234,103,25899,1,8,0:1:0:0:
280,91,25992,1,8,0:1:0:0:
324,107,26084,1,8,0:1:0:0:
350,147,26177,1,8,0:1:0:0:
365,192,26270,1,8,0:1:0:0:
405,218,26363,1,8,0:1:0:0:
457,226,26455,37,8,0:1:0:0:
497,261,26547,1,8,0:1:0:0:
501,315,26640,1,8,0:1:0:0:
457,347,26733,1,8,0:1:0:0:
418,355,26825,6,0,L|330:348,1,83.9999974365235,2|0,0:0|0:0,0:0:0:0:
300,325,27196,22,0,P|259:309|203:317,1,88.000002685547,8|0,0:0|0:0,0:0:0:0:
130,300,27473,1,0,0:0:0:0:
139,280,27566,2,0,P|147:238|141:194,1,88.000002685547,8|0,0:1|0:0,0:0:0:0:
47,67,27936,1,8,0:0:0:0:
55,229,28122,1,0,0:0:0:0:
244,46,28307,5,8,0:1:0:0:
246,235,28492,1,0,0:0:0:0:
244,46,28677,1,8,0:0:0:0:
140,193,28862,1,0,0:0:0:0:
343,134,29047,5,8,0:1:0:0:
134,90,29232,1,0,0:0:0:0:
343,134,29417,1,8,0:0:0:0:
140,193,29603,1,0,0:0:0:0:
312,263,29788,6,0,P|385:259|421:241,1,88.000002685547,8|0,0:1|0:0,0:0:0:0:
462,199,30066,1,0,0:0:0:0:
452,179,30159,2,0,P|447:104|463:67,1,88.000002685547,8|0,0:0|0:0,0:0:0:0:
403,25,30436,1,0,0:0:0:0:
377,31,30529,2,0,P|331:37|285:24,1,88.000002685547,8|0,0:1|0:0,0:0:0:0:
191,203,30899,1,8,0:0:0:0:
301,172,31084,2,0,P|278:124|245:99,1,88.000002685547,0|8,0:0|0:1,0:0:0:0:
116,267,31455,5,0,0:0:0:0:
142,45,31640,1,8,0:0:0:0:
26,173,31825,1,0,0:0:0:0:
251,103,32010,2,0,B|291:81|337:76|337:76|294:72,1,132.00000402832,8|0,0:1|0:0,0:0:0:0:
382,13,32381,2,0,P|417:66|400:127,1,132.00000402832,8|0,0:0|0:0,0:0:0:0:
380,164,32751,6,0,P|323:170|283:199,1,88.000002685547,12|0,0:1|0:0,0:0:0:0:
126,192,33122,2,0,P|182:193|225:218,1,88.000002685547,8|0,0:0|0:0,0:0:0:0:
269,267,33399,1,0,0:0:0:0:
273,291,33492,2,0,L|280:384,1,88.000002685547,8|0,0:1|0:0,0:0:0:0:
489,215,33862,1,8,0:0:0:0:
391,357,34047,1,0,0:0:0:0:
314,79,34233,5,8,0:1:0:0:
390,255,34418,1,0,0:0:0:0:
314,79,34603,1,8,0:0:0:0:
269,267,34788,1,0,0:0:0:0:
433,143,34973,5,8,0:1:0:0:
215,179,35159,1,0,0:0:0:0:
433,143,35344,1,8,0:0:0:0:
210,85,35529,1,0,0:0:0:0:
185,82,35622,1,0,0:0:0:0:
164,82,35714,6,0,P|113:91|82:117,1,88.000002685547,8|0,0:1|0:0,0:0:0:0:
26,179,35992,1,0,0:0:0:0:
41,198,36084,2,0,P|61:236|61:279,1,88.000002685547,8|0,0:0|0:0,0:0:0:0:
103,358,36362,1,0,0:0:0:0:
124,348,36455,2,0,P|178:339|219:350,1,88.000002685547,8|0,0:1|0:0,0:0:0:0:
293,321,36733,1,0,0:0:0:0:
312,337,36825,2,0,P|366:351|416:338,1,88.000002685547,8|0,0:0|0:0,0:0:0:0:
461,279,37103,1,0,0:0:0:0:
452,258,37196,6,0,P|445:200|459:165,1,88.000002685547,8|0,0:1|0:0,0:0:0:0:
479,89,37473,1,0,0:0:0:0:
454,83,37566,2,0,L|367:68,1,88.000002685547,8|0,0:0|0:0,0:0:0:0:
358,151,37843,1,0,0:0:0:0:
336,147,37936,2,0,L|249:132,1,88.000002685547,8|0,0:1|0:0,0:0:0:0:
263,228,38214,1,0,0:0:0:0:
239,223,38307,2,0,L|152:208,1,87.6000024060059,8|0,0:0|0:0,0:0:0:0:
111,202,38677,5,8,0:0:0:0:
49,288,38862,1,0,0:0:0:0:
56,113,39047,5,8,0:0:0:0:
111,202,39232,1,0,0:0:0:0:
119,30,39418,5,8,0:0:0:0:
56,113,39603,1,0,0:0:0:0:
209,40,39788,6,0,L|297:57,1,87.6000024060059,10|0,0:0|0:0,0:0:0:0:
322,63,40159,5,8,0:1:0:0:
308,173,40344,1,0,0:0:0:0:
443,79,40529,2,0,L|450:38,1,29.200000802002,8|0,0:1|0:0,0:0:0:0:
424,196,40714,2,0,L|437:229,1,29.200000802002
308,173,40899,6,0,L|286:210,6,27.9999991455078,8|0|0|0|0|0|0,0:1|0:0|0:0|0:0|0:0|0:0|0:0,0:0:0:0:
280,225,41270,22,0,B|236:220|236:220|210:237|210:237|155:230,1,120,8|0,0:1|0:0,0:0:0:0:
133,225,41640,22,0,P|141:163|119:112,1,103.999995239258,12|0,0:1|0:0,0:0:0:0:
111,28,41918,1,0,0:0:0:0:
136,34,42010,2,0,P|175:35|232:2,1,103.999995239258,8|0,0:0|0:0,0:0:0:0:
354,218,42381,1,8,0:1:0:0:
333,57,42566,1,0,0:0:0:0:
220,260,42751,1,8,0:0:0:0:
202,119,42936,1,0,0:0:0:0:
292,354,43122,5,8,0:1:0:0:
144,201,43307,1,0,0:0:0:0:
292,354,43492,1,8,0:0:0:0:
276,175,43677,1,0,0:0:0:0:
184,374,43862,5,8,0:1:0:0:
344,230,44047,1,0,0:0:0:0:
184,374,44233,1,8,0:0:0:0:
374,328,44418,1,0,0:0:0:0:
370,145,44603,6,0,P|318:147|275:174,1,103.999995239258,8|0,0:1|0:0,0:0:0:0:
207,235,44881,1,0,0:0:0:0:
181,244,44973,2,0,P|129:244|83:221,1,103.999995239258,8|0,0:0|0:0,0:0:0:0:
25,28,45344,1,8,0:1:0:0:
149,159,45529,1,0,0:0:0:0:
162,16,45714,1,8,0:0:0:0:
21,156,45899,2,0,P|1:206|8:266,1,103.999995239258,0|8,0:0|0:1,0:0:0:0:
275,237,46270,5,0,0:0:0:0:
91,88,46455,1,8,0:0:0:0:
92,309,46640,1,0,0:0:0:0:
185,147,46825,2,0,P|231:122|288:117,1,103.999995239258,8|0,0:1|0:0,0:0:0:0:
371,268,47196,2,0,P|323:242|267:237,1,103.999995239258,8|0,0:0|0:0,0:0:0:0:
37,18,47566,38,0,B|62:105|10:87|35:181,1,155.999992858887,12|0,0:1|0:0,0:0:0:0:
110,193,47936,2,0,P|159:177|210:186,1,103.999995239258,8|0,0:0|0:0,0:0:0:0:
274,236,48214,1,0,0:0:0:0:
275,261,48307,2,0,L|273:384,1,103.999995239258,8|0,0:1|0:0,0:0:0:0:
439,217,48677,1,8,0:0:0:0:
397,384,48862,1,0,0:0:0:0:
300,123,49047,5,8,0:1:0:0:
343,313,49233,1,0,0:0:0:0:
300,123,49418,1,8,0:0:0:0:
431,305,49603,1,0,0:0:0:0:
225,236,49788,5,8,0:1:0:0:
439,217,49973,1,0,0:0:0:0:
225,236,50159,1,8,0:0:0:0:
442,124,50344,1,0,0:0:0:0:
438,99,50436,1,0,0:0:0:0:
431,79,50529,6,0,P|412:30|369:-1,1,103.999995239258,8|0,0:1|0:0,0:0:0:0:
268,26,50807,1,0,0:0:0:0:
260,43,50899,2,0,P|249:93|266:141,1,103.999995239258,8|0,0:0|0:0,0:0:0:0:
277,236,51177,1,0,0:0:0:0:
284,257,51270,2,0,P|292:305|273:364,1,103.999995239258,8|0,0:1|0:0,0:0:0:0:
169,384,51547,1,0,0:0:0:0:
152,369,51640,2,0,P|126:323|125:272,1,103.999995239258,8|0,0:0|0:0,0:0:0:0:
51,231,51918,1,0,0:0:0:0:
47,212,52010,6,0,L|36:156,1,51.999997619629,8|0,0:1|0:0,0:0:0:0:
154,133,52196,2,0,L|144:200,1,51.999997619629
97,54,52381,2,0,P|153:35|199:45,1,103.999995239258,8|0,0:0|0:0,0:0:0:0:
372,237,52751,1,8,0:0:0:0:
287,70,52936,1,0,0:0:0:0:
212,262,53122,2,0,L|223:320,1,51.999997619629,8|0,0:0|0:0,0:0:0:0:
287,70,53307,2,0,L|276:12,1,51.999997619629
461,226,53492,22,0,L|477:308,1,71.9999978027344,12|0,1:0|0:0,0:0:0:0:
338,223,53862,1,8,0:1:0:0:
301,339,54047,1,0,0:0:0:0:
133,269,54233,5,8,0:1:0:0:
139,305,54325,1,0,0:0:0:0:
144,336,54418,1,0,0:0:0:0:
21,246,54603,1,8,0:1:0:0:
110,157,54788,1,0,0:0:0:0:
107,124,54881,1,0,0:0:0:0:
107,96,54973,6,0,P|112:53|135:17,1,71.9999978027344,8|0,0:1|0:0,0:0:0:0:
209,9,55251,1,0,0:0:0:0:
227,21,55344,2,0,P|259:33|309:32,1,71.9999978027344,8|0,0:1|0:0,0:0:0:0:
378,16,55622,1,0,0:0:0:0:
404,14,55714,2,0,P|458:14|512:42,1,107.999996704102,8|0,0:1|0:0,0:0:0:0:
505,87,56084,22,0,B|493:129|493:129|456:77|403:79|373:108,1,167.999994873047,10|0,0:0|0:0,0:0:0:0:
423,165,56455,38,0,P|436:204|431:253,1,80,12|0,0:1|0:0,0:0:0:0:
320,340,56825,2,0,P|282:318|240:316,1,80,8|0,0:1|0:0,0:0:0:0:
156,338,57103,1,0,0:0:0:0:
134,346,57196,2,0,P|89:343|58:326,1,80,8|0,0:1|0:0,0:0:0:0:
8,251,57473,1,0,0:0:0:0:
24,233,57566,2,0,P|41:191|38:146,1,80,8|0,0:1|0:0,0:0:0:0:
122,10,57936,6,0,P|118:52|130:97,1,80,8|0,0:1|0:0,0:0:0:0:
194,136,58214,1,0,0:0:0:0:
218,128,58307,2,0,P|259:115|298:118,1,80,8|0,0:1|0:0,0:0:0:0:
376,155,58584,1,0,0:0:0:0:
396,170,58677,2,0,P|458:183|512:144,1,120,8|0,0:1|0:0,0:0:0:0:
507,102,59047,38,0,B|507:62|467:30|467:30|435:67|448:122,1,167.999994873047,10|0,0:0|0:0,0:0:0:0:
396,170,59418,22,0,P|367:129|363:83,1,88.000002685547,12|0,0:1|0:0,0:0:0:0:
333,13,59696,1,0,0:0:0:0:
310,23,59788,2,0,P|259:29|215:18,1,88.000002685547,8|0,0:1|0:0,0:0:0:0:
132,36,60066,1,0,0:0:0:0:
141,59,60159,2,0,P|147:98|131:150,1,88.000002685547,8|0,0:1|0:0,0:0:0:0:
59,191,60436,1,0,0:0:0:0:
50,212,60529,2,0,P|39:250|52:303,1,88.000002685547,8|0,0:1|0:0,0:0:0:0:
119,354,60807,1,0,0:0:0:0:
140,346,60899,6,0,P|185:333|242:340,1,88.000002685547,8|0,0:1|0:0,0:0:0:0:
312,357,61177,1,0,0:0:0:0:
335,362,61270,2,0,P|379:361|432:334,1,88.000002685547,8|0,0:1|0:0,0:0:0:0:
488,199,61640,2,0,P|461:127|483:74,1,132.00000402832,8|0,0:1|0:0,0:0:0:0:
480,45,62010,22,0,P|448:48|412:42,1,60,6|0,0:0|0:0,0:0:0:0:
372,23,62381,22,0,B|322:10|322:10|272:32,1,95.9999970703126,12|0,0:1|0:0,0:0:0:0:
245,113,62659,1,0,0:0:0:0:
218,117,62751,2,0,L|162:127,1,47.9999985351563,8|0,0:1|0:0,0:0:0:0:
157,14,62936,2,0,L|209:33,1,47.9999985351563
78,59,63121,1,8,0:1:0:0:
59,98,63214,1,0,0:0:0:0:
58,141,63307,1,0,0:0:0:0:
74,180,63399,1,0,0:0:0:0:
94,218,63492,2,0,B|106:252|106:252|94:285|94:285|100:319,1,95.9999970703126,8|0,0:1|0:0,0:0:0:0:
176,353,63770,1,0,0:0:0:0:
205,354,63862,6,0,B|257:359|257:359|277:349|277:349|324:354,1,111.999996582031,12|0,0:1|0:0,0:0:0:0:
363,254,64140,1,0,0:0:0:0:
338,252,64233,2,0,L|270:244,1,55.9999982910157,8|0,0:1|0:0,0:0:0:0:
403,347,64418,2,0,L|464:356,1,55.9999982910157
456,224,64603,5,8,0:1:0:0:
474,153,64696,1,2,0:0:0:0:
452,83,64788,1,2,0:0:0:0:
389,44,64881,1,2,0:0:0:0:
317,34,64973,2,0,B|285:36|285:36|265:55|265:55|225:54|225:54|197:36|197:36|156:36|156:36|162:52|162:52,1,192,6|0,0:0|0:0,0:0:0:0:
162,73,65344,6,0,L|158:170,1,88.000002685547,12|0,0:1|0:0,0:0:0:0:
0,304,65714,1,8,0:1:0:0:
9,167,65899,1,0,0:0:0:0:
106,279,66084,2,0,P|146:293|198:284,1,88.000002685547,8|0,0:1|0:0,0:0:0:0:
255,246,66362,1,0,0:0:0:0:
272,231,66455,1,8,0:1:0:0:
430,299,66640,2,0,P|388:291|346:302,1,88.000002685547,0|8,0:0|0:1,0:0:0:0:
414,135,67010,5,0,0:0:0:0:
345,303,67196,1,8,0:1:0:0:
256,117,67381,1,0,0:0:0:0:
190,287,67566,2,0,P|146:286|105:270,1,88.000002685547,8|0,0:1|0:0,0:0:0:0:
48,220,67844,1,0,0:0:0:0:
33,199,67936,1,8,0:1:0:0:
102,51,68122,2,0,P|88:92|90:136,1,88.000002685547,0|8,0:0|0:1,0:0:0:0:
189,107,68492,6,0,P|239:95|280:105,1,88.000002685547,0|8,0:0|0:1,0:0:0:0:
335,146,68770,1,0,0:0:0:0:
346,166,68862,1,0,0:0:0:0:
412,302,69047,2,0,P|402:259|409:216,1,88.000002685547,8|0,0:1|0:0,0:0:0:0:
456,99,69418,1,8,0:1:0:0:
273,101,69603,2,0,P|223:95|180:66,1,88.000002685547,0|8,0:0|0:1,0:0:0:0:
115,239,69973,5,0,0:0:0:0:
191,77,70159,1,8,0:1:0:0:
263,269,70344,1,0,0:0:0:0:
355,94,70529,2,0,P|398:83|452:93,1,88.000002685547,8|0,0:1|0:0,0:0:0:0:
502,139,70807,1,0,0:0:0:0:
493,161,70899,2,0,P|479:203|487:257,1,88.000002685547,8|0,0:1|0:0,0:0:0:0:
380,355,71270,6,0,P|332:332|276:335,1,95.9999970703126,8|0,0:0|0:0,0:0:0:0:
99,353,71640,2,0,P|110:294|101:242,1,95.9999970703126,8|0,0:0|0:0,0:0:0:0:
34,69,72010,1,8,0:0:0:0:
186,212,72196,1,0,0:0:0:0:
212,0,72381,1,8,0:0:0:0:
90,158,72566,1,0,0:0:0:0:
317,0,72751,5,8,0:0:0:0:
163,112,72936,1,2,0:0:0:0:
147,88,73029,1,2,0:0:0:0:
135,71,73122,1,10,0:0:0:0:
290,120,73307,1,0,0:0:0:0:
106,224,73492,2,0,P|32:181|93:159,1,191.999994140625,8|8,0:0|0:0,0:0:0:0:
217,224,74047,1,0,0:0:0:0:
213,254,74140,1,0,0:0:0:0:
208,283,74233,5,8,0:1:0:0:
332,342,74418,1,8,0:1:0:0:
231,142,74603,1,8,0:1:0:0:
512,182,74788,1,8,0:1:0:0:
208,283,74973,1,8,0:1:0:0:
396,22,75159,1,8,0:1:0:0:
470,347,75344,1,8,0:1:0:0:
282,16,75529,5,8,0:1:0:0:
233,0,75622,1,8,0:1:0:0:
186,3,75714,1,8,0:1:0:0:
147,32,75807,1,8,0:1:0:0:
131,76,75899,1,8,0:1:0:0:
147,128,75992,1,8,0:1:0:0:
186,158,76084,1,8,0:1:0:0:
234,174,76177,1,8,0:1:0:0:
277,219,76270,1,8,0:1:0:0:
280,284,76362,1,8,0:1:0:0:
246,333,76455,6,0,L|267:376,1,31.9999990234375,8|8,0:1|0:1,0:1:0:0:
173,353,76578,6,0,L|172:405,1,31.9999990234375,8|8,0:1|0:1,0:1:0:0:
99,334,76702,6,0,L|78:368,1,31.9999990234375,8|8,0:1|0:1,0:1:0:0:
60,268,76825,5,2,0:0:0:0:
60,268,77196,6,0,P|44:200|68:143,1,111.999996582031,12|0,1:0|0:0,0:0:0:0:
247,0,77566,1,8,0:0:0:0:
155,210,77751,1,0,0:0:0:0:
418,102,77936,5,8,0:1:0:0:
74,77,78121,1,0,0:0:0:0:
418,102,78307,1,8,0:0:0:0:
74,77,78492,1,0,0:0:0:0:
327,168,78677,1,8,0:1:0:0:
113,0,78862,5,0,0:0:0:0:
220,146,79047,1,8,0:0:0:0:
34,162,79233,1,0,0:0:0:0:
272,50,79418,1,8,0:1:0:0:
289,278,79603,1,0,0:0:0:0:
125,171,79788,2,0,P|129:110|163:68,1,103.999995239258,8|0,0:0|0:0,0:0:0:0:
245,33,80066,1,0,0:0:0:0:
272,50,80159,6,0,P|333:60|386:39,1,103.999995239258,8|0,0:1|0:0,0:0:0:0:
512,176,80529,2,0,P|462:162|411:173,1,103.999995239258,8|0,0:0|0:0,0:0:0:0:
344,221,80807,1,0,0:0:0:0:
322,242,80899,1,8,0:1:0:0:
154,173,81084,1,0,0:0:0:0:
199,358,81270,1,8,0:0:0:0:
287,151,81455,1,0,0:0:0:0:
76,283,81640,5,8,0:1:0:0:
391,320,81825,1,0,0:0:0:0:
54,171,82010,1,8,0:0:0:0:
428,202,82196,1,0,0:0:0:0:
76,283,82381,1,8,0:1:0:0:
391,320,82566,6,0,P|424:318|395:306,1,88.000002685547,8|0,0:0|0:0,0:0:0:0:
228,232,82751,2,0,P|195:204|225:253,1,176.000005371094,8|0,0:0|0:0,0:0:0:0:
512,99,83122,6,0,P|448:75|383:93,1,120.000004577637,12|0,1:0|0:0,0:0:0:0:
348,158,83399,1,0,0:0:0:0:
325,171,83492,2,0,P|263:189|209:171,1,103.999995239258,8|0,0:0|0:0,0:0:0:0:
154,123,83770,1,0,0:0:0:0:
139,101,83862,2,0,P|128:50|149:-20,1,103.999995239258,8|0,0:1|0:0,0:0:0:0:
273,46,84233,1,8,0:0:0:0:
90,183,84418,1,0,0:0:0:0:
484,119,84603,5,8,0:1:0:0:
160,239,84788,1,0,0:0:0:0:
443,306,84973,1,8,0:0:0:0:
210,119,85159,1,0,0:0:0:0:
481,219,85344,2,0,B|383:187|387:264|285:220,1,180.000006866455,8|0,0:1|0:0,0:0:0:0:
292,151,85714,2,0,P|292:91|257:45,1,103.999995239258,8|0,0:0|0:0,0:0:0:0:
32,242,86084,5,8,0:1:0:0:
89,45,86270,1,0,0:0:0:0:
213,297,86455,1,8,0:0:0:0:
176,131,86640,1,0,0:0:0:0:
33,369,86825,1,8,0:1:0:0:
64,160,87010,1,0,0:0:0:0:
199,384,87196,5,8,0:0:0:0:
32,242,87381,1,0,0:0:0:0:
237,300,87566,2,0,B|282:285|282:285|310:290|329:299|329:299|398:279|398:279|370:310,1,207.999990478516,8|8,0:1|0:0,0:0:0:0:
342,213,88121,6,0,L|391:197,2,34.6666650797527,8|8|8,0:1|0:1|0:1,0:1:0:0:
320,140,88307,5,8,0:1:0:0:
344,67,88399,1,8,0:1:0:0:
415,44,88492,1,8,0:1:0:0:
484,69,88584,1,8,0:1:0:0:
512,139,88677,1,8,0:1:0:0:
484,212,88770,1,8,0:1:0:0:
412,241,88862,1,8,0:1:0:0:
342,213,88955,1,8,0:1:0:0:
274,168,89047,6,0,P|218:153|146:179,1,120.000004577637,12|0,1:0|0:0,0:0:0:0:
0,5,89418,2,0,P|50:-10|113:6,1,103.999995239258,8|0,0:0|0:0,0:0:0:0:
185,43,89696,1,0,0:0:0:0:
203,57,89788,2,0,P|252:72|313:60,1,103.999995239258,8|0,0:1|0:0,0:0:0:0:
512,0,90159,1,8,0:0:0:0:
417,226,90344,1,0,0:0:0:0:
403,27,90529,1,8,0:1:0:0:
249,300,90714,5,0,0:0:0:0:
269,115,90899,1,8,0:0:0:0:
417,226,91084,1,0,0:0:0:0:
164,123,91270,1,8,0:1:0:0:
325,9,91455,1,0,0:0:0:0:
318,205,91640,2,0,P|261:213|212:192,1,103.999995239258,8|0,0:0|0:0,0:0:0:0:
55,0,92010,6,0,P|78:44|75:96,1,103.999995239258,8|0,0:1|0:0,0:0:0:0:
17,347,92381,2,0,P|5:297|20:247,1,103.999995239258,8|0,0:0|0:0,0:0:0:0:
305,300,92751,1,8,0:1:0:0:
101,298,92936,1,0,0:0:0:0:
271,118,93122,1,8,0:0:0:0:
192,352,93307,1,0,0:0:0:0:
107,43,93492,5,8,0:1:0:0:
200,251,93677,1,0,0:0:0:0:
351,22,93862,2,0,P|419:10|469:22,1,103.999995239258,8|0,0:0|0:0,0:0:0:0:
142,154,94233,1,8,0:1:0:0:
426,216,94418,6,0,B|494:237|494:237|472:216,1,88.000002685547,8|0,0:0|0:0,0:0:0:0:
255,184,94603,2,0,B|141:154|141:154|189:189,1,176.000005371094,8|0,0:0|0:0,0:0:0:0:
464,121,94973,6,0,P|389:123|347:157,1,120.000004577637,12|0,1:0|0:0,0:0:0:0:
337,243,95251,1,0,0:0:0:0:
319,261,95344,2,0,P|244:284|201:271,1,120.000004577637,8|0,0:0|0:0,0:0:0:0:
131,214,95621,1,0,0:0:0:0:
112,196,95714,2,0,P|37:172|-5:185,1,120.000004577637,8|0,0:1|0:0,0:0:0:0:
131,334,96084,1,8,0:0:0:0:
183,130,96270,1,0,0:0:0:0:
499,290,96455,5,8,0:1:0:0:
183,130,96640,1,0,0:0:0:0:
512,153,96825,1,8,0:0:0:0:
206,273,97010,1,0,0:0:0:0:
477,42,97196,2,0,B|439:10|439:10|377:49|402:135,1,180.000006866455,8|0,0:1|0:0,0:0:0:0:
373,197,97566,2,0,P|321:188|266:207,1,103.999995239258,8|0,0:0|0:0,0:0:0:0:
105,384,97936,5,8,0:1:0:0:
146,149,98122,1,0,0:0:0:0:
315,324,98307,1,8,0:0:0:0:
288,78,98492,1,0,0:0:0:0:
103,272,98677,1,8,0:1:0:0:
83,0,98862,1,0,0:0:0:0:
255,154,99047,2,0,P|307:160|364:119,1,103.999995239258,8|0,0:0|0:0,0:0:0:0:
128,194,99418,6,0,B|105:164|73:142|73:142|72:82|72:82|113:83|132:111|73:143|73:143|71:219,1,300,8|0,0:1|0:0,0:0:0:0:
211,345,99788,6,0,B|201:219|201:219|255:216|273:268|213:282,1,240,8|0,0:0|0:0,0:0:0:0:
394,348,100159,6,0,B|389:379|389:379|314:371|289:314|310:242|377:245|413:260,1,272.000005187988,8|8,0:1|0:0,0:0:0:0:
485,119,100714,5,0,0:0:0:0:
464,109,100807,1,0,0:0:0:0:
440,103,100899,2,0,P|389:95|334:112,1,103.999995239258,12|0,1:0|0:0,0:0:0:0:
120,199,101270,1,8,0:0:0:0:
120,229,101363,1,0,0:0:0:0:
119,263,101455,1,0,0:0:0:0:
80,107,101640,2,0,P|130:100|180:114,1,103.999995239258,8|0,0:1|0:0,0:0:0:0:
353,304,102010,1,8,0:0:0:0:
353,334,102103,1,0,0:0:0:0:
354,368,102195,1,0,0:0:0:0:
423,239,102381,6,0,P|369:214|298:227,1,103.999995239258,8|0,0:1|0:0,0:0:0:0:
239,273,102659,1,0,0:0:0:0:
216,281,102751,2,0,P|164:282|118:259,1,103.999995239258,8|0,0:0|0:0,0:0:0:0:
177,80,103122,2,0,P|199:126|199:177,1,103.999995239258,8|0,0:1|0:0,0:0:0:0:
17,165,103492,1,8,0:0:0:0:
53,156,103584,1,0,0:0:0:0:
84,147,103677,1,0,0:0:0:0:
135,351,103862,6,0,L|18:336,1,103.999995239258,8|0,0:1|0:0,0:0:0:0:
192,258,104233,1,8,0:0:0:0:
223,267,104325,1,0,0:0:0:0:
256,275,104418,1,0,0:0:0:0:
195,50,104603,2,0,P|167:78|159:117,3,80,8|0|0|0,0:1|0:0|0:0|0:0,0:0:0:0:
236,117,104973,2,0,B|298:112|298:112|339:131|339:131|413:127,1,180.000006866455,8|0,0:0|0:0,0:0:0:0:
434,121,105344,5,8,0:1:0:0:
278,193,105529,1,0,0:0:0:0:
369,0,105714,1,8,0:0:0:0:
159,116,105899,1,0,0:0:0:0:
414,233,106084,2,0,B|440:290|440:290|437:380|437:380|389:334,1,204.000003890991,8|0,0:1|0:0,0:0:0:0:
343,282,106455,1,10,0:0:0:0:
303,255,106547,1,2,0:0:0:0:
255,250,106640,1,2,0:0:0:0:
212,271,106733,1,2,0:0:0:0:
183,293,106825,6,0,P|125:313|77:302,1,103.999995239258,12|0,1:0|0:0,0:0:0:0:
115,127,107196,1,8,0:0:0:0:
118,162,107288,1,0,0:0:0:0:
123,201,107381,1,0,0:0:0:0:
25,92,107566,2,0,P|76:37|113:27,1,103.999995239258,8|0,0:1|0:0,0:0:0:0:
362,111,107936,1,8,0:0:0:0:
359,146,108028,1,0,0:0:0:0:
354,185,108121,1,0,0:0:0:0:
445,70,108307,6,0,P|384:24|346:21,1,103.999995239258,8|0,0:1|0:0,0:0:0:0:
277,58,108584,1,0,0:0:0:0:
253,71,108677,2,0,P|195:74|152:53,1,103.999995239258,8|0,0:0|0:0,0:0:0:0:
18,177,109047,2,0,P|63:153|115:154,1,103.999995239258,8|0,0:1|0:0,0:0:0:0:
104,333,109418,1,8,0:0:0:0:
95,295,109510,1,0,0:0:0:0:
90,262,109603,1,0,0:0:0:0:
244,339,109788,5,8,0:1:0:0:
218,141,109973,1,0,0:0:0:0:
354,247,110159,1,8,0:0:0:0:
387,249,110252,1,0,0:0:0:0:
425,249,110344,1,0,0:0:0:0:
244,339,110529,6,0,L|142:314,1,103.999995239258,8|0,0:1|0:0,0:0:0:0:
93,238,110807,1,0,0:0:0:0:
86,205,110899,2,0,B|75:155|75:155|41:132,3,80,8|0|0|0,0:0|0:0|0:0|0:0,0:0:0:0:
83,59,111270,6,0,B|144:97|144:97|170:185,1,155.999992858887,8|0,0:1|0:0,0:0:0:0:
245,194,111640,1,8,0:0:0:0:
275,61,111825,1,8,0:1:0:0:
318,24,111918,1,8,0:1:0:0:
370,36,112010,1,8,0:1:0:0:
400,84,112103,1,8,0:1:0:0:
391,140,112196,1,8,0:1:0:0:
413,192,112288,1,8,0:1:0:0:
442,246,112381,5,8,0:1:0:0:
429,306,112473,1,8,0:1:0:0:
376,340,112566,1,8,0:1:0:0:
313,334,112659,1,8,0:1:0:0:
271,307,112751,5,2,0:0:0:0:
212,222,112936,1,2,0:0:0:0:
325,224,113122,2,0,L|347:257,3,40,2|2|2|2,0:0|0:0|0:0|0:0,0:0:0:0:
307,198,113492,1,2,0:0:0:0:
183,303,113677,1,2,0:0:0:0:
167,149,113862,1,2,0:0:0:0:
54,344,114047,5,8,0:1:0:0:
