osu file format v14

[General]
AudioFilename: audio.mp3
AudioLeadIn: 0
PreviewTime: 77010
Countdown: 0
SampleSet: Soft
StackLeniency: 0.4
Mode: 0
LetterboxInBreaks: 0
WidescreenStoryboard: 0

[Editor]
Bookmarks: 14973,26825,41640,47566,53492,65344,69603,71270,77196,89047,100899,112751
DistanceSpacing: 0.9
BeatDivisor: 4
GridSize: 32
TimelineZoom: 1.2

[Metadata]
Title:role-playing game
TitleUnicode:ロールプレイングゲーム
Artist:SoraMafuUraSaka
ArtistUnicode:そらまふうらさか
Creator:AirinCat
Version:Normal
Source:
Tags:そらる まふまふ うらたぬき あほの坂田 soraru sora saka ura mafumafu aho no sakata uratanuki Ryuuseee rpg utaite original
BeatmapID:1745848
BeatmapSetID:833454

[Difficulty]
HPDrainRate:3
CircleSize:3
OverallDifficulty:4
ApproachRate:5
SliderMultiplier:1.1
SliderTickRate:1

[Events]
//Background and Video events
Video,-80,"Rpgsongprojectvid (convert-video-online.com).avi"
0,0,"Role.Playing.Game.(Song).full.2310370.jpg",0,0
//Break Periods
2,65544,70070
//Storyboard Layer 0 (Background)
//Storyboard Layer 1 (Fail)
//Storyboard Layer 2 (Pass)
//Storyboard Layer 3 (Foreground)
//Storyboard Sound Samples

[TimingPoints]
3122,370.37037037037,4,2,1,20,1,0
14603,-100,4,2,2,80,0,0
14973,-100,4,2,1,80,0,0
27196,-100,4,2,1,60,0,0
38677,-100,4,2,2,60,0,0
40159,-100,4,2,1,60,0,0
41270,-100,4,2,1,70,0,0
53492,-100,4,2,1,60,0,0
56084,-100,4,2,1,80,0,0
56455,-100,4,2,1,60,0,0
59047,-100,4,2,1,80,0,0
59418,-100,4,2,1,70,0,0
62010,-100,4,2,1,80,0,0
65344,-100,4,2,1,52,0,0
71270,-100,4,2,1,80,0,0
76455,-100,4,2,1,70,0,0
77196,-100,4,2,1,80,0,1
82566,-100,4,2,2,80,0,1
83122,-100,4,2,1,80,0,1
88492,-100,4,2,1,90,0,1
88862,-100,4,2,1,100,0,1
89047,-100,4,2,1,80,0,1
94418,-100,4,2,2,80,0,1
94973,-100,4,2,1,80,0,1
100899,-100,4,2,1,80,0,0
112751,-100,4,2,1,40,0,0

[Colours]
Combo1 : 139,203,75
Combo2 : 77,85,238
Combo3 : 160,166,173
Combo4 : 196,64,64

[HitObjects]
19,61,14603,5,8,0:0:0:0:
101,116,14973,6,0,P|153:127|208:114,1,110,12|8,1:0|0:0,0:0:0:0:
293,65,15714,2,0,P|353:59|417:81,1,110,8|8,0:1|0:0,0:0:0:0:
474,137,16455,2,0,L|454:199,1,55,8|0,0:1|0:0,0:0:0:0:
409,201,16825,2,0,L|417:280,1,55,8|0,0:0|0:0,0:0:0:0:
416,305,17196,1,8,0:1:0:0:
317,308,17566,1,8,0:0:0:0:
227,349,17936,6,0,P|153:358|101:339,1,110,8|8,0:1|0:0,0:0:0:0:
47,281,18677,2,0,L|62:215,1,55,8|0,0:1|0:0,0:0:0:0:
70,179,19047,1,8,0:0:0:0:
106,86,19418,2,0,P|135:76|166:71,1,55,8|0,0:1|0:0,0:0:0:0:
202,95,19788,2,0,P|231:99|268:99,1,55,8|0,0:0|0:0,0:0:0:0:
297,71,20159,1,8,0:1:0:0:
381,19,20529,1,10,0:0:0:0:
467,67,20899,6,0,P|485:118|481:190,1,110,12|8,1:0|0:0,0:0:0:0:
403,234,21640,2,0,P|376:288|375:345,1,110,8|8,0:1|0:0,0:0:0:0:
283,377,22381,2,0,L|205:354,1,55,8|0,0:1|0:0,0:0:0:0:
193,328,22751,2,0,L|124:331,1,55,8|0,0:0|0:0,0:0:0:0:
88,333,23121,1,8,0:1:0:0:
49,241,23492,1,8,0:0:0:0:
14,148,23862,6,0,L|128:121,1,110,8|8,0:1|0:0,0:0:0:0:
175,39,24603,2,0,L|289:51,1,110,8|8,0:1|0:0,0:0:0:0:
376,84,25344,1,8,0:1:0:0:
456,25,25714,1,8,0:0:0:0:
498,114,26084,2,0,B|506:171|506:171|481:229|481:229|487:292,1,165,8|8,0:1|0:1,0:0:0:0:
346,327,27196,38,0,P|285:317|232:332,1,110,8|8,0:0|0:1,0:0:0:0:
145,359,27936,2,0,L|87:325,1,55,8|0,0:0|0:0,0:0:0:0:
53,307,28307,2,0,P|53:233|25:189,1,110,8|8,0:1|0:0,0:0:0:0:
114,140,29047,2,0,P|110:85|135:31,1,110,8|8,0:1|0:0,0:0:0:0:
205,101,29788,38,0,L|317:96,1,110,8|8,0:1|0:0,0:0:0:0:
415,94,30529,1,8,0:1:0:0:
464,179,30899,2,0,B|443:224|443:224|451:310,1,110,8|8,0:0|0:1,0:0:0:0:
426,380,31640,1,8,0:0:0:0:
340,331,32010,2,0,L|269:332,1,55,8|0,0:1|0:0,0:0:0:0:
251,295,32381,2,0,L|188:274,1,55,8|0,0:0|0:0,0:0:0:0:
160,245,32751,22,0,P|174:180|161:130,1,110,12|8,0:1|0:0,0:0:0:0:
214,52,33492,1,8,0:1:0:0:
311,69,33862,2,0,L|375:56,1,55,8|0,0:0|0:0,0:0:0:0:
414,51,34233,2,0,P|401:101|421:167,1,110,8|8,0:1|0:0,0:0:0:0:
466,241,34973,2,0,P|485:290|475:357,1,110,8|8,0:1|0:0,0:0:0:0:
388,305,35714,6,0,L|267:298,1,110,8|8,0:1|0:0,0:0:0:0:
204,235,36455,1,8,0:1:0:0:
116,280,36825,1,8,0:0:0:0:
21,250,37196,1,8,0:1:0:0:
47,154,37566,2,0,P|47:119|37:89,1,55,8|0,0:0|0:0,0:0:0:0:
52,51,37936,2,0,P|77:41|120:35,1,55,8|0,0:1|0:0,0:0:0:0:
158,45,38307,2,0,P|186:54|222:54,1,55,8|0,0:0|0:0,0:0:0:0:
260,62,38677,5,8,0:0:0:0:
351,25,39047,1,8,0:0:0:0:
409,105,39418,1,8,0:0:0:0:
498,62,39788,1,10,0:0:0:0:
497,161,40159,6,0,L|488:289,1,110,8|8,0:1|0:1,0:0:0:0:
419,343,40899,1,8,0:1:0:0:
306,179,41640,38,0,L|195:163,1,110,12|8,0:1|0:0,0:0:0:0:
98,171,42381,1,8,0:1:0:0:
102,269,42751,2,0,L|112:331,1,55,8|0,0:0|0:0,0:0:0:0:
149,353,43121,2,0,P|193:335|263:338,1,110,8|8,0:1|0:0,0:0:0:0:
351,359,43862,2,0,P|418:369|470:347,1,110,8|8,0:1|0:0,0:0:0:0:
401,273,44603,6,0,L|404:149,1,110,8|8,0:1|0:0,0:0:0:0:
410,64,45344,1,8,0:1:0:0:
318,101,45714,2,0,P|259:109|206:88,1,110,8|8,0:0|0:1,0:0:0:0:
138,26,46455,1,8,0:0:0:0:
54,79,46825,2,0,L|65:140,1,55,8|0,0:1|0:0,0:0:0:0:
90,174,47196,2,0,L|86:235,1,55,8|0,0:0|0:0,0:0:0:0:
86,278,47566,22,0,P|149:262|205:269,1,110,12|8,0:1|0:0,0:0:0:0:
261,338,48307,1,8,0:1:0:0:
359,342,48677,2,0,L|437:351,1,55,8|0,0:0|0:0,0:0:0:0:
463,348,49047,2,0,B|445:302|445:302|460:232,1,110,8|8,0:1|0:0,0:0:0:0:
489,148,49788,2,0,B|498:99|498:99|471:33,1,110,8|8,0:1|0:0,0:0:0:0:
397,105,50529,6,0,P|344:111|289:97,1,110,8|8,0:1|0:0,0:0:0:0:
204,45,51270,2,0,P|146:32|92:41,1,110,8|8,0:1|0:0,0:0:0:0:
12,86,52010,2,0,L|-2:143,1,55,8|0,0:1|0:0,0:0:0:0:
39,168,52381,2,0,L|42:235,1,55,8|0,0:0|0:0,0:0:0:0:
45,272,52751,1,8,0:0:0:0:
96,356,53122,1,8,0:0:0:0:
194,341,53492,6,0,B|234:317|234:317|313:321,1,110,12|8,1:0|0:1,0:0:0:0:
303,220,54233,2,0,B|242:217|242:217|195:182,1,110,8|8,0:1|0:1,0:0:0:0:
143,111,54973,2,0,P|107:167|111:216,2,110,8|8|8,0:1|0:1|0:1,0:0:0:0:
203,188,56084,1,10,0:0:0:0:
241,93,56455,38,0,B|301:95|301:95|351:59,1,110,12|8,0:1|0:1,0:0:0:0:
409,138,57196,2,0,B|369:178|369:178|371:238,1,110,8|8,0:1|0:1,0:0:0:0:
439,302,57936,2,0,P|382:329|336:321,2,110,8|8|8,0:1|0:1|0:1,0:0:0:0:
370,231,59047,1,10,0:0:0:0:
275,253,59418,22,0,L|159:233,1,110,12|8,0:1|0:1,0:0:0:0:
171,135,60159,2,0,L|286:156,1,110,8|8,0:1|0:1,0:0:0:0:
377,148,60899,2,0,P|357:91|304:59,2,110,8|8|8,0:1|0:1|0:1,0:0:0:0:
472,174,62010,1,6,0:0:0:0:
456,272,62381,6,0,B|451:314|451:314|462:342|462:342|460:379,1,110,12|8,0:1|0:1,0:0:0:0:
361,365,63122,2,0,B|316:370|316:370|310:362|310:362|236:366,1,110,8|8,0:1|0:1,0:0:0:0:
192,289,63862,2,0,L|135:304,1,55,12|0,0:1|0:0,0:0:0:0:
89,300,64233,2,0,L|26:278,1,55,8|0,0:1|0:0,0:0:0:0:
6,242,64603,2,0,B|2:210|2:210|10:163|10:163|4:124,1,110,8|6,0:1|0:0,0:0:0:0:
75,63,65344,1,12,0:1:0:0:
264,110,71270,6,0,P|195:110|148:80,1,110,8|8,0:0|0:0,0:0:0:0:
79,33,72010,1,8,0:0:0:0:
14,108,72381,1,8,0:0:0:0:
85,176,72751,2,0,L|86:244,1,55,8|0,0:0|0:0,0:0:0:0:
87,280,73122,1,10,0:0:0:0:
180,311,73492,2,0,P|232:288|296:292,1,110,8|8,0:0|0:0,0:0:0:0:
381,309,74233,6,0,L|396:191,1,110,8|8,0:1|0:1,0:0:0:0:
486,237,74973,2,0,L|500:118,1,110,8|8,0:1|0:1,0:0:0:0:
505,28,75714,2,0,B|430:32|399:86|400:132|400:132|325:60|240:112,1,330,8|2,0:1|0:0,0:0:0:0:
168,49,77196,6,0,P|111:37|54:51,1,110,12|8,1:0|0:0,0:0:0:0:
0,112,77936,2,0,L|21:177,1,55,8|0,0:1|0:0,0:0:0:0:
59,189,78307,2,0,L|35:300,1,110,8|8,0:0|0:1,0:0:0:0:
115,354,79047,2,0,L|172:335,1,55,8|0,0:0|0:0,0:0:0:0:
215,323,79418,1,8,0:1:0:0:
301,371,79788,1,8,0:0:0:0:
366,298,80159,6,0,P|421:271|487:268,1,110,8|8,0:1|0:0,0:0:0:0:
466,167,80899,1,8,0:1:0:0:
489,70,81270,1,8,0:0:0:0:
398,32,81640,6,0,L|323:14,1,55,8|0,0:1|0:0,0:0:0:0:
295,28,82010,2,0,L|230:41,1,55,8|0,0:0|0:0,0:0:0:0:
191,41,82381,2,0,P|138:28|75:39,1,110,8|8,0:1|0:0,0:0:0:0:
18,110,83122,6,0,P|40:164|35:228,1,110,12|8,1:0|0:0,0:0:0:0:
104,288,83862,1,8,0:1:0:0:
193,245,84233,1,8,0:0:0:0:
283,284,84603,2,0,L|353:272,1,55,8|0,0:1|0:0,0:0:0:0:
379,249,84973,2,0,L|446:258,1,55,8|0,0:0|0:0,0:0:0:0:
475,229,85344,2,0,B|464:175|464:175|492:122,1,110,8|8,0:1|0:0,0:0:0:0:
461,27,86084,6,0,L|396:37,1,55,8|0,0:1|0:0,0:0:0:0:
367,66,86455,2,0,L|303:58,1,55,8|0,0:0|0:0,0:0:0:0:
264,48,86825,1,8,0:1:0:0:
192,116,87196,2,0,L|125:123,1,55,8|0,0:0|0:0,0:0:0:0:
87,119,87566,6,0,B|46:99|46:99|-8:112|-21:195|52:256,1,220,8|8,0:1|0:1,0:0:0:0:
229,291,89047,6,0,P|289:276|342:293,1,110,12|8,1:0|0:0,0:0:0:0:
433,296,89788,2,0,L|451:230,1,55,8|0,0:1|0:0,0:0:0:0:
484,210,90159,2,0,L|473:90,1,110,8|8,0:0|0:1,0:0:0:0:
402,32,90899,2,0,L|342:42,1,55,8|0,0:0|0:0,0:0:0:0:
301,59,91270,1,8,0:1:0:0:
210,18,91640,1,8,0:0:0:0:
153,99,92010,6,0,P|101:113|41:104,1,110,8|8,0:1|0:0,0:0:0:0:
0,198,92751,1,8,0:1:0:0:
12,296,93122,1,8,0:0:0:0:
98,343,93492,2,0,L|160:329,1,55,8|0,0:1|0:0,0:0:0:0:
196,309,93862,2,0,L|253:315,1,55,8|0,0:0|0:0,0:0:0:0:
286,348,94233,2,0,B|322:345|322:345|369:353|369:353|408:349,1,110,8|8,0:1|0:0,0:0:0:0:
450,271,94973,6,0,P|451:201|466:165,1,110,12|8,1:0|0:0,0:0:0:0:
466,65,95714,1,8,0:1:0:0:
370,91,96084,1,8,0:0:0:0:
288,34,96455,2,0,L|230:47,1,55,8|0,0:1|0:0,0:0:0:0:
186,59,96825,1,8,0:0:0:0:
93,94,97196,2,0,P|79:147|99:213,1,110,8|8,0:1|0:0,0:0:0:0:
156,275,97936,6,0,L|214:263,1,55,8|0,0:1|0:0,0:0:0:0:
256,281,98307,2,0,L|335:300,1,55,8|0,0:0|0:0,0:0:0:0:
347,325,98677,1,8,0:1:0:0:
442,300,99047,1,8,0:0:0:0:
436,200,99418,2,0,B|436:156|436:156|423:123|423:123|424:71,2,110,8|8|8,0:1|0:0|0:1,0:0:0:0:
337,193,100529,1,8,0:0:0:0:
246,143,100899,6,0,P|182:116|136:118,1,110,12|8,1:0|0:0,0:0:0:0:
57,168,101640,2,0,P|42:229|52:276,1,110,8|8,0:1|0:0,0:0:0:0:
119,346,102381,2,0,L|185:338,1,55,8|0,0:1|0:0,0:0:0:0:
220,322,102751,2,0,L|277:329,1,55,8|0,0:0|0:0,0:0:0:0:
322,342,103121,1,8,0:1:0:0:
410,298,103492,1,8,0:0:0:0:
464,215,103862,6,0,P|462:147|442:108,1,110,8|8,0:1|0:0,0:0:0:0:
377,36,104603,2,0,L|318:49,1,55,8|0,0:1|0:0,0:0:0:0:
275,59,104973,1,8,0:0:0:0:
175,59,105344,2,0,L|116:51,1,55,8|0,0:1|0:0,0:0:0:0:
78,71,105714,2,0,L|24:97,1,55,8|0,0:0|0:0,0:0:0:0:
9,139,106084,1,8,0:1:0:0:
26,236,106455,1,10,0:0:0:0:
120,206,106825,6,0,P|177:194|239:203,1,110,12|8,1:0|0:0,0:0:0:0:
317,242,107566,2,0,P|368:259|439:250,1,110,8|8,0:1|0:0,0:0:0:0:
500,192,108307,2,0,L|516:121,1,55,8|0,0:1|0:0,0:0:0:0:
469,113,108677,2,0,L|449:51,1,55,8|0,0:0|0:0,0:0:0:0:
431,15,109047,1,8,0:1:0:0:
336,43,109418,1,8,0:0:0:0:
240,67,109788,6,0,L|131:73,1,110,8|8,0:1|0:0,0:0:0:0:
121,171,110529,2,0,L|-1:180,1,110,8|8,0:1|0:0,0:0:0:0:
4,278,111270,1,8,0:1:0:0:
76,345,111640,1,8,0:0:0:0:
161,295,112010,2,0,B|208:284|208:284|242:303|242:303|293:304|293:304|329:287|329:287|378:294,1,220,8|2,0:1|0:0,0:0:0:0:
264,46,114047,5,8,0:1:0:0:
