osu file format v14

[General]
AudioFilename: audio.mp3
AudioLeadIn: 0
PreviewTime: 77010
Countdown: 0
SampleSet: Soft
StackLeniency: 0.4
Mode: 0
LetterboxInBreaks: 0
WidescreenStoryboard: 0

[Editor]
Bookmarks: 14973,26825,41640,47566,53492,65344,69603,71270,77196,79788,89047,100899,112751
DistanceSpacing: 1
BeatDivisor: 4
GridSize: 32
TimelineZoom: 2.599999

[Metadata]
Title:role-playing game
TitleUnicode:ロールプレイングゲーム
Artist:SoraMafuUraSaka
ArtistUnicode:そらまふうらさか
Creator:AirinCat
Version:Insane
Source:
Tags:そらる まふまふ うらたぬき あほの坂田 soraru sora saka ura mafumafu aho no sakata uratanuki Ryuuseee rpg utaite original
BeatmapID:1747321
BeatmapSetID:833454

[Difficulty]
HPDrainRate:5
CircleSize:3.8
OverallDifficulty:7
ApproachRate:9
SliderMultiplier:1.5
SliderTickRate:1

[Events]
//Background and Video events
Video,-80,"Rpgsongprojectvid (convert-video-online.com).avi"
0,0,"Role.Playing.Game.(Song).full.2310370.jpg",0,0
//Break Periods
//Storyboard Layer 0 (Background)
//Storyboard Layer 1 (Fail)
//Storyboard Layer 2 (Pass)
//Storyboard Layer 3 (Foreground)
//Storyboard Sound Samples

[TimingPoints]
3122,370.37037037037,4,2,1,20,1,0
14603,-166.666666666667,4,2,2,80,0,0
14973,-83.3333333333333,4,2,1,80,0,0
18677,-62.5,4,2,1,80,0,0
19047,-83.3333333333333,4,2,1,80,0,0
26455,-71.4285714285714,4,2,1,80,0,0
26825,-166.666666666667,4,2,1,50,0,0
27196,-90.9090909090909,4,2,1,60,0,0
38677,-100,4,2,2,60,0,0
39788,-153.846153846154,4,2,2,60,0,0
40159,-142.857142857143,4,2,1,60,0,0
40899,-83.3333333333333,4,2,1,60,0,0
41270,-111.111111111111,4,2,1,70,0,0
41640,-90.9090909090909,4,2,1,70,0,0
53492,-100,4,2,1,60,0,0
56084,-83.3333333333333,4,2,1,80,0,0
56455,-100,4,2,1,60,0,0
59047,-76.9230769230769,4,2,1,80,0,0
59418,-90.9090909090909,4,2,1,70,0,0
62010,-142.857142857143,4,2,1,80,0,0
62381,-83.3333333333333,4,2,1,80,0,0
65344,-100,4,2,1,52,0,0
71270,-100,4,2,1,80,0,0
76455,-83.3333333333333,4,2,1,70,0,0
77196,-76.9230769230769,4,2,1,80,0,1
82566,-76.9230769230769,4,2,2,80,0,1
83122,-76.9230769230769,4,2,1,80,0,1
88492,-90.9090909090909,4,2,1,90,0,1
88862,-90.9090909090909,4,2,1,100,0,1
89047,-76.9230769230769,4,2,1,80,0,1
94418,-76.9230769230769,4,2,2,80,0,1
94973,-76.9230769230769,4,2,1,80,0,1
100899,-83.3333333333333,4,2,1,80,0,0
104603,-62.5,4,2,1,80,0,0
104973,-83.3333333333333,4,2,1,80,0,0
112751,-83.3333333333333,4,2,1,40,0,0

[Colours]
Combo1 : 139,203,75
Combo2 : 77,85,238
Combo3 : 160,166,173
Combo4 : 196,64,64

[HitObjects]
199,0,14603,6,0,L|204:78,1,67.4999979400635,8|0,0:0|0:0,0:0:0:0:
203,94,14973,6,0,P|158:98|119:118,1,89.9999972534181,12|0,1:0|0:0,0:0:0:0:
190,196,15344,2,0,P|234:200|273:220,1,89.9999972534181,8|0,0:0|0:0,0:0:0:0:
102,307,15714,2,0,L|78:217,1,89.9999972534181,8|0,0:1|0:0,0:0:0:0:
210,282,16084,1,8,0:0:0:0:
218,311,16177,1,0,0:0:0:0:
225,334,16270,1,0,0:0:0:0:
274,221,16455,6,0,P|314:199|360:198,1,89.9999972534181,8|0,0:1|0:0,0:0:0:0:
396,203,16733,1,0,0:0:0:0:
420,219,16825,2,0,P|463:232|507:227,1,89.9999972534181,8|0,0:0|0:0,0:0:0:0:
482,41,17196,2,0,L|471:140,1,89.9999972534181,8|0,0:1|0:0,0:0:0:0:
345,89,17566,2,0,L|356:-10,1,89.9999972534181,8|0,0:0|0:0,0:0:0:0:
254,138,17936,6,0,P|205:145|160:133,1,89.9999972534181,8|0,0:1|0:0,0:0:0:0:
62,71,18307,2,0,P|95:40|136:25,1,89.9999972534181,8|0,0:0|0:0,0:0:0:0:
82,167,18677,2,0,B|39:167|39:167|9:147,3,60,8|0|0|0,0:1|0:0|0:0|0:0,0:0:0:0:
94,190,19047,2,0,B|76:250|122:251|95:326,1,134.999995880127,8|0,0:0|0:0,0:0:0:0:
87,348,19418,5,8,0:1:0:0:
16,279,19603,1,0,0:0:0:0:
168,368,19788,1,8,0:0:0:0:
170,213,19973,1,0,0:0:0:0:
248,343,20159,2,0,P|307:325|384:320,1,134.999995880127,8|0,0:1|0:0,0:0:0:0:
426,318,20529,1,10,0:0:0:0:
452,293,20622,1,2,0:0:0:0:
459,261,20714,1,2,0:0:0:0:
449,227,20807,1,2,0:0:0:0:
437,203,20899,6,0,P|421:158|423:109,1,89.9999972534181,12|0,1:0|0:0,0:0:0:0:
322,26,21270,2,0,P|298:67|291:116,1,89.9999972534181,8|0,0:0|0:0,0:0:0:0:
412,7,21640,2,0,L|504:14,1,89.9999972534181,8|0,0:1|0:0,0:0:0:0:
444,120,22010,1,8,0:0:0:0:
410,111,22103,1,0,0:0:0:0:
384,104,22196,1,0,0:0:0:0:
491,218,22381,6,0,P|501:259|491:315,1,89.9999972534181,8|0,0:1|0:0,0:0:0:0:
465,345,22659,1,0,0:0:0:0:
439,348,22751,2,0,P|378:344|352:353,1,89.9999972534181,8|0,0:0|0:0,0:0:0:0:
184,218,23122,2,0,L|284:234,1,89.9999972534181,8|0,0:1|0:0,0:0:0:0:
236,343,23492,2,0,L|136:327,1,89.9999972534181,8|0,0:0|0:0,0:0:0:0:
354,273,23862,6,0,P|360:214|342:172,1,89.9999972534181,8|0,0:1|0:0,0:0:0:0:
382,89,24233,2,0,P|418:114|443:152,1,89.9999972534181,8|0,0:0|0:0,0:0:0:0:
283,116,24603,2,0,L|186:100,1,89.9999972534181,8|0,0:1|0:0,0:0:0:0:
143,99,24881,1,0,0:0:0:0:
128,114,24973,2,0,L|98:157,3,44.999998626709,8|0|0|0,0:0|0:0|0:0|0:0,0:0:0:0:
90,180,25344,6,0,P|105:228|109:283,1,89.9999972534181,8|0,0:1|0:0,0:0:0:0:
184,368,25714,1,8,0:0:0:0:
241,252,25899,1,8,0:1:0:0:
259,232,25992,1,8,0:1:0:0:
281,217,26084,1,8,0:1:0:0:
306,206,26177,1,8,0:1:0:0:
337,204,26270,1,8,0:1:0:0:
367,212,26362,1,8,0:1:0:0:
398,230,26455,2,8,B|421:248|421:248|433:284,3,52.4999983978272,8|8|8|8,0:1|0:1|0:1|0:1,0:0:0:0:
455,229,26825,6,0,L|463:156,1,67.4999979400635,2|0,0:0|0:0,0:0:0:0:
451,132,27196,22,0,P|404:129|356:102,1,82.5000025177003,8|0,0:0|0:0,0:0:0:0:
207,230,27566,2,0,P|254:227|301:199,1,82.5000025177003,8|0,0:1|0:0,0:0:0:0:
324,25,27936,1,8,0:0:0:0:
221,143,28122,1,0,0:0:0:0:
372,114,28307,5,8,0:1:0:0:
226,50,28492,1,0,0:0:0:0:
285,211,28677,2,0,L|270:295,1,82.5000025177003,8|0,0:0|0:0,0:0:0:0:
73,284,29047,1,8,0:1:0:0:
192,319,29233,1,0,0:0:0:0:
143,181,29418,2,0,L|57:187,1,82.5000025177003,8|0,0:0|0:0,0:0:0:0:
224,137,29788,6,0,P|233:176|227:217,1,82.5000025177003,8|0,0:1|0:0,0:0:0:0:
199,248,30066,1,0,0:0:0:0:
189,268,30159,2,0,P|177:312|186:353,1,82.5000025177003,8|0,0:0|0:0,0:0:0:0:
220,382,30436,1,0,0:0:0:0:
239,384,30529,2,0,P|287:382|325:370,1,82.5000025177003,8|0,0:1|0:0,0:0:0:0:
427,285,30899,1,8,0:0:0:0:
337,213,31084,2,0,P|318:247|313:292,1,82.5000025177003,0|8,0:0|0:1,0:0:0:0:
427,285,31455,5,0,0:0:0:0:
271,170,31640,1,8,0:0:0:0:
313,290,31825,1,0,0:0:0:0:
413,132,32010,2,0,P|366:110|318:111,1,82.5000025177003,8|0,0:1|0:0,0:0:0:0:
156,149,32381,2,0,P|220:178|280:165,1,123.75000377655,8|0,0:0|0:0,0:0:0:0:
291,169,32751,22,0,P|277:207|278:248,1,82.5000025177003,12|0,0:1|0:0,0:0:0:0:
95,325,33122,2,0,P|94:274|76:236,1,82.5000025177003,8|0,0:0|0:0,0:0:0:0:
52,208,33399,1,0,0:0:0:0:
41,191,33492,2,0,P|26:148|31:109,1,82.5000025177003,8|0,0:1|0:0,0:0:0:0:
138,0,33862,1,8,0:0:0:0:
118,136,34047,1,0,0:0:0:0:
264,0,34233,5,8,0:1:0:0:
173,74,34418,1,0,0:0:0:0:
310,95,34603,2,0,L|400:118,1,82.5000025177003,8|0,0:0|0:0,0:0:0:0:
373,285,34973,1,8,0:1:0:0:
445,195,35159,1,0,0:0:0:0:
299,193,35344,2,0,L|209:170,1,82.5000025177003,8|0,0:0|0:0,0:0:0:0:
180,193,35622,1,0,0:0:0:0:
172,212,35714,6,0,P|168:258|180:298,1,82.5000025177003,8|0,0:1|0:0,0:0:0:0:
222,312,35992,1,0,0:0:0:0:
245,304,36084,2,0,P|287:299|333:314,1,82.5000025177003,8|0,0:0|0:0,0:0:0:0:
377,310,36362,1,0,0:0:0:0:
371,288,36455,2,0,P|377:240|397:205,1,82.5000025177003,8|0,0:1|0:0,0:0:0:0:
424,176,36733,1,0,0:0:0:0:
430,158,36825,2,0,P|436:105|426:66,1,82.5000025177003,8|0,0:0|0:0,0:0:0:0:
411,30,37103,1,0,0:0:0:0:
389,20,37196,6,0,P|345:13|304:18,1,82.5000025177003,8|0,0:1|0:0,0:0:0:0:
265,35,37473,1,0,0:0:0:0:
268,54,37566,2,0,L|282:140,1,82.5000025177003,8|0,0:0|0:0,0:0:0:0:
231,156,37844,1,0,0:0:0:0:
233,175,37937,2,0,L|247:261,1,82.5000025177003,8|0,0:1|0:0,0:0:0:0:
203,285,38214,1,0,0:0:0:0:
206,303,38307,2,0,L|220:389,1,82.5000025177003,8|0,0:0|0:0,0:0:0:0:
68,313,38677,6,0,P|26:325|-6:347,1,75,8|0,0:0|0:0,0:0:0:0:
73,224,39047,2,0,P|114:236|147:258,1,75,8|0,0:0|0:0,0:0:0:0:
68,135,39418,2,0,P|26:147|-6:169,1,75,8|0,0:0|0:0,0:0:0:0:
73,48,39788,2,0,P|114:60|147:82,1,73.1249966526033,10|0,0:0|0:0,0:0:0:0:
170,100,40159,5,8,0:1:0:0:
224,29,40344,1,0,0:0:0:0:
268,124,40529,2,0,L|270:168,1,26.2499991989136,8|0,0:1|0:0,0:0:0:0:
323,49,40714,2,0,L|319:11,1,26.2499991989136
382,141,40899,6,0,L|380:180,6,22.4999993133545,8|0|0|0|0|0|0,0:1|0:0|0:0|0:0|0:0|0:0|0:0,0:0:0:0:
379,195,41270,6,0,B|357:229|357:229|375:301,1,101.249996910095,8|0,0:1|0:0,0:0:0:0:
381,326,41640,38,0,P|331:315|289:327,1,82.5000025177003,12|0,0:1|0:0,0:0:0:0:
253,345,41918,1,0,0:0:0:0:
235,357,42010,2,0,P|190:360|143:345,1,82.5000025177003,8|0,0:0|0:0,0:0:0:0:
51,216,42381,1,8,0:1:0:0:
37,326,42566,1,0,0:0:0:0:
170,234,42751,1,8,0:0:0:0:
154,350,42936,1,0,0:0:0:0:
122,159,43122,5,8,0:1:0:0:
256,247,43307,1,0,0:0:0:0:
122,159,43492,1,8,0:0:0:0:
260,104,43677,1,0,0:0:0:0:
170,234,43862,5,8,0:1:0:0:
175,85,44047,1,0,0:0:0:0:
170,234,44233,1,8,0:0:0:0:
305,178,44418,1,0,0:0:0:0:
112,157,44603,6,0,P|70:157|28:175,1,82.5000025177003,8|0,0:1|0:0,0:0:0:0:
3,210,44881,1,0,0:0:0:0:
11,234,44973,2,0,P|23:278|20:322,1,82.5000025177003,8|0,0:0|0:0,0:0:0:0:
198,267,45344,1,8,0:1:0:0:
96,358,45529,1,0,0:0:0:0:
107,235,45714,5,8,0:0:0:0:
181,369,45899,2,0,P|230:366|268:343,1,82.5000025177003,0|8,0:0|0:1,0:0:0:0:
297,250,46270,1,0,0:0:0:0:
347,371,46455,1,8,0:0:0:0:
401,282,46640,1,0,0:0:0:0:
500,345,46825,2,0,P|515:300|512:264,1,82.5000025177003,8|0,0:1|0:0,0:0:0:0:
452,127,47196,2,0,P|436:171|439:207,1,82.5000025177003,8|0,0:0|0:0,0:0:0:0:
512,44,47566,38,0,P|451:22|381:50,1,123.75000377655,12|0,0:1|0:0,0:0:0:0:
370,62,47936,2,0,P|325:70|279:55,1,82.5000025177003,8|0,0:0|0:0,0:0:0:0:
250,46,48214,1,0,0:0:0:0:
250,69,48307,2,0,L|255:157,1,82.5000025177003,8|0,0:1|0:0,0:0:0:0:
160,270,48677,1,8,0:0:0:0:
108,131,48862,1,0,0:0:0:0:
252,242,49047,5,8,0:1:0:0:
90,215,49233,1,0,0:0:0:0:
252,242,49418,1,8,0:0:0:0:
137,347,49603,1,0,0:0:0:0:
174,187,49788,5,8,0:1:0:0:
221,328,49973,1,0,0:0:0:0:
174,187,50159,1,8,0:0:0:0:
37,291,50344,1,0,0:0:0:0:
23,274,50436,1,0,0:0:0:0:
12,256,50529,6,0,P|0:208|7:174,1,82.5000025177003,8|0,0:1|0:0,0:0:0:0:
22,128,50807,1,0,0:0:0:0:
45,135,50899,2,0,P|90:137|130:117,1,82.5000025177003,8|0,0:0|0:0,0:0:0:0:
164,93,51177,1,0,0:0:0:0:
187,83,51270,2,0,P|229:79|276:93,1,82.5000025177003,8|0,0:1|0:0,0:0:0:0:
313,115,51547,1,0,0:0:0:0:
327,128,51640,2,0,P|371:143|415:133,1,82.5000025177003,8|0,0:0|0:0,0:0:0:0:
459,73,51918,1,0,0:0:0:0:
477,91,52010,6,0,L|528:136,1,41.2500012588501,8|0,0:1|0:0,0:0:0:0:
383,56,52196,2,0,L|400:5,1,41.2500012588501
406,138,52381,2,0,L|378:234,1,82.5000025177003,8|0,0:0|0:0,0:0:0:0:
189,257,52751,1,8,0:0:0:0:
282,169,52936,1,0,0:0:0:0:
336,359,53122,1,8,0:0:0:0:
382,217,53307,1,0,0:0:0:0:
194,348,53492,22,0,L|110:340,1,75,12|0,1:0|0:0,0:0:0:0:
26,277,53862,1,8,0:1:0:0:
100,208,54047,1,0,0:0:0:0:
10,147,54233,1,8,0:1:0:0:
16,117,54325,1,0,0:0:0:0:
22,86,54418,1,0,0:0:0:0:
109,131,54603,2,0,P|149:136|199:124,1,75,8|0,0:1|0:0,0:0:0:0:
226,100,54881,1,0,0:0:0:0:
241,89,54973,6,0,P|281:74|323:77,1,75,8|0,0:1|0:0,0:0:0:0:
366,96,55251,1,0,0:0:0:0:
381,104,55344,2,0,P|438:104|467:92,1,75,8|0,0:1|0:0,0:0:0:0:
507,111,55622,1,0,0:0:0:0:
506,129,55714,2,0,L|499:270,1,112.5,8|0,0:1|0:0,0:0:0:0:
489,281,56084,6,0,B|451:271|429:250|429:250|413:280|360:295,1,134.999995880127,10|0,0:0|0:0,0:0:0:0:
343,303,56455,6,0,P|294:290|244:294,1,75,12|0,0:1|0:0,0:0:0:0:
87,338,56825,2,0,P|124:336|160:324,1,75,8|0,0:1|0:0,0:0:0:0:
173,287,57103,1,0,0:0:0:0:
171,271,57196,2,0,P|171:218|183:186,1,75,8|0,0:1|0:0,0:0:0:0:
201,153,57473,1,0,0:0:0:0:
207,137,57566,2,0,P|216:99|211:57,1,75,8|0,0:1|0:0,0:0:0:0:
29,46,57936,6,0,P|18:81|21:118,1,75,8|0,0:1|0:0,0:0:0:0:
35,162,58214,1,0,0:0:0:0:
43,181,58307,2,0,P|51:231|42:271,1,75,8|0,0:1|0:0,0:0:0:0:
56,306,58584,1,0,0:0:0:0:
74,316,58677,2,0,P|129:332|213:319,1,112.5,8|0,0:1|0:0,0:0:0:0:
216,308,59047,6,0,B|254:296|271:270|271:270|296:302|355:308,1,146.249993305207,10|0,0:0|0:0,0:0:0:0:
376,315,59418,6,0,P|424:315|479:287,1,82.5000025177003,12|0,0:1|0:0,0:0:0:0:
495,267,59696,1,0,0:0:0:0:
485,248,59788,2,0,P|470:202|475:162,1,82.5000025177003,8|0,0:1|0:0,0:0:0:0:
479,115,60066,1,0,0:0:0:0:
478,94,60159,2,0,P|457:48|419:20,1,82.5000025177003,8|0,0:1|0:0,0:0:0:0:
383,10,60436,1,0,0:0:0:0:
362,11,60529,2,0,P|306:12|264:25,1,82.5000025177003,8|0,0:1|0:0,0:0:0:0:
244,35,60807,1,0,0:0:0:0:
250,51,60899,6,0,P|265:95|261:137,1,82.5000025177003,8|0,0:1|0:0,0:0:0:0:
228,165,61177,1,0,0:0:0:0:
226,181,61270,2,0,L|223:279,1,82.5000025177003,8|0,0:1|0:0,0:0:0:0:
149,375,61640,2,0,P|99:339|23:351,1,123.75000377655,8|0,0:1|0:0,0:0:0:0:
15,328,62010,6,0,B|4:283|4:283|17:243,1,78.7499975967408,6|0,0:0|0:0,0:0:0:0:
31,222,62381,6,0,B|44:169|44:169|33:109,1,89.9999972534181,12|0,0:1|0:0,0:0:0:0:
38,81,62659,1,0,0:0:0:0:
56,71,62751,2,0,B|105:48|105:48|157:58,1,89.9999972534181,8|0,0:1|0:0,0:0:0:0:
187,78,63029,1,0,0:0:0:0:
214,96,63121,1,8,0:1:0:0:
249,108,63214,1,0,0:0:0:0:
284,107,63307,1,0,0:0:0:0:
316,87,63399,1,0,0:0:0:0:
342,71,63492,2,0,B|378:56|378:56|445:79,1,89.9999972534181,8|0,0:1|0:0,0:0:0:0:
473,109,63770,1,0,0:0:0:0:
469,132,63862,6,0,B|455:235,1,89.9999972534181,12|0,0:1|0:0,0:0:0:0:
406,245,64140,1,0,0:0:0:0:
402,268,64233,2,0,L|394:318,1,44.999998626709,8|0,0:1|0:0,0:0:0:0:
472,346,64418,2,0,L|480:281,1,44.999998626709
319,294,64603,5,8,0:1:0:0:
271,278,64696,1,2,0:0:0:0:
221,279,64788,1,2,0:0:0:0:
172,287,64881,1,2,0:0:0:0:
124,299,64973,2,0,B|91:307|62:320|62:320|83:287|100:255,1,134.999995880127,6|0,0:0|0:0,0:0:0:0:
112,230,65344,6,0,P|120:176|109:128,1,75,12|0,0:1|0:0,0:0:0:0:
0,109,65714,1,8,0:1:0:0:
19,203,65899,1,0,0:0:0:0:
80,83,66084,2,0,P|134:75|179:90,1,75,8|0,0:1|0:0,0:0:0:0:
187,93,66362,1,0,0:0:0:0:
212,109,66455,1,8,0:1:0:0:
307,45,66640,2,0,P|353:36|394:40,1,75,0|8,0:0|0:1,0:0:0:0:
477,108,67010,5,0,0:0:0:0:
353,133,67196,1,8,0:1:0:0:
463,189,67381,1,0,0:0:0:0:
345,233,67566,2,0,P|329:283|328:320,1,75,8|0,0:1|0:0,0:0:0:0:
329,338,67844,1,0,0:0:0:0:
331,368,67936,1,8,0:1:0:0:
228,340,68122,2,0,P|161:326|135:333,1,75,0|8,0:0|0:1,0:0:0:0:
92,259,68492,6,0,P|84:208|64:162,1,75,0|8,0:0|0:1,0:0:0:0:
61,156,68770,1,0,0:0:0:0:
50,133,68862,1,0,0:0:0:0:
126,63,69047,2,0,P|161:52|212:59,1,75,8|0,0:1|0:0,0:0:0:0:
302,76,69418,1,8,0:1:0:0:
243,163,69603,2,0,L|252:250,1,75,0|8,0:0|0:1,0:0:0:0:
306,336,69973,5,0,0:0:0:0:
360,240,70159,1,8,0:1:0:0:
441,331,70344,1,0,0:0:0:0:
475,227,70529,2,0,P|471:169|450:125,1,75,8|0,0:1|0:0,0:0:0:0:
431,118,70807,1,0,0:0:0:0:
408,120,70899,2,0,P|358:117|323:99,1,75,8|0,0:1|0:0,0:0:0:0:
182,37,71270,6,0,P|219:25|261:25,1,75,8|0,0:0|0:0,0:0:0:0:
136,129,71640,2,0,P|99:117|57:117,1,75,8|0,0:0|0:0,0:0:0:0:
0,262,72010,1,8,0:0:0:0:
84,200,72196,1,0,0:0:0:0:
156,353,72381,1,8,0:0:0:0:
77,288,72566,1,0,0:0:0:0:
216,286,72751,6,0,P|266:278|300:263,1,75,8|2,0:0|0:0,0:0:0:0:
316,231,73029,1,2,0:0:0:0:
311,210,73122,2,0,P|305:163|313:117,1,75,10|0,0:0|0:0,0:0:0:0:
447,124,73492,2,0,B|416:96|416:96|373:137|401:205,1,150,8|8,0:0|0:0,0:0:0:0:
370,307,74047,1,0,0:0:0:0:
346,311,74140,1,0,0:0:0:0:
322,315,74233,5,8,0:1:0:0:
222,242,74418,1,8,0:1:0:0:
168,381,74603,1,8,0:1:0:0:
242,322,74788,1,8,0:1:0:0:
74,237,74973,1,8,0:1:0:0:
98,330,75159,1,8,0:1:0:0:
118,164,75344,1,8,0:1:0:0:
222,242,75529,5,8,0:1:0:0:
263,243,75622,1,8,0:1:0:0:
299,227,75714,1,8,0:1:0:0:
318,195,75807,1,8,0:1:0:0:
323,162,75899,1,8,0:1:0:0:
331,129,75992,1,8,0:1:0:0:
349,96,76084,1,8,0:1:0:0:
381,75,76177,1,8,0:1:0:0:
419,67,76270,1,8,0:1:0:0:
458,81,76362,1,8,0:1:0:0:
478,113,76455,6,0,L|476:156,6,29.9999990844727,8|8|8|8|8|8|2,0:1|0:1|0:1|0:1|0:1|0:1|0:0,0:1:0:0:
476,142,77196,6,0,P|426:140|382:158,1,97.4999955368044,12|0,1:0|0:0,0:0:0:0:
305,328,77566,1,8,0:0:0:0:
255,188,77751,1,0,0:0:0:0:
398,238,77936,5,8,0:1:0:0:
206,314,78122,1,0,0:0:0:0:
398,238,78307,1,8,0:0:0:0:
206,314,78492,2,0,P|147:312|99:279,1,97.4999955368044,0|8,0:0|0:1,0:0:0:0:
23,132,78862,5,0,0:0:0:0:
178,214,79047,1,8,0:0:0:0:
10,272,79233,1,0,0:0:0:0:
115,137,79418,2,0,P|159:117|208:119,1,97.4999955368044,8|0,0:1|0:0,0:0:0:0:
415,66,79788,2,0,P|365:69|319:97,1,97.4999955368044,8|0,0:0|0:0,0:0:0:0:
293,144,80066,1,0,0:0:0:0:
304,160,80159,6,0,P|328:205|330:257,1,97.4999955368044,8|0,0:1|0:0,0:0:0:0:
424,361,80529,2,0,P|423:311|442:267,1,97.4999955368044,8|0,0:0|0:0,0:0:0:0:
476,233,80807,1,0,0:0:0:0:
480,216,80899,2,0,P|482:162|459:110,1,97.4999955368044,8|0,0:1|0:0,0:0:0:0:
322,43,81270,1,8,0:0:0:0:
392,178,81455,1,0,0:0:0:0:
414,13,81640,5,8,0:1:0:0:
316,145,81825,1,0,0:0:0:0:
206,14,82010,1,8,0:0:0:0:
246,220,82196,1,0,0:0:0:0:
322,43,82381,1,8,0:1:0:0:
115,107,82566,1,8,0:0:0:0:
115,107,82751,2,0,P|172:109|217:138,1,97.4999955368044,8|0,0:0|0:0,0:0:0:0:
107,9,83122,6,0,P|53:25|17:62,1,97.4999955368044,12|0,1:0|0:0,0:0:0:0:
0,96,83399,1,0,0:0:0:0:
11,118,83492,2,0,P|28:174|22:224,1,97.4999955368044,8|0,0:0|0:0,0:0:0:0:
19,270,83770,1,0,0:0:0:0:
31,290,83862,2,0,P|79:316|135:317,1,97.4999955368044,8|0,0:1|0:0,0:0:0:0:
251,202,84233,1,8,0:0:0:0:
102,231,84418,1,0,0:0:0:0:
337,296,84603,5,8,0:1:0:0:
183,152,84788,1,0,0:0:0:0:
226,351,84973,1,8,0:0:0:0:
336,185,85159,1,0,0:0:0:0:
154,240,85344,2,0,P|100:196|96:118,1,146.249993305207,8|0,0:1|0:0,0:0:0:0:
141,57,85714,2,0,B|188:44|188:44|234:59,1,97.4999955368044,8|0,0:0|0:0,0:0:0:0:
397,245,86084,6,0,B|354:268|354:268|305:268,1,97.4999955368044,8|0,0:1|0:0,0:0:0:0:
435,56,86455,1,8,0:0:0:0:
481,225,86640,1,0,0:0:0:0:
293,130,86825,1,8,0:1:0:0:
428,141,87010,1,0,0:0:0:0:
228,187,87196,5,8,0:0:0:0:
348,65,87381,1,0,0:0:0:0:
397,245,87566,2,0,P|322:320|247:285,1,194.999991073609,8|8,0:1|0:0,0:0:0:0:
161,345,88121,6,0,L|120:352,3,32.4999985122681,8|8|8|8,0:1|0:1|0:1|0:1,0:1:0:0:
86,345,88399,1,8,0:1:0:0:
59,314,88492,1,8,0:1:0:0:
58,279,88584,1,8,0:1:0:0:
75,247,88677,2,0,L|77:196,3,41.2500012588501,8|8|8|8,0:1|0:1|0:1|0:1,0:1:0:0:
86,181,89047,6,0,P|139:186|193:164,1,97.4999955368044,12|0,1:0|0:0,0:0:0:0:
364,98,89418,2,0,P|314:99|271:121,1,97.4999955368044,8|0,0:0|0:0,0:0:0:0:
261,165,89696,1,0,0:0:0:0:
272,188,89788,2,0,P|296:226|301:285,1,97.4999955368044,8|0,0:1|0:0,0:0:0:0:
192,378,90159,1,8,0:0:0:0:
94,230,90344,2,0,P|49:212|0:214,1,97.4999955368044,0|8,0:0|0:1,0:0:0:0:
106,359,90714,5,0,0:0:0:0:
176,190,90899,1,8,0:0:0:0:
35,298,91084,1,0,0:0:0:0:
140,107,91270,2,0,P|188:101|244:123,1,97.4999955368044,8|0,0:1|0:0,0:0:0:0:
385,14,91640,2,0,P|337:8|280:30,1,97.4999955368044,8|0,0:0|0:0,0:0:0:0:
463,167,92010,6,0,P|473:105|460:56,1,97.4999955368044,8|0,0:1|0:0,0:0:0:0:
299,167,92381,2,0,P|289:229|302:278,1,97.4999955368044,8|0,0:0|0:0,0:0:0:0:
450,346,92751,1,8,0:1:0:0:
390,218,92936,1,0,0:0:0:0:
285,372,93122,1,8,0:0:0:0:
205,230,93307,1,0,0:0:0:0:
365,338,93492,5,8,0:1:0:0:
299,167,93677,1,0,0:0:0:0:
228,317,93862,2,0,P|167:311|130:279,1,97.4999955368044,8|0,0:0|0:0,0:0:0:0:
120,136,94233,1,8,0:1:0:0:
205,230,94418,1,8,0:0:0:0:
205,230,94603,2,0,P|264:219|302:185,1,97.4999955368044,8|0,0:0|0:0,0:0:0:0:
457,70,94973,6,0,P|400:90|369:131,1,97.4999955368044,12|0,1:0|0:0,0:0:0:0:
383,154,95251,1,0,0:0:0:0:
403,172,95344,2,0,P|434:211|442:271,1,97.4999955368044,8|0,0:0|0:0,0:0:0:0:
431,300,95621,1,0,0:0:0:0:
408,300,95714,2,0,P|360:291|313:301,1,97.4999955368044,8|0,0:1|0:0,0:0:0:0:
198,186,96084,1,8,0:0:0:0:
330,215,96270,1,0,0:0:0:0:
110,258,96455,5,8,0:1:0:0:
276,149,96640,1,0,0:0:0:0:
110,258,96825,1,8,0:0:0:0:
330,215,97010,1,0,0:0:0:0:
117,173,97196,2,0,P|68:183|25:269,1,146.249993305207,8|0,0:1|0:0,0:0:0:0:
29,300,97566,2,0,P|63:334|75:385,1,97.4999955368044,8|0,0:0|0:0,0:0:0:0:
333,219,97936,5,8,0:1:0:0:
229,347,98122,1,0,0:0:0:0:
141,175,98307,1,8,0:0:0:0:
233,258,98492,1,0,0:0:0:0:
213,85,98677,1,8,0:1:0:0:
233,258,98862,1,0,0:0:0:0:
348,126,99047,2,0,P|402:112|450:126,1,97.4999955368044,8|0,0:0|0:0,0:0:0:0:
394,369,99418,6,0,B|364:322|364:322|398:222,1,146.249993305207,8|0,0:1|0:0,0:0:0:0:
397,212,99788,6,0,P|348:241|252:211,1,146.249993305207,8|0,0:0|0:0,0:0:0:0:
257,203,100159,6,0,P|234:148|173:223,1,194.999991073609,8|8,0:1|0:0,0:0:0:0:
47,349,100714,5,0,0:0:0:0:
33,331,100807,1,0,0:0:0:0:
21,314,100899,2,0,P|4:263|9:208,1,89.9999972534181,12|0,1:0|0:0,0:0:0:0:
113,161,101270,2,0,P|96:212|101:267,1,89.9999972534181,8|0,0:0|0:0,0:0:0:0:
278,333,101640,2,0,L|382:301,1,89.9999972534181,8|0,0:1|0:0,0:0:0:0:
286,206,102010,1,8,0:0:0:0:
255,220,102103,1,0,0:0:0:0:
228,231,102196,1,0,0:0:0:0:
387,215,102381,6,0,P|376:157|344:120,1,89.9999972534181,8|0,0:1|0:0,0:0:0:0:
324,112,102659,1,0,0:0:0:0:
289,110,102751,2,0,P|227:102|189:75,1,89.9999972534181,8|0,0:0|0:0,0:0:0:0:
41,193,103122,2,0,L|147:168,1,89.9999972534181,8|0,0:1|0:0,0:0:0:0:
100,52,103492,2,0,L|-6:77,1,89.9999972534181,8|0,0:0|0:0,0:0:0:0:
204,88,103862,6,0,P|236:127|247:179,1,89.9999972534181,8|0,0:1|0:0,0:0:0:0:
295,252,104233,2,0,P|327:213|338:161,1,89.9999972534181,8|0,0:0|0:0,0:0:0:0:
191,308,104603,2,0,B|185:346|185:346|191:369,3,60,8|0|0|0,0:1|0:0|0:0|0:0,0:0:0:0:
174,285,104973,2,0,B|110:261|99:312|30:282,1,134.999995880127,8|0,0:0|0:0,0:0:0:0:
12,275,105344,5,8,0:1:0:0:
69,197,105529,1,0,0:0:0:0:
141,357,105714,1,8,0:0:0:0:
189,173,105899,1,0,0:0:0:0:
288,305,106084,2,0,B|343:310|343:310|376:290|376:290|449:295,1,134.999995880127,8|0,0:1|0:0,0:0:0:0:
463,289,106455,1,10,0:0:0:0:
490,268,106547,1,2,0:0:0:0:
494,232,106640,1,2,0:0:0:0:
478,199,106733,1,2,0:0:0:0:
463,167,106825,6,0,P|451:114|464:64,1,89.9999972534181,12|0,1:0|0:0,0:0:0:0:
379,5,107196,2,0,P|349:50|344:102,1,89.9999972534181,8|0,0:0|0:0,0:0:0:0:
169,42,107566,2,0,L|60:72,1,89.9999972534181,8|0,0:1|0:0,0:0:0:0:
148,175,107936,1,8,0:0:0:0:
177,165,108029,1,0,0:0:0:0:
203,154,108122,1,0,0:0:0:0:
60,159,108307,6,0,P|64:212|90:253,1,89.9999972534181,8|0,0:1|0:0,0:0:0:0:
122,272,108584,1,0,0:0:0:0:
152,268,108677,2,0,P|203:254|253:262,1,89.9999972534181,8|0,0:0|0:0,0:0:0:0:
368,350,109047,2,0,L|373:252,1,89.9999972534181,8|0,0:1|0:0,0:0:0:0:
485,271,109418,2,0,L|480:369,1,89.9999972534181,8|0,0:0|0:0,0:0:0:0:
422,178,109788,6,0,P|363:166|319:180,1,89.9999972534181,8|0,0:1|0:0,0:0:0:0:
252,109,110159,2,0,P|286:81|330:70,1,89.9999972534181,8|0,0:0|0:0,0:0:0:0:
236,206,110529,2,0,L|123:192,1,89.9999972534181,8|0,0:1|0:0,0:0:0:0:
117,167,110807,1,0,0:0:0:0:
105,141,110899,2,0,L|97:94,3,44.999998626709,8|0|0|0,0:0|0:0|0:0|0:0,0:0:0:0:
96,59,111270,6,0,L|188:38,1,89.9999972534181,8|0,0:1|0:0,0:0:0:0:
379,46,111640,1,8,0:0:0:0:
279,81,111825,1,8,0:1:0:0:
245,95,111918,1,8,0:1:0:0:
226,125,112010,1,8,0:1:0:0:
230,160,112103,1,8,0:1:0:0:
246,192,112196,1,8,0:1:0:0:
277,208,112288,1,8,0:1:0:0:
312,213,112381,2,0,L|370:210,3,44.999998626709,8|8|8|8,0:1|0:1|0:1|0:1,0:0:0:0:
390,219,112751,6,0,P|368:255|367:313,1,89.9999972534181,2|2,0:0|0:0,0:0:0:0:
270,341,113122,2,0,L|234:315,3,44.999998626709,2|2|2|2,0:0|0:0|0:0|0:0,0:0:0:0:
208,297,113492,1,2,0:0:0:0:
106,249,113677,1,2,0:0:0:0:
195,189,113862,1,2,0:0:0:0:
123,349,114047,5,8,0:1:0:0:
