osu file format v14

[General]
AudioFilename: audio.mp3
AudioLeadIn: 0
PreviewTime: 77010
Countdown: 0
SampleSet: Soft
StackLeniency: 0.4
Mode: 0
LetterboxInBreaks: 0
WidescreenStoryboard: 0

[Editor]
Bookmarks: 14973,26825,41640,47566,53492,65344,69603,71270,77196,89047,100899,112751
DistanceSpacing: 1.3
BeatDivisor: 4
GridSize: 32
TimelineZoom: 2.999999

[Metadata]
Title:role-playing game
TitleUnicode:ロールプレイングゲーム
Artist:SoraMafuUraSaka
ArtistUnicode:そらまふうらさか
Creator:AirinCat
Version:Hard
Source:
Tags:そらる まふまふ うらたぬき あほの坂田 soraru sora saka ura mafumafu aho no sakata uratanuki Ryuuseee rpg utaite original
BeatmapID:1745847
BeatmapSetID:833454

[Difficulty]
HPDrainRate:4
CircleSize:3.4
OverallDifficulty:6
ApproachRate:7.6
SliderMultiplier:1.4
SliderTickRate:1

[Events]
//Background and Video events
Video,-80,"Rpgsongprojectvid (convert-video-online.com).avi"
0,0,"Role.Playing.Game.(Song).full.2310370.jpg",0,0
//Break Periods
//Storyboard Layer 0 (Background)
//Storyboard Layer 1 (Fail)
//Storyboard Layer 2 (Pass)
//Storyboard Layer 3 (Foreground)
//Storyboard Sound Samples

[TimingPoints]
3122,370.37037037037,4,2,1,20,1,0
14603,-100,4,2,2,80,0,0
14973,-100,4,2,1,80,0,0
26825,-166.666666666667,4,2,1,50,0,0
27196,-100,4,2,1,60,0,0
38677,-100,4,2,2,60,0,0
40159,-100,4,2,1,60,0,0
41270,-100,4,2,1,70,0,0
53492,-100,4,2,1,60,0,0
56084,-100,4,2,1,80,0,0
56455,-100,4,2,1,60,0,0
59047,-100,4,2,1,80,0,0
59418,-100,4,2,1,70,0,0
62010,-100,4,2,1,80,0,0
65344,-100,4,2,1,52,0,0
71270,-100,4,2,1,80,0,0
76455,-100,4,2,1,70,0,0
77196,-90.9090909090909,4,2,1,80,0,1
77473,-90.9090909090909,4,2,1,5,0,1
77566,-90.9090909090909,4,2,1,80,0,1
82566,-90.9090909090909,4,2,2,80,0,1
83122,-90.9090909090909,4,2,1,80,0,1
88492,-90.9090909090909,4,2,1,90,0,1
88862,-90.9090909090909,4,2,1,100,0,1
89047,-90.9090909090909,4,2,1,80,0,1
94418,-90.9090909090909,4,2,2,80,0,1
94973,-90.9090909090909,4,2,1,80,0,1
100899,-100,4,2,1,80,0,0
112751,-100,4,2,1,40,0,0

[Colours]
Combo1 : 139,203,75
Combo2 : 77,85,238
Combo3 : 160,166,173
Combo4 : 196,64,64

[HitObjects]
23,98,14603,5,8,0:0:0:0:
23,98,14973,6,0,P|59:87|111:90,1,70,12|0,1:0|0:0,0:0:0:0:
173,126,15344,2,0,P|216:123|245:113,1,70,8|0,0:0|0:0,0:0:0:0:
306,45,15714,2,0,P|338:32|413:47,1,105,8|0,0:1|0:0,0:0:0:0:
443,69,16084,2,0,L|455:152,1,70,8|0,0:0|0:0,0:0:0:0:
463,229,16455,6,0,P|417:223|386:232,1,70,8|0,0:1|0:0,0:0:0:0:
310,265,16825,1,8,0:0:0:0:
329,353,17010,1,0,0:0:0:0:
237,350,17196,2,0,L|158:334,1,70,8|0,0:1|0:0,0:0:0:0:
126,255,17566,2,0,L|57:241,1,70,8|0,0:0|0:0,0:0:0:0:
9,155,17936,6,0,P|55:129|82:98,1,70,8|0,0:1|0:0,0:0:0:0:
135,56,18307,2,0,P|188:54|226:68,1,70,8|0,0:0|0:0,0:0:0:0:
292,41,18677,2,0,L|294:7,3,35,8|0|0|0,0:1|0:0|0:0|0:0,0:0:0:0:
326,54,19047,2,0,P|373:56|403:46,1,70,8|0,0:0|0:0,0:0:0:0:
483,72,19418,6,0,L|476:147,1,70,8|0,0:1|0:0,0:0:0:0:
414,208,19788,2,0,L|422:299,1,70,8|0,0:0|0:0,0:0:0:0:
349,335,20159,2,0,P|308:323|233:335,1,105,8|0,0:1|0:0,0:0:0:0:
203,345,20529,2,0,P|154:348|126:338,1,70,10|2,0:0|0:0,0:0:0:0:
71,273,20899,6,0,P|67:219|57:193,1,70,12|0,1:0|0:0,0:0:0:0:
20,122,21270,2,0,P|26:78|40:52,1,70,8|0,0:0|0:0,0:0:0:0:
124,30,21640,2,0,P|175:43|231:33,1,105,8|0,0:1|0:0,0:0:0:0:
268,31,22010,2,0,L|346:44,1,70,8|0,0:0|0:0,0:0:0:0:
421,76,22381,6,0,P|398:114|389:150,1,70,8|0,0:1|0:0,0:0:0:0:
383,228,22751,1,8,0:0:0:0:
440,298,22936,1,0,0:0:0:0:
355,332,23122,2,0,L|277:320,1,70,8|0,0:1|0:0,0:0:0:0:
225,253,23492,2,0,L|144:237,1,70,8|0,0:0|0:0,0:0:0:0:
114,158,23862,6,0,P|96:118|73:86,1,70,8|0,0:1|0:0,0:0:0:0:
179,83,24233,2,0,P|204:48|220:12,1,70,8|0,0:0|0:0,0:0:0:0:
274,94,24603,2,0,P|331:100|384:95,1,105,8|0,0:1|0:0,0:0:0:0:
423,104,24973,6,0,P|410:153|409:177,1,70,8|0,0:0|0:0,0:0:0:0:
396,265,25344,2,0,P|342:256|283:276,1,105,8|0,0:1|0:0,0:0:0:0:
249,279,25714,2,0,P|214:271|180:272,1,70,8|8,0:0|0:1,0:0:0:0:
94,216,26084,2,0,L|83:175,3,35,8|8|8|8,0:1|0:1|0:1|0:1,0:0:0:0:
97,151,26455,2,0,L|112:106,3,35,8|8|8|8,0:1|0:1|0:1|0:1,0:0:0:0:
107,72,26825,6,0,P|133:42|161:32,1,62.9999980773926,2|0,0:0|0:0,0:0:0:0:
191,40,27196,22,0,P|244:61|302:49,1,105,8|0,0:0|0:0,0:0:0:0:
334,41,27566,2,0,P|371:30|407:28,1,70,8|0,0:1|0:0,0:0:0:0:
489,53,27936,1,8,0:0:0:0:
428,121,28122,1,0,0:0:0:0:
506,166,28307,6,0,L|502:256,1,70,8|0,0:1|0:0,0:0:0:0:
412,245,28677,2,0,L|409:322,1,70,8|0,0:0|0:0,0:0:0:0:
327,362,29047,2,0,L|252:350,1,70,8|0,0:1|0:0,0:0:0:0:
236,262,29418,2,0,L|144:250,1,70,8|0,0:0|0:0,0:0:0:0:
71,212,29788,6,0,P|59:151|74:105,1,105,8|0,0:1|0:0,0:0:0:0:
96,72,30159,2,0,P|149:71|198:37,1,105,8|0,0:0|0:0,0:0:0:0:
222,9,30529,2,0,L|302:12,1,70,8|0,0:1|0:0,0:0:0:0:
332,92,30899,1,8,0:0:0:0:
398,30,31084,2,0,P|432:33|473:47,1,70,0|8,0:0|0:1,0:0:0:0:
511,125,31455,5,0,0:0:0:0:
439,181,31640,2,0,L|451:263,1,70,8|0,0:0|0:0,0:0:0:0:
385,328,32010,2,0,B|313:294|315:351|232:314,1,140,8|8,0:1|0:0,0:0:0:0:
249,321,32751,22,0,P|257:249|234:194,1,105,12|0,0:1|0:0,0:0:0:0:
220,181,33122,2,0,P|206:133|218:70,1,105,8|0,0:0|0:0,0:0:0:0:
215,31,33492,2,0,L|146:14,1,70,8|0,0:1|0:0,0:0:0:0:
57,44,33862,1,8,0:0:0:0:
100,123,34047,1,0,0:0:0:0:
17,162,34233,6,0,L|13:247,1,70,8|0,0:1|0:0,0:0:0:0:
104,236,34603,2,0,L|100:321,1,70,8|0,0:0|0:0,0:0:0:0:
188,366,34973,2,0,L|268:384,1,70,8|0,0:1|0:0,0:0:0:0:
283,294,35344,2,0,L|363:312,1,70,8|0,0:0|0:0,0:0:0:0:
466,307,35714,6,0,P|448:248|395:206,1,105,8|0,0:1|0:0,0:0:0:0:
374,206,36084,2,0,P|316:201|256:159,1,105,8|0,0:0|0:0,0:0:0:0:
235,155,36455,2,0,P|187:147|121:169,1,105,8|0,0:1|0:0,0:0:0:0:
115,203,36825,2,0,P|97:262|38:299,1,105,8|0,0:0|0:0,0:0:0:0:
45,331,37196,6,0,L|158:335,1,105,8|0,0:1|0:0,0:0:0:0:
193,348,37566,2,0,L|285:318,1,70,8|0,0:0|0:0,0:0:0:0:
208,242,37936,2,0,L|300:212,1,70,8|0,0:1|0:0,0:0:0:0:
227,141,38307,2,0,L|319:111,1,70,8|0,0:0|0:0,0:0:0:0:
255,25,38677,5,8,0:0:0:0:
225,38,39047,1,8,0:0:0:0:
197,49,39418,1,8,0:0:0:0:
168,63,39788,2,0,L|76:93,1,70,10|0,0:0|0:0,0:0:0:0:
45,173,40159,6,0,P|68:218|73:256,1,70,8|0,0:1|0:0,0:0:0:0:
41,322,40529,1,8,0:1:0:0:
130,306,40714,1,0,0:0:0:0:
198,365,40899,2,0,P|251:343|311:349,1,105,8|0,0:1|0:0,0:0:0:0:
343,352,41270,2,0,B|382:358|382:358|416:347|416:347|457:350,1,105,8|0,0:1|0:0,0:0:0:0:
484,321,41640,6,0,P|494:262|474:213,1,105,12|0,0:1|0:0,0:0:0:0:
456,181,42010,2,0,L|381:190,1,70,8|0,0:0|0:0,0:0:0:0:
326,120,42381,2,0,P|284:114|247:103,1,70,8|0,0:1|0:0,0:0:0:0:
203,33,42751,1,8,0:0:0:0:
112,28,42936,1,0,0:0:0:0:
63,105,43122,6,0,L|52:196,1,70,8|0,0:1|0:0,0:0:0:0:
143,191,43492,2,0,L|132:265,1,70,8|0,0:0|0:0,0:0:0:0:
209,333,43862,2,0,L|287:319,1,70,8|0,0:1|0:0,0:0:0:0:
261,230,44233,2,0,L|339:216,1,70,8|0,0:0|0:0,0:0:0:0:
406,291,44603,6,0,P|435:235|423:178,1,105,8|0,0:1|0:0,0:0:0:0:
412,152,44973,2,0,L|417:68,1,70,8|0,0:0|0:0,0:0:0:0:
335,38,45344,2,0,P|296:37|253:26,1,70,8|0,0:1|0:0,0:0:0:0:
194,86,45714,1,8,0:0:0:0:
114,41,45899,2,0,P|75:48|41:63,1,70,0|8,0:0|0:1,0:0:0:0:
0,138,46270,1,0,0:0:0:0:
80,179,46455,22,0,L|79:257,1,70,8|0,0:0|0:0,0:0:0:0:
155,298,46825,2,0,P|193:280|238:281,1,70,8|0,0:1|0:0,0:0:0:0:
281,346,47196,2,0,P|243:364|198:363,1,70,8|0,0:0|0:0,0:0:0:0:
220,278,47566,38,0,P|226:217|203:160,1,105,12|0,0:1|0:0,0:0:0:0:
198,130,47936,2,0,P|260:127|299:102,1,105,8|0,0:0|0:0,0:0:0:0:
333,78,48307,2,0,L|419:83,1,70,8|0,0:1|0:0,0:0:0:0:
493,93,48677,1,8,0:0:0:0:
442,168,48862,1,0,0:0:0:0:
494,242,49047,6,0,L|485:331,1,70,8|0,0:1|0:0,0:0:0:0:
415,358,49418,1,8,0:0:0:0:
415,358,49603,1,0,0:0:0:0:
368,268,49788,6,0,L|279:277,1,70,8|0,0:1|0:0,0:0:0:0:
250,347,50159,1,8,0:0:0:0:
250,347,50344,1,0,0:0:0:0:
165,313,50529,6,0,P|120:308|61:332,1,105,8|0,0:1|0:0,0:0:0:0:
22,344,50899,2,0,L|11:230,1,105,8|0,0:0|0:0,0:0:0:0:
15,193,51270,2,0,P|67:200|120:175,1,105,8|0,0:1|0:0,0:0:0:0:
145,146,51640,2,0,L|142:17,1,105,8|0,0:0|0:0,0:0:0:0:
181,16,52010,6,0,P|233:28|289:18,1,105,8|0,0:1|0:0,0:0:0:0:
329,15,52381,2,0,L|339:95,1,70,8|0,0:0|0:0,0:0:0:0:
299,166,52751,2,0,B|262:187|262:187|228:188,1,70,8|0,0:0|0:0,0:0:0:0:
172,124,53122,2,0,B|209:103|209:103|243:102,1,70,8|0,0:0|0:0,0:0:0:0:
235,188,53492,22,0,B|217:251|217:251|232:330,1,140,12|8,1:0|0:1,0:0:0:0:
317,357,54047,1,0,0:0:0:0:
398,315,54233,2,0,B|382:241|382:241|402:167,1,140,8|8,0:1|0:1,0:0:0:0:
454,107,54788,1,0,0:0:0:0:
397,35,54973,5,8,0:1:0:0:
377,49,55344,1,8,0:1:0:0:
359,63,55714,1,8,0:1:0:0:
344,77,56084,2,0,L|277:125,1,70,10|0,0:0|0:0,0:0:0:0:
208,71,56455,6,0,B|155:53|155:53|70:84,1,140,12|8,0:1|0:1,0:0:0:0:
18,151,57010,1,0,0:0:0:0:
85,213,57196,2,0,B|163:184|163:184|216:202,1,140,8|8,0:1|0:1,0:0:0:0:
301,235,57751,1,0,0:0:0:0:
317,324,57936,5,8,0:1:0:0:
340,314,58307,1,8,0:1:0:0:
362,305,58677,1,8,0:1:0:0:
386,295,59047,2,0,L|461:267,1,70,10|0,0:0|0:0,0:0:0:0:
490,187,59418,6,0,B|458:117|513:119|479:33,1,140,12|8,0:1|0:1,0:0:0:0:
407,2,59973,1,0,0:0:0:0:
334,57,60159,2,0,B|362:126|307:123|338:193,1,140,8|8,0:1|0:1,0:0:0:0:
397,261,60714,1,0,0:0:0:0:
309,284,60899,5,8,0:1:0:0:
288,304,61270,1,8,0:1:0:0:
266,324,61640,1,8,0:1:0:0:
239,344,62010,2,0,B|210:321|210:321|211:364,1,70,6|0,0:0|0:0,0:0:0:0:
111,368,62381,6,0,B|110:318|110:318|89:273|89:273|90:221,1,140,12|8,0:1|0:1,0:0:0:0:
125,149,62936,1,0,0:0:0:0:
189,218,63122,2,0,B|188:258|188:258|209:303|209:303|210:353,1,140,8|8,0:1|0:1,0:0:0:0:
300,364,63677,1,0,0:0:0:0:
360,295,63862,6,0,L|340:226,1,70,12|0,0:1|0:0,0:0:0:0:
288,156,64233,2,0,L|301:84,1,70,8|0,0:1|0:0,0:0:0:0:
241,18,64603,2,0,L|179:17,3,35,8|2|2|2,0:1|0:0|0:0|0:0,0:0:0:0:
178,53,64973,6,0,P|121:67|74:53,1,105,6|0,0:0|0:0,0:0:0:0:
31,53,65344,6,0,L|59:198,1,140,12|8,0:1|0:1,0:0:0:0:
34,278,65899,1,0,0:0:0:0:
108,329,66084,2,0,P|169:307|236:304,1,105,8|0,0:1|0:0,0:0:0:0:
254,310,66455,1,8,0:1:0:0:
330,351,66640,2,0,L|416:334,1,70,0|8,0:0|0:1,0:0:0:0:
478,286,67010,1,0,0:0:0:0:
432,202,67196,6,0,P|426:137|435:111,1,70,8|0,0:1|0:0,0:0:0:0:
394,48,67566,2,0,P|325:34|271:40,1,105,8|0,0:1|0:0,0:0:0:0:
246,46,67936,1,8,0:1:0:0:
174,96,68122,2,0,L|101:91,1,70,0|8,0:0|0:1,0:0:0:0:
13,109,68492,1,0,0:0:0:0:
59,192,68677,6,0,P|72:236|68:278,1,70,8|0,0:1|0:0,0:0:0:0:
151,320,69047,2,0,P|219:302|276:307,1,105,8|0,0:1|0:0,0:0:0:0:
298,310,69418,1,8,0:1:0:0:
346,245,69603,2,0,L|442:236,1,70,0|8,0:0|0:1,0:0:0:0:
479,154,69973,1,0,0:0:0:0:
418,77,70159,6,0,P|379:69|332:47,1,70,8|0,0:1|0:0,0:0:0:0:
264,39,70529,2,0,P|210:54|141:44,1,105,8|0,0:1|0:0,0:0:0:0:
116,45,70899,2,0,L|118:128,1,70,8|0,0:1|0:0,0:0:0:0:
42,168,71270,6,0,L|54:254,1,70,8|0,0:0|0:0,0:0:0:0:
71,326,71640,2,0,P|128:329|186:304,1,105,8|0,0:0|0:0,0:0:0:0:
215,296,72010,2,0,P|252:303|299:331,1,70,8|0,0:0|0:0,0:0:0:0:
332,241,72381,2,0,P|363:266|386:313,1,70,8|0,0:0|0:0,0:0:0:0:
469,297,72751,5,8,0:0:0:0:
483,212,72936,2,0,L|531:183,2,35,2|2|10,0:0|0:0|0:0,0:0:0:0:
395,184,73307,1,0,0:0:0:0:
334,115,73492,2,0,P|271:139|199:163,1,140,8|8,0:0|0:0,0:0:0:0:
202,162,74233,6,0,P|164:143|128:136,1,70,8|8,0:1|0:1,0:0:0:0:
61,71,74603,2,0,P|97:48|132:38,1,70,8|8,0:1|0:1,0:0:0:0:
218,51,74973,2,0,P|251:43|292:18,1,70,8|8,0:1|0:1,0:0:0:0:
332,114,75344,2,0,P|364:122|395:142,1,70,8|8,0:1|0:1,0:0:0:0:
461,215,75714,5,8,0:1:0:0:
438,231,75807,1,8,0:1:0:0:
422,253,75899,1,8,0:1:0:0:
413,278,75992,2,8,L|407:329,4,35,8|8|8|8|8,0:1|0:1|0:1|0:1|0:1,0:0:0:0:
365,327,76455,6,0,L|358:364,6,23.3333333333333,8|8|8|8|8|8|2,0:1|0:1|0:1|0:1|0:1|0:1|0:0,0:0:0:0:
360,349,77196,6,0,P|290:320|224:332,1,115.50000352478,12|0,1:0|0:0,0:0:0:0:
206,339,77566,2,0,P|149:340|123:331,1,77.0000023498536,8|0,0:0|0:0,0:0:0:0:
33,278,77936,1,8,0:1:0:0:
113,205,78122,1,0,0:0:0:0:
20,156,78307,1,8,0:0:0:0:
105,98,78492,2,0,P|154:82|195:84,1,77.0000023498536,0|8,0:0|0:1,0:0:0:0:
259,142,78862,5,0,0:0:0:0:
300,51,79047,2,0,P|336:42|388:47,1,77.0000023498536,8|0,0:0|0:0,0:0:0:0:
460,97,79418,2,0,L|451:180,1,77.0000023498536,8|0,0:1|0:0,0:0:0:0:
348,172,79788,2,0,L|333:294,1,115.50000352478,8|0,0:0|0:0,0:0:0:0:
310,331,80159,6,0,P|264:310|192:318,1,115.50000352478,8|0,0:1|0:0,0:0:0:0:
154,334,80529,2,0,P|82:342|26:312,1,115.50000352478,8|0,0:0|0:0,0:0:0:0:
6,291,80899,2,0,P|8:247|18:209,1,77.0000023498536,8|0,0:1|0:0,0:0:0:0:
54,135,81270,1,8,0:0:0:0:
54,135,81455,1,0,0:0:0:0:
150,100,81640,6,0,P|186:110|242:109,1,77.0000023498536,8|0,0:1|0:0,0:0:0:0:
298,52,82010,2,0,P|334:42|390:43,1,77.0000023498536,8|0,0:0|0:0,0:0:0:0:
484,50,82381,1,8,0:1:0:0:
430,144,82566,1,8,0:0:0:0:
430,144,82751,2,0,B|423:227|423:227|395:199,1,115.50000352478,8|0,0:0|0:0,0:0:0:0:
361,185,83122,6,0,P|313:171|244:185,1,115.50000352478,12|0,1:0|0:0,0:0:0:0:
209,212,83492,2,0,P|228:271|218:338,1,115.50000352478,8|0,0:0|0:0,0:0:0:0:
225,372,83862,2,0,P|269:358|314:357,1,77.0000023498536,8|0,0:1|0:0,0:0:0:0:
382,319,84233,2,0,P|424:330|465:328,1,77.0000023498536,8|0,0:0|0:0,0:0:0:0:
512,212,84603,6,0,P|464:215|424:237,1,77.0000023498536,8|0,0:1|0:0,0:0:0:0:
332,235,84973,1,8,0:0:0:0:
358,139,85159,1,0,0:0:0:0:
253,161,85344,2,0,B|176:187|180:136|88:166,1,154.000004699707,8|8,0:1|0:0,0:0:0:0:
13,117,85899,1,0,0:0:0:0:
0,215,86084,6,0,L|19:297,1,77.0000023498536,8|0,0:1|0:0,0:0:0:0:
97,342,86455,1,8,0:0:0:0:
177,291,86640,1,0,0:0:0:0:
242,363,86825,2,0,P|294:355|336:328,1,77.0000023498536,8|0,0:1|0:0,0:0:0:0:
344,246,87196,1,8,0:0:0:0:
425,308,87381,1,0,0:0:0:0:
460,205,87566,2,0,B|463:150|463:150|441:112|441:112|450:49,1,154.000004699707,8|8,0:1|0:0,0:0:0:0:
361,41,88121,6,0,L|314:32,3,25.6666674499512,8|8|8|8,0:1|0:1|0:1|0:1,0:1:0:0:
262,77,88492,2,0,L|212:68,5,38.5000011749268,8|8|8|8|8|8,0:1|0:1|0:1|0:1|0:1|0:1,0:0:0:0:
190,64,89047,6,0,P|126:71|75:45,1,115.50000352478,12|0,1:0|0:0,0:0:0:0:
37,42,89418,2,0,P|47:104|26:165,1,115.50000352478,8|0,0:0|0:0,0:0:0:0:
10,189,89788,2,0,L|26:279,1,77.0000023498536,8|0,0:1|0:0,0:0:0:0:
83,345,90159,1,8,0:0:0:0:
148,269,90344,2,0,P|194:259|240:265,1,77.0000023498536,0|8,0:0|0:1,0:0:0:0:
303,320,90714,5,0,0:0:0:0:
330,223,90899,2,0,P|312:179|312:133,1,77.0000023498536,8|0,0:0|0:0,0:0:0:0:
370,69,91270,2,0,L|471:44,1,77.0000023498536,8|0,0:1|0:0,0:0:0:0:
509,126,91640,2,0,L|369:164,1,115.50000352478,8|0,0:0|0:0,0:0:0:0:
347,159,92010,6,0,P|291:136|229:144,1,115.50000352478,8|0,0:1|0:0,0:0:0:0:
192,164,92381,2,0,P|139:171|71:141,1,115.50000352478,8|0,0:0|0:0,0:0:0:0:
35,132,92751,2,0,L|13:209,1,77.0000023498536,8|0,0:1|0:0,0:0:0:0:
39,302,93121,1,8,0:0:0:0:
39,302,93307,1,0,0:0:0:0:
133,268,93492,6,0,P|181:273|230:297,1,77.0000023498536,8|0,0:1|0:0,0:0:0:0:
298,325,93862,2,0,P|342:302|393:299,1,77.0000023498536,8|0,0:0|0:0,0:0:0:0:
456,248,94233,1,8,0:1:0:0:
413,157,94418,1,8,0:0:0:0:
413,157,94603,2,0,B|406:67|406:67|380:100,1,115.50000352478,8|0,0:0|0:0,0:0:0:0:
344,103,94973,6,0,P|283:111|230:90,1,115.50000352478,12|0,1:0|0:0,0:0:0:0:
184,84,95344,2,0,P|196:130|182:202,1,115.50000352478,8|0,0:0|0:0,0:0:0:0:
160,237,95714,2,0,L|172:317,1,77.0000023498536,8|0,0:1|0:0,0:0:0:0:
75,365,96084,2,0,L|61:273,1,77.0000023498536,8|0,0:0|0:0,0:0:0:0:
15,205,96455,5,8,0:1:0:0:
100,153,96640,1,0,0:0:0:0:
24,87,96825,1,8,0:0:0:0:
113,42,97010,1,0,0:0:0:0:
181,115,97196,2,0,B|258:149|258:93|344:123,1,154.000004699707,8|8,0:1|0:0,0:0:0:0:
424,155,97751,1,0,0:0:0:0:
361,233,97936,6,0,P|363:275|376:325,1,77.0000023498536,8|0,0:1|0:0,0:0:0:0:
286,363,98307,2,0,P|245:342|211:340,1,77.0000023498536,8|0,0:0|0:0,0:0:0:0:
115,352,98677,1,8,0:1:0:0:
39,285,98862,1,0,0:0:0:0:
82,195,99047,2,0,P|77:143|52:97,1,77.0000023498536,8|0,0:0|0:0,0:0:0:0:
130,41,99418,6,0,B|160:69|160:69|237:52,1,115.50000352478,8|0,0:1|0:0,0:0:0:0:
277,31,99788,6,0,P|325:12|403:33,1,115.50000352478,8|0,0:0|0:0,0:0:0:0:
405,69,100159,6,0,P|398:114|475:77,1,154.000004699707,8|8,0:1|0:0,0:0:0:0:
478,107,100899,6,0,P|457:164|457:204,1,70,12|0,1:0|0:0,0:0:0:0:
487,258,101270,2,0,P|493:291|490:330,1,70,8|0,0:0|0:0,0:0:0:0:
406,361,101640,2,0,P|370:344|297:344,1,105,8|0,0:1|0:0,0:0:0:0:
260,351,102010,2,0,L|174:338,1,70,8|0,0:0|0:0,0:0:0:0:
106,304,102381,6,0,P|101:259|91:227,1,70,8|0,0:1|0:0,0:0:0:0:
16,187,102751,1,8,0:0:0:0:
30,97,102936,1,0,0:0:0:0:
121,94,103122,2,0,L|191:71,1,70,8|0,0:1|0:0,0:0:0:0:
245,141,103492,2,0,L|315:118,1,70,8|0,0:0|0:0,0:0:0:0:
402,118,103862,6,0,P|389:158|386:196,1,70,8|0,0:1|0:0,0:0:0:0:
468,224,104233,2,0,P|483:272|487:302,1,70,8|0,0:0|0:0,0:0:0:0:
410,340,104603,2,0,L|408:384,3,35,8|0|0|0,0:1|0:0|0:0|0:0,0:0:0:0:
371,348,104973,2,0,P|328:338|291:343,1,70,8|0,0:0|0:0,0:0:0:0:
211,330,105344,6,0,L|192:254,1,70,8|0,0:1|0:0,0:0:0:0:
264,204,105714,2,0,L|283:128,1,70,8|0,0:0|0:0,0:0:0:0:
242,53,106084,2,0,P|187:36|119:50,1,105,8|0,0:1|0:0,0:0:0:0:
99,61,106455,2,0,P|61:73|27:75,1,70,10|2,0:0|0:0,0:0:0:0:
8,163,106825,6,0,P|44:194|62:231,1,70,12|0,1:0|0:0,0:0:0:0:
118,279,107196,2,0,P|152:274|211:282,1,70,8|0,0:0|0:0,0:0:0:0:
264,325,107566,2,0,P|316:323|370:302,1,105,8|0,0:1|0:0,0:0:0:0:
389,266,107936,2,0,L|383:185,1,70,8|0,0:0|0:0,0:0:0:0:
437,122,108307,6,0,P|437:78|427:45,1,70,8|0,0:1|0:0,0:0:0:0:
352,6,108677,1,8,0:0:0:0:
303,83,108862,1,0,0:0:0:0:
235,22,109047,2,0,L|141:38,1,70,8|0,0:1|0:0,0:0:0:0:
125,115,109418,2,0,L|31:131,1,70,8|0,0:0|0:0,0:0:0:0:
18,209,109788,6,0,P|47:237|67:273,1,70,8|0,0:1|0:0,0:0:0:0:
139,207,110159,2,0,P|150:245|149:286,1,70,8|0,0:0|0:0,0:0:0:0:
243,237,110529,2,0,P|240:293|214:354,1,105,8|0,0:1|0:0,0:0:0:0:
214,383,110899,2,0,L|301:371,1,70,8|0,0:0|0:0,0:0:0:0:
366,321,111270,6,0,P|371:255|390:213,1,105,8|0,0:1|0:0,0:0:0:0:
411,181,111640,2,0,L|394:106,1,70,8|0,0:0|0:0,0:0:0:0:
319,62,112010,2,0,L|262:72,3,35,8|8|8|8,0:1|0:1|0:1|0:1,0:0:0:0:
251,100,112381,2,0,L|190:95,3,35,8|8|8|8,0:1|0:1|0:1|0:1,0:0:0:0:
172,109,112751,6,0,L|90:116,1,70,2|2,0:0|0:0,0:0:0:0:
41,180,113122,2,0,L|52:223,3,35,2|2|2|2,0:0|0:0|0:0|0:0,0:0:0:0:
62,240,113492,2,0,L|153:241,1,70,2|2,0:0|0:0,0:0:0:0:
213,193,113862,1,2,0:0:0:0:
172,109,114047,5,8,0:1:0:0:
