osu file format v14

[General]
AudioFilename: audio.mp3
AudioLeadIn: 0
PreviewTime: 52652
Countdown: 0
SampleSet: Soft
StackLeniency: 0.7
Mode: 0
LetterboxInBreaks: 0
WidescreenStoryboard: 1

[Editor]
DistanceSpacing: 0.83
BeatDivisor: 4
GridSize: 4
TimelineZoom: 2.699999

[Metadata]
Title:Me And My Imagination
TitleUnicode:Me And My Imagination
Artist:Sophie Ellis-Bextor
ArtistUnicode:Sophie Ellis-Bextor
Creator:Krisom
Version:Normal
Source:
Tags:Pop Dance Nu-Disco Disco Nu English Trip The Light Fantastic
BeatmapID:3224170
BeatmapSetID:1579034

[Difficulty]
HPDrainRate:4.3
CircleSize:3.3
OverallDifficulty:4.3
ApproachRate:5.3
SliderMultiplier:1.8
SliderTickRate:1

[Events]
//Background and Video events
0,0,"Sophie (1).jpg",0,0
//Break Periods
2,67970,74116
2,129645,143491
//Storyboard Layer 0 (Background)
//Storyboard Layer 1 (Fail)
//Storyboard Layer 2 (Pass)
//Storyboard Layer 3 (Foreground)
//Storyboard Layer 4 (Overlay)
//Storyboard Sound Samples

[TimingPoints]
270,468.75,4,2,1,20,1,0
8707,-100,4,2,1,25,0,0
9645,-100,4,2,1,30,0,0
10582,-100,4,2,1,35,0,0
11520,-100,4,2,1,40,0,0
12457,-100,4,2,1,45,0,0
13395,-100,4,2,1,50,0,0
14801,-100,4,2,1,70,0,0
30270,-125,4,2,1,70,0,0
37770,-90.9090909090909,4,2,1,77,0,1
67770,-100,4,2,1,70,0,0
90270,-125,4,2,1,70,0,0
97770,-90.9090909090909,4,2,1,77,0,1
127770,-100,4,2,1,70,0,0
144645,-125,4,2,1,63,0,0
155895,-133.333333333333,4,2,1,53,0,0
156598,-133.333333333333,4,2,1,43,0,0
157535,-133.333333333333,4,2,1,33,0,0
159176,-90.9090909090909,4,2,1,63,0,0
159645,-90.9090909090909,4,2,1,77,0,1
189645,-100,4,2,1,77,0,0
191520,-83.3333333333333,4,2,1,67,0,0
192457,-83.3333333333333,4,2,1,57,0,0
193395,-83.3333333333333,4,2,1,47,0,0
194332,-83.3333333333333,4,2,1,37,0,0
195270,-83.3333333333333,4,2,1,27,0,0
196207,-83.3333333333333,4,2,1,17,0,0
197145,-83.3333333333333,4,2,1,7,0,0

[Colours]
Combo1 : 140,164,215
Combo2 : 187,61,128

[HitObjects]
256,192,7770,12,2,13395,0:0:0:0:
64,300,15270,6,0,P|104:348|216:332,1,180,4|8,1:1|0:0,0:0:0:0:
256,268,15973,1,2,0:0:0:0:
301,201,16207,2,0,L|393:225,2,90,0|2|8,1:0|0:0|0:0,0:0:0:0:
344,44,17145,2,2,B|296:24|256:40|256:48|216:64|168:44,1,180,2|8,1:1|0:0,0:0:0:0:
92,16,17848,1,2,0:0:0:0:
24,60,18082,2,0,P|8:112|24:152,2,90,0|2|8,1:0|0:0|0:0,0:0:0:0:
92,108,18785,6,0,B|213:84|213:84|276:72|320:108|307:168,1,270,2|8,1:2|0:0,0:0:0:0:
288,238,19723,1,2,0:0:0:0:
264,316,19957,2,0,L|168:352,2,90,0|2|8,1:0|0:0|0:0,0:0:0:0:
340,172,20895,2,2,B|256:116|172:172,1,180,2|8,1:1|0:0,0:0:0:0:
104,212,21598,1,2,0:0:0:0:
40,260,21832,2,0,P|24:304|52:352,2,90,0|2|8,1:0|0:0|0:0,0:0:0:0:
32,180,22535,6,0,B|84:164|84:164|112:180|112:180|136:116|136:116|176:140|176:140|244:120,1,270,2|8,1:2|0:0,0:0:0:0:
316,88,23473,1,2,0:0:0:0:
384,48,23707,2,0,P|396:104|380:136,2,90,0|2|8,1:0|0:0|0:0,0:0:0:0:
224,20,24645,2,2,B|216:80|216:80|204:96|204:96|192:200,1,180,2|8,1:0|0:0,0:0:0:0:
176,276,25348,1,2,0:0:0:0:
128,340,25582,2,0,P|76:356|36:340,2,90,0|2|8,1:0|0:0|0:0,0:0:0:0:
84,272,26285,6,0,P|140:192|292:224,1,270,2|8,1:2|0:0,0:0:0:0:
344,284,27223,1,2,0:0:0:0:
392,348,27457,2,0,B|404:308|404:308|444:280,2,90,0|2|8,1:0|0:0|0:0,0:0:0:0:
232,368,28395,2,2,B|208:328|208:328|248:288|252:240|216:204,1,180,2|8,1:0|0:0,0:0:0:0:
160,156,29098,1,2,0:0:0:0:
108,92,29332,1,0,1:0:0:0:
256,20,29801,1,8,0:0:0:0:
404,92,30270,6,0,L|384:260,1,144,4|0,1:2|1:3,0:0:0:0:
260,268,31207,2,0,L|280:100,1,144,0|0,1:2|1:0,0:0:0:0:
150,158,32145,2,0,L|136:272,2,108,0|2|2,1:0|0:0|0:3,0:0:0:0:
400,220,33785,5,2,0:3:0:0:
424,296,34020,2,0,P|360:320|344:316,1,72,0|2,1:0|0:3,0:0:0:0:
304,264,34488,2,0,B|248:256|208:296|208:296|180:268,1,144,0|0,1:0|1:0,0:0:0:0:
40,132,35895,2,0,P|104:160|164:112,1,144,0|0,1:0|0:0,0:0:0:0:
192,44,36598,1,0,0:0:0:0:
320,68,37066,1,0,0:0:0:0:
372,332,37770,6,0,L|468:312,2,99.0000030212403,4|2|8,1:0|0:0|1:0,0:0:0:0:
332,168,38707,1,0,1:0:0:0:
256,204,38941,1,2,0:0:0:0:
180,240,39176,2,2,P|208:264|220:324,1,99.0000030212403,8|2,1:0|0:0,0:0:0:0:
140,332,39645,2,0,L|44:312,2,99.0000030212403,4|2|8,1:3|0:0|1:0,0:0:0:0:
180,168,40582,1,0,1:0:0:0:
256,204,40816,1,2,0:0:0:0:
332,240,41051,1,8,1:0:0:0:
408,276,41285,6,2,P|404:208|488:104,1,198.000006042481,4|2,1:3|0:0,0:0:0:0:
460,28,41988,1,8,1:0:0:0:
384,64,42223,1,2,0:0:0:0:
308,28,42457,1,2,1:0:0:0:
140,36,42926,1,8,1:0:0:0:
104,108,43160,2,0,P|108:176|24:280,1,198.000006042481,2|2,0:0|0:0,0:0:0:0:
8,196,43863,2,2,P|68:188|184:264,1,198.000006042481,8|2,1:0|1:0,0:1:0:0:
48,364,44801,1,8,1:0:0:0:
0,296,45035,6,2,B|48:264|96:284|88:296|144:320|188:284,1,198.000006042481,4|2,1:3|0:0,0:0:0:0:
256,236,45738,1,8,1:0:0:0:
325,284,45973,1,2,0:0:0:0:
396,236,46207,1,2,1:0:0:0:
472,88,46676,1,8,1:0:0:0:
404,40,46910,2,0,B|352:88|352:88|216:72,1,198.000006042481,2|2,0:0|0:0,0:0:0:0:
144,60,47613,1,8,1:0:0:0:
200,220,48082,1,2,1:0:0:0:
256,376,48551,1,8,1:0:0:0:
408,300,49020,5,4,1:3:0:0:
348,144,49488,2,0,B|256:80|164:144,2,198.000006042481,8|2|8,1:0|1:0|1:0,0:0:0:0:
348,228,50660,1,4,1:3:0:0:
216,336,51129,1,4,1:3:0:0:
296,336,51363,1,8,1:0:0:0:
164,228,51832,1,8,1:0:0:0:
256,88,52301,1,8,1:0:0:0:
392,200,52770,6,0,L|488:220,2,99.0000030212403,4|2|8,1:0|0:0|1:0,0:0:0:0:
332,356,53707,1,0,1:0:0:0:
256,320,53941,1,2,0:0:0:0:
180,284,54176,2,2,P|200:248|204:192,1,99.0000030212403,8|2,1:0|0:0,0:0:0:0:
120,200,54645,2,0,L|24:220,2,99.0000030212403,4|2|8,1:3|0:0|1:0,0:0:0:0:
180,356,55582,1,0,1:0:0:0:
256,320,55816,1,2,0:0:0:0:
332,284,56051,1,8,1:0:0:0:
416,300,56285,6,2,B|428:248|484:240|484:240|468:184|508:140,1,198.000006042481,4|2,1:3|0:0,0:0:0:0:
444,88,56988,1,8,1:0:0:0:
368,52,57223,1,2,0:0:0:0:
292,88,57457,1,2,1:0:0:0:
124,92,57926,1,8,1:0:0:0:
48,128,58160,2,0,B|74:190|74:190|107:267|181:236,1,198.000006042481,2|2,0:0|0:0,0:0:0:0:
244,188,58863,2,2,P|304:180|420:256,1,198.000006042481,8|2,1:0|1:0,0:1:0:0:
284,352,59801,1,8,1:0:0:0:
332,284,60035,6,2,B|284:252|236:272|244:284|188:308|144:272,1,198.000006042481,4|2,1:3|0:0,0:0:0:0:
68,232,60738,1,8,1:0:0:0:
137,184,60973,1,2,0:0:0:0:
208,136,61207,1,2,1:0:0:0:
376,136,61676,1,8,1:0:0:0:
448,92,61910,2,0,B|412:48|412:48|367:55|367:55|328:32|328:32|280:48,1,198.000006042481,2|2,0:0|0:0,0:0:0:0:
216,104,62613,1,8,1:0:0:0:
348,208,63082,1,2,1:0:0:0:
256,348,63551,1,8,1:0:0:0:
104,272,64020,5,4,1:3:0:0:
164,116,64488,2,0,B|256:52|348:116,2,198.000006042481,8|2|8,1:0|1:0|1:0,0:0:0:0:
164,200,65660,1,4,1:3:0:0:
296,308,66129,1,4,1:3:0:0:
216,308,66363,1,8,1:0:0:0:
348,200,66832,1,8,1:0:0:0:
256,60,67301,1,8,1:0:0:0:
256,212,67770,1,4,1:2:0:0:
476,300,75270,6,0,B|432:280|388:316|404:332|360:368|316:348,1,180,4|8,1:1|0:0,0:0:0:0:
176,264,76207,2,0,B|128:256|84:288,2,90,0|2|8,1:0|0:0|0:0,0:0:0:0:
256,244,76910,1,2,0:0:0:0:
332,220,77145,2,2,B|296:168|296:168|176:152,1,180,2|8,1:1|0:0,0:0:0:0:
22,101,78082,2,0,P|6:153|22:193,2,90,0|2|8,1:0|0:0|0:0,0:0:0:0:
98,68,78785,6,0,B|162:84|174:24|218:0|262:16|290:72|354:48,1,270,2|8,1:2|0:0,0:0:0:0:
432,25,79723,1,2,0:0:0:0:
492,80,79957,2,0,B|512:128|476:176,2,90,0|2|8,1:0|0:0|0:0,0:0:0:0:
340,132,80895,2,2,B|256:188|172:132,1,180,2|8,1:0|0:0,0:0:0:0:
104,88,81598,1,2,0:0:0:0:
48,144,81832,2,0,L|60:236,2,90,0|2|8,1:0|0:0|0:0,0:0:0:0:
23,66,82535,6,0,B|42:14|91:-7|136:3|164:31|164:31|206:6|206:6|272:13,1,270,2|8,1:2|0:0,0:0:0:0:
332,24,83473,1,2,0:0:0:0:
412,40,83707,2,0,P|424:96|408:128,2,90,0|2|8,1:0|0:0|0:0,0:0:0:0:
252,72,84645,2,2,B|264:112|260:152|260:152|280:172|280:172|268:208|288:252,1,180,2|8,1:1|0:0,0:0:0:0:
304,320,85348,1,2,0:0:0:0:
236,364,85582,2,0,B|192:376|192:376|144:364,2,90,0|2|8,1:0|0:0|0:0,0:0:0:0:
304,320,86285,6,0,B|350:341|350:341|393:361|453:336|434:274|390:254|390:254|343:232,1,270,2|8,1:2|0:0,0:0:0:0:
264,208,87223,1,2,0:0:0:0:
188,180,87457,2,0,B|176:220|176:220|136:248,2,90,0|2|8,1:0|0:0|0:0,0:0:0:0:
100,44,88395,2,2,B|156:52|156:52|228:28|228:28|280:36,1,180,2|8,1:0|0:0,0:0:0:0:
356,28,89098,1,2,0:0:0:0:
404,92,89332,1,0,1:0:0:0:
256,156,89801,1,8,0:0:0:0:
108,92,90270,6,0,L|128:260,1,144,4|0,1:2|1:3,0:0:0:0:
252,268,91207,2,0,L|232:100,1,144,0|0,1:2|1:0,0:0:0:0:
362,158,92145,2,0,L|376:272,2,108,0|2|2,1:2|0:2|0:3,0:0:0:0:
112,220,93785,5,2,0:3:0:0:
88,296,94020,2,0,P|152:320|168:316,1,72,0|2,1:0|0:3,0:0:0:0:
208,264,94488,2,0,B|264:256|304:296|304:296|332:268,1,144,0|0,1:0|1:0,0:0:0:0:
472,132,95895,2,0,P|408:160|348:112,1,144,0|0,1:0|1:0,0:0:0:0:
320,44,96598,1,2,0:3:0:0:
192,68,97066,1,2,0:3:0:0:
144,316,97770,6,0,P|104:292|48:296,2,99.0000030212403,4|2|8,1:0|0:0|1:0,0:0:0:0:
200,161,98707,1,0,1:0:0:0:
264,110,98941,1,2,0:0:0:0:
338,144,99176,2,2,B|351:177|351:177|370:198|370:198|383:237,1,99.0000030212403,8|2,1:0|0:0,0:0:0:0:
367,312,99645,2,0,P|407:336|463:332,2,99.0000030212403,4|2|8,1:3|0:0|1:0,0:0:0:0:
338,144,100582,1,0,1:0:0:0:
268,187,100816,1,2,0:0:0:0:
198,231,101051,1,8,1:0:0:0:
153,299,101285,6,2,B|169:179|69:139,1,198.000006042481,4|2,1:3|0:0,0:0:0:0:
36,63,101988,1,8,1:0:0:0:
118,70,102223,1,2,0:0:0:0:
191,33,102457,1,2,1:0:0:0:
355,31,102926,1,8,1:0:0:0:
403,97,103160,2,0,B|387:201|387:201|483:269,1,198.000006042481,2|2,0:0|0:0,0:0:0:0:
496,180,103863,2,2,B|404:164|404:164|320:248,1,198.000006042481,8|2,1:0|1:0,0:1:0:0:
452,352,104801,1,8,1:0:0:0:
368,336,105035,6,2,B|272:348|272:348|212:356|188:300,1,198.000006042481,4|2,1:3|0:0,0:0:0:0:
220,224,105738,1,8,1:0:0:0:
135,224,105973,1,2,0:0:0:0:
80,160,106207,1,2,1:0:0:0:
12,8,106676,1,8,1:0:0:0:
92,32,106910,2,0,B|160:24|160:24|216:72|216:72|280:64,1,198.000006042481,2|2,0:0|0:0,0:0:0:0:
356,52,107613,1,8,1:0:0:0:
312,216,108082,1,2,1:0:0:0:
256,376,108551,1,8,1:0:0:0:
104,300,109020,5,4,1:3:0:0:
164,144,109488,2,0,B|256:80|348:144,2,198.000006042481,8|2|8,1:0|1:0|1:0,0:0:0:0:
164,228,110660,1,4,1:3:0:0:
296,336,111129,1,4,1:3:0:0:
216,336,111363,1,8,1:0:0:0:
348,228,111832,1,8,1:0:0:0:
256,88,112301,1,8,1:0:0:0:
120,200,112770,6,0,B|72:224|72:224|24:220,2,99.0000030212403,4|2|8,1:0|0:0|1:0,0:0:0:0:
180,356,113707,1,0,1:0:0:0:
256,320,113941,1,2,0:0:0:0:
332,284,114176,2,2,L|308:188,1,99.0000030212403,8|2,1:0|0:0,0:0:0:0:
392,200,114645,2,0,B|440:224|440:224|488:220,2,99.0000030212403,4|2|8,1:3|0:0|1:0,0:0:0:0:
332,356,115582,1,0,1:0:0:0:
256,320,115816,1,2,0:0:0:0:
180,284,116051,1,8,1:0:0:0:
96,300,116285,6,2,P|136:216|232:216,1,198.000006042481,4|2,1:3|0:0,0:0:0:0:
316,212,116988,1,8,1:0:0:0:
400,212,117223,1,2,0:0:0:0:
468,160,117457,1,2,1:0:0:0:
340,52,117926,1,8,1:0:0:0:
308,128,118160,2,0,B|282:190|282:190|249:267|175:236,1,198.000006042481,2|2,0:0|0:0,0:0:0:0:
180,152,118863,2,2,P|112:176|108:288,1,198.000006042481,8|2,1:0|1:0,0:1:0:0:
278,328,119801,1,8,1:0:0:0:
350,284,120035,6,2,B|294:268|294:268|274:236|274:236|238:252|238:252|174:236,1,198.000006042481,4|2,1:3|0:0,0:0:0:0:
108,288,120738,1,8,1:0:0:0:
23,288,120973,1,2,0:0:0:0:
4,208,121207,1,2,1:0:0:0:
128,96,121676,1,8,1:0:0:0:
64,40,121910,2,0,B|112:4|168:20|168:20|256:52,1,198.000006042481,2|2,0:0|0:0,0:0:0:0:
328,80,122613,1,8,1:0:0:0:
184,168,123082,1,2,1:0:0:0:
256,320,123551,1,8,1:0:0:0:
408,248,124020,5,4,1:3:0:0:
348,92,124488,2,0,B|256:28|164:92,2,198.000006042481,8|2|8,1:0|1:0|1:0,0:0:0:0:
348,176,125660,1,4,1:3:0:0:
216,284,126129,1,4,1:3:0:0:
296,284,126363,1,8,1:0:0:0:
164,176,126832,1,8,1:0:0:0:
256,36,127301,1,8,1:0:0:0:
256,188,127770,1,4,1:2:0:0:
24,320,144645,6,0,P|88:340|152:284,1,144,0|0,0:0|3:0,0:0:0:0:
264,244,145582,2,0,L|288:316,2,72,0|0|0,0:0|0:0|3:0,0:0:0:0:
384,192,146520,2,0,P|372:132|280:100,1,144,0|0,0:0|3:0,0:0:0:0:
176,80,147457,2,0,L|88:68,2,72,0|0|0,0:0|0:0|3:0,0:0:0:0:
240,88,148160,6,0,B|280:108|316:92|312:72|356:56|408:64|432:124,1,216,0|0,0:0|3:0,0:0:0:0:
364,232,149332,1,2,0:0:0:0:
244,284,149801,2,0,L|160:312,1,72,0|0,3:0|0:0,0:0:0:0:
40,168,150738,2,0,B|88:176|88:176|92:192|92:192|192:208,1,144,0|2,3:0|0:0,0:0:0:0:
300,220,151676,1,0,3:0:0:0:
364,208,151910,6,0,B|352:164|352:164|396:176|448:152|460:96|432:56,1,216,0|0,0:0|3:0,0:0:0:0:
308,32,153082,1,2,0:0:0:0:
196,100,153551,2,0,L|120:84,1,72,0|0,3:0|0:0,0:0:0:0:
132,280,154488,1,0,3:0:0:0:
256,316,154957,1,0,0:0:0:0:
380,352,155426,1,0,3:0:0:0:
384,232,155895,6,0,P|420:192|500:200,5,135.000005149842,0|0|0|0|0|0,0:0|3:0|0:0|3:0|0:0|3:0,0:0:0:0:
144,68,159645,6,0,B|118:54|76:97|48:81,2,99.0000030212403,4|2|8,1:0|0:0|1:0,0:0:0:0:
188,226,160582,1,0,1:0:0:0:
254,178,160816,1,2,0:0:0:0:
323,222,161051,2,2,B|341:189|341:189|358:157|340:126,1,99.0000030212403,8|2,1:0|0:0,0:0:0:0:
375,54,161520,2,0,P|415:78|471:74,2,99.0000030212403,4|2|8,1:3|0:0|1:0,0:0:0:0:
323,222,162457,1,0,1:0:0:0:
243,202,162691,1,2,0:0:0:0:
206,128,162926,1,8,1:0:0:0:
147,74,163160,6,2,B|51:162|51:162|63:234,1,198.000006042481,4|2,1:3|0:0,0:0:0:0:
79,309,163863,1,8,1:0:0:0:
141,363,164098,1,2,0:0:0:0:
172,287,164332,1,2,1:0:0:0:
316,356,164801,1,8,1:0:0:0:
368,292,165035,2,0,B|392:260|368:200|368:200|420:172|408:116,1,198.000006042481,2|2,0:0|0:0,0:0:0:0:
400,32,165738,2,2,P|300:40|224:100,1,198.000006042481,8|2,1:0|1:0,0:1:0:0:
364,192,166676,1,8,1:0:0:0:
364,108,166910,6,2,P|296:140|308:256,1,198.000006042481,4|2,1:3|0:0,0:0:0:0:
360,308,167613,1,8,1:0:0:0:
440,332,167848,1,2,0:0:0:0:
424,248,168082,1,2,1:0:0:0:
271,318,168551,1,8,1:0:0:0:
204,368,168785,2,0,B|136:376|136:376|48:388|32:320,1,198.000006042481,2|2,0:0|0:0,0:0:0:0:
32,240,169488,1,8,1:0:0:0:
92,84,169957,1,2,1:0:0:0:
256,44,170426,1,8,1:0:0:0:
408,116,170895,5,4,1:3:0:0:
348,272,171363,2,0,B|256:336|164:272,2,198.000006042481,8|2|8,1:0|1:0|1:0,0:0:0:0:
348,188,172535,1,4,1:3:0:0:
216,80,173004,1,4,1:3:0:0:
296,80,173238,1,8,1:0:0:0:
164,188,173707,1,8,1:0:0:0:
256,328,174176,1,8,1:0:0:0:
416,280,174645,6,0,P|352:228|388:120,1,198.000006042481,4|8,1:0|1:0,0:0:0:0:
452,84,175348,1,2,0:0:0:0:
400,16,175582,2,0,L|192:56,1,198.000006042481,0|8,1:0|1:0,0:0:0:0:
124,76,176285,2,0,L|332:132,1,198.000006042481,4|2,1:3|0:0,0:0:0:0:
396,156,176988,1,8,1:0:0:0:
340,316,177457,1,2,1:0:0:0:
172,316,177926,1,8,1:0:0:0:
96,352,178160,6,0,B|68:304|96:252|152:208|168:168|168:168|128:192|72:168,1,297.000009063721,4|8,1:3|1:0,0:0:0:0:
56,92,179098,1,2,0:0:0:0:
140,88,179332,2,2,L|340:64,1,198.000006042481,2|8,1:0|1:0,0:1:0:0:
364,144,180035,2,0,L|164:168,1,198.000006042481,4|2,1:3|0:0,0:0:0:0:
84,176,180738,1,8,1:0:0:0:
172,320,181207,1,2,1:0:0:0:
340,320,181676,1,8,1:0:0:0:
412,360,181910,6,0,B|436:312|400:264|400:264|448:244|448:244|408:168|464:108,1,297.000009063721,4|8,1:3|1:0,0:0:0:0:
484,32,182848,1,2,0:0:0:0:
404,56,183082,2,2,L|204:100,1,198.000006042481,2|8,1:0|1:0,0:1:0:0:
260,168,183785,2,0,L|60:124,1,198.000006042481,4|2,1:3|0:0,0:0:0:0:
24,200,184488,1,8,1:0:0:0:
124,336,184957,1,2,1:0:0:0:
240,216,185426,1,8,1:0:0:0:
104,116,185895,5,4,1:3:0:0:
164,272,186363,2,0,B|256:336|348:272,2,198.000006042481,8|2|8,1:0|1:0|1:0,0:0:0:0:
164,188,187535,1,4,1:3:0:0:
296,80,188004,1,4,3:0:0:0:
216,80,188238,1,8,1:0:0:0:
348,188,188707,1,8,1:0:0:0:
256,328,189176,1,8,1:0:0:0:
256,176,189645,5,4,1:0:0:0:
256,192,189879,12,0,197145,0:0:0:0:
