osu file format v14

[General]
AudioFilename: audio.mp3
AudioLeadIn: 0
PreviewTime: 52652
Countdown: 0
SampleSet: Soft
StackLeniency: 0.7
Mode: 0
LetterboxInBreaks: 0
WidescreenStoryboard: 1

[Editor]
DistanceSpacing: 0.87
BeatDivisor: 4
GridSize: 4
TimelineZoom: 2.699999

[Metadata]
Title:Me And My Imagination
TitleUnicode:Me And My Imagination
Artist:Sophie Ellis-Bextor
ArtistUnicode:Sophie Ellis-Bextor
Creator:Krisom
Version:Hard
Source:
Tags:Pop Dance Nu-Disco Disco Nu English Trip The Light Fantastic
BeatmapID:3224168
BeatmapSetID:1579034

[Difficulty]
HPDrainRate:5
CircleSize:3.7
OverallDifficulty:6.5
ApproachRate:7.5
SliderMultiplier:2.2
SliderTickRate:2

[Events]
//Background and Video events
0,0,"Sophie (1).jpg",0,0
//Break Periods
2,67970,74445
2,129645,143820
//Storyboard Layer 0 (Background)
//Storyboard Layer 1 (Fail)
//Storyboard Layer 2 (Pass)
//Storyboard Layer 3 (Foreground)
//Storyboard Layer 4 (Overlay)
//Storyboard Sound Samples

[TimingPoints]
270,468.75,4,2,1,20,1,0
8707,-100,4,2,1,25,0,0
9645,-100,4,2,1,30,0,0
10582,-100,4,2,1,35,0,0
11520,-100,4,2,1,40,0,0
12457,-100,4,2,1,45,0,0
13395,-100,4,2,1,50,0,0
14801,-100,4,2,1,70,0,0
30270,-125,4,2,1,70,0,0
37770,-90.9090909090909,4,2,1,77,0,1
67770,-100,4,2,1,70,0,0
90270,-125,4,2,1,70,0,0
95895,-166.666666666667,4,2,1,70,0,0
96832,-100,4,2,1,70,0,0
97770,-90.9090909090909,4,2,1,77,0,1
127770,-100,4,2,1,70,0,0
144645,-125,4,2,1,63,0,0
155895,-133.333333333333,4,2,1,53,0,0
156598,-133.333333333333,4,2,1,43,0,0
157535,-133.333333333333,4,2,1,33,0,0
158473,-133.333333333333,4,2,1,63,0,0
159176,-90.9090909090909,4,2,1,63,0,0
159645,-90.9090909090909,4,2,1,77,0,1
189645,-100,4,2,1,77,0,0
191520,-83.3333333333333,4,2,1,67,0,0
192457,-83.3333333333333,4,2,1,57,0,0
193395,-83.3333333333333,4,2,1,47,0,0
194332,-83.3333333333333,4,2,1,37,0,0
195270,-83.3333333333333,4,2,1,27,0,0
196207,-83.3333333333333,4,2,1,17,0,0
197145,-83.3333333333333,4,2,1,7,0,0

[Colours]
Combo1 : 140,164,215
Combo2 : 187,61,128

[HitObjects]
256,192,7770,12,2,13395,0:0:0:0:
256,16,14801,5,8,0:1:0:0:
320,88,15035,1,2,0:0:0:0:
420,88,15270,2,0,B|408:136|448:156|472:192|448:228|408:248|420:296,1,220,4|8,1:1|0:0,0:0:0:0:
352,368,15973,1,2,0:0:0:0:
256,352,16207,2,0,L|144:336,1,110,0|2,1:0|0:0,0:0:0:0:
204,256,16676,2,0,L|92:240,1,110,8|2,0:0|0:0,0:0:0:0:
8,192,17145,6,2,P|48:136|200:140,1,220,2|8,1:1|0:0,0:0:0:0:
256,204,17848,1,2,0:0:0:0:
348,244,18082,1,0,1:0:0:0:
416,172,18316,1,2,0:0:0:0:
376,80,18551,1,8,0:0:0:0:
416,172,18785,6,0,B|408:248|408:248|400:312|356:352|288:340|248:320|232:261,1,330,2|8,1:2|0:0,0:0:0:0:
172,184,19723,1,2,0:0:0:0:
140,92,19957,2,0,P|92:128|76:192,1,110,0|2,1:0|0:0,0:0:0:0:
24,260,20426,1,8,0:0:0:0:
92,332,20660,1,2,0:0:0:0:
192,316,20895,6,2,B|260:304|260:304|280:328|280:328|408:308,1,220,2|8,1:1|0:0,0:0:0:0:
480,252,21598,1,2,0:0:0:0:
408,184,21832,1,0,1:0:0:0:
484,120,22066,1,2,0:0:0:0:
420,44,22301,1,8,0:0:0:0:
484,120,22535,6,0,B|400:184|320:144|336:104|248:60|176:112,1,330,2|8,1:2|0:0,0:0:0:0:
92,160,23473,1,2,0:0:0:0:
28,236,23707,2,0,P|72:280|120:280,1,110,0|2,1:0|0:0,0:0:0:0:
180,204,24176,2,0,P|136:160|88:160,1,110,8|2,0:0|0:0,0:0:0:0:
28,236,24645,6,2,P|112:340|224:328,1,220,2|8,1:0|0:0,0:0:0:0:
280,300,25348,1,2,0:0:0:0:
372,340,25582,1,0,1:0:0:0:
360,240,25816,1,2,0:0:0:0:
348,140,26051,1,8,0:0:0:0:
360,240,26285,6,0,B|284:224|240:272|240:272|220:236|220:236|136:280|72:224,1,330,2|8,1:2|0:0,0:0:0:0:
32,136,27223,1,2,0:0:0:0:
104,68,27457,2,0,L|208:104,1,110,0|2,1:0|0:0,0:0:0:0:
288,44,27926,2,0,L|392:80,1,110,8|2,0:0|0:0,0:0:0:0:
484,120,28395,6,2,P|400:76|328:168,1,220,2|8,1:0|0:0,0:0:0:0:
340,256,29098,1,2,0:0:0:0:
276,332,29332,1,0,1:0:0:0:
92,256,29801,1,8,0:0:0:0:
40,108,30270,6,0,B|68:64|112:64|112:64|200:64,1,176,4|0,1:2|1:3,0:0:0:0:
312,172,31207,2,0,B|400:172|400:172|444:172|472:128,1,176,0|0,1:2|1:0,0:0:0:0:
336,44,32145,1,0,1:0:0:0:
256,132,32496,1,2,0:0:0:0:
176,220,32848,1,2,0:3:0:0:
464,352,33785,5,2,0:3:0:0:
440,276,34020,1,0,1:0:0:0:
416,200,34254,1,2,0:3:0:0:
496,208,34488,2,0,P|444:276|360:260,1,176,0|0,1:0|1:0,0:0:0:0:
388,104,35426,1,0,1:0:0:0:
388,104,35895,1,0,1:0:0:0:
388,104,37301,1,8,1:0:0:0:
408,308,37770,6,0,P|356:336|304:308,1,121.000003692627,4|2,1:0|0:0,0:0:0:0:
207,309,38238,2,0,P|155:335|104:307,1,121.000003692627,8|2,1:0|0:0,0:0:0:0:
24,244,38707,1,0,1:0:0:0:
24,140,38941,1,2,0:0:0:0:
104,77,39176,2,2,P|155:50|206:78,1,121.000003692627,8|2,1:0|0:0,0:0:0:0:
256,168,39645,6,0,L|384:132,1,121.000003692627,4|2,1:3|0:0,0:0:0:0:
460,192,40113,2,0,L|332:228,1,121.000003692627,8|2,1:0|0:0,0:0:0:0:
244,252,40582,1,0,1:0:0:0:
144,280,40816,1,2,0:0:0:0:
44,308,41051,1,8,1:0:0:0:
144,280,41285,6,2,B|112:220|112:220|136:200|136:200|104:136|104:136|88:104|104:56,1,242.000007385254,4|2,1:3|0:0,0:0:0:0:
192,16,41988,1,8,1:0:0:0:
288,60,42223,1,2,0:0:0:0:
380,12,42457,2,2,P|320:32|280:200,1,242.000007385254,2|8,1:0|1:0,0:1:0:0:
368,144,43160,6,0,P|272:100|176:188,1,242.000007385254,2|2,0:0|0:0,0:0:0:0:
196,280,43863,2,2,P|292:324|388:236,1,242.000007385254,8|2,1:0|1:0,0:1:0:0:
460,172,44566,1,2,0:0:0:0:
364,132,44801,1,8,1:0:0:0:
460,172,45035,6,2,B|480:108|432:68|432:68|320:-8,1,242.000007385254,4|2,1:3|0:0,0:0:0:0:
224,12,45738,1,8,1:0:0:0:
184,108,45973,1,2,0:0:0:0:
84,88,46207,2,2,B|184:140|320:64,1,242.000007385254,2|8,1:0|1:0,0:1:0:0:
408,20,46910,6,0,B|388:72|388:72|424:116|424:116|400:164|400:164|456:228,1,242.000007385254,2|2,0:0|0:0,0:0:0:0:
500,312,47613,2,2,L|384:344,1,121.000003692627,8|2,1:0|0:0,0:1:0:0:
312,268,48082,2,2,L|196:300,1,121.000003692627,2|2,1:0|0:0,0:1:0:0:
124,224,48551,2,0,L|8:256,1,121.000003692627,8|2,1:0|0:0,0:1:0:0:
64,344,49020,5,4,1:3:0:0:
144,156,49488,2,0,B|200:112|256:144|256:172|312:200|368:156,2,242.000007385254,8|2|8,1:0|1:0|1:0,0:0:0:0:
48,196,50660,2,2,P|44:128|184:56,1,242.000007385254,4|4,1:3|1:3,0:0:0:0:
256,124,51363,1,8,1:0:0:0:
333,54,51598,1,4,3:0:0:0:
412,120,51832,1,8,1:0:0:0:
100,120,52301,1,8,1:0:0:0:
104,308,52770,6,0,P|156:336|208:308,1,121.000003692627,4|2,1:0|0:0,0:0:0:0:
305,309,53238,2,0,P|357:335|408:307,1,121.000003692627,8|2,1:0|0:0,0:0:0:0:
480,232,53707,1,0,1:0:0:0:
408,160,53941,1,2,0:0:0:0:
480,88,54176,2,2,L|364:56,1,121.000003692627,8|2,1:0|0:0,0:0:0:0:
312,148,54645,6,0,L|196:180,1,121.000003692627,4|2,1:3|0:0,0:0:0:0:
144,272,55113,2,0,L|28:240,1,121.000003692627,8|2,1:0|0:0,0:0:0:0:
24,136,55582,1,0,1:0:0:0:
120,104,55816,1,2,0:0:0:0:
195,180,56051,1,8,1:0:0:0:
120,104,56285,6,2,P|88:184|184:288,1,242.000007385254,4|2,1:3|0:0,0:0:0:0:
280,252,56988,1,8,1:0:0:0:
376,212,57223,1,2,0:0:0:0:
400,312,57457,2,2,B|344:280|356:208|392:204|424:136|368:92,1,242.000007385254,2|8,1:0|1:0,0:1:0:0:
472,72,58160,6,0,L|232:124,1,242.000007385254,2|2,0:0|0:0,0:0:0:0:
320,180,58863,2,2,P|224:224|136:132,1,242.000007385254,8|2,1:0|1:0,0:1:0:0:
56,76,59566,1,0,0:0:0:0:
8,168,59801,1,8,1:0:0:0:
56,76,60035,6,2,B|90:18|152:27|152:27|283:59,1,242.000007385254,4|2,1:3|0:0,0:0:0:0:
372,24,60738,1,8,1:0:0:0:
420,116,60973,1,2,0:0:0:0:
512,68,61207,2,2,B|424:116|424:116|372:104|372:104|292:148,1,242.000007385254,2|8,1:0|1:0,0:1:0:0:
200,104,61910,6,0,P|84:104|28:204,1,242.000007385254,2|2,0:0|0:0,0:0:0:0:
12,312,62613,2,2,L|128:344,1,121.000003692627,8|2,1:0|0:0,0:1:0:0:
200,268,63082,2,2,L|316:300,1,121.000003692627,2|2,1:0|0:0,0:1:0:0:
388,224,63551,2,0,L|504:256,1,121.000003692627,8|2,1:0|0:0,0:1:0:0:
448,344,64020,5,4,1:3:0:0:
368,156,64488,2,0,B|312:112|256:144|256:172|200:200|144:156,2,242.000007385254,8|2|8,1:0|1:0|1:0,0:0:0:0:
464,196,65660,2,2,P|468:128|328:56,1,242.000007385254,4|4,1:3|1:3,0:0:0:0:
256,124,66363,1,8,1:0:0:0:
179,54,66598,1,4,3:0:0:0:
100,120,66832,1,8,1:0:0:0:
412,120,67301,1,8,1:0:0:0:
256,352,67770,1,4,1:2:0:0:
360,44,75270,6,0,B|312:32|292:72|256:96|220:72|200:32|152:44,1,220,4|8,1:1|0:0,0:0:0:0:
104,124,75973,1,2,0:0:0:0:
92,216,76207,2,0,L|204:200,1,110,0|2,1:0|0:0,0:0:0:0:
276,144,76676,2,0,L|388:160,1,110,8|2,0:0|0:0,0:0:0:0:
408,252,77145,6,2,P|368:308|216:304,1,220,2|8,1:1|0:0,0:0:0:0:
168,240,77848,1,2,0:0:0:0:
116,164,78082,1,0,1:0:0:0:
44,220,78316,1,2,0:0:0:0:
92,300,78551,1,8,0:0:0:0:
44,220,78785,6,0,B|68:148|164:128|196:184|180:212|232:244|300:228|324:176,1,330,2|8,1:2|0:0,0:0:0:0:
340,92,79723,1,2,0:0:0:0:
312,4,79957,2,0,P|264:40|248:104,1,110,0|2,1:0|0:0,0:0:0:0:
184,156,80426,1,8,0:0:0:0:
108,104,80660,1,2,0:0:0:0:
184,156,80895,6,2,B|252:144|252:144|272:168|272:168|400:148,1,220,2|8,1:0|0:0,0:0:0:0:
484,132,81598,1,2,0:0:0:0:
456,220,81832,1,0,1:0:0:0:
364,236,82066,1,2,0:0:0:0:
304,164,82301,1,8,0:0:0:0:
364,236,82535,6,0,B|352:192|388:132|388:132|344:196|224:204|188:128,1,330,2|8,1:2|0:0,0:0:0:0:
108,108,83473,1,2,0:0:0:0:
28,152,83707,2,0,P|72:196|120:196,1,110,0|2,1:0|0:0,0:0:0:0:
204,236,84176,2,0,P|160:280|112:280,1,110,8|2,0:0|0:0,0:0:0:0:
24,300,84645,6,2,P|104:368|216:344,1,220,2|8,1:1|0:0,0:0:0:0:
288,296,85348,1,2,0:0:0:0:
372,340,85582,1,0,1:0:0:0:
412,256,85816,1,2,0:0:0:0:
328,212,86051,1,8,0:0:0:0:
412,256,86285,6,0,B|336:292|256:236|256:236|240:260|240:260|172:220|112:272,1,330,2|8,1:2|0:0,0:0:0:0:
32,224,87223,1,2,0:0:0:0:
60,136,87457,2,0,L|168:168,1,110,0|2,1:0|0:0,0:0:0:0:
236,104,87926,2,0,L|344:136,1,110,8|2,0:0|0:0,0:0:0:0:
436,144,88395,6,2,P|340:228|264:184,1,220,2|8,1:0|0:0,0:0:0:0:
192,144,89098,1,2,0:0:0:0:
136,220,89332,1,0,1:0:0:0:
300,312,89801,1,8,0:0:0:0:
416,156,90270,6,0,B|388:112|344:112|344:112|256:112,1,176,4|0,1:2|1:3,0:0:0:0:
96,220,91207,2,0,B|124:264|168:264|168:264|256:264,1,176,0|0,1:2|1:0,0:0:0:0:
364,160,92145,1,0,1:2:0:0:
256,128,92496,1,2,0:2:0:0:
152,88,92848,1,2,0:3:0:0:
56,372,93785,5,2,0:3:0:0:
96,308,94020,1,0,1:0:0:0:
76,236,94254,1,2,0:3:0:0:
36,172,94488,2,0,P|88:240|172:224,1,176,0|0,1:0|1:0,0:0:0:0:
256,104,95426,1,0,1:0:0:0:
344,224,95895,2,0,P|380:200|448:244,2,131.99999597168,0|0|0,1:0|1:0|1:0,0:0:0:0:
256,104,97301,1,8,1:0:0:0:
104,306,97770,6,0,B|156:338|156:338|208:306,1,121.000003692627,4|2,1:0|0:0,0:0:0:0:
304,306,98238,2,0,B|356:338|356:338|408:306,1,121.000003692627,8|2,1:0|0:0,0:0:0:0:
360,216,98707,1,0,1:0:0:0:
408,124,98941,1,2,0:0:0:0:
308,108,99176,2,2,B|256:76|256:76|204:108,1,121.000003692627,8|2,1:0|0:0,0:0:0:0:
152,200,99645,6,0,L|24:164,1,121.000003692627,4|2,1:3|0:0,0:0:0:0:
60,268,100113,2,0,L|188:304,1,121.000003692627,8|2,1:0|0:0,0:0:0:0:
240,220,100582,1,0,1:0:0:0:
312,292,100816,1,2,0:0:0:0:
416,296,101051,1,8,1:0:0:0:
312,292,101285,6,2,B|296:255|310:222|310:222|337:156|337:156|312:138|312:138|340:75,1,242.000007385254,4|2,1:3|0:0,0:0:0:0:
416,8,101988,1,8,1:0:0:0:
440,108,102223,1,2,0:0:0:0:
508,32,102457,2,2,P|432:112|312:84,1,242.000007385254,2|8,1:0|1:0,0:1:0:0:
224,32,103160,6,0,B|165:10|110:47|126:92|72:129|13:108,1,242.000007385254,2|2,0:0|0:0,0:0:0:0:
24,4,103863,2,2,B|86:0|127:52|99:90|140:141|202:138,1,242.000007385254,8|2,1:0|1:0,0:1:0:0:
304,116,104566,1,2,0:0:0:0:
356,204,104801,1,8,1:0:0:0:
304,116,105035,6,2,P|208:36|112:80,1,242.000007385254,4|2,1:3|0:0,0:0:0:0:
84,180,105738,1,8,1:0:0:0:
132,272,105973,1,2,0:0:0:0:
28,268,106207,2,2,B|132:272|132:272|248:196,1,242.000007385254,2|8,1:0|1:0,0:1:0:0:
204,104,106910,6,0,P|80:120|16:212,1,242.000007385254,2|2,0:0|0:0,0:0:0:0:
12,312,107613,2,2,L|128:344,1,121.000003692627,8|2,1:0|0:0,0:1:0:0:
200,268,108082,2,2,L|316:300,1,121.000003692627,2|2,1:0|0:0,0:1:0:0:
388,224,108551,2,0,L|504:256,1,121.000003692627,8|2,1:0|0:0,0:1:0:0:
448,344,109020,5,4,1:3:0:0:
368,156,109488,2,0,B|312:112|256:144|256:172|200:200|144:156,2,242.000007385254,8|2|8,1:0|1:0|1:0,0:0:0:0:
464,196,110660,2,2,P|468:128|328:56,1,242.000007385254,4|4,1:3|1:3,0:0:0:0:
256,124,111363,1,8,1:0:0:0:
179,54,111598,1,4,3:0:0:0:
100,120,111832,1,8,1:0:0:0:
412,120,112301,1,8,1:0:0:0:
408,306,112770,6,0,B|356:338|356:338|304:306,1,121.000003692627,4|2,1:0|0:0,0:0:0:0:
207,306,113238,2,0,B|156:338|156:338|104:306,1,121.000003692627,8|2,1:0|0:0,0:0:0:0:
28,236,113707,1,0,1:0:0:0:
28,132,113941,1,2,0:0:0:0:
112,72,114176,2,2,P|176:44|228:56,1,121.000003692627,8|2,1:0|0:0,0:0:0:0:
324,36,114645,6,0,P|316:105|279:144,1,121.000003692627,4|2,1:3|0:0,0:0:0:0:
249,237,115113,2,0,P|192:195|177:144,1,121.000003692627,8|2,1:0|0:0,0:0:0:0:
224,54,115582,1,0,1:0:0:0:
320,96,115816,1,2,0:0:0:0:
416,136,116051,1,8,1:0:0:0:
320,96,116285,6,2,B|300:160|300:160|336:196|336:196|300:320,1,242.000007385254,4|2,1:3|0:0,0:0:0:0:
204,280,116988,1,8,1:0:0:0:
108,312,117223,1,2,0:0:0:0:
24,367,117457,2,2,P|113:296|85:184,1,242.000007385254,2|8,1:0|1:0,0:1:0:0:
40,92,118160,6,0,B|104:84|104:84|152:116|152:116|208:104|208:104|268:144,1,242.000007385254,2|2,0:0|0:0,0:0:0:0:
176,200,118863,2,2,P|272:244|360:152,1,242.000007385254,8|2,1:0|1:0,0:1:0:0:
384,60,119566,1,0,0:0:0:0:
460,128,119801,1,8,1:0:0:0:
384,60,120035,6,2,B|316:24|272:72|272:72|212:40|164:88,1,242.000007385254,4|2,1:3|0:0,0:0:0:0:
60,88,120738,1,8,1:0:0:0:
104,180,120973,1,2,0:0:0:0:
4,200,121207,2,2,B|252:152,1,242.000007385254,2|8,1:0|1:0,0:1:0:0:
332,108,121910,6,0,P|448:108|504:208,1,242.000007385254,2|2,0:0|0:0,0:0:0:0:
500,312,122613,2,2,L|384:344,1,121.000003692627,8|2,1:0|0:0,0:1:0:0:
312,268,123082,2,2,L|196:300,1,121.000003692627,2|2,1:0|0:0,0:1:0:0:
124,224,123551,2,0,L|8:256,1,121.000003692627,8|2,1:0|0:0,0:1:0:0:
64,344,124020,5,4,1:3:0:0:
144,156,124488,2,0,B|200:112|256:144|256:172|312:200|368:156,2,242.000007385254,8|2|8,1:0|1:0|1:0,0:0:0:0:
48,196,125660,2,2,P|44:128|184:56,1,242.000007385254,4|4,1:3|1:3,0:0:0:0:
256,124,126363,1,8,1:0:0:0:
333,54,126598,1,4,3:0:0:0:
412,120,126832,1,8,1:0:0:0:
100,120,127301,1,8,1:0:0:0:
100,120,127770,1,4,1:2:0:0:
280,180,144645,5,0,0:0:0:0:
208,152,144879,1,0,0:0:0:0:
136,120,145113,1,0,3:0:0:0:
64,88,145348,1,0,0:0:0:0:
128,136,145582,1,0,0:0:0:0:
164,208,145816,1,0,0:0:0:0:
156,288,146051,1,0,3:0:0:0:
300,220,146520,5,0,0:0:0:0:
374,236,146754,1,0,0:0:0:0:
442,202,146988,1,0,3:0:0:0:
462,127,147223,1,0,0:0:0:0:
460,203,147457,1,0,0:0:0:0:
459,283,147691,1,0,0:0:0:0:
452,359,147926,1,0,3:0:0:0:
459,283,148160,6,0,P|407:235|303:259,1,176
267,319,148863,2,0,P|235:292|229:249,1,88,0|0,3:0|0:0,0:0:0:0:
310,253,149332,2,0,P|358:253|406:149,1,176,2|0,0:0|3:0,0:0:0:0:
372,80,150035,6,0,B|288:88|288:88|280:112|280:112|200:120,1,176
136,124,150738,2,0,P|104:92|48:176,1,176,0|2,3:0|0:0,0:0:0:0:
100,224,151441,1,0,0:0:0:0:
64,296,151676,1,0,3:0:0:0:
100,224,151910,6,0,P|168:256|244:192,1,176
316,172,152613,2,0,L|244:120,1,88,0|0,3:0|0:0,0:0:0:0:
241,200,153082,2,0,P|261:156|389:120,1,176,2|0,0:0|3:0,0:0:0:0:
444,76,153785,6,0,L|268:56,1,176
192,40,154488,1,0,3:0:0:0:
72,144,154957,1,0,0:0:0:0:
184,256,155426,1,0,3:0:0:0:
74,146,155895,5,0,0:0:0:0:
181,253,156364,1,0,3:0:0:0:
77,149,156832,5,0,0:0:0:0:
178,250,157301,1,0,3:0:0:0:
80,152,157770,5,0,0:0:0:0:
175,247,158239,1,0,3:0:0:0:
84,160,158707,5,2,0:0:0:0:
128,80,158941,2,0,L|96:52,2,41.2500015735627,0|0|8,0:0|0:0|1:0,0:0:0:0:
236,96,159410,1,0,0:0:0:0:
288,116,159527,1,2,0:0:0:0:
336,92,159645,5,4,1:0:0:0:
440,60,159879,1,2,0:0:0:0:
476,164,160113,1,8,1:0:0:0:
372,196,160348,1,2,0:0:0:0:
336,92,160582,1,0,1:0:0:0:
252,160,160816,1,2,0:0:0:0:
148,132,161051,2,2,P|128:200|80:216,1,121.000003692627,8|2,1:0|0:0,0:0:0:0:
24,128,161520,5,4,1:3:0:0:
96,48,161754,1,2,0:0:0:0:
204,60,161988,1,8,1:0:0:0:
244,160,162223,1,2,0:0:0:0:
212,264,162457,1,0,1:0:0:0:
140,184,162691,1,2,0:0:0:0:
76,96,162926,1,8,1:0:0:0:
140,184,163160,6,2,B|192:136|256:168|244:192|312:216|364:164,1,242.000007385254,4|2,1:3|0:0,0:0:0:0:
408,64,163863,1,8,1:0:0:0:
492,136,164098,1,2,0:0:0:0:
480,28,164332,2,2,P|372:76|240:48,1,242.000007385254,2|8,1:0|1:0,0:1:0:0:
144,68,165035,6,0,P|232:48|308:164,1,242.000007385254,2|2,0:0|0:0,0:0:0:0:
368,252,165738,2,2,B|320:296|280:252|244:256|212:272|200:328|136:304,1,242.000007385254,8|2,1:0|1:0,0:1:0:0:
72,224,166441,1,2,0:0:0:0:
36,328,166676,1,8,1:0:0:0:
140,305,166910,6,2,B|116:257|72:225|72:225|96:197|96:197|60:165|44:97,1,242.000007385254,4|2,1:3|0:0,0:0:0:0:
116,28,167613,1,8,1:0:0:0:
212,84,167848,1,2,0:0:0:0:
308,28,168082,2,2,P|240:64|252:220,1,242.000007385254,2|8,1:0|1:0,0:1:0:0:
352,220,168785,6,0,L|112:252,1,242.000007385254,2|2,0:0|0:0,0:0:0:0:
12,312,169488,2,2,L|128:344,1,121.000003692627,8|2,1:0|0:0,0:1:0:0:
200,268,169957,2,2,L|316:300,1,121.000003692627,2|2,1:0|0:0,0:1:0:0:
388,224,170426,2,0,L|504:256,1,121.000003692627,8|2,1:0|0:0,0:1:0:0:
448,344,170895,5,4,1:3:0:0:
368,156,171363,2,0,B|320:168|288:112|256:96|224:112|192:168|144:156,2,242.000007385254,8|2|8,1:0|1:0|1:0,0:0:0:0:
464,196,172535,2,2,P|468:128|328:56,1,242.000007385254,4|4,1:3|1:3,0:0:0:0:
256,124,173238,1,8,1:0:0:0:
179,54,173473,1,4,3:0:0:0:
100,120,173707,1,8,1:0:0:0:
412,120,174176,1,8,1:0:0:0:
388,336,174645,6,0,B|288:352|288:352|272:336|272:336|152:356,1,242.000007385254,4|8,1:0|1:0,0:0:0:0:
48,332,175348,1,2,0:0:0:0:
48,224,175582,2,0,P|132:240|232:132,1,242.000007385254,0|8,1:0|1:0,0:0:0:0:
124,152,176285,6,0,P|208:168|308:60,1,242.000007385254,4|2,1:3|0:0,0:0:0:0:
408,20,176988,2,2,L|388:144,1,121.000003692627,8|2,1:0|0:0,0:1:0:0:
364,248,177457,1,2,1:0:0:0:
272,188,177691,1,0,0:0:0:0:
332,96,177926,1,8,1:0:0:0:
244,32,178160,6,0,B|211:85|144:90|129:45|64:49|30:102,1,242.000007385254,4|2,1:3|0:0,0:0:0:0:
108,176,178863,1,8,1:0:0:0:
52,268,179098,1,2,0:0:0:0:
120,352,179332,2,2,L|368:304,1,242.000007385254,2|8,1:0|1:0,0:1:0:0:
464,328,180035,6,0,L|216:280,1,242.000007385254,4|2,1:3|0:0,0:0:0:0:
140,216,180738,2,2,P|208:220|252:184,1,121.000003692627,8|2,1:0|0:0,0:1:0:0:
196,96,181207,1,2,1:0:0:0:
296,56,181441,1,2,0:0:0:0:
376,128,181676,1,8,1:0:0:0:
468,72,181910,6,0,B|444:144|444:144|460:168|460:168|404:232|428:296,1,242.000007385254,4|2,1:3|0:0,0:0:0:0:
508,368,182613,2,2,P|468:316|304:320,1,242.000007385254,8|2,1:0|1:0,0:1:0:0:
200,348,183316,1,2,0:0:0:0:
124,268,183551,1,8,1:0:0:0:
40,200,183785,6,0,B|80:152|144:164|144:164|196:120|264:136,1,242.000007385254,4|2,1:3|0:0,0:0:0:0:
372,124,184488,2,2,L|128:72,1,242.000007385254,8|2,1:0|1:0,0:1:0:0:
32,40,185191,1,2,0:0:0:0:
68,144,185426,1,8,1:0:0:0:
112,244,185660,1,2,0:0:0:0:
76,348,185895,5,4,1:3:0:0:
144,156,186363,2,0,B|192:168|224:112|256:96|288:112|320:168|368:156,2,242.000007385254,8|2|8,1:0|1:0|1:0,0:0:0:0:
48,196,187535,2,2,P|44:128|184:56,1,242.000007385254,4|4,1:3|3:0,0:0:0:0:
256,124,188238,1,8,1:0:0:0:
333,54,188473,1,4,1:3:0:0:
412,120,188707,1,8,1:0:0:0:
100,120,189176,1,8,1:0:0:0:
256,352,189645,5,4,1:0:0:0:
256,192,189879,12,0,197145,0:0:0:0:
