osu file format v14

[General]
AudioFilename: audio.mp3
AudioLeadIn: 0
PreviewTime: -1
Countdown: 1
SampleSet: Normal
StackLeniency: 0.7
Mode: 0
LetterboxInBreaks: 0
WidescreenStoryboard: 1

[Editor]
DistanceSpacing: 0.9
BeatDivisor: 4
GridSize: 32
TimelineZoom: 1

[Metadata]
Title:Kotonoha no Omoi
TitleUnicode:コトノハノオモイ
Artist:Sonoko Inoue
ArtistUnicode:井上苑子
Creator:ANuko
Version:Light Insane
Source:
Tags:
BeatmapID:1993517
BeatmapSetID:954436

[Difficulty]
HPDrainRate:6
CircleSize:3
OverallDifficulty:6
ApproachRate:8.5
SliderMultiplier:1.8
SliderTickRate:1

[Events]
//Background and Video events
//Break Periods
//Storyboard Layer 0 (Background)
//Storyboard Layer 1 (Fail)
//Storyboard Layer 2 (Pass)
//Storyboard Layer 3 (Foreground)
//Storyboard Sound Samples

[TimingPoints]
1244,394.736842105263,4,1,0,60,1,0
18415,394.736842105263,4,1,0,60,1,0
37362,-200,4,1,0,60,0,0
43678,-100,4,1,0,60,0,0

[HitObjects]
111,145,1244,5,0,0:0:0:0:
176,129,1540,1,0,0:0:0:0:
243,136,1836,1,0,0:0:0:0:
104,313,2822,5,0,0:0:0:0:
75,252,3118,1,0,0:0:0:0:
91,186,3415,1,0,0:0:0:0:
308,243,4401,5,0,0:0:0:0:
355,194,4697,1,0,0:0:0:0:
367,127,4993,1,0,0:0:0:0:
418,291,5980,5,0,0:0:0:0:
289,342,6375,1,0,0:0:0:0:
138,245,6770,1,0,0:0:0:0:
117,367,7165,1,0,0:0:0:0:
60,165,7559,5,0,0:0:0:0:
120,136,7855,1,0,0:0:0:0:
164,85,8151,1,0,0:0:0:0:
291,169,9138,5,0,0:0:0:0:
331,223,9434,1,0,0:0:0:0:
334,290,9730,1,0,0:0:0:0:
208,194,10717,5,0,0:0:0:0:
275,192,11013,1,0,0:0:0:0:
336,165,11309,1,0,0:0:0:0:
373,54,11901,5,0,0:0:0:0:
437,218,12296,5,0,0:0:0:0:
359,160,12493,1,0,0:0:0:0:
332,244,12691,5,0,0:0:0:0:
280,131,12888,1,0,0:0:0:0:
230,228,13086,5,0,0:0:0:0:
205,76,13283,1,0,0:0:0:0:
141,180,13480,5,0,0:0:0:0:
149,11,13678,1,0,0:0:0:0:
91,159,13875,5,0,0:0:0:0:
30,265,14072,1,0,0:0:0:0:
153,220,14270,5,0,0:0:0:0:
132,352,14467,1,0,0:0:0:0:
241,232,14665,5,0,0:0:0:0:
321,370,14862,1,0,0:0:0:0:
348,233,15059,5,0,0:0:0:0:
507,327,15257,1,0,0:0:0:0:
458,183,15454,5,0,0:0:0:0:
368,26,15651,1,0,0:0:0:0:
337,130,15849,5,0,0:0:0:0:
180,21,16046,1,0,0:0:0:0:
246,132,16243,5,0,0:0:0:0:
45,132,16441,1,0,0:0:0:0:
190,197,16638,5,0,0:0:0:0:
30,308,16836,1,0,0:0:0:0:
73,269,18020,5,0,0:0:0:0:
190,191,18415,2,0,P|234:200|279:233,1,90
214,336,18809,1,0,0:0:0:0:
356,276,19007,2,0,P|361:231|359:186,1,90
355,164,19303,1,0,0:0:0:0:
345,143,19401,1,0,0:0:0:0:
205,96,19599,1,0,0:0:0:0:
336,9,19796,1,0,0:0:0:0:
251,127,19993,6,0,P|207:147|156:150,1,90
67,86,20388,1,0,0:0:0:0:
41,206,20586,1,0,0:0:0:0:
149,161,20783,1,0,0:0:0:0:
168,172,20882,1,0,0:0:0:0:
185,185,20980,1,0,0:0:0:0:
197,203,21079,1,0,0:0:0:0:
202,224,21178,1,0,0:0:0:0:
142,319,21375,1,0,0:0:0:0:
274,286,21572,6,0,P|285:242|280:198,1,90
224,115,21967,1,0,0:0:0:0:
352,127,22165,1,0,0:0:0:0:
257,34,22362,1,0,0:0:0:0:
236,24,22461,1,0,0:0:0:0:
213,23,22559,1,0,0:0:0:0:
191,29,22658,1,0,0:0:0:0:
177,46,22757,1,0,0:0:0:0:
127,157,22954,1,0,0:0:0:0:
226,130,23151,6,0,P|241:188|218:242,1,90
173,289,23546,1,0,0:0:0:0:
264,251,23743,1,0,0:0:0:0:
361,284,23941,1,0,0:0:0:0:
378,270,24040,1,0,0:0:0:0:
389,251,24138,1,0,0:0:0:0:
404,132,24336,1,0,0:0:0:0:
331,190,24533,1,0,0:0:0:0:
250,156,24730,6,0,P|248:111|256:67,1,90
334,10,25125,1,0,0:0:0:0:
229,80,25322,2,0,P|166:78|128:51,1,90
131,46,25618,1,0,0:0:0:0:
131,23,25717,1,0,0:0:0:0:
65,88,25914,1,0,0:0:0:0:
23,195,26112,1,0,0:0:0:0:
85,90,26309,5,0,0:0:0:0:
125,214,26704,1,0,0:0:0:0:
176,130,27099,1,0,0:0:0:0:
148,221,27296,1,0,0:0:0:0:
242,145,27493,5,0,0:0:0:0:
264,143,27592,1,0,0:0:0:0:
286,147,27691,1,0,0:0:0:0:
305,158,27789,1,0,0:0:0:0:
322,172,27888,6,0,P|367:174|423:142,1,90
443,52,28283,1,0,0:0:0:0:
355,84,28480,1,0,0:0:0:0:
282,27,28678,1,0,0:0:0:0:
259,27,28776,1,0,0:0:0:0:
237,34,28875,1,0,0:0:0:0:
194,131,29072,1,0,0:0:0:0:
133,27,29270,1,0,0:0:0:0:
118,171,29467,6,0,P|163:174|206:158,1,90
295,92,29862,1,0,0:0:0:0:
266,219,30059,1,0,0:0:0:0:
379,61,30257,1,0,0:0:0:0:
417,168,30651,2,0,P|365:173|320:163,1,90
201,88,31046,6,0,P|198:145|187:190,1,90
138,286,31441,1,0,0:0:0:0:
234,239,31638,2,0,P|281:229|339:240,1,90
339,248,31934,1,0,0:0:0:0:
342,270,32033,1,0,0:0:0:0:
272,334,32230,1,0,0:0:0:0:
424,299,32428,1,0,0:0:0:0:
510,205,32625,6,0,P|517:160|512:116,1,90
415,34,33020,1,0,0:0:0:0:
437,154,33217,1,0,0:0:0:0:
357,114,33414,2,0,P|294:107|244:120,1,90
176,200,33809,1,0,0:0:0:0:
200,67,34007,1,0,0:0:0:0:
257,228,34204,6,0,P|202:282|160:281,1,90
97,221,34599,1,0,0:0:0:0:
60,321,34796,1,0,0:0:0:0:
19,179,34993,1,0,0:0:0:0:
29,159,35092,1,0,0:0:0:0:
45,143,35191,1,0,0:0:0:0:
163,96,35388,1,0,0:0:0:0:
155,180,35586,1,0,0:0:0:0:
87,64,35783,6,0,P|116:30|157:12,1,90
319,62,36178,2,0,P|263:69|221:60,1,90
292,148,36572,1,0,0:0:0:0:
297,169,36671,1,0,0:0:0:0:
296,191,36770,1,0,0:0:0:0:
375,130,36967,1,0,0:0:0:0:
373,255,37164,1,0,0:0:0:0:
238,256,37362,6,0,P|145:264|31:339,1,225
186,377,38546,1,0,0:0:0:0:
181,358,38941,5,0,0:0:0:0:
299,314,39336,1,0,0:0:0:0:
271,249,39533,1,0,0:0:0:0:
283,177,39730,2,0,P|287:132|282:87,1,90
172,159,40520,6,0,P|194:153|215:133,1,45
157,78,40914,1,0,0:0:0:0:
87,120,41112,1,0,0:0:0:0:
49,191,41309,2,0,P|39:227|40:249,1,45
120,231,41704,1,0,0:0:0:0:
193,263,41901,1,0,0:0:0:0:
273,277,42099,6,0,P|297:272|318:256,1,45
261,199,42493,1,0,0:0:0:0:
293,124,42691,1,0,0:0:0:0:
373,112,42888,2,0,P|396:118|427:114,1,45
396,38,43283,1,0,0:0:0:0:
317,17,43480,1,0,0:0:0:0:
237,34,43678,6,0,P|192:51|135:39,1,90
249,124,44072,5,0,0:0:0:0:
147,207,44270,1,0,0:0:0:0:
289,286,44467,1,0,0:0:0:0:
289,286,44566,1,0,0:0:0:0:
289,286,44664,1,0,0:0:0:0:
231,208,44862,1,0,0:0:0:0:
116,287,45059,1,0,0:0:0:0:
131,126,45257,1,0,0:0:0:0:
50,217,45651,5,0,0:0:0:0:
116,109,45849,1,0,0:0:0:0:
201,252,46046,1,0,0:0:0:0:
201,252,46145,1,0,0:0:0:0:
201,252,46243,1,0,0:0:0:0:
132,194,46441,1,0,0:0:0:0:
226,129,46638,1,0,0:0:0:0:
336,129,46836,1,0,0:0:0:0:
304,231,47230,5,0,0:0:0:0:
322,123,47428,1,0,0:0:0:0:
373,275,47625,1,0,0:0:0:0:
350,297,47724,1,0,0:0:0:0:
320,307,47822,1,0,0:0:0:0:
235,257,48020,1,0,0:0:0:0:
201,349,48217,1,0,0:0:0:0:
119,266,48414,6,0,P|109:218|114:163,1,90
203,92,48809,1,0,0:0:0:0:
120,158,49007,1,0,0:0:0:0:
126,57,49204,5,0,0:0:0:0:
141,40,49303,1,0,0:0:0:0:
159,27,49401,1,0,0:0:0:0:
282,40,49599,1,0,0:0:0:0:
244,169,49796,1,0,0:0:0:0:
334,113,49993,1,0,0:0:0:0:
191,105,50191,6,0,P|156:155|179:269,1,180
314,342,50783,5,0,0:0:0:0:
302,216,50980,2,0,P|334:174|467:174,1,180
415,279,51572,1,0,0:0:0:0:
296,232,51770,1,0,0:0:0:0:
231,143,51967,2,0,P|225:93|231:29,1,90
318,37,52362,1,0,0:0:0:0:
235,161,52559,1,0,0:0:0:0:
93,205,52757,1,0,0:0:0:0:
118,75,52954,1,0,0:0:0:0:
152,252,53349,5,0,0:0:0:0:
245,324,53546,1,0,0:0:0:0:
148,266,53743,1,0,0:0:0:0:
243,341,53941,1,0,0:0:0:0:
367,343,54138,1,0,0:0:0:0:
445,257,54336,1,0,0:0:0:0:
303,248,54533,2,0,P|315:191|344:154,1,90
451,141,54928,1,0,0:0:0:0:
411,47,56309,5,0,0:0:0:0:
