osu file format v14

[General]
AudioFilename: Yuuki no Reason.mp3
AudioLeadIn: 1500
PreviewTime: 52478
Countdown: 0
SampleSet: Soft
StackLeniency: 0.7
Mode: 0
LetterboxInBreaks: 0
WidescreenStoryboard: 0

[Editor]
DistanceSpacing: 1.5
BeatDivisor: 2
GridSize: 4
TimelineZoom: 1.7

[Metadata]
Title:Yuuki no Reason
TitleUnicode:勇気のReason
Artist:Sonoda Umi(CV.Mimori Suzuko)
ArtistUnicode:園田海未(CV.三森すずこ)
Creator:Haruru
Version:Expert
Source:ラブライブ! School idol project
Tags:love live! μ's u's solo nasya n_a_s_y_a shirakai kacha homura- hmr kshr
BeatmapID:877655
BeatmapSetID:403625

[Difficulty]
HPDrainRate:6
CircleSize:3.8
OverallDifficulty:8
ApproachRate:9
SliderMultiplier:1.8
SliderTickRate:2

[Events]
//Background and Video events
0,0,"umi_141005_0001.jpg",0,0
//Break Periods
2,13510,17711
//Storyboard Layer 0 (Background)
//Storyboard Layer 1 (Fail)
//Storyboard Layer 2 (Pass)
//Storyboard Layer 3 (Foreground)
//Storyboard Sound Samples

[TimingPoints]
145,333.333333333333,4,2,2,40,1,0
145,-111.111111111111,4,2,2,40,0,0
2811,-100,4,2,2,50,0,0
18311,-117.647058823529,4,2,2,45,0,0
18811,-100,4,2,2,50,0,0
40144,-125,4,2,2,40,0,0
48144,-100,4,2,2,50,0,0
50811,-100,4,2,2,35,0,0
51478,-100,4,2,2,45,0,0
52144,-100,4,2,2,55,0,0
52644,-100,4,2,2,60,0,0
53311,-90.9090909090909,4,2,2,65,0,1
77311,-100,4,2,2,50,0,0
90811,-100,4,2,2,35,0,0
91478,-100,4,2,2,25,0,0
92144,-100,4,2,2,15,0,0
92811,-100,4,2,2,5,0,0

[Colours]
Combo1 : 0,0,232
Combo2 : 0,202,0
Combo3 : 18,124,255
Combo4 : 242,24,57
Combo5 : 255,192,0

[HitObjects]
164,168,145,6,0,L|160:80,1,80.9999975280763,2|0,0:0|0:0,0:0:0:0:
286,255,478,2,0,L|280:348,1,80.9999975280763,2|0,0:0|0:0,0:0:0:0:
64,320,811,2,0,P|36:252|84:152,1,161.999995056153,2|0,0:0|0:0,0:0:0:0:
240,116,1311,5,2,0:0:0:0:
40,76,1478,1,2,0:0:0:0:
144,244,1644,1,2,0:0:0:0:
260,96,1811,1,2,0:0:0:0:
84,168,1978,1,2,0:0:0:0:
292,248,2144,1,2,0:0:0:0:
124,372,2311,1,2,0:0:0:0:
124,372,2811,6,0,P|204:324|316:360,1,180,4|10,1:2|0:0,0:0:0:0:
424,276,3311,1,2,0:0:0:0:
424,276,3394,1,8,0:0:0:0:
424,276,3478,1,0,1:0:0:0:
272,204,3644,1,2,1:2:0:0:
288,368,3811,1,8,0:0:0:0:
363,152,3978,6,0,P|279:100|179:144,1,180,2|2,1:2|1:2,0:0:0:0:
112,252,4478,1,8,0:0:0:0:
272,204,4644,1,2,0:0:0:0:
272,204,4728,1,8,0:0:0:0:
272,204,4811,1,0,0:0:0:0:
80,96,4978,1,2,1:2:0:0:
32,296,5144,1,8,0:0:0:0:
32,296,5478,5,2,1:2:0:0:
156,132,5644,1,2,0:0:0:0:
156,352,5811,1,8,0:0:0:0:
316,216,5978,1,2,0:0:0:0:
316,216,6061,1,8,0:0:0:0:
316,216,6144,1,2,1:2:0:0:
156,244,6311,1,2,1:2:0:0:
336,372,6478,1,10,0:0:0:0:
428,200,6644,6,0,P|404:136|276:108,1,180,2|2,1:2|1:2,0:0:0:0:
92,208,7144,2,0,L|216:200,1,90,8|2,0:0|0:0,0:0:0:0:
212,200,7394,1,8,0:0:0:0:
212,200,7478,1,0,0:0:0:0:
72,88,7644,1,2,1:2:0:0:
108,328,7811,1,10,0:0:0:0:
108,328,8144,6,0,L|224:320,1,90,4|2,1:2|0:0,0:0:0:0:
392,208,8478,1,8,0:0:0:0:
212,240,8644,1,2,0:0:0:0:
212,240,8728,1,8,0:0:0:0:
212,240,8812,1,0,1:0:0:0:
344,376,8977,1,2,1:2:0:0:
316,136,9144,1,8,0:0:0:0:
128,268,9311,6,0,P|56:228|64:112,1,180,2|2,1:2|1:2,0:0:0:0:
208,36,9811,2,0,L|196:140,1,90,8|2,0:0|0:0,0:0:0:0:
192,158,10061,1,8,0:0:0:0:
192,158,10144,1,0,3:0:0:0:
56,116,10311,1,2,1:2:0:0:
296,144,10478,2,0,L|284:236,1,90,10|0,0:0|0:0,0:0:0:0:
88,364,10811,5,0,1:0:0:0:
88,364,10978,2,0,L|80:256,1,90,2|8,0:0|0:0,0:0:0:0:
72,128,11311,1,2,0:0:0:0:
72,128,11394,1,8,0:0:0:0:
72,128,11478,1,2,1:2:0:0:
216,244,11644,1,2,1:2:0:0:
248,64,11811,1,8,0:0:0:0:
127,250,11978,6,0,L|307:234,1,180,2|2,1:2|1:2,0:0:0:0:
180,140,12478,1,8,0:0:0:0:
336,76,12644,1,2,0:0:0:0:
336,76,12728,1,8,0:0:0:0:
336,76,12811,2,0,L|340:180,1,90,0|2,3:0|1:2,0:0:0:0:
197,346,13144,2,0,L|205:234,1,90,8|0,0:0|0:0,0:0:0:0:
156,172,18311,5,0,1:0:0:0:
384,136,18478,1,8,0:0:0:0:
400,128,18811,6,0,L|388:328,1,180,4|8,1:2|0:0,0:0:0:0:
248,212,19311,1,0,0:0:0:0:
248,212,19394,1,8,0:0:0:0:
248,212,19478,1,0,1:0:0:0:
232,384,19644,1,0,1:0:0:0:
340,208,19811,1,8,0:0:0:0:
96,128,19978,6,0,L|104:248,1,90,0|0,1:0|0:0,0:0:0:0:
232,384,20311,1,0,1:0:0:0:
320,276,20478,2,0,L|332:156,1,90,8|0,0:0|0:0,0:0:0:0:
236,128,20728,1,8,0:0:0:0:
236,128,20811,2,0,L|244:260,1,90,0|0,3:0|1:0,0:0:0:0:
336,52,21144,1,8,0:0:0:0:
336,52,21478,6,0,P|268:0|152:28,1,180,0|8,1:0|0:0,0:0:0:0:
76,136,21978,1,0,0:0:0:0:
76,136,22061,1,8,0:0:0:0:
76,136,22144,1,0,1:0:0:0:
236,148,22311,1,0,1:0:0:0:
48,56,22478,1,8,0:0:0:0:
48,280,22644,6,0,B|96:260|136:280|136:280|176:300|228:280,1,180,0|0,1:0|1:0,0:0:0:0:
320,204,23144,1,8,0:0:0:0:
172,104,23311,1,0,0:0:0:0:
172,104,23394,1,8,0:0:0:0:
172,104,23478,2,0,L|180:216,1,90,0|0,3:0|1:0,0:0:0:0:
304,376,23811,2,0,L|312:276,1,90,8|0,0:0|0:0,0:0:0:0:
60,168,24144,6,0,L|76:348,1,180,0|8,1:0|0:0,0:0:0:0:
184,220,24644,1,0,0:0:0:0:
184,220,24728,1,8,0:0:0:0:
184,220,24811,1,0,1:0:0:0:
24,280,24978,1,0,1:0:0:0:
164,384,25144,1,8,0:0:0:0:
200,192,25311,6,0,P|264:136|384:168,1,180,0|0,1:0|1:0,0:0:0:0:
468,228,25811,1,8,0:0:0:0:
293,329,25978,1,0,0:0:0:0:
293,329,26061,1,8,0:0:0:0:
293,329,26144,2,0,L|300:240,1,90,0|0,3:0|1:0,0:0:0:0:
160,56,26478,2,0,L|168:188,1,90,8|0,0:0|0:0,0:0:0:0:
400,300,26811,6,0,P|416:204|356:140,1,180,0|8,1:0|0:0,0:0:0:0:
160,212,27311,1,0,0:0:0:0:
182,214,27394,1,8,0:0:0:0:
204,216,27477,1,0,1:0:0:0:
124,104,27644,1,0,1:0:0:0:
144,304,27811,1,8,0:0:0:0:
320,176,27978,6,0,P|328:136|304:52,1,90,0|0,1:0|0:0,0:0:0:0:
120,24,28311,1,0,1:0:0:0:
240,140,28478,1,8,0:0:0:0:
88,184,28644,1,0,0:0:0:0:
88,184,28728,1,8,0:0:0:0:
88,184,28811,1,0,3:0:0:0:
228,40,28978,1,0,1:0:0:0:
284,220,29144,2,0,L|268:336,1,90,8|0,0:0|0:0,0:0:0:0:
48,372,29478,6,0,P|8:300|72:204,1,180,4|8,1:2|0:0,0:0:0:0:
172,336,29978,1,0,0:0:0:0:
172,336,30061,1,8,0:0:0:0:
172,336,30144,2,0,L|296:324,1,90,0|0,1:0|1:0,0:0:0:0:
396,312,30478,1,8,0:0:0:0:
244,96,30644,6,0,L|252:212,1,90,0|0,1:0|0:0,0:0:0:0:
396,312,30978,1,0,1:0:0:0:
396,312,31144,2,0,L|404:204,1,90,8|0,0:0|0:0,0:0:0:0:
407,188,31394,1,8,0:0:0:0:
407,188,31477,1,0,3:0:0:0:
292,240,31644,1,0,1:0:0:0:
313,115,31811,1,8,0:0:0:0:
341,311,31978,1,0,0:0:0:0:
168,196,32144,6,0,P|80:184|8:232,1,180,0|8,1:0|0:0,0:0:0:0:
104,380,32644,1,0,0:0:0:0:
104,380,32728,1,8,0:0:0:0:
104,380,32811,2,0,P|112:332|112:272,1,90,0|0,1:0|1:0,0:0:0:0:
88,112,33144,1,8,0:0:0:0:
204,328,33311,6,0,L|384:308,1,180,0|0,1:0|1:0,0:0:0:0:
488,200,33811,1,8,0:0:0:0:
328,120,33978,1,0,0:0:0:0:
328,120,34061,1,8,0:0:0:0:
328,120,34144,1,0,3:0:0:0:
468,16,34311,1,0,1:0:0:0:
308,136,34478,2,0,L|312:248,1,90,8|0,0:0|0:0,0:0:0:0:
212,376,34811,6,0,P|116:344|100:264,1,180,0|8,1:0|0:0,0:0:0:0:
168,136,35311,1,0,0:0:0:0:
168,136,35394,1,8,0:0:0:0:
168,136,35478,1,0,1:0:0:0:
40,224,35644,1,0,1:0:0:0:
32,80,35811,1,8,0:0:0:0:
144,232,35978,6,0,P|232:216|256:104,1,180,0|0,1:0|1:0,0:0:0:0:
176,28,36478,1,8,0:0:0:0:
368,144,36644,1,0,0:0:0:0:
368,144,36728,1,8,0:0:0:0:
368,144,36811,2,0,L|360:264,1,90,0|0,3:0|1:0,0:0:0:0:
232,360,37144,2,0,L|228:252,1,90,8|0,0:0|0:0,0:0:0:0:
288,72,37478,6,0,P|184:24|112:68,1,180,0|8,1:0|0:0,0:0:0:0:
56,184,37978,1,0,0:0:0:0:
56,184,38061,1,8,0:0:0:0:
56,184,38144,1,0,1:0:0:0:
200,120,38311,1,0,1:0:0:0:
0,36,38478,1,8,0:0:0:0:
64,204,38644,6,0,L|272:192,1,180,0|0,1:0|1:0,0:0:0:0:
392,128,39144,1,8,0:0:0:0:
200,40,39311,1,0,0:0:0:0:
200,40,39394,1,8,0:0:0:0:
200,40,39478,1,0,3:0:0:0:
408,128,39644,1,8,0:0:0:0:
224,260,39811,1,8,0:3:0:0:
224,260,40144,6,0,P|160:228|72:248,1,144,4|0,1:2|0:0,0:0:0:0:
12,296,40644,1,0,1:0:0:0:
12,296,40811,2,0,L|20:372,1,72,8|0,0:0|0:0,0:0:0:0:
104,224,41144,2,0,L|108:148,1,72,0|8,1:0|0:0,0:0:0:0:
4,52,41478,1,0,1:0:0:0:
4,52,41644,2,0,L|12:208,1,144,0|0,1:0|1:0,0:0:0:0:
112,324,42144,2,0,P|176:288|264:292,1,144,8|0,0:0|1:0,0:0:0:0:
328,340,42644,1,8,0:0:0:0:
404,276,42811,6,0,L|412:120,1,144,0|0,1:0|0:0,0:0:0:0:
296,56,43311,1,0,1:0:0:0:
296,56,43478,2,0,L|300:156,1,72,8|0,0:0|0:0,0:0:0:0:
192,208,43811,2,0,L|196:120,1,72,0|8,1:0|0:0,0:0:0:0:
84,48,44144,2,0,L|92:216,1,144,0|0,1:0|0:0,0:0:0:0:
128,292,44644,1,0,1:0:0:0:
20,340,44811,2,0,L|24:260,1,72,8|0,0:0|0:0,0:0:0:0:
192,132,45144,2,0,L|196:232,1,72,0|8,1:0|0:0,0:0:0:0:
328,360,45478,6,0,P|376:300|360:208,1,144,0|0,1:0|0:0,0:0:0:0:
312,128,45978,1,0,1:0:0:0:
480,164,46144,1,8,0:0:0:0:
480,164,46478,2,0,L|472:248,1,72,0|8,1:0|0:0,0:0:0:0:
392,336,46811,2,0,P|328:288|256:288,1,144,0|0,1:0|0:0,0:0:0:0:
180,340,47311,1,0,1:0:0:0:
180,340,47478,2,0,B|168:280|168:280|188:172,1,144,8|0,0:0|1:0,0:0:0:0:
396,64,48144,6,0,L|384:188,1,90,4|0,1:2|0:0,0:0:0:0:
296,268,48478,1,8,0:0:0:0:
264,92,48644,1,0,0:0:0:0:
264,92,48728,1,8,0:0:0:0:
264,92,48811,1,0,1:0:0:0:
136,208,48978,1,0,1:0:0:0:
280,80,49144,1,8,0:0:0:0:
108,36,49311,6,0,L|120:216,1,180,0|0,1:0|1:0,0:0:0:0:
200,336,49811,1,8,0:0:0:0:
316,232,49978,1,0,1:0:0:0:
316,232,50061,1,8,0:0:0:0:
316,232,50144,2,0,L|436:224,1,90,0|0,1:0|1:0,0:0:0:0:
288,112,50478,1,8,0:0:0:0:
288,112,50811,5,8,0:0:0:0:
196,287,50978,1,8,0:0:0:0:
155,153,51144,1,8,0:0:0:0:
329,246,51311,1,8,0:0:0:0:
252,32,51478,5,8,0:0:0:0:
224,216,51644,1,8,0:0:0:0:
404,152,51811,1,8,0:0:0:0:
304,340,51978,1,8,0:0:0:0:
292,132,52144,5,8,0:0:0:0:
120,236,52311,1,8,0:0:0:0:
216,48,52478,1,8,0:0:0:0:
272,264,52644,1,8,0:0:0:0:
272,264,52728,1,8,0:0:0:0:
272,264,52811,2,0,L|280:196,1,45,8|8,0:0|0:0,0:0:0:0:
96,80,52978,2,0,L|100:152,1,45,8|8,0:0|0:0,0:0:0:0:
352,356,53311,6,0,P|392:272|332:168,1,198.000006042481,4|0,1:2|1:0,0:0:0:0:
152,124,53811,1,8,0:0:0:0:
328,88,53978,1,0,0:0:0:0:
328,88,54061,1,8,0:0:0:0:
328,88,54144,1,0,1:0:0:0:
156,40,54311,1,0,1:0:0:0:
280,252,54478,1,8,0:0:0:0:
92,384,54644,6,0,P|60:284|124:196,1,198.000006042481,0|0,1:0|1:0,0:0:0:0:
220,148,55144,1,8,0:0:0:0:
48,84,55311,1,0,0:0:0:0:
48,84,55394,1,8,0:0:0:0:
48,84,55478,1,0,3:0:0:0:
200,244,55644,1,0,1:0:0:0:
264,40,55811,1,8,0:0:0:0:
92,156,55978,6,0,B|76:212|92:252|92:252|108:292|92:356,1,198.000006042481,0|0,1:0|1:0,0:0:0:0:
184,200,56478,1,8,0:0:0:0:
0,300,56644,1,0,0:0:0:0:
0,300,56728,1,8,0:0:0:0:
0,300,56811,1,0,1:0:0:0:
184,200,56978,1,0,1:0:0:0:
20,96,57144,1,8,0:0:0:0:
144,296,57311,6,0,P|236:288|284:184,1,198.000006042481,0|0,1:0|1:0,0:0:0:0:
184,68,57811,1,8,0:0:0:0:
184,68,57894,1,0,0:0:0:0:
184,68,57978,2,0,L|192:136,1,49.5000015106202,0|8,0:0|0:0,0:0:0:0:
352,288,58145,1,0,3:0:0:0:
352,288,58228,1,0,0:0:0:0:
352,288,58311,2,0,L|362:214,1,49.5000015106202,0|0,1:0|0:0,0:0:0:0:
384,64,58478,1,8,0:0:0:0:
188,224,58644,6,0,P|94:167|112:56,1,198.000006042481,0|0,1:0|1:0,0:0:0:0:
284,12,59144,1,8,0:0:0:0:
180,128,59311,1,0,0:0:0:0:
180,128,59394,1,8,0:0:0:0:
180,128,59478,1,0,1:0:0:0:
340,160,59644,1,0,1:0:0:0:
156,124,59811,1,8,0:0:0:0:
220,296,59978,6,0,B|288:288|288:288|348:304|348:304|416:296,1,198.000006042481,0|0,1:0|1:0,0:0:0:0:
356,204,60478,1,8,0:0:0:0:
284,384,60644,1,0,0:0:0:0:
284,384,60728,1,8,0:0:0:0:
284,384,60811,2,0,L|160:372,1,99.0000030212403,0|0,3:0|1:0,0:0:0:0:
40,272,61144,1,8,0:0:0:0:
204,40,61311,6,0,L|192:200,1,148.50000453186,0|0,1:0|0:0,0:0:0:0:
144,280,61644,1,0,1:0:0:0:
144,280,61728,1,0,0:0:0:0:
144,280,61811,2,0,L|140:208,1,49.5000015106202,8|0,0:0|0:0,0:0:0:0:
280,124,61978,2,0,L|276:208,1,49.5000015106202,0|8,0:0|0:0,0:0:0:0:
300,340,62144,1,0,1:0:0:0:
337,337,62227,1,0,0:0:0:0:
374,334,62310,1,0,1:0:0:0:
411,332,62394,1,0,0:0:0:0:
448,329,62477,1,8,0:0:0:0:
500,128,62644,6,0,P|448:52|340:52,1,198.000006042481,0|0,1:0|1:0,0:0:0:0:
280,204,63144,2,0,B|228:224|184:204|184:204|136:180|88:204,1,198.000006042481,8|8,0:0|0:0,0:0:0:0:
144,336,63644,2,0,L|136:260,1,49.5000015106202,8|0,0:3|0:0,0:0:0:0:
236,72,63811,2,0,L|228:152,1,49.5000015106202,4|0,0:3|0:0,0:0:0:0:
272,340,63978,6,0,P|360:328|392:220,1,198.000006042481,4|0,1:2|1:0,0:0:0:0:
320,104,64478,1,8,0:0:0:0:
492,220,64644,1,0,0:0:0:0:
492,220,64728,1,8,0:0:0:0:
492,220,64811,2,0,L|476:340,1,99.0000030212403,0|0,1:0|1:0,0:0:0:0:
316,368,65144,1,8,0:0:0:0:
163,235,65311,6,0,P|203:167|315:159,1,198.000006042481,0|0,1:0|1:0,0:0:0:0:
436,252,65811,1,8,0:0:0:0:
342,89,65978,1,0,0:0:0:0:
342,89,66061,1,8,0:0:0:0:
342,89,66144,1,0,3:0:0:0:
261,250,66311,2,0,L|153:234,1,99.0000030212403,0|8,1:0|0:0,0:0:0:0:
24,120,66644,6,0,P|64:44|192:40,1,198.000006042481,0|0,1:0|1:0,0:0:0:0:
312,84,67144,1,8,0:0:0:0:
132,124,67311,1,0,0:0:0:0:
132,124,67394,1,8,0:0:0:0:
132,124,67478,1,0,1:0:0:0:
256,264,67644,1,0,1:0:0:0:
208,44,67811,1,8,0:0:0:0:
40,192,67978,6,0,L|56:392,1,198.000006042481,0|0,1:0|1:0,0:0:0:0:
184,240,68478,1,8,0:0:0:0:
184,240,68561,1,0,0:0:0:0:
184,240,68644,2,0,L|192:164,1,49.5000015106202,0|8,0:0|0:0,0:0:0:0:
292,40,68811,1,0,3:0:0:0:
292,40,68894,1,0,0:0:0:0:
292,40,68978,2,0,L|304:120,1,49.5000015106202,0|0,1:0|0:0,0:0:0:0:
332,280,69144,1,8,0:0:0:0:
100,324,69311,6,0,P|68:232|124:140,1,198.000006042481,0|0,1:0|1:0,0:0:0:0:
208,40,69811,1,8,0:0:0:0:
24,128,69978,1,0,0:0:0:0:
24,128,70061,1,8,0:0:0:0:
24,128,70144,1,0,1:0:0:0:
184,240,70311,2,0,L|328:232,1,99.0000030212403,0|8,1:0|0:0,0:0:0:0:
480,136,70644,6,0,P|448:48|320:40,1,198.000006042481,0|0,1:0|1:0,0:0:0:0:
240,128,71144,1,8,0:0:0:0:
240,128,71228,1,0,0:0:0:0:
240,128,71311,2,0,L|248:208,1,49.5000015106202,0|8,0:0|0:0,0:0:0:0:
352,344,71478,1,0,3:0:0:0:
352,344,71561,1,0,0:0:0:0:
352,344,71644,2,0,L|364:264,1,49.5000015106202,0|0,1:0|0:0,0:0:0:0:
384,120,71811,1,8,0:0:0:0:
208,308,71978,6,0,P|112:276|96:172,1,198.000006042481,4|0,1:2|1:0,0:0:0:0:
272,56,72478,2,0,L|264:176,1,99.0000030212403,8|0,0:0|0:0,0:0:0:0:
380,360,72811,1,0,1:0:0:0:
412,176,72978,1,0,1:0:0:0:
236,236,73144,1,8,0:0:0:0:
472,328,73311,6,0,L|488:208,1,99.0000030212403,4|0,1:2|0:0,0:0:0:0:
332,64,73644,1,0,1:0:0:0:
332,64,73728,1,0,0:0:0:0:
332,64,73811,2,0,L|340:152,1,49.5000015106202,8|0,0:0|0:0,0:0:0:0:
348,216,73978,1,0,0:0:0:0:
208,152,74144,1,0,1:0:0:0:
440,104,74311,2,0,L|456:232,1,99.0000030212403,0|8,1:0|0:0,0:0:0:0:
344,320,74644,6,0,P|264:256|152:276,1,198.000006042481,4|0,1:2|1:0,0:0:0:0:
64,368,75144,2,0,L|56:248,1,99.0000030212403,8|0,0:0|0:0,0:0:0:0:
112,72,75478,1,8,0:0:0:0:
160,276,75644,1,0,1:0:0:0:
312,124,75811,1,8,0:0:0:0:
112,184,75978,1,0,1:0:0:0:
112,184,76061,1,0,0:0:0:0:
112,184,76144,5,8,0:0:0:0:
260,332,76311,1,0,1:0:0:0:
182,51,76478,2,0,L|184:168,1,99.0000030212403,8|0,0:0|0:0,0:0:0:0:
356,312,76811,1,8,0:0:0:0:
392,88,76978,1,0,1:0:0:0:
392,88,77061,1,0,0:0:0:0:
392,88,77144,1,8,0:0:0:0:
184,252,77311,6,0,P|112:224|88:116,1,180,4|2,1:2|1:2,0:0:0:0:
292,32,77811,1,8,0:0:0:0:
312,260,77978,1,2,0:0:0:0:
312,260,78061,1,8,0:0:0:0:
312,260,78144,1,0,1:0:0:0:
176,152,78311,1,2,1:2:0:0:
144,320,78478,1,8,0:0:0:0:
272,120,78644,6,0,P|223:62|108:80,1,180,2|2,1:2|1:2,0:0:0:0:
0,184,79144,1,8,0:0:0:0:
160,316,79311,1,2,0:0:0:0:
160,316,79394,1,8,0:0:0:0:
160,316,79478,2,0,P|166:267|160:212,1,90,0|2,3:0|1:2,0:0:0:0:
36,92,79811,1,10,0:0:0:0:
188,160,79978,1,2,0:0:0:0:
168,0,80144,5,0,1:0:0:0:
48,196,80311,1,2,0:0:0:0:
276,188,80478,1,8,0:0:0:0:
120,104,80644,1,2,0:0:0:0:
120,104,80728,1,8,0:0:0:0:
120,104,80811,1,2,1:2:0:0:
312,176,80978,1,2,1:2:0:0:
144,312,81144,1,8,0:0:0:0:
344,384,81311,6,0,P|392:296|348:208,1,180,2|2,1:2|1:2,0:0:0:0:
240,144,81811,1,8,0:0:0:0:
436,92,81978,1,2,0:0:0:0:
436,92,82061,1,8,0:0:0:0:
436,92,82144,2,0,L|448:224,1,90,2|0,3:2|1:0,0:0:0:0:
264,324,82478,2,0,L|272:204,1,90,10|2,0:0|0:0,0:0:0:0:
160,28,82811,5,4,1:2:0:0:
320,148,82978,1,2,0:0:0:0:
136,236,83144,1,8,0:0:0:0:
240,92,83311,1,2,0:0:0:0:
240,92,83394,1,8,0:0:0:0:
240,92,83478,1,2,1:2:0:0:
0,128,83644,2,0,L|8:252,1,90,2|8,1:2|0:0,0:0:0:0:
232,348,83978,6,0,P|288:284|252:180,1,180,2|2,1:2|1:2,0:0:0:0:
136,100,84478,1,8,0:0:0:0:
192,256,84644,1,2,0:0:0:0:
192,256,84728,1,8,0:0:0:0:
192,256,84811,1,2,3:2:0:0:
28,224,84978,1,2,1:2:0:0:
272,132,85144,2,0,L|264:264,1,90,8|2,0:0|0:0,0:0:0:0:
35,339,85478,6,0,L|27:211,1,90,0|2,1:0|0:0,0:0:0:0:
68,24,85811,1,8,0:0:0:0:
144,188,85978,1,2,0:0:0:0:
144,188,86061,1,8,0:0:0:0:
144,188,86144,1,2,1:2:0:0:
236,40,86311,1,2,1:2:0:0:
56,152,86478,1,8,0:0:0:0:
244,256,86644,6,0,B|304:252|304:252|364:264|364:264|424:256,1,180,2|2,1:2|1:2,0:0:0:0:
368,156,87144,1,8,0:0:0:0:
288,352,87311,1,2,0:0:0:0:
288,352,87394,1,8,0:0:0:0:
288,352,87478,2,0,L|168:340,1,90,2|2,3:2|1:2,0:0:0:0:
104,144,87811,1,8,0:0:0:0:
344,264,87978,1,4,1:2:0:0:
256,192,88061,12,0,93478,0:0:0:0:
