osu file format v14

[General]
AudioFilename: audio.mp3
AudioLeadIn: 0
PreviewTime: 91596
Countdown: 0
SampleSet: Soft
StackLeniency: 0.5
Mode: 3
LetterboxInBreaks: 0
SpecialStyle: 0
WidescreenStoryboard: 1

[Editor]
Bookmarks: 60857,91678,108070,123809
DistanceSpacing: 0.8
BeatDivisor: 4
GridSize: 4
TimelineZoom: 1.999999

[Metadata]
Title:Watashitachi wa Mirai no Hana
TitleUnicode:私たちは未来の花
Artist:Sonoda Umi (CV.Mimori Suzuko)
ArtistUnicode:園田海未(CV.三森すずこ)
Creator:DakkyChan
Version:Dakky's Love Arrow Shoot
Source:ラブライブ! School idol project
Tags:Love Live 海色少女に魅せられて μ's u's 7odoa
BeatmapID:1687653
BeatmapSetID:803990

[Difficulty]
HPDrainRate:7
CircleSize:4
OverallDifficulty:8
ApproachRate:9.3
SliderMultiplier:1.8
SliderTickRate:1

[Events]
//Background and Video events
0,0,"BG Umi.jpg",0,0
//Break Periods
//Storyboard Layer 0 (Background)
//Storyboard Layer 1 (Fail)
//Storyboard Layer 2 (Pass)
//Storyboard Layer 3 (Foreground)
//Storyboard Sound Samples

[TimingPoints]
4049,909.090909090909,4,2,10,55,1,0
4049,-36.101083032491,4,2,10,55,0,0
6776,-36.101083032491,4,2,10,55,0,0
14957,327.868852459016,4,2,1,70,1,0
92334,-100,4,2,10,70,0,1
108071,-100,4,2,1,70,0,0
113317,-100,4,2,10,70,0,1
123809,-100,4,2,1,70,0,0

[Colours]
Combo1 : 255,128,128
Combo2 : 128,128,255
Combo3 : 0,128,192
Combo4 : 255,128,255

[HitObjects]
64,192,6776,128,0,7230:0:0:0:0:
192,192,6776,128,0,7685:0:0:0:0:
448,192,6776,1,0,0:0:0:0:
320,192,6776,1,0,0:0:0:0:
448,192,7230,128,0,7685:0:0:0:0:
320,192,7230,1,0,0:0:0:0:
64,192,7685,128,0,8594:0:0:0:0:
320,192,7685,1,0,0:0:0:0:
448,192,7912,1,0,0:0:0:0:
320,192,8139,128,0,9049:0:0:0:0:
448,192,8139,1,0,0:0:0:0:
192,192,8367,1,0,0:0:0:0:
448,192,8594,128,0,9503:0:0:0:0:
192,192,8594,1,0,0:0:0:0:
64,192,8821,1,0,0:0:0:0:
192,192,9049,128,0,9958:0:0:0:0:
64,192,9049,1,0,0:0:0:0:
320,192,9276,1,0,0:0:0:0:
64,192,9503,128,8,10412:0:0:0:0:
320,192,9503,1,0,0:0:0:0:
448,192,9730,1,0,0:0:0:0:
320,192,9958,128,0,10867:0:0:0:0:
448,192,9958,1,0,0:0:0:0:
192,192,10185,1,0,0:0:0:0:
448,192,10412,128,4,11321:0:0:0:0:
192,192,10412,1,8,0:0:0:0:
64,192,10639,1,0,0:0:0:0:
192,192,10867,128,0,11776:0:0:0:0:
64,192,10867,1,0,0:0:0:0:
320,192,11094,1,0,0:0:0:0:
64,192,11321,128,8,12230:0:0:0:0:
320,192,11321,1,4,0:0:0:0:
448,192,11549,1,0,0:0:0:0:
320,192,11776,128,0,14958:0:0:0:0:
448,192,11776,1,0,0:0:0:0:
192,192,12003,1,0,0:0:0:0:
448,192,12230,128,0,14503:0:0:0:0:
192,192,12230,1,8,0:0:0:0:
64,192,12458,1,0,0:0:0:0:
192,192,12685,128,0,14958:0:0:0:0:
64,192,12685,1,8,0:0:0:0:
64,192,12912,1,0,0:0:0:0:
64,192,13139,128,0,14957:0:0:0:0:
448,192,14957,128,0,15284:0:0:0:0:
64,192,15284,128,0,15612:0:0:0:0:
192,192,15284,1,0,0:0:0:0:
320,192,15284,1,0,0:0:0:0:
448,192,15612,128,0,15776:0:0:0:0:
192,192,15612,1,0,3:0:0:0:
320,192,15612,1,0,3:0:0:0:
64,192,15776,128,0,16104:0:0:0:0:
320,192,15776,1,0,3:0:0:0:
192,192,15776,1,0,3:0:0:0:
192,192,16104,1,0,0:0:0:0:
448,192,16104,128,0,16759:0:0:0:0:
320,192,16104,128,0,16759:0:0:0:0:
64,192,16267,1,0,0:0:0:0:
192,192,16431,1,0,0:0:0:0:
64,192,16595,1,0,0:0:0:0:
192,192,16759,128,0,16923:0:0:0:0:
448,192,16923,128,0,17087:0:0:0:0:
64,192,17087,128,0,17251:0:0:0:0:
192,192,17087,128,0,17251:0:0:0:0:
320,192,17251,128,0,17415:0:0:0:0:
64,192,17415,128,0,18071:0:0:0:0:
192,192,17415,128,0,18071:0:0:0:0:
448,192,17579,1,0,0:0:0:0:
320,192,17743,1,0,0:0:0:0:
448,192,17907,1,0,0:0:0:0:
320,192,18071,128,0,18235:0:0:0:0:
64,192,18235,128,0,18399:0:0:0:0:
320,192,18399,128,0,18563:0:0:0:0:
448,192,18399,128,0,18563:0:0:0:0:
192,192,18563,128,0,18726:0:0:0:0:
448,192,18726,1,0,0:0:0:0:
320,192,18808,1,0,0:0:0:0:
192,192,18890,1,0,0:0:0:0:
64,192,18890,1,0,0:0:0:0:
320,192,18972,1,0,0:0:0:0:
64,192,19054,1,0,0:0:0:0:
448,192,19054,1,0,0:0:0:0:
192,192,19136,1,0,0:0:0:0:
448,192,19218,1,0,0:0:0:0:
320,192,19218,1,0,0:0:0:0:
64,192,19300,1,0,0:0:0:0:
192,192,19382,1,0,0:0:0:0:
320,192,19382,1,0,0:0:0:0:
448,192,19464,1,0,0:0:0:0:
192,192,19546,1,0,0:0:0:0:
320,192,19546,1,0,0:0:0:0:
64,192,19628,1,0,0:0:0:0:
448,192,19710,1,0,0:0:0:0:
320,192,19710,1,0,0:0:0:0:
192,192,19792,1,0,0:0:0:0:
64,192,19874,1,0,0:0:0:0:
320,192,19874,1,0,0:0:0:0:
448,192,19956,1,0,0:0:0:0:
192,192,20038,1,0,0:0:0:0:
64,192,20038,1,0,0:0:0:0:
320,192,20120,1,0,0:0:0:0:
64,192,20202,1,0,0:0:0:0:
192,192,20202,1,0,0:0:0:0:
448,192,20284,1,0,0:0:0:0:
320,192,20284,1,0,0:0:0:0:
192,192,20366,1,0,0:0:0:0:
64,192,20366,1,0,0:0:0:0:
448,192,20448,1,0,0:0:0:0:
320,192,20448,1,0,0:0:0:0:
64,192,20530,1,0,0:0:0:0:
192,192,20530,1,0,0:0:0:0:
448,192,20612,1,0,0:0:0:0:
320,192,20612,1,0,0:0:0:0:
192,192,20694,1,0,0:0:0:0:
448,192,20776,1,0,0:0:0:0:
320,192,20776,1,0,0:0:0:0:
192,192,20858,1,0,0:0:0:0:
64,192,20858,1,0,3:0:0:0:
320,192,20940,1,0,0:0:0:0:
192,192,21022,1,0,0:0:0:0:
64,192,21022,1,0,3:0:0:0:
448,192,21103,1,0,0:0:0:0:
320,192,21103,1,0,0:0:0:0:
64,192,21185,1,0,0:0:0:0:
192,192,21185,1,0,0:0:0:0:
448,192,21267,1,0,0:0:0:0:
320,192,21267,1,0,0:0:0:0:
64,192,21349,1,0,0:0:0:0:
192,192,21390,1,0,0:0:0:0:
320,192,21431,1,0,0:0:0:0:
448,192,21472,1,0,0:0:0:0:
64,192,21513,1,0,0:0:0:0:
320,192,21594,1,0,0:0:0:0:
192,192,21676,1,0,0:0:0:0:
448,192,21676,1,0,0:0:0:0:
64,192,21758,1,0,0:0:0:0:
448,192,21840,1,8,0:0:0:0:
320,192,21881,1,0,0:0:0:0:
192,192,21922,1,0,0:0:0:0:
64,192,21963,1,0,0:0:0:0:
448,192,22004,1,0,0:0:0:0:
320,192,22086,1,0,0:0:0:0:
192,192,22168,1,0,0:0:0:0:
64,192,22168,1,0,0:0:0:0:
320,192,22250,1,0,0:0:0:0:
448,192,22332,1,0,0:0:0:0:
192,192,22332,1,0,0:0:0:0:
320,192,22414,1,0,0:0:0:0:
64,192,22496,1,8,0:0:0:0:
192,192,22537,1,0,0:0:0:0:
320,192,22578,1,0,0:0:0:0:
448,192,22619,1,0,0:0:0:0:
64,192,22660,1,0,0:0:0:0:
192,192,22742,1,0,0:0:0:0:
448,192,22824,1,2,0:0:0:0:
320,192,22824,1,2,0:0:0:0:
192,192,22906,1,0,0:0:0:0:
64,192,22988,1,0,0:0:0:0:
320,192,22988,1,0,0:0:0:0:
192,192,23070,1,0,0:0:0:0:
448,192,23152,1,10,0:0:0:0:
320,192,23193,1,0,0:0:0:0:
192,192,23234,1,0,0:0:0:0:
64,192,23275,1,0,0:0:0:0:
448,192,23316,1,0,0:0:0:0:
320,192,23398,1,0,0:0:0:0:
448,192,23480,1,2,0:0:0:0:
64,192,23480,1,2,0:0:0:0:
192,192,23562,1,0,0:0:0:0:
64,192,23644,1,0,0:0:0:0:
320,192,23644,1,0,0:0:0:0:
448,192,23726,1,0,0:0:0:0:
64,192,23808,1,10,0:0:0:0:
192,192,23849,1,0,0:0:0:0:
320,192,23890,1,0,0:0:0:0:
448,192,23931,1,0,0:0:0:0:
64,192,23972,1,0,0:0:0:0:
192,192,24053,1,0,0:0:0:0:
64,192,24135,1,2,0:0:0:0:
448,192,24135,1,2,0:0:0:0:
320,192,24217,1,0,0:0:0:0:
64,192,24299,1,0,0:0:0:0:
448,192,24299,1,0,0:0:0:0:
192,192,24381,1,0,0:0:0:0:
448,192,24463,1,10,0:0:0:0:
320,192,24504,1,0,0:0:0:0:
192,192,24545,1,0,0:0:0:0:
64,192,24586,1,0,0:0:0:0:
448,192,24627,1,0,0:0:0:0:
320,192,24709,1,0,0:0:0:0:
448,192,24791,1,2,0:0:0:0:
64,192,24791,1,2,0:0:0:0:
192,192,24873,1,0,0:0:0:0:
64,192,24955,1,0,0:0:0:0:
448,192,24955,1,0,0:0:0:0:
320,192,25037,1,0,0:0:0:0:
64,192,25119,1,8,0:0:0:0:
192,192,25160,1,0,0:0:0:0:
320,192,25201,1,0,0:0:0:0:
448,192,25242,1,0,0:0:0:0:
64,192,25283,1,4,0:0:0:0:
192,192,25365,1,0,3:0:0:0:
448,192,25447,1,2,0:0:0:0:
320,192,25447,1,2,0:0:0:0:
192,192,25529,1,0,0:0:0:0:
64,192,25611,1,0,0:0:0:0:
320,192,25611,1,0,0:0:0:0:
192,192,25693,1,0,0:0:0:0:
320,192,25775,1,0,0:0:0:0:
192,192,25857,1,0,0:0:0:0:
64,192,25857,1,0,0:0:0:0:
320,192,25939,1,0,0:0:0:0:
448,192,25939,1,0,0:0:0:0:
192,192,26021,1,0,0:0:0:0:
448,192,26103,1,2,0:0:0:0:
320,192,26103,1,0,0:0:0:0:
192,192,26185,1,0,0:0:0:0:
64,192,26185,1,0,0:0:0:0:
320,192,26267,1,0,0:0:0:0:
192,192,26349,1,0,0:0:0:0:
64,192,26349,1,0,0:0:0:0:
448,192,26431,1,8,0:0:0:0:
320,192,26431,1,0,0:0:0:0:
192,192,26512,1,0,0:0:0:0:
448,192,26594,1,8,0:0:0:0:
320,192,26594,1,0,0:0:0:0:
192,192,26676,1,0,3:0:0:0:
64,192,26676,1,0,0:0:0:0:
448,192,26758,1,4,0:0:0:0:
320,192,26758,1,0,0:0:0:0:
192,192,26840,1,0,0:0:0:0:
320,192,26922,1,0,0:0:0:0:
64,192,26922,1,0,0:0:0:0:
448,192,27004,1,0,0:0:0:0:
64,192,27086,1,8,0:0:0:0:
192,192,27127,1,0,0:0:0:0:
320,192,27168,1,0,0:0:0:0:
448,192,27209,1,0,0:0:0:0:
64,192,27250,1,0,0:0:0:0:
192,192,27332,1,0,0:0:0:0:
448,192,27414,1,0,0:0:0:0:
320,192,27414,1,0,0:0:0:0:
192,192,27496,1,0,0:0:0:0:
64,192,27578,1,0,0:0:0:0:
320,192,27578,1,0,0:0:0:0:
192,192,27660,1,0,0:0:0:0:
448,192,27742,1,8,0:0:0:0:
320,192,27783,1,0,0:0:0:0:
192,192,27824,1,0,0:0:0:0:
64,192,27865,1,0,0:0:0:0:
448,192,27906,1,0,0:0:0:0:
320,192,27988,1,0,0:0:0:0:
64,192,28070,1,2,0:0:0:0:
448,192,28070,1,2,0:0:0:0:
192,192,28152,1,0,0:0:0:0:
448,192,28234,1,8,0:0:0:0:
64,192,28234,1,8,0:0:0:0:
320,192,28316,1,0,0:0:0:0:
64,192,28398,1,8,0:0:0:0:
192,192,28439,1,0,0:0:0:0:
320,192,28480,1,0,0:0:0:0:
448,192,28521,1,0,0:0:0:0:
64,192,28562,1,0,3:0:0:0:
192,192,28562,1,0,3:0:0:0:
320,192,28644,1,0,0:0:0:0:
448,192,28644,1,0,0:0:0:0:
64,192,28726,1,10,0:0:0:0:
192,192,28767,1,0,0:0:0:0:
320,192,28808,1,0,0:0:0:0:
448,192,28849,1,0,0:0:0:0:
64,192,28890,1,0,0:0:0:0:
192,192,28931,1,0,0:0:0:0:
320,192,28972,1,0,0:0:0:0:
448,192,29012,1,0,0:0:0:0:
64,192,29053,1,0,3:0:0:0:
192,192,29094,1,0,0:0:0:0:
320,192,29135,1,0,0:0:0:0:
448,192,29176,1,0,0:0:0:0:
64,192,29217,1,8,0:0:0:0:
192,192,29258,1,0,0:0:0:0:
320,192,29299,1,0,0:0:0:0:
448,192,29340,1,0,0:0:0:0:
192,192,29381,1,6,0:0:0:0:
64,192,29381,1,6,0:0:0:0:
64,192,29545,1,0,0:0:0:0:
192,192,29545,1,0,0:0:0:0:
448,192,29709,1,0,3:0:0:0:
320,192,29709,1,0,3:0:0:0:
192,192,29709,1,0,3:0:0:0:
448,192,29873,1,0,0:0:0:0:
320,192,29873,1,0,0:0:0:0:
192,192,30037,1,0,0:0:0:0:
320,192,30037,1,0,0:0:0:0:
448,192,30037,1,0,0:0:0:0:
64,192,30201,1,0,0:0:0:0:
192,192,30201,1,0,0:0:0:0:
192,192,30365,1,0,3:0:0:0:
64,192,30365,1,0,3:0:0:0:
320,192,30365,1,0,3:0:0:0:
64,192,30529,1,0,0:0:0:0:
320,192,30529,1,0,0:0:0:0:
64,192,30693,1,0,0:0:0:0:
192,192,30693,1,0,0:0:0:0:
320,192,30693,1,0,0:0:0:0:
192,192,30857,1,0,0:0:0:0:
448,192,30857,1,0,0:0:0:0:
448,192,31021,1,0,3:0:0:0:
192,192,31021,1,0,3:0:0:0:
320,192,31021,1,0,3:0:0:0:
192,192,31185,1,0,0:0:0:0:
448,192,31185,1,0,0:0:0:0:
64,192,31349,1,0,0:0:0:0:
192,192,31349,1,0,0:0:0:0:
320,192,31349,1,0,0:0:0:0:
64,192,31512,1,0,0:0:0:0:
192,192,31512,1,0,0:0:0:0:
320,192,31676,1,0,3:0:0:0:
64,192,31676,1,0,3:0:0:0:
192,192,31676,1,0,3:0:0:0:
448,192,31840,1,0,0:0:0:0:
192,192,31840,1,0,0:0:0:0:
64,192,32004,128,0,32168:0:0:0:0:
448,192,32004,1,2,0:1:0:0:
320,192,32004,1,2,0:1:0:0:
192,192,32168,128,0,32332:0:0:0:0:
320,192,32332,128,0,32496:0:0:0:0:
64,192,32332,1,0,3:0:0:0:
448,192,32496,128,0,32660:0:0:0:0:
64,192,32496,128,0,32660:0:0:0:0:
192,192,32660,128,0,32824:0:0:0:0:
448,192,32824,1,0,0:0:0:0:
320,192,32824,128,0,32988:0:0:0:0:
448,192,32988,128,0,33152:0:0:0:0:
64,192,32988,128,0,33152:0:0:0:0:
192,192,33152,128,8,33316:0:0:0:0:
320,192,33316,128,0,33480:0:0:0:0:
64,192,33316,1,8,0:0:0:0:
448,192,33480,128,0,33644:0:0:0:0:
64,192,33480,128,0,33644:0:0:0:0:
192,192,33644,128,0,33808:0:0:0:0:
448,192,33808,1,0,3:0:0:0:
320,192,33808,128,2,33972:0:0:0:0:
448,192,33972,128,2,34135:0:0:0:0:
64,192,33972,1,2,3:1:0:0:
64,192,34135,128,4,34627:0:0:0:0:
320,192,34135,1,2,0:1:0:0:
192,192,34135,128,4,34627:0:0:0:0:
448,192,34627,128,0,34955:0:0:0:0:
320,192,34627,1,4,3:2:0:0:
192,192,34791,1,0,0:0:0:0:
64,192,34955,128,0,35283:0:0:0:0:
320,192,34955,1,0,3:0:0:0:
192,192,35119,1,0,3:0:0:0:
320,192,35283,128,0,35611:0:0:0:0:
192,192,35283,1,0,0:0:0:0:
448,192,35447,1,0,3:0:0:0:
192,192,35611,128,0,35939:0:0:0:0:
64,192,35611,1,0,0:0:0:0:
448,192,35775,1,0,3:0:0:0:
320,192,35939,128,0,36103:0:0:0:0:
64,192,35939,1,0,3:0:0:0:
448,192,36103,1,0,3:0:0:0:
192,192,36267,128,0,36431:0:0:0:0:
448,192,36267,1,0,3:0:0:0:
64,192,36267,1,0,3:0:0:0:
448,192,36431,128,0,36594:0:0:0:0:
320,192,36431,1,0,3:0:0:0:
64,192,36594,128,0,36758:0:0:0:0:
192,192,36594,1,0,3:0:0:0:
320,192,36758,1,0,3:0:0:0:
448,192,36922,128,4,37250:0:0:0:0:
192,192,36922,128,0,37086:0:0:0:0:
64,192,37086,128,4,37250:0:0:0:0:
320,192,37250,1,4,3:2:0:0:
192,192,37414,1,0,0:0:0:0:
64,192,37578,1,0,3:0:0:0:
448,192,37578,1,0,3:0:0:0:
320,192,37742,1,0,3:0:0:0:
448,192,37906,1,0,3:0:0:0:
192,192,37906,1,0,3:0:0:0:
64,192,38070,1,0,3:0:0:0:
320,192,38234,1,0,3:0:0:0:
192,192,38234,1,0,3:0:0:0:
448,192,38398,1,0,3:0:0:0:
320,192,38562,1,0,3:0:0:0:
192,192,38562,1,0,3:0:0:0:
64,192,38726,1,0,3:0:0:0:
448,192,38890,1,0,3:0:0:0:
320,192,39053,1,0,3:0:0:0:
192,192,39053,1,0,3:0:0:0:
448,192,39217,1,0,3:0:0:0:
64,192,39217,1,0,3:0:0:0:
192,192,39381,1,0,3:0:0:0:
320,192,39381,1,0,3:0:0:0:
64,192,39545,1,8,3:2:0:0:
320,192,39545,1,8,3:2:0:0:
192,192,39545,1,0,0:0:0:0:
192,192,39709,1,0,3:0:0:0:
320,192,39709,1,0,0:0:0:0:
448,192,39873,1,4,3:2:0:0:
320,192,39873,128,0,40201:0:0:0:0:
192,192,39873,1,0,0:0:0:0:
64,192,40037,1,0,0:0:0:0:
192,192,40201,128,0,40529:0:0:0:0:
448,192,40201,1,0,3:0:0:0:
64,192,40365,1,0,3:0:0:0:
448,192,40529,128,0,40857:0:0:0:0:
320,192,40529,1,0,0:0:0:0:
64,192,40693,1,0,0:0:0:0:
192,192,40857,1,0,0:0:0:0:
320,192,41021,128,0,41512:0:0:0:0:
64,192,41021,1,0,0:0:0:0:
448,192,41185,1,0,3:0:0:0:
192,192,41349,1,0,3:0:0:0:
192,192,41512,1,0,0:0:0:0:
64,192,41512,1,0,0:0:0:0:
448,192,41512,128,0,41840:0:0:0:0:
192,192,41676,1,0,3:0:0:0:
64,192,41676,1,0,0:0:0:0:
320,192,41840,128,8,42168:0:0:0:0:
64,192,41840,1,0,0:0:0:0:
192,192,41840,1,0,0:0:0:0:
64,192,42004,1,0,0:0:0:0:
448,192,42168,1,8,3:2:0:0:
192,192,42168,1,0,0:0:0:0:
64,192,42250,1,0,0:0:0:0:
192,192,42332,1,0,0:0:0:0:
448,192,42332,1,0,0:0:0:0:
320,192,42414,1,0,0:0:0:0:
64,192,42496,1,4,3:2:0:0:
192,192,42496,1,4,3:2:0:0:
320,192,42578,1,0,0:0:0:0:
448,192,42660,1,0,0:0:0:0:
64,192,42742,1,0,0:0:0:0:
192,192,42824,1,0,3:0:0:0:
320,192,42824,1,0,3:0:0:0:
448,192,42906,1,0,0:0:0:0:
64,192,42988,1,0,3:0:0:0:
192,192,43070,1,0,0:0:0:0:
448,192,43152,1,0,3:0:0:0:
320,192,43152,1,0,3:0:0:0:
192,192,43234,1,0,0:0:0:0:
64,192,43316,1,0,3:0:0:0:
448,192,43398,1,0,0:0:0:0:
320,192,43480,1,0,3:0:0:0:
192,192,43480,1,0,3:0:0:0:
64,192,43562,1,0,0:0:0:0:
448,192,43644,1,0,3:0:0:0:
320,192,43726,1,0,0:0:0:0:
64,192,43808,1,0,3:0:0:0:
192,192,43808,1,0,3:0:0:0:
320,192,43890,1,0,0:0:0:0:
448,192,43972,1,0,3:0:0:0:
64,192,44053,1,0,0:0:0:0:
192,192,44135,1,0,3:0:0:0:
320,192,44135,1,0,3:0:0:0:
448,192,44217,1,0,0:0:0:0:
320,192,44299,1,0,0:0:0:0:
192,192,44381,1,0,0:0:0:0:
448,192,44463,1,2,3:1:0:0:
320,192,44463,1,2,3:1:0:0:
64,192,44463,1,2,3:1:0:0:
192,192,44627,1,2,3:1:0:0:
64,192,44627,1,2,3:1:0:0:
448,192,44627,1,2,3:1:0:0:
320,192,44955,1,2,0:1:0:0:
192,192,44955,1,2,0:1:0:0:
448,192,44955,1,2,0:1:0:0:
64,192,45119,1,0,0:0:0:0:
192,192,45201,1,0,0:0:0:0:
320,192,45283,1,0,0:0:0:0:
448,192,45283,1,0,0:0:0:0:
192,192,45365,1,0,0:0:0:0:
448,192,45447,128,0,45775:0:0:0:0:
320,192,45447,1,8,0:0:0:0:
64,192,45611,1,0,0:0:0:0:
192,192,45693,1,0,0:0:0:0:
320,192,45775,128,0,45939:0:0:0:0:
64,192,45775,1,0,3:0:0:0:
448,192,45939,1,0,3:0:0:0:
192,192,45939,128,8,46103:0:0:0:0:
64,192,46103,1,8,0:0:0:0:
320,192,46103,128,0,46267:0:0:0:0:
448,192,46267,128,0,46431:0:0:0:0:
192,192,46267,1,0,0:0:0:0:
320,192,46512,1,0,0:0:0:0:
192,192,46594,1,0,0:0:0:0:
64,192,46594,1,0,0:0:0:0:
320,192,46676,1,0,0:0:0:0:
64,192,46758,128,0,47086:0:0:0:0:
192,192,46758,1,8,0:0:0:0:
448,192,46922,1,0,0:0:0:0:
320,192,47004,1,0,0:0:0:0:
192,192,47086,128,8,47414:0:0:0:0:
448,192,47086,1,0,3:0:0:0:
320,192,47250,1,0,0:0:0:0:
64,192,47414,1,8,0:0:0:0:
320,192,47414,128,0,47742:0:0:0:0:
448,192,47578,1,0,0:0:0:0:
192,192,47742,1,0,0:0:0:0:
448,192,47824,1,0,0:0:0:0:
64,192,47906,1,0,0:0:0:0:
192,192,47906,1,0,0:0:0:0:
320,192,47988,1,0,0:0:0:0:
448,192,48070,1,8,0:0:0:0:
64,192,48070,1,8,0:0:0:0:
192,192,48152,1,0,0:0:0:0:
320,192,48234,1,0,0:0:0:0:
448,192,48234,1,0,0:0:0:0:
192,192,48316,1,0,3:0:0:0:
448,192,48398,1,0,3:0:0:0:
64,192,48398,1,0,3:0:0:0:
320,192,48480,1,0,0:0:0:0:
192,192,48562,1,0,3:0:0:0:
64,192,48562,1,0,3:0:0:0:
320,192,48644,1,0,0:0:0:0:
448,192,48726,1,8,0:0:0:0:
64,192,48726,1,8,0:0:0:0:
192,192,48808,1,0,0:0:0:0:
448,192,48890,1,0,0:0:0:0:
320,192,48890,1,0,0:0:0:0:
192,192,48972,1,0,0:0:0:0:
64,192,49053,1,0,3:0:0:0:
192,192,49135,1,0,0:0:0:0:
320,192,49217,1,0,0:0:0:0:
448,192,49217,1,0,0:0:0:0:
64,192,49299,1,0,3:0:0:0:
192,192,49381,1,8,0:0:0:0:
320,192,49381,1,8,0:0:0:0:
448,192,49463,1,0,0:0:0:0:
64,192,49545,1,0,3:0:0:0:
192,192,49545,1,0,3:0:0:0:
320,192,49627,1,0,0:0:0:0:
192,192,49709,1,0,3:0:0:0:
448,192,49709,1,0,3:0:0:0:
320,192,49791,1,0,0:0:0:0:
192,192,49873,1,0,3:0:0:0:
64,192,49873,1,0,3:0:0:0:
320,192,50037,1,8,0:0:0:0:
192,192,50037,1,8,0:0:0:0:
320,192,50201,1,4,0:0:0:0:
448,192,50201,1,4,0:0:0:0:
64,192,50365,128,0,50529:0:0:0:0:
192,192,50365,1,0,0:0:0:0:
320,192,50529,1,0,3:0:0:0:
448,192,50529,128,8,50693:0:0:0:0:
192,192,50693,128,0,50857:0:0:0:0:
64,192,50693,1,8,0:0:0:0:
320,192,50857,128,0,51021:0:0:0:0:
448,192,50857,1,0,0:0:0:0:
64,192,51021,1,0,3:0:0:0:
192,192,51103,1,0,0:0:0:0:
64,192,51185,1,0,3:0:0:0:
320,192,51185,1,0,3:0:0:0:
192,192,51267,1,0,0:0:0:0:
320,192,51349,1,8,0:0:0:0:
448,192,51349,1,8,0:0:0:0:
64,192,51512,1,4,0:0:0:0:
192,192,51512,1,4,0:0:0:0:
448,192,51676,1,0,0:0:0:0:
320,192,51676,128,0,51840:0:0:0:0:
192,192,51840,128,8,52004:0:0:0:0:
64,192,51840,1,0,0:0:0:0:
448,192,52004,128,0,52168:0:0:0:0:
64,192,52168,128,0,52332:0:0:0:0:
320,192,52168,1,0,0:0:0:0:
192,192,52332,1,0,3:0:0:0:
320,192,52414,1,0,0:0:0:0:
448,192,52496,1,0,3:0:0:0:
192,192,52496,1,0,3:0:0:0:
320,192,52578,1,0,0:0:0:0:
64,192,52660,1,8,0:0:0:0:
192,192,52660,1,8,0:0:0:0:
448,192,52824,1,4,0:0:0:0:
320,192,52824,1,4,0:0:0:0:
64,192,52988,1,0,3:0:0:0:
192,192,52988,1,0,3:0:0:0:
320,192,53070,1,0,0:0:0:0:
448,192,53152,1,0,0:0:0:0:
192,192,53152,1,0,0:0:0:0:
320,192,53234,1,0,0:0:0:0:
64,192,53316,1,8,0:0:0:0:
192,192,53316,1,8,0:0:0:0:
320,192,53398,1,0,0:0:0:0:
64,192,53480,1,0,0:0:0:0:
448,192,53480,1,0,0:0:0:0:
320,192,53562,1,0,0:0:0:0:
192,192,53644,1,0,3:0:0:0:
448,192,53644,1,0,3:0:0:0:
64,192,53726,1,0,0:0:0:0:
320,192,53808,1,0,3:0:0:0:
448,192,53808,1,0,3:0:0:0:
192,192,53890,1,0,0:0:0:0:
64,192,53972,1,8,0:0:0:0:
320,192,53972,1,8,0:0:0:0:
448,192,54053,1,0,0:0:0:0:
192,192,54135,1,0,3:0:0:0:
64,192,54135,1,0,3:0:0:0:
320,192,54217,1,0,0:0:0:0:
64,192,54299,1,0,3:0:0:0:
448,192,54299,1,0,3:0:0:0:
192,192,54381,1,0,0:0:0:0:
448,192,54463,1,8,0:0:0:0:
320,192,54463,1,8,0:0:0:0:
64,192,54463,1,8,0:0:0:0:
64,192,54627,1,8,0:0:0:0:
320,192,54627,1,8,0:0:0:0:
448,192,54627,1,8,0:0:0:0:
192,192,54737,1,0,0:0:0:0:
320,192,54846,1,0,0:0:0:0:
448,192,54955,1,2,3:2:0:0:
192,192,54955,1,2,3:2:0:0:
320,192,55064,1,0,0:0:0:0:
192,192,55174,1,0,3:0:0:0:
64,192,55283,1,2,3:2:0:0:
320,192,55283,1,2,3:2:0:0:
192,192,55392,1,0,0:0:0:0:
448,192,55447,1,0,0:0:0:0:
320,192,55502,1,0,3:0:0:0:
192,192,55556,1,0,0:0:0:0:
64,192,55611,1,4,3:2:0:0:
448,192,55611,1,4,3:2:0:0:
320,192,55775,1,0,3:0:0:0:
192,192,55939,1,0,0:0:0:0:
64,192,55939,1,0,0:0:0:0:
320,192,56048,1,0,0:0:0:0:
448,192,56048,1,0,0:0:0:0:
320,192,56157,1,0,0:0:0:0:
64,192,56157,1,0,0:0:0:0:
192,192,56267,1,8,0:0:0:0:
64,192,56267,1,8,0:0:0:0:
448,192,56267,1,0,0:0:0:0:
320,192,56431,1,0,0:0:0:0:
64,192,56431,1,0,0:0:0:0:
448,192,56594,1,0,3:0:0:0:
192,192,56594,1,0,3:0:0:0:
320,192,56676,1,0,0:0:0:0:
64,192,56758,1,0,0:0:0:0:
192,192,56813,1,0,0:0:0:0:
320,192,56868,1,0,0:0:0:0:
64,192,56922,1,0,3:0:0:0:
448,192,56922,1,0,3:0:0:0:
192,192,57086,1,0,2:0:0:0:
320,192,57250,1,0,3:0:0:0:
448,192,57250,1,0,3:0:0:0:
64,192,57359,1,0,0:0:0:0:
192,192,57359,1,0,0:0:0:0:
192,192,57469,1,0,0:0:0:0:
448,192,57469,1,0,0:0:0:0:
320,192,57578,1,8,0:0:0:0:
448,192,57578,1,8,0:0:0:0:
64,192,57578,1,0,0:0:0:0:
192,192,57742,1,0,0:0:0:0:
448,192,57742,1,0,0:0:0:0:
64,192,57906,1,0,3:0:0:0:
320,192,57906,1,0,3:0:0:0:
192,192,57988,1,0,0:0:0:0:
448,192,58070,1,0,0:0:0:0:
320,192,58125,1,0,0:0:0:0:
192,192,58179,1,0,0:0:0:0:
64,192,58234,1,0,3:0:0:0:
448,192,58234,128,0,58562:0:0:0:0:
320,192,58398,1,0,3:0:0:0:
192,192,58562,128,8,58890:0:0:0:0:
64,192,58562,1,0,3:0:0:0:
320,192,58726,1,0,0:0:0:0:
448,192,58890,128,0,59053:0:0:0:0:
64,192,58890,1,8,0:0:0:0:
320,192,59053,128,0,59217:0:0:0:0:
192,192,59053,1,0,0:0:0:0:
64,192,59217,1,0,3:0:0:0:
192,192,59299,1,0,0:0:0:0:
448,192,59381,1,4,0:0:0:0:
320,192,59381,1,4,0:0:0:0:
64,192,59381,1,4,0:0:0:0:
192,192,59463,1,0,0:0:0:0:
448,192,59545,1,0,0:0:0:0:
320,192,59545,1,0,0:0:0:0:
192,192,59627,1,0,0:0:0:0:
64,192,59709,1,0,0:0:0:0:
320,192,59709,1,0,0:0:0:0:
192,192,59791,1,0,0:0:0:0:
320,192,59873,1,0,0:0:0:0:
448,192,59873,1,0,0:0:0:0:
192,192,59955,1,0,0:0:0:0:
64,192,60037,1,0,0:0:0:0:
448,192,60037,1,0,0:0:0:0:
320,192,60119,1,0,0:0:0:0:
64,192,60201,1,8,0:0:0:0:
192,192,60201,1,8,0:0:0:0:
448,192,60283,1,0,0:0:0:0:
320,192,60365,1,0,3:0:0:0:
192,192,60365,1,0,3:0:0:0:
448,192,60447,1,0,0:0:0:0:
64,192,60529,1,8,0:0:0:0:
192,192,60570,1,0,0:0:0:0:
320,192,60611,1,0,0:0:0:0:
448,192,60652,1,0,0:0:0:0:
64,192,60693,1,8,0:0:0:0:
192,192,60734,1,0,0:0:0:0:
320,192,60775,1,0,0:0:0:0:
448,192,60816,1,0,0:0:0:0:
64,192,60857,1,6,3:2:0:0:
192,192,60857,1,6,3:2:0:0:
448,192,61021,1,0,0:0:0:0:
192,192,61021,1,0,0:0:0:0:
320,192,61103,1,0,0:0:0:0:
64,192,61185,1,8,0:0:0:0:
192,192,61185,1,8,0:0:0:0:
192,192,61349,1,6,3:2:0:0:
320,192,61349,1,6,3:2:0:0:
192,192,61512,1,0,0:0:0:0:
320,192,61512,1,0,0:0:0:0:
64,192,61676,1,0,3:0:0:0:
320,192,61676,1,0,3:0:0:0:
192,192,61758,1,0,0:0:0:0:
448,192,61840,1,10,0:0:0:0:
320,192,61840,1,10,0:0:0:0:
192,192,61922,1,0,0:0:0:0:
320,192,62004,1,0,3:0:0:0:
64,192,62004,1,0,3:0:0:0:
448,192,62086,1,0,0:0:0:0:
320,192,62168,1,6,3:2:0:0:
64,192,62168,1,6,3:2:0:0:
192,192,62168,1,6,3:2:0:0:
320,192,62332,1,0,0:0:0:0:
448,192,62332,1,0,0:0:0:0:
64,192,62414,1,0,0:0:0:0:
320,192,62496,1,8,0:0:0:0:
448,192,62496,1,8,0:0:0:0:
192,192,62660,1,6,3:2:0:0:
448,192,62660,1,6,3:2:0:0:
320,192,62824,1,0,0:0:0:0:
64,192,62824,1,0,0:0:0:0:
320,192,62988,1,0,0:0:0:0:
64,192,62988,1,0,0:0:0:0:
448,192,63070,1,0,3:0:0:0:
192,192,63152,1,10,0:0:0:0:
64,192,63152,1,10,0:0:0:0:
448,192,63234,1,0,0:0:0:0:
320,192,63316,1,0,3:0:0:0:
64,192,63316,1,0,3:0:0:0:
192,192,63398,1,0,0:0:0:0:
64,192,63480,1,4,3:2:0:0:
320,192,63480,1,4,3:2:0:0:
448,192,63562,1,0,0:0:0:0:
192,192,63644,1,0,3:0:0:0:
64,192,63644,1,0,3:0:0:0:
320,192,63726,1,0,0:0:0:0:
448,192,63808,1,10,3:2:0:0:
64,192,63808,1,10,3:2:0:0:
192,192,63890,1,0,0:0:0:0:
320,192,63972,1,0,3:0:0:0:
448,192,63972,1,0,3:0:0:0:
192,192,64053,1,0,3:0:0:0:
64,192,64135,1,0,0:0:0:0:
320,192,64135,1,0,0:0:0:0:
192,192,64217,1,0,3:0:0:0:
448,192,64299,1,0,0:0:0:0:
64,192,64299,1,0,0:0:0:0:
320,192,64381,1,0,0:0:0:0:
192,192,64463,1,10,0:0:0:0:
64,192,64463,1,10,0:0:0:0:
320,192,64545,1,0,0:0:0:0:
448,192,64627,1,0,3:0:0:0:
320,192,64709,1,0,0:0:0:0:
192,192,64791,1,0,3:0:0:0:
64,192,64791,1,0,3:0:0:0:
448,192,64791,1,0,3:0:0:0:
320,192,64873,1,0,0:0:0:0:
448,192,64955,1,0,3:0:0:0:
192,192,64955,1,0,3:0:0:0:
64,192,65037,1,0,0:0:0:0:
192,192,65119,1,10,3:2:0:0:
320,192,65119,1,10,3:2:0:0:
64,192,65201,1,0,0:0:0:0:
192,192,65283,1,0,3:0:0:0:
320,192,65365,1,0,3:0:0:0:
448,192,65447,1,0,0:0:0:0:
192,192,65447,1,0,0:0:0:0:
320,192,65529,1,0,0:0:0:0:
448,192,65611,1,0,3:0:0:0:
64,192,65611,1,0,3:0:0:0:
192,192,65693,1,0,0:0:0:0:
320,192,65775,1,10,0:0:0:0:
64,192,65775,1,10,0:0:0:0:
192,192,65857,1,0,0:0:0:0:
448,192,65939,1,0,3:0:0:0:
320,192,66021,1,0,0:0:0:0:
448,192,66103,1,4,3:2:0:0:
192,192,66103,1,4,3:2:0:0:
64,192,66103,1,4,3:2:0:0:
320,192,66185,1,0,0:0:0:0:
192,192,66267,1,0,3:0:0:0:
448,192,66267,1,0,3:0:0:0:
64,192,66349,1,0,0:0:0:0:
192,192,66431,1,10,3:2:0:0:
320,192,66431,1,10,3:2:0:0:
448,192,66431,1,10,3:2:0:0:
64,192,66512,1,0,0:0:0:0:
448,192,66594,1,0,3:0:0:0:
192,192,66594,1,0,3:0:0:0:
320,192,66676,1,0,3:0:0:0:
192,192,66758,1,0,0:0:0:0:
64,192,66758,1,0,0:0:0:0:
448,192,66758,1,0,0:0:0:0:
320,192,66840,1,0,0:0:0:0:
64,192,66922,1,0,0:0:0:0:
448,192,66922,1,0,0:0:0:0:
192,192,67004,1,0,0:0:0:0:
64,192,67086,1,10,0:0:0:0:
320,192,67086,1,10,0:0:0:0:
448,192,67086,1,10,0:0:0:0:
192,192,67168,1,0,3:0:0:0:
64,192,67250,1,4,3:2:0:0:
320,192,67250,1,4,3:2:0:0:
448,192,67332,1,0,3:0:0:0:
320,192,67414,1,0,3:0:0:0:
192,192,67414,1,0,3:0:0:0:
64,192,67414,1,0,3:0:0:0:
448,192,67496,1,0,0:0:0:0:
320,192,67578,1,0,3:0:0:0:
64,192,67578,1,0,3:0:0:0:
192,192,67660,1,0,0:0:0:0:
64,192,67742,1,10,3:2:0:0:
320,192,67742,1,10,3:2:0:0:
448,192,67742,1,10,3:2:0:0:
192,192,67824,1,0,0:0:0:0:
320,192,67906,1,0,3:0:0:0:
448,192,67906,1,0,3:0:0:0:
192,192,67988,1,0,0:0:0:0:
64,192,67988,1,0,0:0:0:0:
320,192,68070,1,10,0:0:0:0:
448,192,68070,1,10,0:0:0:0:
192,192,68152,1,0,3:0:0:0:
64,192,68152,1,0,3:0:0:0:
320,192,68234,1,0,3:0:0:0:
448,192,68316,1,0,0:0:0:0:
64,192,68398,1,0,3:0:0:0:
192,192,68439,1,0,0:0:0:0:
320,192,68480,1,0,0:0:0:0:
448,192,68521,1,0,0:0:0:0:
64,192,68562,1,0,3:0:0:0:
192,192,68603,1,0,0:0:0:0:
320,192,68644,1,0,0:0:0:0:
448,192,68685,1,0,0:0:0:0:
192,192,68726,1,8,3:2:0:0:
64,192,68726,1,8,3:2:0:0:
64,192,68890,1,0,3:0:0:0:
192,192,68890,1,0,3:0:0:0:
320,192,68890,1,0,3:0:0:0:
448,192,69053,1,0,0:0:0:0:
320,192,69053,1,0,0:0:0:0:
192,192,69053,1,0,0:0:0:0:
64,192,69053,1,0,0:0:0:0:
448,192,69217,1,0,0:0:0:0:
320,192,69217,1,0,0:0:0:0:
192,192,69217,1,0,0:0:0:0:
448,192,69381,1,0,3:0:0:0:
320,192,69381,1,0,3:0:0:0:
192,192,69381,1,0,0:0:0:0:
64,192,69381,1,0,0:0:0:0:
192,192,69545,1,0,3:0:0:0:
64,192,69545,1,0,3:0:0:0:
320,192,69545,1,0,0:0:0:0:
320,192,69709,1,8,3:2:0:0:
64,192,69709,1,8,3:2:0:0:
192,192,69709,1,0,0:0:0:0:
448,192,69709,1,0,0:0:0:0:
192,192,69873,1,0,0:0:0:0:
320,192,69873,1,0,0:0:0:0:
320,192,70037,1,2,3:1:0:0:
448,192,70037,1,2,3:1:0:0:
64,192,70037,1,2,3:1:0:0:
192,192,70037,1,2,3:1:0:0:
448,192,70201,1,2,0:1:0:0:
320,192,70201,1,2,0:1:0:0:
192,192,70201,1,2,0:1:0:0:
64,192,70201,1,2,0:1:0:0:
64,192,70365,1,2,0:1:0:0:
192,192,70365,1,2,0:1:0:0:
320,192,70365,1,2,0:1:0:0:
448,192,70365,1,2,0:1:0:0:
64,192,70529,1,2,0:1:0:0:
192,192,70529,1,2,0:1:0:0:
448,192,70529,1,2,0:1:0:0:
320,192,70529,1,2,0:1:0:0:
192,192,70693,128,0,70857:0:0:0:0:
64,192,70693,128,0,70857:0:0:0:0:
320,192,70857,128,0,71021:0:0:0:0:
448,192,70857,128,0,71021:0:0:0:0:
192,192,71021,1,0,0:0:0:0:
64,192,71021,1,0,0:0:0:0:
448,192,71185,1,4,0:0:0:0:
192,192,71185,1,0,0:0:0:0:
64,192,71185,1,0,0:0:0:0:
320,192,71267,1,0,0:0:0:0:
192,192,71349,1,0,0:0:0:0:
64,192,71349,1,0,0:0:0:0:
448,192,71349,1,0,0:0:0:0:
320,192,71431,1,0,0:0:0:0:
448,192,71512,1,0,0:0:0:0:
192,192,71512,1,0,0:0:0:0:
64,192,71594,1,0,0:0:0:0:
320,192,71676,1,8,0:0:0:0:
448,192,71676,1,8,0:0:0:0:
192,192,71758,1,0,0:0:0:0:
64,192,71840,1,0,0:0:0:0:
320,192,71840,1,0,0:0:0:0:
192,192,71922,1,0,0:0:0:0:
320,192,72004,1,0,3:0:0:0:
448,192,72004,1,0,3:0:0:0:
192,192,72086,1,0,0:0:0:0:
64,192,72168,1,0,0:0:0:0:
320,192,72168,1,0,0:0:0:0:
192,192,72250,1,0,0:0:0:0:
320,192,72332,1,8,0:0:0:0:
448,192,72332,1,8,0:0:0:0:
64,192,72414,1,0,0:0:0:0:
64,192,72496,1,4,0:0:0:0:
320,192,72496,1,4,0:0:0:0:
448,192,72496,1,4,0:0:0:0:
192,192,72578,1,0,0:0:0:0:
448,192,72660,1,0,0:0:0:0:
320,192,72660,1,0,0:0:0:0:
64,192,72742,1,0,0:0:0:0:
448,192,72824,1,0,0:0:0:0:
192,192,72824,1,0,0:0:0:0:
320,192,72906,1,0,0:0:0:0:
192,192,72988,1,8,0:0:0:0:
64,192,72988,1,8,0:0:0:0:
320,192,73070,1,0,0:0:0:0:
448,192,73152,1,0,0:0:0:0:
192,192,73152,1,0,0:0:0:0:
64,192,73234,1,0,0:0:0:0:
320,192,73316,1,0,3:0:0:0:
448,192,73316,1,0,3:0:0:0:
192,192,73398,1,0,0:0:0:0:
64,192,73480,1,0,0:0:0:0:
320,192,73480,1,0,0:0:0:0:
448,192,73562,1,0,0:0:0:0:
192,192,73644,1,8,0:0:0:0:
64,192,73644,1,8,0:0:0:0:
448,192,73726,1,0,0:0:0:0:
192,192,73808,1,4,0:0:0:0:
448,192,73808,1,4,0:0:0:0:
64,192,73808,1,4,0:0:0:0:
320,192,73890,1,0,0:0:0:0:
64,192,73972,1,0,0:0:0:0:
448,192,73972,1,0,0:0:0:0:
192,192,74053,1,0,0:0:0:0:
448,192,74135,1,0,0:0:0:0:
320,192,74135,1,0,0:0:0:0:
64,192,74217,1,0,0:0:0:0:
192,192,74299,1,8,0:0:0:0:
320,192,74299,1,8,0:0:0:0:
448,192,74381,1,0,0:0:0:0:
192,192,74463,1,0,0:0:0:0:
320,192,74463,1,0,0:0:0:0:
64,192,74545,1,0,0:0:0:0:
448,192,74627,1,0,3:0:0:0:
320,192,74627,1,0,3:0:0:0:
192,192,74709,1,0,0:0:0:0:
320,192,74791,1,0,0:0:0:0:
64,192,74791,1,0,0:0:0:0:
448,192,74873,1,0,0:0:0:0:
64,192,74955,1,8,0:0:0:0:
320,192,74955,1,8,0:0:0:0:
192,192,75037,1,0,0:0:0:0:
448,192,75119,1,2,0:0:0:0:
320,192,75201,1,0,0:0:0:0:
192,192,75201,1,0,0:0:0:0:
448,192,75283,1,0,0:0:0:0:
192,192,75365,1,0,0:0:0:0:
320,192,75365,1,0,0:0:0:0:
448,192,75447,1,0,0:0:0:0:
192,192,75529,1,0,0:0:0:0:
64,192,75529,1,0,0:0:0:0:
320,192,75611,1,8,0:0:0:0:
448,192,75611,1,8,0:0:0:0:
192,192,75693,1,0,0:0:0:0:
320,192,75775,1,0,0:0:0:0:
448,192,75775,1,0,0:0:0:0:
192,192,75857,1,0,0:0:0:0:
64,192,75857,1,0,0:0:0:0:
320,192,75939,1,0,3:0:0:0:
64,192,76021,1,0,0:0:0:0:
192,192,76021,1,0,0:0:0:0:
320,192,76103,1,0,3:0:0:0:
448,192,76103,1,0,3:0:0:0:
64,192,76185,1,0,0:0:0:0:
320,192,76267,1,8,0:0:0:0:
448,192,76267,1,8,0:0:0:0:
192,192,76349,1,0,0:0:0:0:
320,192,76431,1,0,0:0:0:0:
448,192,76431,1,0,0:0:0:0:
64,192,76512,1,0,0:0:0:0:
64,192,76594,1,4,0:0:0:0:
320,192,76594,1,4,0:0:0:0:
448,192,76594,1,4,0:0:0:0:
192,192,76676,1,0,0:0:0:0:
448,192,76758,1,0,0:0:0:0:
320,192,76758,1,0,0:0:0:0:
192,192,76840,1,0,0:0:0:0:
64,192,76922,1,8,0:0:0:0:
320,192,76922,1,8,0:0:0:0:
448,192,77004,1,0,0:0:0:0:
192,192,77086,1,0,0:0:0:0:
64,192,77086,1,0,0:0:0:0:
320,192,77168,1,0,0:0:0:0:
448,192,77250,1,0,3:0:0:0:
192,192,77250,1,0,3:0:0:0:
320,192,77332,1,0,0:0:0:0:
64,192,77414,1,0,0:0:0:0:
192,192,77414,1,0,0:0:0:0:
320,192,77496,1,0,0:0:0:0:
64,192,77578,1,8,0:0:0:0:
192,192,77578,1,8,0:0:0:0:
448,192,77660,1,0,0:0:0:0:
192,192,77742,1,4,0:0:0:0:
448,192,77742,1,4,0:0:0:0:
64,192,77742,1,4,0:0:0:0:
320,192,77824,1,0,0:0:0:0:
192,192,77906,1,0,0:0:0:0:
64,192,77906,1,0,0:0:0:0:
320,192,77988,1,0,0:0:0:0:
192,192,78070,1,0,3:0:0:0:
448,192,78070,1,0,3:0:0:0:
320,192,78152,1,0,0:0:0:0:
64,192,78234,1,8,0:0:0:0:
192,192,78234,1,8,0:0:0:0:
320,192,78316,1,0,0:0:0:0:
448,192,78398,1,0,0:0:0:0:
192,192,78398,1,0,0:0:0:0:
64,192,78480,1,0,0:0:0:0:
192,192,78562,1,0,3:0:0:0:
320,192,78562,1,0,3:0:0:0:
448,192,78644,1,0,0:0:0:0:
192,192,78726,1,0,0:0:0:0:
320,192,78726,1,0,0:0:0:0:
64,192,78808,1,0,0:0:0:0:
192,192,78890,1,8,0:0:0:0:
448,192,78972,1,0,0:0:0:0:
320,192,79053,1,0,0:0:0:0:
192,192,79053,1,0,0:0:0:0:
448,192,79135,1,0,0:0:0:0:
192,192,79217,1,4,0:0:0:0:
64,192,79217,1,4,0:0:0:0:
320,192,79299,1,0,0:0:0:0:
192,192,79381,1,0,0:0:0:0:
64,192,79381,1,0,0:0:0:0:
448,192,79463,1,0,0:0:0:0:
320,192,79545,1,8,0:0:0:0:
192,192,79545,1,8,0:0:0:0:
448,192,79627,1,0,0:0:0:0:
192,192,79709,1,0,0:0:0:0:
64,192,79709,1,0,0:0:0:0:
320,192,79791,1,0,0:0:0:0:
448,192,79791,1,0,0:0:0:0:
64,192,79873,1,0,3:0:0:0:
320,192,79955,1,0,0:0:0:0:
192,192,79955,1,0,0:0:0:0:
64,192,80037,1,0,0:0:0:0:
320,192,80119,1,0,0:0:0:0:
448,192,80119,1,0,0:0:0:0:
192,192,80201,1,8,0:0:0:0:
64,192,80201,1,0,0:0:0:0:
448,192,80283,1,0,0:0:0:0:
320,192,80283,1,0,0:0:0:0:
64,192,80365,1,4,0:0:0:0:
192,192,80365,1,4,0:0:0:0:
320,192,80447,1,0,0:0:0:0:
448,192,80447,1,0,0:0:0:0:
64,192,80529,1,0,0:0:0:0:
192,192,80529,1,0,0:0:0:0:
448,192,80611,1,0,0:0:0:0:
320,192,80611,1,0,0:0:0:0:
64,192,80693,1,0,0:0:0:0:
192,192,80693,1,0,0:0:0:0:
320,192,80775,1,0,0:0:0:0:
448,192,80775,1,0,0:0:0:0:
64,192,80857,1,8,0:0:0:0:
192,192,80857,1,8,0:0:0:0:
320,192,80939,1,0,0:0:0:0:
448,192,80939,1,0,0:0:0:0:
192,192,81021,1,0,0:0:0:0:
320,192,81103,1,0,0:0:0:0:
448,192,81103,1,0,0:0:0:0:
64,192,81185,1,0,3:0:0:0:
192,192,81185,1,0,3:0:0:0:
320,192,81267,1,0,0:0:0:0:
192,192,81349,1,0,0:0:0:0:
64,192,81349,1,0,0:0:0:0:
448,192,81431,1,0,0:0:0:0:
320,192,81431,1,0,0:0:0:0:
192,192,81512,1,0,0:0:0:0:
448,192,81594,1,0,0:0:0:0:
320,192,81594,1,0,0:0:0:0:
192,192,81676,1,8,0:0:0:0:
64,192,81676,1,8,0:0:0:0:
448,192,81758,1,0,0:0:0:0:
448,192,81840,1,6,0:0:0:0:
192,192,81840,1,6,0:0:0:0:
64,192,81840,1,6,0:0:0:0:
320,192,81922,1,0,0:0:0:0:
192,192,82004,1,0,0:0:0:0:
448,192,82004,1,0,0:0:0:0:
64,192,82086,1,0,0:0:0:0:
320,192,82168,1,8,0:0:0:0:
192,192,82168,1,8,0:0:0:0:
448,192,82250,1,0,0:0:0:0:
320,192,82332,1,0,0:0:0:0:
192,192,82332,1,0,0:0:0:0:
448,192,82414,1,0,0:0:0:0:
320,192,82496,1,0,3:0:0:0:
64,192,82496,1,0,3:0:0:0:
192,192,82578,1,0,0:0:0:0:
320,192,82660,1,0,0:0:0:0:
64,192,82660,1,0,0:0:0:0:
192,192,82742,1,0,0:0:0:0:
320,192,82824,1,8,0:0:0:0:
448,192,82824,1,8,0:0:0:0:
192,192,82906,1,0,0:0:0:0:
320,192,82988,1,0,0:0:0:0:
448,192,82988,1,0,0:0:0:0:
64,192,83070,1,0,0:0:0:0:
64,192,83152,1,4,0:0:0:0:
320,192,83152,1,4,0:0:0:0:
448,192,83152,1,4,0:0:0:0:
192,192,83234,1,0,0:0:0:0:
320,192,83316,1,0,0:0:0:0:
448,192,83316,1,0,0:0:0:0:
192,192,83398,1,0,0:0:0:0:
448,192,83480,1,8,0:0:0:0:
64,192,83480,1,8,0:0:0:0:
320,192,83562,1,0,0:0:0:0:
448,192,83644,1,0,0:0:0:0:
64,192,83644,1,0,0:0:0:0:
192,192,83726,1,0,0:0:0:0:
64,192,83808,1,0,3:0:0:0:
448,192,83808,1,0,3:0:0:0:
320,192,83890,1,0,0:0:0:0:
192,192,83972,1,0,0:0:0:0:
64,192,83972,1,0,0:0:0:0:
448,192,84053,1,0,0:0:0:0:
320,192,84135,1,8,0:0:0:0:
192,192,84135,1,8,0:0:0:0:
64,192,84217,1,0,0:0:0:0:
320,192,84299,1,0,3:0:0:0:
192,192,84299,1,0,3:0:0:0:
448,192,84381,1,0,0:0:0:0:
192,192,84463,1,14,0:0:0:0:
64,192,84463,1,14,0:0:0:0:
448,192,84463,1,14,0:0:0:0:
64,192,84627,1,0,3:0:0:0:
320,192,84627,1,0,3:0:0:0:
448,192,84627,1,0,3:0:0:0:
320,192,84791,1,0,3:0:0:0:
448,192,84791,1,0,3:0:0:0:
448,192,84955,1,14,0:0:0:0:
320,192,84955,1,14,0:0:0:0:
192,192,84955,1,14,0:0:0:0:
64,192,84955,1,14,0:0:0:0:
192,192,85119,1,0,3:0:0:0:
64,192,85119,1,0,3:0:0:0:
448,192,85283,1,0,3:0:0:0:
192,192,85283,1,0,3:0:0:0:
64,192,85283,1,0,3:0:0:0:
192,192,85447,1,6,0:0:0:0:
320,192,85447,1,6,0:0:0:0:
448,192,85447,1,6,0:0:0:0:
64,192,85529,1,0,0:0:0:0:
192,192,85611,1,0,0:0:0:0:
320,192,85611,1,0,0:0:0:0:
448,192,85693,1,0,0:0:0:0:
64,192,85775,1,0,0:0:0:0:
192,192,85775,1,0,0:0:0:0:
320,192,85857,1,0,0:0:0:0:
448,192,85939,1,0,0:0:0:0:
64,192,85939,1,0,0:0:0:0:
192,192,86021,1,0,0:0:0:0:
320,192,86103,1,8,0:0:0:0:
448,192,86103,1,8,0:0:0:0:
192,192,86185,1,0,0:0:0:0:
320,192,86267,1,0,0:0:0:0:
64,192,86267,1,0,0:0:0:0:
448,192,86349,1,0,0:0:0:0:
64,192,86431,1,0,3:0:0:0:
192,192,86472,1,0,0:0:0:0:
320,192,86512,1,0,3:0:0:0:
448,192,86553,1,0,0:0:0:0:
64,192,86594,1,0,3:0:0:0:
192,192,86635,1,0,0:0:0:0:
320,192,86676,1,0,3:0:0:0:
448,192,86717,1,0,0:0:0:0:
64,192,86758,1,8,0:0:0:0:
192,192,86799,1,0,0:0:0:0:
320,192,86840,1,0,0:0:0:0:
448,192,86881,1,0,0:0:0:0:
64,192,86922,1,0,3:0:0:0:
192,192,86963,1,0,0:0:0:0:
320,192,87004,1,0,0:0:0:0:
448,192,87045,1,0,0:0:0:0:
64,192,87086,1,4,0:0:0:0:
192,192,87168,1,0,0:0:0:0:
320,192,87250,1,0,0:0:0:0:
448,192,87250,1,0,0:0:0:0:
192,192,87332,1,0,0:0:0:0:
64,192,87414,1,8,0:0:0:0:
320,192,87414,1,8,0:0:0:0:
192,192,87496,1,0,0:0:0:0:
320,192,87578,1,0,0:0:0:0:
448,192,87578,1,0,0:0:0:0:
192,192,87660,1,0,0:0:0:0:
448,192,87742,1,0,3:0:0:0:
64,192,87742,1,0,3:0:0:0:
192,192,87824,1,0,0:0:0:0:
64,192,87906,1,0,0:0:0:0:
448,192,87906,1,0,0:0:0:0:
192,192,87988,1,0,0:0:0:0:
448,192,88070,1,8,0:0:0:0:
320,192,88070,1,8,0:0:0:0:
64,192,88152,1,0,0:0:0:0:
64,192,88234,1,4,0:0:0:0:
320,192,88234,1,4,0:0:0:0:
448,192,88234,1,4,0:0:0:0:
192,192,88316,1,0,0:0:0:0:
320,192,88398,1,0,0:0:0:0:
448,192,88398,1,0,0:0:0:0:
192,192,88480,1,0,0:0:0:0:
448,192,88562,1,0,0:0:0:0:
64,192,88562,1,0,0:0:0:0:
192,192,88644,1,0,0:0:0:0:
448,192,88726,1,8,0:0:0:0:
320,192,88726,1,8,0:0:0:0:
64,192,88808,1,0,0:0:0:0:
320,192,88890,1,0,0:0:0:0:
192,192,88890,1,0,0:0:0:0:
448,192,88972,1,0,0:0:0:0:
64,192,89053,1,0,3:0:0:0:
192,192,89053,1,0,3:0:0:0:
320,192,89135,1,0,3:0:0:0:
448,192,89217,1,0,0:0:0:0:
192,192,89217,1,0,0:0:0:0:
320,192,89299,1,0,0:0:0:0:
192,192,89381,1,8,0:0:0:0:
64,192,89381,1,8,0:0:0:0:
320,192,89463,1,0,0:0:0:0:
64,192,89545,1,0,0:0:0:0:
192,192,89545,1,0,0:0:0:0:
448,192,89545,1,0,0:0:0:0:
320,192,89627,1,0,0:0:0:0:
448,192,89709,1,0,0:0:0:0:
64,192,89709,1,0,0:0:0:0:
192,192,89791,1,0,0:0:0:0:
448,192,89873,1,0,0:0:0:0:
64,192,89873,1,0,0:0:0:0:
320,192,89955,1,0,0:0:0:0:
64,192,90037,1,8,0:0:0:0:
448,192,90037,1,8,0:0:0:0:
192,192,90119,1,0,0:0:0:0:
320,192,90201,1,0,0:0:0:0:
448,192,90201,1,0,0:0:0:0:
64,192,90283,1,0,0:0:0:0:
320,192,90365,1,0,3:0:0:0:
192,192,90365,1,0,3:0:0:0:
448,192,90447,1,0,0:0:0:0:
64,192,90529,1,0,0:0:0:0:
192,192,90529,1,0,0:0:0:0:
320,192,90611,1,0,0:0:0:0:
448,192,90611,1,0,0:0:0:0:
64,192,90693,1,8,0:0:0:0:
192,192,90693,1,8,0:0:0:0:
64,192,90775,1,0,0:0:0:0:
320,192,90857,1,0,0:0:0:0:
448,192,90857,1,0,0:0:0:0:
192,192,90939,1,0,0:0:0:0:
64,192,90939,1,0,0:0:0:0:
320,192,91021,1,4,3:2:0:0:
448,192,91021,1,4,3:2:0:0:
448,192,91103,1,0,0:0:0:0:
192,192,91185,1,0,0:0:0:0:
64,192,91185,1,0,0:0:0:0:
320,192,91267,1,0,0:0:0:0:
448,192,91349,1,12,0:0:0:0:
192,192,91349,1,12,0:0:0:0:
64,192,91431,1,0,0:0:0:0:
320,192,91512,1,0,0:0:0:0:
192,192,91512,1,0,0:0:0:0:
448,192,91594,1,0,0:0:0:0:
64,192,91676,1,4,3:2:0:0:
192,192,91717,1,0,0:0:0:0:
320,192,91758,1,0,3:2:0:0:
448,192,91799,1,0,0:0:0:0:
64,192,91840,1,2,3:2:0:0:
192,192,91881,1,0,0:0:0:0:
320,192,91922,1,0,3:0:0:0:
448,192,91963,1,0,0:0:0:0:
64,192,92004,1,10,3:2:0:0:
192,192,92045,1,0,0:0:0:0:
320,192,92086,1,0,0:0:0:0:
448,192,92127,1,0,0:0:0:0:
64,192,92168,1,8,3:2:0:0:
192,192,92209,1,0,0:0:0:0:
320,192,92250,1,8,3:2:0:0:
448,192,92291,1,0,0:0:0:0:
192,192,92332,1,4,3:2:0:0:
64,192,92387,1,0,0:0:0:0:
320,192,92441,1,0,0:0:0:0:
448,192,92496,1,2,0:0:0:0:
192,192,92551,1,0,0:0:0:0:
320,192,92605,1,0,0:0:0:0:
64,192,92660,1,10,3:2:0:0:
192,192,92715,1,0,0:0:0:0:
320,192,92769,1,0,0:0:0:0:
448,192,92824,1,0,0:0:0:0:
192,192,92879,1,0,0:0:0:0:
64,192,92933,1,0,0:0:0:0:
320,192,92988,1,0,0:0:0:0:
448,192,93043,1,0,0:0:0:0:
64,192,93097,1,0,0:0:0:0:
192,192,93152,1,2,0:0:0:0:
320,192,93206,1,0,0:0:0:0:
448,192,93261,1,0,0:0:0:0:
192,192,93316,1,8,0:0:0:0:
64,192,93370,1,0,0:0:0:0:
320,192,93425,1,0,0:0:0:0:
192,192,93480,1,0,0:0:0:0:
448,192,93534,1,0,0:0:0:0:
320,192,93589,1,0,0:0:0:0:
64,192,93644,1,0,0:0:0:0:
192,192,93698,1,0,0:0:0:0:
320,192,93753,1,0,0:0:0:0:
448,192,93808,1,2,0:0:0:0:
192,192,93862,1,0,0:0:0:0:
320,192,93917,1,0,0:0:0:0:
64,192,93972,1,8,0:0:0:0:
192,192,94026,1,0,0:0:0:0:
448,192,94081,1,0,0:0:0:0:
320,192,94135,1,0,0:0:0:0:
192,192,94190,1,0,0:0:0:0:
64,192,94245,1,0,0:0:0:0:
320,192,94299,1,0,0:0:0:0:
448,192,94354,1,0,0:0:0:0:
192,192,94409,1,0,0:0:0:0:
64,192,94463,1,2,0:0:0:0:
320,192,94518,1,0,0:0:0:0:
192,192,94573,1,0,0:0:0:0:
448,192,94627,1,8,0:0:0:0:
320,192,94682,1,0,0:0:0:0:
192,192,94737,1,0,0:0:0:0:
64,192,94791,1,0,0:0:0:0:
320,192,94846,1,0,0:0:0:0:
448,192,94900,1,0,0:0:0:0:
192,192,94955,1,0,0:0:0:0:
320,192,95010,1,0,0:0:0:0:
64,192,95064,1,0,0:0:0:0:
192,192,95119,1,2,0:0:0:0:
320,192,95174,1,0,0:0:0:0:
448,192,95228,1,0,0:0:0:0:
64,192,95283,1,8,0:0:0:0:
192,192,95338,1,0,0:0:0:0:
320,192,95392,1,0,0:0:0:0:
64,192,95447,1,0,0:0:0:0:
192,192,95502,1,0,0:0:0:0:
448,192,95556,1,0,0:0:0:0:
320,192,95611,1,0,0:0:0:0:
192,192,95666,1,0,0:0:0:0:
64,192,95720,1,0,0:0:0:0:
448,192,95775,1,2,0:0:0:0:
320,192,95829,1,0,0:0:0:0:
192,192,95884,1,0,0:0:0:0:
448,192,95939,1,8,0:0:0:0:
320,192,95993,1,0,0:0:0:0:
64,192,96048,1,0,0:0:0:0:
192,192,96103,1,0,0:0:0:0:
320,192,96157,1,0,0:0:0:0:
448,192,96212,1,0,0:0:0:0:
192,192,96267,1,2,0:0:0:0:
64,192,96321,1,0,0:0:0:0:
320,192,96376,1,0,0:0:0:0:
448,192,96431,1,2,0:0:0:0:
192,192,96485,1,0,0:0:0:0:
64,192,96540,1,0,0:0:0:0:
320,192,96594,1,8,0:0:0:0:
448,192,96649,1,0,0:0:0:0:
64,192,96704,1,0,0:0:0:0:
192,192,96758,1,0,0:0:0:0:
320,192,96813,1,0,0:0:0:0:
448,192,96868,1,0,0:0:0:0:
64,192,96922,1,2,0:0:0:0:
192,192,96963,1,0,0:0:0:0:
320,192,97004,1,0,0:0:0:0:
448,192,97045,1,0,0:0:0:0:
64,192,97086,1,2,0:0:0:0:
192,192,97127,1,0,0:0:0:0:
320,192,97168,1,0,0:0:0:0:
448,192,97209,1,0,0:0:0:0:
64,192,97250,1,8,0:0:0:0:
192,192,97291,1,0,0:0:0:0:
320,192,97332,1,0,0:0:0:0:
448,192,97373,1,0,0:0:0:0:
64,192,97414,1,0,3:0:0:0:
192,192,97455,1,0,0:0:0:0:
320,192,97496,1,0,3:0:0:0:
448,192,97537,1,0,0:0:0:0:
64,192,97578,1,4,0:0:0:0:
192,192,97633,1,0,0:0:0:0:
448,192,97687,1,0,0:0:0:0:
320,192,97742,1,2,0:0:0:0:
192,192,97797,1,0,0:0:0:0:
64,192,97851,1,0,0:0:0:0:
320,192,97906,1,8,3:2:0:0:
448,192,97961,1,0,0:0:0:0:
192,192,98015,1,0,0:0:0:0:
64,192,98070,1,0,0:0:0:0:
448,192,98125,1,0,0:0:0:0:
320,192,98179,1,0,0:0:0:0:
192,192,98234,1,0,0:0:0:0:
64,192,98288,1,0,0:0:0:0:
320,192,98343,1,0,0:0:0:0:
192,192,98398,1,2,0:0:0:0:
448,192,98452,1,0,0:0:0:0:
320,192,98507,1,0,0:0:0:0:
64,192,98562,1,8,0:0:0:0:
192,192,98616,1,0,0:0:0:0:
320,192,98671,1,0,0:0:0:0:
448,192,98726,1,0,0:0:0:0:
192,192,98780,1,0,0:0:0:0:
320,192,98835,1,0,0:0:0:0:
64,192,98890,1,0,0:0:0:0:
192,192,98944,1,0,0:0:0:0:
320,192,98999,1,0,0:0:0:0:
448,192,99053,1,2,0:0:0:0:
64,192,99108,1,0,0:0:0:0:
192,192,99163,1,0,0:0:0:0:
320,192,99217,1,8,0:0:0:0:
64,192,99272,1,0,0:0:0:0:
192,192,99327,1,0,0:0:0:0:
448,192,99381,1,0,0:0:0:0:
320,192,99436,1,0,0:0:0:0:
192,192,99491,1,0,0:0:0:0:
64,192,99545,1,0,0:0:0:0:
448,192,99600,1,0,0:0:0:0:
320,192,99655,1,0,0:0:0:0:
192,192,99709,1,2,0:0:0:0:
448,192,99764,1,0,0:0:0:0:
320,192,99819,1,0,0:0:0:0:
64,192,99873,1,8,0:0:0:0:
192,192,99928,1,0,0:0:0:0:
320,192,99982,1,0,0:0:0:0:
448,192,100037,1,0,0:0:0:0:
192,192,100092,1,0,0:0:0:0:
64,192,100146,1,0,0:0:0:0:
320,192,100201,1,2,0:0:0:0:
192,192,100256,1,0,0:0:0:0:
448,192,100310,1,0,0:0:0:0:
320,192,100365,1,0,0:0:0:0:
64,192,100420,1,0,0:0:0:0:
192,192,100474,1,0,0:0:0:0:
320,192,100529,1,8,0:0:0:0:
448,192,100584,1,0,0:0:0:0:
192,192,100638,1,0,0:0:0:0:
320,192,100693,1,0,0:0:0:0:
64,192,100747,1,0,0:0:0:0:
192,192,100802,1,0,0:0:0:0:
320,192,100857,1,2,0:0:0:0:
448,192,100911,1,0,0:0:0:0:
192,192,100966,1,0,0:0:0:0:
64,192,101021,1,2,0:0:0:0:
320,192,101075,1,0,0:0:0:0:
448,192,101130,1,0,0:0:0:0:
192,192,101185,1,8,0:0:0:0:
64,192,101239,1,0,0:0:0:0:
448,192,101294,1,0,0:0:0:0:
320,192,101349,1,2,0:1:0:0:
192,192,101403,1,0,0:0:0:0:
64,192,101458,1,0,0:0:0:0:
320,192,101512,1,0,0:0:0:0:
192,192,101567,1,0,0:0:0:0:
448,192,101622,1,0,0:0:0:0:
320,192,101676,1,0,0:0:0:0:
64,192,101731,1,0,0:0:0:0:
192,192,101786,1,0,0:0:0:0:
448,192,101840,1,10,0:0:0:0:
320,192,101881,1,0,0:0:0:0:
192,192,101922,1,0,0:0:0:0:
64,192,101963,1,0,0:0:0:0:
448,192,102004,1,2,0:1:0:0:
320,192,102045,1,0,0:0:0:0:
192,192,102086,1,0,0:0:0:0:
64,192,102127,1,0,0:0:0:0:
448,192,102168,1,2,3:2:0:0:
320,192,102209,1,0,0:0:0:0:
192,192,102250,1,0,0:0:0:0:
64,192,102291,1,0,0:0:0:0:
448,192,102332,1,0,3:0:0:0:
320,192,102373,1,0,0:0:0:0:
192,192,102414,1,0,0:0:0:0:
64,192,102455,1,0,0:0:0:0:
448,192,102496,1,10,3:2:0:0:
320,192,102537,1,0,0:0:0:0:
192,192,102578,1,0,0:0:0:0:
64,192,102619,1,0,0:0:0:0:
448,192,102660,1,8,0:0:0:0:
320,192,102701,1,0,0:0:0:0:
192,192,102742,1,8,0:0:0:0:
64,192,102783,1,0,0:0:0:0:
320,192,102824,1,4,0:0:0:0:
448,192,102879,1,0,0:0:0:0:
192,192,102933,1,0,0:0:0:0:
320,192,102988,1,2,0:0:0:0:
64,192,103043,1,0,0:0:0:0:
192,192,103097,1,0,0:0:0:0:
320,192,103152,1,8,3:2:0:0:
448,192,103206,1,0,0:0:0:0:
192,192,103261,1,0,0:0:0:0:
64,192,103316,1,0,0:0:0:0:
320,192,103370,1,0,0:0:0:0:
192,192,103425,1,0,0:0:0:0:
448,192,103480,1,0,0:0:0:0:
320,192,103534,1,0,0:0:0:0:
192,192,103589,1,0,0:0:0:0:
64,192,103644,1,2,0:0:0:0:
320,192,103698,1,0,0:0:0:0:
448,192,103753,1,0,0:0:0:0:
192,192,103808,1,8,0:0:0:0:
64,192,103862,1,0,0:0:0:0:
320,192,103917,1,0,0:0:0:0:
192,192,103972,1,0,0:0:0:0:
448,192,104026,1,0,0:0:0:0:
320,192,104081,1,0,0:0:0:0:
64,192,104135,1,0,0:0:0:0:
192,192,104190,1,0,0:0:0:0:
320,192,104245,1,0,0:0:0:0:
64,192,104299,1,2,0:0:0:0:
192,192,104354,1,0,0:0:0:0:
448,192,104409,1,0,0:0:0:0:
320,192,104463,1,8,0:0:0:0:
192,192,104518,1,0,0:0:0:0:
64,192,104573,1,0,0:0:0:0:
448,192,104627,1,0,0:0:0:0:
320,192,104682,1,0,0:0:0:0:
192,192,104737,1,0,0:0:0:0:
448,192,104791,1,0,0:0:0:0:
320,192,104846,1,0,0:0:0:0:
64,192,104900,1,0,0:0:0:0:
192,192,104955,1,2,0:0:0:0:
320,192,105010,1,0,0:0:0:0:
448,192,105064,1,0,0:0:0:0:
192,192,105119,1,8,0:0:0:0:
320,192,105174,1,0,0:0:0:0:
64,192,105228,1,0,0:0:0:0:
192,192,105283,1,0,0:0:0:0:
320,192,105338,1,0,0:0:0:0:
448,192,105392,1,0,0:0:0:0:
192,192,105447,1,0,0:0:0:0:
64,192,105502,1,0,0:0:0:0:
320,192,105556,1,0,0:0:0:0:
192,192,105611,1,2,0:0:0:0:
64,192,105666,1,0,0:0:0:0:
448,192,105720,1,0,0:0:0:0:
320,192,105775,1,8,0:0:0:0:
192,192,105829,1,0,0:0:0:0:
64,192,105884,1,0,0:0:0:0:
320,192,105939,1,0,0:0:0:0:
448,192,105993,1,0,0:0:0:0:
192,192,106048,1,0,0:0:0:0:
320,192,106103,1,0,0:0:0:0:
448,192,106157,1,0,0:0:0:0:
64,192,106212,1,0,0:0:0:0:
192,192,106267,1,2,0:0:0:0:
320,192,106321,1,0,0:0:0:0:
448,192,106376,1,0,0:0:0:0:
320,192,106431,1,8,0:0:0:0:
192,192,106485,1,0,0:0:0:0:
64,192,106540,1,0,0:0:0:0:
192,192,106594,1,0,0:0:0:0:
320,192,106649,1,0,0:0:0:0:
448,192,106704,1,0,0:0:0:0:
192,192,106758,1,2,0:0:0:0:
64,192,106813,1,0,0:0:0:0:
320,192,106868,1,0,0:0:0:0:
448,192,106922,1,2,0:0:0:0:
192,192,106977,1,0,0:0:0:0:
64,192,107032,1,0,0:0:0:0:
320,192,107086,1,8,0:0:0:0:
448,192,107141,1,0,0:0:0:0:
192,192,107196,1,0,0:0:0:0:
64,192,107250,1,0,0:0:0:0:
448,192,107305,1,0,0:0:0:0:
320,192,107359,1,0,0:0:0:0:
64,192,107414,1,0,0:0:0:0:
192,192,107469,1,0,0:0:0:0:
448,192,107523,1,0,0:0:0:0:
320,192,107578,1,0,3:0:0:0:
64,192,107633,1,0,0:0:0:0:
192,192,107687,1,0,0:0:0:0:
448,192,107742,1,8,0:0:0:0:
320,192,107797,1,0,0:0:0:0:
64,192,107851,1,0,0:0:0:0:
192,192,107906,1,0,0:0:0:0:
320,192,107961,1,0,0:0:0:0:
448,192,108015,1,0,0:0:0:0:
64,192,108070,128,0,108152:0:0:0:0:
192,192,108070,128,0,108152:0:0:0:0:
320,192,108152,128,0,108234:0:0:0:0:
448,192,108234,128,0,108316:0:0:0:0:
192,192,108316,128,0,108398:0:0:0:0:
64,192,108398,128,0,108480:0:0:0:0:
320,192,108398,128,0,108480:0:0:0:0:
448,192,108480,128,0,108562:0:0:0:0:
192,192,108562,128,0,108644:0:0:0:0:
64,192,108644,128,8,108726:0:0:0:0:
320,192,108726,128,0,108808:0:0:0:0:
448,192,108726,128,0,108808:0:0:0:0:
192,192,108808,128,0,108890:0:0:0:0:
64,192,108890,128,0,108972:0:0:0:0:
320,192,108972,128,0,109053:0:0:0:0:
448,192,109053,128,0,109135:0:0:0:0:
192,192,109053,128,0,109135:0:0:0:0:
64,192,109135,128,0,109217:0:0:0:0:
320,192,109217,128,0,109299:0:0:0:0:
448,192,109299,128,2,109381:0:0:0:0:
192,192,109381,128,0,109463:0:0:0:0:
64,192,109381,128,0,109463:0:0:0:0:
320,192,109463,128,0,109545:0:0:0:0:
448,192,109545,128,0,109627:0:0:0:0:
192,192,109627,128,0,109709:0:0:0:0:
64,192,109627,128,0,109709:0:0:0:0:
320,192,109709,128,0,109791:0:0:0:0:
448,192,109791,128,0,109873:0:0:0:0:
192,192,109873,128,0,109955:0:0:0:0:
320,192,109955,128,8,110037:0:0:0:0:
64,192,109955,128,8,110037:0:0:0:0:
448,192,110037,128,0,110119:0:0:0:0:
192,192,110119,128,0,110201:0:0:0:0:
64,192,110201,128,0,110283:0:0:0:0:
448,192,110283,128,0,110365:0:0:0:0:
320,192,110365,128,0,110447:0:0:0:0:
192,192,110365,128,0,110447:0:0:0:0:
64,192,110447,128,0,110529:0:0:0:0:
448,192,110529,128,0,110611:0:0:0:0:
64,192,110693,1,4,3:2:0:0:
192,192,110734,1,0,0:0:0:0:
320,192,110775,1,0,0:0:0:0:
448,192,110816,1,0,0:0:0:0:
64,192,110857,1,0,0:0:0:0:
192,192,110898,1,0,0:0:0:0:
320,192,110939,1,0,0:0:0:0:
448,192,110980,1,0,0:0:0:0:
64,192,111021,1,0,0:0:0:0:
192,192,111062,1,0,0:0:0:0:
320,192,111103,1,0,0:0:0:0:
448,192,111144,1,0,0:0:0:0:
64,192,111185,1,0,0:0:0:0:
192,192,111226,1,0,0:0:0:0:
320,192,111267,1,0,0:0:0:0:
448,192,111308,1,0,0:0:0:0:
64,192,111349,1,0,0:0:0:0:
192,192,111390,1,0,0:0:0:0:
320,192,111431,1,0,0:0:0:0:
448,192,111472,1,0,0:0:0:0:
64,192,111512,1,0,0:0:0:0:
192,192,111553,1,0,0:0:0:0:
320,192,111594,1,0,0:0:0:0:
448,192,111635,1,0,0:0:0:0:
64,192,111676,1,0,0:0:0:0:
192,192,111717,1,0,0:0:0:0:
320,192,111758,1,0,0:0:0:0:
448,192,111799,1,0,0:0:0:0:
64,192,111840,1,0,0:0:0:0:
192,192,111881,1,0,0:0:0:0:
320,192,111922,1,0,0:0:0:0:
448,192,111963,1,0,0:0:0:0:
64,192,112004,1,8,3:2:0:0:
192,192,112086,1,0,0:0:0:0:
448,192,112168,1,0,3:0:0:0:
64,192,112168,1,0,3:0:0:0:
320,192,112250,1,0,3:0:0:0:
64,192,112332,1,0,3:0:0:0:
448,192,112332,1,0,3:0:0:0:
192,192,112414,1,0,0:0:0:0:
448,192,112496,1,8,3:2:0:0:
320,192,112537,1,0,0:0:0:0:
192,192,112578,1,0,0:0:0:0:
64,192,112619,1,0,0:0:0:0:
448,192,112660,1,0,3:0:0:0:
320,192,112701,1,0,0:0:0:0:
192,192,112742,1,0,3:0:0:0:
64,192,112783,1,0,0:0:0:0:
448,192,112824,1,0,3:0:0:0:
320,192,112865,1,0,0:0:0:0:
192,192,112906,1,0,0:0:0:0:
64,192,112947,1,0,0:0:0:0:
448,192,112988,1,8,3:2:0:0:
320,192,113029,1,0,0:0:0:0:
192,192,113070,1,0,0:0:0:0:
64,192,113111,1,0,0:0:0:0:
448,192,113152,1,4,3:2:0:0:
320,192,113193,1,0,0:0:0:0:
192,192,113234,1,0,0:0:0:0:
64,192,113275,1,0,0:0:0:0:
320,192,113316,1,0,0:0:0:0:
448,192,113370,1,0,0:0:0:0:
192,192,113425,1,0,0:0:0:0:
64,192,113480,1,0,3:0:0:0:
448,192,113534,1,0,0:0:0:0:
320,192,113589,1,0,0:0:0:0:
192,192,113644,1,8,0:0:0:0:
64,192,113698,1,0,0:0:0:0:
192,192,113753,1,0,0:0:0:0:
320,192,113808,1,0,0:0:0:0:
448,192,113862,1,0,0:0:0:0:
64,192,113917,1,0,0:0:0:0:
192,192,113972,1,0,3:0:0:0:
320,192,114026,1,0,0:0:0:0:
448,192,114081,1,0,0:0:0:0:
320,192,114135,1,0,3:0:0:0:
192,192,114190,1,0,0:0:0:0:
64,192,114245,1,0,0:0:0:0:
448,192,114299,1,8,0:0:0:0:
320,192,114354,1,0,0:0:0:0:
192,192,114409,1,0,0:0:0:0:
64,192,114463,1,0,3:0:0:0:
320,192,114518,1,0,0:0:0:0:
448,192,114573,1,0,0:0:0:0:
64,192,114627,1,0,3:0:0:0:
192,192,114682,1,0,0:0:0:0:
320,192,114737,1,0,0:0:0:0:
448,192,114791,1,0,3:0:0:0:
64,192,114846,1,0,0:0:0:0:
192,192,114900,1,0,0:0:0:0:
320,192,114955,1,8,0:0:0:0:
64,192,115010,1,0,0:0:0:0:
192,192,115064,1,0,0:0:0:0:
448,192,115119,1,0,3:0:0:0:
320,192,115174,1,0,0:0:0:0:
192,192,115228,1,0,0:0:0:0:
64,192,115283,1,0,3:0:0:0:
448,192,115338,1,0,0:0:0:0:
320,192,115392,1,0,0:0:0:0:
192,192,115447,1,0,3:0:0:0:
448,192,115502,1,0,0:0:0:0:
320,192,115556,1,0,0:0:0:0:
64,192,115611,1,8,0:0:0:0:
192,192,115666,1,0,0:0:0:0:
448,192,115720,1,0,0:0:0:0:
320,192,115775,1,0,3:0:0:0:
192,192,115829,1,0,0:0:0:0:
64,192,115884,1,0,0:0:0:0:
320,192,115939,1,0,0:0:0:0:
448,192,115993,1,0,0:0:0:0:
192,192,116048,1,0,0:0:0:0:
320,192,116103,1,0,3:0:0:0:
448,192,116157,1,0,0:0:0:0:
64,192,116212,1,0,0:0:0:0:
192,192,116267,1,8,0:0:0:0:
320,192,116321,1,0,0:0:0:0:
448,192,116376,1,0,0:0:0:0:
192,192,116431,1,0,3:0:0:0:
64,192,116485,1,0,0:0:0:0:
320,192,116540,1,0,0:0:0:0:
192,192,116594,1,0,3:0:0:0:
64,192,116649,1,0,0:0:0:0:
448,192,116704,1,0,0:0:0:0:
320,192,116758,1,0,3:0:0:0:
192,192,116813,1,0,0:0:0:0:
64,192,116868,1,0,0:0:0:0:
320,192,116922,1,8,0:0:0:0:
448,192,116977,1,0,0:0:0:0:
192,192,117032,1,0,0:0:0:0:
320,192,117086,1,0,3:0:0:0:
64,192,117141,1,0,0:0:0:0:
192,192,117196,1,0,0:0:0:0:
448,192,117250,1,0,3:0:0:0:
320,192,117305,1,0,0:0:0:0:
192,192,117359,1,0,0:0:0:0:
64,192,117414,1,8,3:2:0:0:
320,192,117469,1,0,0:0:0:0:
192,192,117523,1,0,0:0:0:0:
448,192,117578,1,8,0:0:0:0:
320,192,117633,1,0,0:0:0:0:
192,192,117687,1,0,0:0:0:0:
64,192,117742,1,0,3:0:0:0:
320,192,117797,1,0,0:0:0:0:
448,192,117851,1,0,0:0:0:0:
64,192,117906,1,8,0:0:0:0:
192,192,117947,1,0,0:0:0:0:
320,192,117988,1,0,3:0:0:0:
448,192,118029,1,0,0:0:0:0:
64,192,118070,1,0,3:0:0:0:
192,192,118111,1,0,0:0:0:0:
320,192,118152,1,0,0:0:0:0:
448,192,118193,1,0,0:0:0:0:
64,192,118234,1,8,3:2:0:0:
192,192,118275,1,0,0:0:0:0:
320,192,118316,1,0,3:0:0:0:
448,192,118357,1,0,0:0:0:0:
64,192,118398,1,4,3:2:0:0:
192,192,118439,1,0,0:0:0:0:
320,192,118480,1,0,0:0:0:0:
448,192,118521,1,0,0:0:0:0:
192,192,118562,1,0,0:0:0:0:
64,192,118616,1,0,0:0:0:0:
320,192,118671,1,0,0:0:0:0:
192,192,118726,1,0,3:0:0:0:
448,192,118780,1,0,0:0:0:0:
320,192,118835,1,0,0:0:0:0:
192,192,118890,1,8,0:0:0:0:
64,192,118944,1,0,0:0:0:0:
320,192,118999,1,0,0:0:0:0:
448,192,119053,1,0,3:0:0:0:
192,192,119108,1,0,0:0:0:0:
320,192,119163,1,0,0:0:0:0:
64,192,119217,1,0,3:0:0:0:
192,192,119272,1,0,0:0:0:0:
320,192,119327,1,0,0:0:0:0:
448,192,119381,1,0,3:0:0:0:
64,192,119436,1,0,0:0:0:0:
192,192,119491,1,0,0:0:0:0:
320,192,119545,1,8,0:0:0:0:
448,192,119600,1,0,0:0:0:0:
64,192,119655,1,0,0:0:0:0:
192,192,119709,1,0,3:0:0:0:
320,192,119764,1,0,0:0:0:0:
64,192,119819,1,0,0:0:0:0:
192,192,119873,1,0,3:0:0:0:
448,192,119928,1,0,0:0:0:0:
320,192,119982,1,0,0:0:0:0:
192,192,120037,1,0,3:0:0:0:
448,192,120092,1,0,0:0:0:0:
320,192,120146,1,0,0:0:0:0:
64,192,120201,1,8,0:0:0:0:
192,192,120256,1,0,0:0:0:0:
320,192,120310,1,0,0:0:0:0:
448,192,120365,1,0,3:0:0:0:
192,192,120420,1,0,0:0:0:0:
320,192,120474,1,0,0:0:0:0:
64,192,120529,1,0,3:0:0:0:
192,192,120584,1,0,0:0:0:0:
320,192,120638,1,0,0:0:0:0:
448,192,120693,1,0,3:0:0:0:
192,192,120747,1,0,0:0:0:0:
64,192,120802,1,0,0:0:0:0:
320,192,120857,1,8,0:0:0:0:
192,192,120911,1,0,0:0:0:0:
448,192,120966,1,0,0:0:0:0:
320,192,121021,1,0,3:0:0:0:
64,192,121075,1,0,0:0:0:0:
192,192,121130,1,0,0:0:0:0:
320,192,121185,1,0,0:0:0:0:
448,192,121239,1,0,0:0:0:0:
192,192,121294,1,0,0:0:0:0:
64,192,121349,1,0,3:0:0:0:
448,192,121403,1,0,0:0:0:0:
320,192,121458,1,0,0:0:0:0:
192,192,121512,1,8,0:0:0:0:
64,192,121567,1,0,0:0:0:0:
320,192,121622,1,0,0:0:0:0:
192,192,121676,1,0,3:0:0:0:
448,192,121731,1,0,0:0:0:0:
320,192,121786,1,0,0:0:0:0:
192,192,121840,1,0,3:0:0:0:
64,192,121895,1,0,0:0:0:0:
320,192,121950,1,0,0:0:0:0:
448,192,122004,1,0,0:0:0:0:
192,192,122059,1,0,0:0:0:0:
320,192,122114,1,0,0:0:0:0:
64,192,122168,1,0,0:0:0:0:
192,192,122223,1,0,0:0:0:0:
320,192,122278,1,0,0:0:0:0:
448,192,122332,1,0,0:0:0:0:
192,192,122387,1,0,0:0:0:0:
64,192,122441,1,0,0:0:0:0:
448,192,122496,1,0,0:0:0:0:
320,192,122496,1,0,0:0:0:0:
192,192,122578,1,0,0:0:0:0:
320,192,122660,1,0,0:0:0:0:
448,192,122660,1,0,0:0:0:0:
192,192,122742,1,0,0:0:0:0:
64,192,122742,1,0,0:0:0:0:
448,192,122824,1,0,0:0:0:0:
320,192,122824,1,0,0:0:0:0:
192,192,122906,1,0,0:0:0:0:
64,192,122906,1,0,0:0:0:0:
320,192,122988,1,0,0:0:0:0:
448,192,122988,1,0,0:0:0:0:
192,192,123070,1,0,0:0:0:0:
64,192,123070,1,0,0:0:0:0:
320,192,123152,1,0,0:0:0:0:
192,192,123234,1,0,0:0:0:0:
64,192,123234,1,0,0:0:0:0:
448,192,123316,1,0,3:0:0:0:
320,192,123316,1,0,0:0:0:0:
192,192,123398,1,0,0:0:0:0:
448,192,123480,1,0,3:0:0:0:
320,192,123480,1,0,0:0:0:0:
192,192,123562,1,0,0:0:0:0:
64,192,123562,1,0,0:0:0:0:
320,192,123644,1,0,0:0:0:0:
192,192,123726,1,0,0:0:0:0:
64,192,123726,1,0,0:0:0:0:
448,192,123808,1,4,3:2:0:0:
320,192,123808,1,0,0:0:0:0:
192,192,123890,1,0,0:0:0:0:
64,192,123972,1,0,0:0:0:0:
320,192,123972,1,0,0:0:0:0:
448,192,124053,1,0,0:0:0:0:
64,192,124135,1,8,0:0:0:0:
192,192,124176,1,0,0:0:0:0:
320,192,124217,1,0,0:0:0:0:
448,192,124258,1,0,0:0:0:0:
64,192,124299,1,0,0:0:0:0:
320,192,124381,1,0,0:0:0:0:
192,192,124463,1,0,0:0:0:0:
448,192,124463,1,0,0:0:0:0:
320,192,124545,1,0,0:0:0:0:
192,192,124627,1,0,0:0:0:0:
64,192,124709,1,0,0:0:0:0:
448,192,124791,1,8,0:0:0:0:
320,192,124832,1,0,0:0:0:0:
192,192,124873,1,0,0:0:0:0:
64,192,124914,1,0,0:0:0:0:
448,192,124955,1,0,0:0:0:0:
320,192,125037,1,0,0:0:0:0:
64,192,125119,1,2,0:0:0:0:
192,192,125119,1,2,0:0:0:0:
448,192,125201,1,0,0:0:0:0:
320,192,125283,1,0,0:0:0:0:
192,192,125283,1,0,0:0:0:0:
448,192,125365,1,0,0:0:0:0:
64,192,125447,1,10,0:0:0:0:
192,192,125488,1,0,0:0:0:0:
320,192,125529,1,0,0:0:0:0:
448,192,125570,1,0,0:0:0:0:
64,192,125611,1,0,0:0:0:0:
192,192,125693,1,0,0:0:0:0:
64,192,125775,1,2,0:0:0:0:
448,192,125775,1,2,0:0:0:0:
320,192,125857,1,0,0:0:0:0:
192,192,125939,1,0,0:0:0:0:
448,192,125939,1,0,0:0:0:0:
64,192,126021,1,0,0:0:0:0:
448,192,126103,1,10,0:0:0:0:
320,192,126144,1,0,0:0:0:0:
192,192,126185,1,0,0:0:0:0:
64,192,126226,1,0,0:0:0:0:
448,192,126267,1,0,0:0:0:0:
320,192,126349,1,0,0:0:0:0:
448,192,126431,1,2,0:0:0:0:
64,192,126431,1,2,0:0:0:0:
192,192,126512,1,0,0:0:0:0:
320,192,126594,1,0,0:0:0:0:
64,192,126594,1,0,0:0:0:0:
448,192,126676,1,0,0:0:0:0:
64,192,126758,1,8,0:0:0:0:
192,192,126799,1,0,0:0:0:0:
320,192,126840,1,0,0:0:0:0:
448,192,126881,1,0,0:0:0:0:
64,192,126922,1,0,0:0:0:0:
192,192,127004,1,0,0:0:0:0:
320,192,127086,1,2,0:0:0:0:
448,192,127086,1,2,0:0:0:0:
64,192,127168,1,0,0:0:0:0:
320,192,127250,1,0,0:0:0:0:
192,192,127250,1,0,0:0:0:0:
64,192,127332,1,0,0:0:0:0:
448,192,127414,1,8,0:0:0:0:
320,192,127455,1,0,0:0:0:0:
192,192,127496,1,0,0:0:0:0:
64,192,127537,1,0,0:0:0:0:
448,192,127578,1,4,0:0:0:0:
320,192,127660,1,0,3:0:0:0:
64,192,127742,1,2,0:0:0:0:
192,192,127742,1,2,0:0:0:0:
320,192,127824,1,0,0:0:0:0:
448,192,127906,1,0,0:0:0:0:
192,192,127906,1,0,0:0:0:0:
320,192,127988,1,0,0:0:0:0:
64,192,128070,1,8,0:0:0:0:
192,192,128070,1,0,0:0:0:0:
320,192,128152,1,0,0:0:0:0:
448,192,128152,1,0,0:0:0:0:
192,192,128234,1,0,0:0:0:0:
320,192,128316,1,0,0:0:0:0:
448,192,128316,1,0,0:0:0:0:
64,192,128398,1,2,0:0:0:0:
192,192,128398,1,0,0:0:0:0:
320,192,128480,1,0,0:0:0:0:
192,192,128562,1,0,0:0:0:0:
64,192,128562,1,0,0:0:0:0:
320,192,128644,1,0,0:0:0:0:
448,192,128644,1,0,0:0:0:0:
192,192,128726,1,0,0:0:0:0:
320,192,128808,1,0,0:0:0:0:
448,192,128808,1,0,0:0:0:0:
64,192,128890,1,8,0:0:0:0:
192,192,128890,1,0,0:0:0:0:
320,192,128972,1,0,3:0:0:0:
448,192,128972,1,0,0:0:0:0:
64,192,129053,1,4,0:0:0:0:
192,192,129053,1,0,0:0:0:0:
320,192,129135,1,0,0:0:0:0:
192,192,129217,1,0,0:0:0:0:
64,192,129299,1,0,0:0:0:0:
448,192,129381,1,8,0:0:0:0:
320,192,129422,1,0,0:0:0:0:
192,192,129463,1,0,0:0:0:0:
64,192,129504,1,0,0:0:0:0:
448,192,129545,1,0,0:0:0:0:
320,192,129627,1,0,0:0:0:0:
64,192,129709,1,0,0:0:0:0:
192,192,129709,1,0,0:0:0:0:
448,192,129791,1,0,0:0:0:0:
320,192,129873,1,0,0:0:0:0:
192,192,129873,1,0,0:0:0:0:
448,192,129955,1,0,0:0:0:0:
64,192,130037,1,8,0:0:0:0:
192,192,130078,1,0,0:0:0:0:
320,192,130119,1,0,0:0:0:0:
448,192,130160,1,0,0:0:0:0:
64,192,130201,1,0,0:0:0:0:
192,192,130283,1,0,0:0:0:0:
448,192,130365,1,2,0:0:0:0:
64,192,130365,1,2,0:0:0:0:
320,192,130447,1,0,0:0:0:0:
192,192,130529,1,8,0:0:0:0:
448,192,130529,1,8,0:0:0:0:
64,192,130611,1,0,0:0:0:0:
448,192,130693,1,8,0:0:0:0:
320,192,130734,1,0,0:0:0:0:
192,192,130775,1,0,0:0:0:0:
64,192,130816,1,0,0:0:0:0:
448,192,130857,1,0,3:0:0:0:
320,192,130857,1,0,3:0:0:0:
192,192,130939,1,0,0:0:0:0:
64,192,130939,1,0,0:0:0:0:
448,192,131021,1,10,0:0:0:0:
320,192,131062,1,0,0:0:0:0:
192,192,131103,1,0,0:0:0:0:
64,192,131144,1,0,0:0:0:0:
448,192,131185,1,0,0:0:0:0:
320,192,131226,1,0,0:0:0:0:
192,192,131267,1,0,0:0:0:0:
64,192,131308,1,0,0:0:0:0:
448,192,131349,1,0,3:0:0:0:
320,192,131390,1,0,0:0:0:0:
192,192,131431,1,0,0:0:0:0:
64,192,131472,1,0,0:0:0:0:
448,192,131512,1,8,0:0:0:0:
320,192,131553,1,0,0:0:0:0:
192,192,131594,1,0,0:0:0:0:
64,192,131635,1,0,0:0:0:0:
448,192,131676,1,4,0:0:0:0:
320,192,131676,1,4,0:0:0:0:
320,192,131840,1,0,0:0:0:0:
448,192,131840,1,0,0:0:0:0:
192,192,132004,1,0,0:0:0:0:
320,192,132004,1,0,0:0:0:0:
448,192,132004,1,0,0:0:0:0:
64,192,132168,1,0,0:0:0:0:
320,192,132168,1,0,0:0:0:0:
64,192,132332,1,0,0:0:0:0:
192,192,132332,1,0,0:0:0:0:
320,192,132332,1,0,0:0:0:0:
192,192,132496,1,0,0:0:0:0:
448,192,132496,1,0,0:0:0:0:
448,192,132660,1,0,0:0:0:0:
320,192,132660,1,0,0:0:0:0:
192,192,132660,1,0,0:0:0:0:
192,192,132824,1,0,0:0:0:0:
320,192,132824,1,0,0:0:0:0:
64,192,132988,1,0,0:0:0:0:
320,192,132988,1,0,0:0:0:0:
448,192,132988,1,0,0:0:0:0:
192,192,133152,1,0,0:0:0:0:
320,192,133152,1,0,0:0:0:0:
64,192,133316,1,0,0:0:0:0:
192,192,133316,1,0,0:0:0:0:
448,192,133316,1,0,0:0:0:0:
64,192,133480,1,0,0:0:0:0:
192,192,133480,1,0,0:0:0:0:
448,192,133644,1,0,0:0:0:0:
320,192,133644,1,0,0:0:0:0:
192,192,133644,1,0,0:0:0:0:
320,192,133808,1,0,0:0:0:0:
448,192,133808,1,0,0:0:0:0:
64,192,133972,1,0,0:0:0:0:
192,192,133972,1,0,0:0:0:0:
320,192,133972,1,0,0:0:0:0:
64,192,134135,1,0,0:0:0:0:
192,192,134135,1,0,0:0:0:0:
448,192,134299,128,0,134463:0:0:0:0:
64,192,134299,1,0,0:0:0:0:
192,192,134299,1,0,0:0:0:0:
320,192,134463,128,0,134627:0:0:0:0:
448,192,134627,1,0,0:0:0:0:
192,192,134627,128,0,134791:0:0:0:0:
64,192,134791,128,0,134955:0:0:0:0:
448,192,134791,128,0,134955:0:0:0:0:
320,192,134955,128,0,135119:0:0:0:0:
192,192,134955,1,0,0:0:0:0:
192,192,135119,128,0,135283:0:0:0:0:
64,192,135283,128,0,135447:0:0:0:0:
448,192,135283,128,0,135447:0:0:0:0:
320,192,135283,1,0,0:0:0:0:
320,192,135447,128,0,135611:0:0:0:0:
192,192,135611,128,0,135775:0:0:0:0:
448,192,135611,1,0,0:0:0:0:
64,192,135775,128,0,135939:0:0:0:0:
448,192,135775,128,0,135939:0:0:0:0:
320,192,135939,128,0,136103:0:0:0:0:
192,192,135939,1,0,0:0:0:0:
192,192,136103,128,6,136267:0:0:0:0:
64,192,136267,128,0,136431:0:0:0:0:
320,192,136267,1,6,0:1:0:0:
448,192,136431,128,4,136922:0:0:0:0:
192,192,136431,1,0,0:0:0:0:
64,192,136922,128,0,137086:0:0:0:0:
192,192,136922,1,4,3:2:0:0:
320,192,137086,128,0,137250:0:0:0:0:
192,192,137250,128,0,137414:0:0:0:0:
448,192,137250,1,0,0:0:0:0:
320,192,137414,128,0,137742:0:0:0:0:
64,192,137414,1,0,0:0:0:0:
64,192,137742,128,0,138070:0:0:0:0:
192,192,137742,1,0,0:0:0:0:
448,192,138070,128,0,148890:0:0:0:0:
320,192,138070,1,0,0:0:0:0:
192,192,138070,128,0,145283:0:0:0:0:
