osu file format v14

[General]
AudioFilename: audio_1.5_P.mp3
AudioLeadIn: 0
PreviewTime: 61064
Countdown: 0
SampleSet: None
StackLeniency: 0.5
Mode: 3
LetterboxInBreaks: 0
SpecialStyle: 0
WidescreenStoryboard: 1

[Editor]
Bookmarks: 40571,61118,72046,82539
DistanceSpacing: 0.8
BeatDivisor: 4
GridSize: 4
TimelineZoom: 1.999999

[Metadata]
Title:Watashitachi wa Mirai no Hana
TitleUnicode:私たちは未来の花
Artist:Sonoda Umi (CV.Mimori Suzuko)
ArtistUnicode:園田海未(CV.三森すずこ)
Creator:DakkyChan
Version:Dakky's Love Arrow Shoot x1.5
Source:ラブライブ! School idol project
Tags:Love Live 海色少女に魅せられて μ's u's 7odoa
BeatmapID:1864823
BeatmapSetID:803990

[Difficulty]
HPDrainRate:7
CircleSize:4
OverallDifficulty:8
ApproachRate:9.3
SliderMultiplier:1.8
SliderTickRate:1

[Events]
//Background and Video events
0,0,"BG Umi.jpg",0,0
//Break Periods
//Storyboard Layer 0 (Background)
//Storyboard Layer 1 (Fail)
//Storyboard Layer 2 (Pass)
//Storyboard Layer 3 (Foreground)
//Storyboard Sound Samples

[TimingPoints]
2699,606.060606060606,4,2,10,55,1,0
2699,-36.101083032491,4,2,10,55,0,0
4517,-36.101083032491,4,2,10,55,0,0
9971,218.579234972677,4,2,1,70,1,0
61555,-100,4,2,10,55,0,1
72047,-100,4,2,1,55,0,0
75544,-100,4,2,10,55,0,1
82539,-100,4,2,1,55,0,0

[Colours]
Combo1 : 255,128,128
Combo2 : 128,128,255
Combo3 : 0,128,192
Combo4 : 255,128,255

[HitObjects]
64,192,4517,128,0,4820:0:0:0:0:
192,192,4517,128,0,5123:0:0:0:0:
448,192,4517,1,0,0:0:0:0:
320,192,4517,1,0,0:0:0:0:
448,192,4820,128,0,5123:0:0:0:0:
320,192,4820,1,0,0:0:0:0:
64,192,5123,128,0,5729:0:0:0:0:
320,192,5123,1,0,0:0:0:0:
448,192,5274,1,0,0:0:0:0:
320,192,5426,128,0,6032:0:0:0:0:
448,192,5426,1,0,0:0:0:0:
192,192,5578,1,0,0:0:0:0:
448,192,5729,128,0,6335:0:0:0:0:
192,192,5729,1,0,0:0:0:0:
64,192,5880,1,0,0:0:0:0:
192,192,6032,128,0,6638:0:0:0:0:
64,192,6032,1,0,0:0:0:0:
320,192,6184,1,0,0:0:0:0:
64,192,6335,128,8,6941:0:0:0:0:
320,192,6335,1,0,0:0:0:0:
448,192,6486,1,0,0:0:0:0:
320,192,6638,128,0,7244:0:0:0:0:
448,192,6638,1,0,0:0:0:0:
192,192,6790,1,0,0:0:0:0:
448,192,6941,128,4,7547:0:0:0:0:
192,192,6941,1,8,0:0:0:0:
64,192,7092,1,0,0:0:0:0:
192,192,7244,128,0,7850:0:0:0:0:
64,192,7244,1,0,0:0:0:0:
320,192,7396,1,0,0:0:0:0:
64,192,7547,128,8,8153:0:0:0:0:
320,192,7547,1,4,0:0:0:0:
448,192,7699,1,0,0:0:0:0:
320,192,7850,128,0,9972:0:0:0:0:
448,192,7850,1,0,0:0:0:0:
192,192,8002,1,0,0:0:0:0:
448,192,8153,128,0,9668:0:0:0:0:
192,192,8153,1,8,0:0:0:0:
64,192,8305,1,0,0:0:0:0:
192,192,8456,128,0,9972:0:0:0:0:
64,192,8456,1,8,0:0:0:0:
64,192,8608,1,0,0:0:0:0:
64,192,8759,128,0,9971:0:0:0:0:
448,192,9971,128,0,10189:0:0:0:0:
64,192,10189,128,0,10408:0:0:0:0:
192,192,10189,1,0,0:0:0:0:
320,192,10189,1,0,0:0:0:0:
448,192,10408,128,0,10517:0:0:0:0:
192,192,10408,1,0,2:0:0:0:
320,192,10408,1,0,2:0:0:0:
64,192,10517,128,0,10736:0:0:0:0:
320,192,10517,1,0,2:0:0:0:
192,192,10517,1,0,2:0:0:0:
192,192,10736,1,0,0:0:0:0:
448,192,10736,128,0,11172:0:0:0:0:
320,192,10736,128,0,11172:0:0:0:0:
64,192,10844,1,0,0:0:0:0:
192,192,10954,1,0,0:0:0:0:
64,192,11063,1,0,0:0:0:0:
192,192,11172,128,0,11282:0:0:0:0:
448,192,11282,128,0,11391:0:0:0:0:
64,192,11391,128,0,11500:0:0:0:0:
192,192,11391,128,0,11500:0:0:0:0:
320,192,11500,128,0,11610:0:0:0:0:
64,192,11610,128,0,12047:0:0:0:0:
192,192,11610,128,0,12047:0:0:0:0:
448,192,11719,1,0,0:0:0:0:
320,192,11828,1,0,0:0:0:0:
448,192,11938,1,0,0:0:0:0:
320,192,12047,128,0,12156:0:0:0:0:
64,192,12156,128,0,12266:0:0:0:0:
320,192,12266,128,0,12375:0:0:0:0:
448,192,12266,128,0,12375:0:0:0:0:
192,192,12375,128,0,12484:0:0:0:0:
448,192,12484,1,0,0:0:0:0:
320,192,12538,1,0,0:0:0:0:
192,192,12593,1,0,0:0:0:0:
64,192,12593,1,0,0:0:0:0:
320,192,12648,1,0,0:0:0:0:
64,192,12702,1,0,0:0:0:0:
448,192,12702,1,0,0:0:0:0:
192,192,12757,1,0,0:0:0:0:
448,192,12812,1,0,0:0:0:0:
320,192,12812,1,0,0:0:0:0:
64,192,12866,1,0,0:0:0:0:
192,192,12921,1,0,0:0:0:0:
320,192,12921,1,0,0:0:0:0:
448,192,12976,1,0,0:0:0:0:
192,192,13030,1,0,0:0:0:0:
320,192,13030,1,0,0:0:0:0:
64,192,13085,1,0,0:0:0:0:
448,192,13140,1,0,0:0:0:0:
320,192,13140,1,0,0:0:0:0:
192,192,13194,1,0,0:0:0:0:
64,192,13249,1,0,0:0:0:0:
320,192,13249,1,0,0:0:0:0:
448,192,13304,1,0,0:0:0:0:
192,192,13358,1,0,0:0:0:0:
64,192,13358,1,0,0:0:0:0:
320,192,13413,1,0,0:0:0:0:
64,192,13468,1,0,0:0:0:0:
192,192,13468,1,0,0:0:0:0:
448,192,13522,1,0,0:0:0:0:
320,192,13522,1,0,0:0:0:0:
192,192,13577,1,0,0:0:0:0:
64,192,13577,1,0,0:0:0:0:
448,192,13632,1,0,0:0:0:0:
320,192,13632,1,0,0:0:0:0:
64,192,13686,1,0,0:0:0:0:
192,192,13686,1,0,0:0:0:0:
448,192,13741,1,0,0:0:0:0:
320,192,13741,1,0,0:0:0:0:
192,192,13796,1,0,0:0:0:0:
448,192,13850,1,0,0:0:0:0:
320,192,13850,1,0,0:0:0:0:
192,192,13905,1,0,0:0:0:0:
64,192,13905,1,0,2:0:0:0:
320,192,13960,1,0,0:0:0:0:
192,192,14014,1,0,0:0:0:0:
64,192,14014,1,0,2:0:0:0:
448,192,14068,1,0,0:0:0:0:
320,192,14068,1,0,0:0:0:0:
64,192,14123,1,0,0:0:0:0:
192,192,14123,1,0,0:0:0:0:
448,192,14178,1,0,0:0:0:0:
320,192,14178,1,0,0:0:0:0:
64,192,14232,1,0,0:0:0:0:
192,192,14260,1,0,0:0:0:0:
320,192,14287,1,0,0:0:0:0:
448,192,14314,1,0,0:0:0:0:
64,192,14342,1,0,0:0:0:0:
320,192,14396,1,0,0:0:0:0:
192,192,14450,1,0,0:0:0:0:
448,192,14450,1,0,0:0:0:0:
64,192,14505,1,0,0:0:0:0:
448,192,14560,1,8,0:0:0:0:
320,192,14587,1,0,0:0:0:0:
192,192,14614,1,0,0:0:0:0:
64,192,14642,1,0,0:0:0:0:
448,192,14669,1,0,0:0:0:0:
320,192,14724,1,0,0:0:0:0:
192,192,14778,1,0,0:0:0:0:
64,192,14778,1,0,0:0:0:0:
320,192,14833,1,0,0:0:0:0:
448,192,14888,1,0,0:0:0:0:
192,192,14888,1,0,0:0:0:0:
320,192,14942,1,0,0:0:0:0:
64,192,14997,1,8,0:0:0:0:
192,192,15024,1,0,0:0:0:0:
320,192,15052,1,0,0:0:0:0:
448,192,15079,1,0,0:0:0:0:
64,192,15106,1,0,0:0:0:0:
192,192,15161,1,0,0:0:0:0:
448,192,15216,1,2,0:0:0:0:
320,192,15216,1,2,0:0:0:0:
192,192,15270,1,0,0:0:0:0:
64,192,15325,1,0,0:0:0:0:
320,192,15325,1,0,0:0:0:0:
192,192,15380,1,0,0:0:0:0:
448,192,15434,1,10,0:0:0:0:
320,192,15462,1,0,0:0:0:0:
192,192,15489,1,0,0:0:0:0:
64,192,15516,1,0,0:0:0:0:
448,192,15544,1,0,0:0:0:0:
320,192,15598,1,0,0:0:0:0:
448,192,15653,1,2,0:0:0:0:
64,192,15653,1,2,0:0:0:0:
192,192,15708,1,0,0:0:0:0:
64,192,15762,1,0,0:0:0:0:
320,192,15762,1,0,0:0:0:0:
448,192,15817,1,0,0:0:0:0:
64,192,15872,1,10,0:0:0:0:
192,192,15899,1,0,0:0:0:0:
320,192,15926,1,0,0:0:0:0:
448,192,15954,1,0,0:0:0:0:
64,192,15981,1,0,0:0:0:0:
192,192,16035,1,0,0:0:0:0:
64,192,16090,1,2,0:0:0:0:
448,192,16090,1,2,0:0:0:0:
320,192,16144,1,0,0:0:0:0:
64,192,16199,1,0,0:0:0:0:
448,192,16199,1,0,0:0:0:0:
192,192,16254,1,0,0:0:0:0:
448,192,16308,1,10,0:0:0:0:
320,192,16336,1,0,0:0:0:0:
192,192,16363,1,0,0:0:0:0:
64,192,16390,1,0,0:0:0:0:
448,192,16418,1,0,0:0:0:0:
320,192,16472,1,0,0:0:0:0:
448,192,16527,1,2,0:0:0:0:
64,192,16527,1,2,0:0:0:0:
192,192,16582,1,0,0:0:0:0:
64,192,16636,1,0,0:0:0:0:
448,192,16636,1,0,0:0:0:0:
320,192,16691,1,0,0:0:0:0:
64,192,16746,1,8,0:0:0:0:
192,192,16773,1,0,0:0:0:0:
320,192,16800,1,0,0:0:0:0:
448,192,16828,1,0,0:0:0:0:
64,192,16855,1,4,0:0:0:0:
192,192,16910,1,0,2:0:0:0:
448,192,16964,1,2,0:0:0:0:
320,192,16964,1,2,0:0:0:0:
192,192,17019,1,0,0:0:0:0:
64,192,17074,1,0,0:0:0:0:
320,192,17074,1,0,0:0:0:0:
192,192,17128,1,0,0:0:0:0:
320,192,17183,1,0,0:0:0:0:
192,192,17238,1,0,0:0:0:0:
64,192,17238,1,0,0:0:0:0:
320,192,17292,1,0,0:0:0:0:
448,192,17292,1,0,0:0:0:0:
192,192,17347,1,0,0:0:0:0:
448,192,17402,1,2,0:0:0:0:
320,192,17402,1,0,0:0:0:0:
192,192,17456,1,0,0:0:0:0:
64,192,17456,1,0,0:0:0:0:
320,192,17511,1,0,0:0:0:0:
192,192,17566,1,0,0:0:0:0:
64,192,17566,1,0,0:0:0:0:
448,192,17620,1,8,0:0:0:0:
320,192,17620,1,0,0:0:0:0:
192,192,17674,1,0,0:0:0:0:
448,192,17729,1,8,0:0:0:0:
320,192,17729,1,0,0:0:0:0:
192,192,17784,1,0,2:0:0:0:
64,192,17784,1,0,0:0:0:0:
448,192,17838,1,4,0:0:0:0:
320,192,17838,1,0,0:0:0:0:
192,192,17893,1,0,0:0:0:0:
320,192,17948,1,0,0:0:0:0:
64,192,17948,1,0,0:0:0:0:
448,192,18002,1,0,0:0:0:0:
64,192,18057,1,8,0:0:0:0:
192,192,18084,1,0,0:0:0:0:
320,192,18112,1,0,0:0:0:0:
448,192,18139,1,0,0:0:0:0:
64,192,18166,1,0,0:0:0:0:
192,192,18221,1,0,0:0:0:0:
448,192,18276,1,0,0:0:0:0:
320,192,18276,1,0,0:0:0:0:
192,192,18330,1,0,0:0:0:0:
64,192,18385,1,0,0:0:0:0:
320,192,18385,1,0,0:0:0:0:
192,192,18440,1,0,0:0:0:0:
448,192,18494,1,8,0:0:0:0:
320,192,18522,1,0,0:0:0:0:
192,192,18549,1,0,0:0:0:0:
64,192,18576,1,0,0:0:0:0:
448,192,18604,1,0,0:0:0:0:
320,192,18658,1,0,0:0:0:0:
64,192,18713,1,2,0:0:0:0:
448,192,18713,1,2,0:0:0:0:
192,192,18768,1,0,0:0:0:0:
448,192,18822,1,8,0:0:0:0:
64,192,18822,1,8,0:0:0:0:
320,192,18877,1,0,0:0:0:0:
64,192,18932,1,8,0:0:0:0:
192,192,18959,1,0,0:0:0:0:
320,192,18986,1,0,0:0:0:0:
448,192,19014,1,0,0:0:0:0:
64,192,19041,1,0,2:0:0:0:
192,192,19041,1,0,2:0:0:0:
320,192,19096,1,0,0:0:0:0:
448,192,19096,1,0,0:0:0:0:
64,192,19150,1,10,0:0:0:0:
192,192,19178,1,0,0:0:0:0:
320,192,19205,1,0,0:0:0:0:
448,192,19232,1,0,0:0:0:0:
64,192,19260,1,0,0:0:0:0:
192,192,19287,1,0,0:0:0:0:
320,192,19314,1,0,0:0:0:0:
448,192,19341,1,0,0:0:0:0:
64,192,19368,1,0,2:0:0:0:
192,192,19396,1,0,0:0:0:0:
320,192,19423,1,0,0:0:0:0:
448,192,19450,1,0,0:0:0:0:
64,192,19478,1,8,0:0:0:0:
192,192,19505,1,0,0:0:0:0:
320,192,19532,1,0,0:0:0:0:
448,192,19560,1,0,0:0:0:0:
192,192,19587,1,6,0:0:0:0:
64,192,19587,1,6,0:0:0:0:
64,192,19696,1,0,0:0:0:0:
192,192,19696,1,0,0:0:0:0:
448,192,19806,1,0,2:0:0:0:
320,192,19806,1,0,2:0:0:0:
192,192,19806,1,0,2:0:0:0:
448,192,19915,1,0,0:0:0:0:
320,192,19915,1,0,0:0:0:0:
192,192,20024,1,0,0:0:0:0:
320,192,20024,1,0,0:0:0:0:
448,192,20024,1,0,0:0:0:0:
64,192,20134,1,0,0:0:0:0:
192,192,20134,1,0,0:0:0:0:
192,192,20243,1,0,2:0:0:0:
64,192,20243,1,0,2:0:0:0:
320,192,20243,1,0,2:0:0:0:
64,192,20352,1,0,0:0:0:0:
320,192,20352,1,0,0:0:0:0:
64,192,20462,1,0,0:0:0:0:
192,192,20462,1,0,0:0:0:0:
320,192,20462,1,0,0:0:0:0:
192,192,20571,1,0,0:0:0:0:
448,192,20571,1,0,0:0:0:0:
448,192,20680,1,0,2:0:0:0:
192,192,20680,1,0,2:0:0:0:
320,192,20680,1,0,2:0:0:0:
192,192,20790,1,0,0:0:0:0:
448,192,20790,1,0,0:0:0:0:
64,192,20899,1,0,0:0:0:0:
192,192,20899,1,0,0:0:0:0:
320,192,20899,1,0,0:0:0:0:
64,192,21008,1,0,0:0:0:0:
192,192,21008,1,0,0:0:0:0:
320,192,21117,1,0,2:0:0:0:
64,192,21117,1,0,2:0:0:0:
192,192,21117,1,0,2:0:0:0:
448,192,21226,1,0,0:0:0:0:
192,192,21226,1,0,0:0:0:0:
64,192,21336,128,0,21445:0:0:0:0:
448,192,21336,1,2,0:1:0:0:
320,192,21336,1,2,0:1:0:0:
192,192,21445,128,0,21554:0:0:0:0:
320,192,21554,128,0,21664:0:0:0:0:
64,192,21554,1,0,2:0:0:0:
448,192,21664,128,0,21773:0:0:0:0:
64,192,21664,128,0,21773:0:0:0:0:
192,192,21773,128,0,21882:0:0:0:0:
448,192,21882,1,0,0:0:0:0:
320,192,21882,128,0,21992:0:0:0:0:
448,192,21992,128,0,22101:0:0:0:0:
64,192,21992,128,0,22101:0:0:0:0:
192,192,22101,128,8,22210:0:0:0:0:
320,192,22210,128,0,22320:0:0:0:0:
64,192,22210,1,8,0:0:0:0:
448,192,22320,128,0,22429:0:0:0:0:
64,192,22320,128,0,22429:0:0:0:0:
192,192,22429,128,0,22538:0:0:0:0:
448,192,22538,1,0,2:0:0:0:
320,192,22538,128,2,22648:0:0:0:0:
448,192,22648,128,2,22756:0:0:0:0:
64,192,22648,1,2,2:1:0:0:
64,192,22756,128,4,23084:0:0:0:0:
320,192,22756,1,2,0:1:0:0:
192,192,22756,128,4,23084:0:0:0:0:
448,192,23084,128,0,23303:0:0:0:0:
320,192,23084,1,4,2:2:0:0:
192,192,23194,1,0,0:0:0:0:
64,192,23303,128,0,23522:0:0:0:0:
320,192,23303,1,0,2:0:0:0:
192,192,23412,1,0,2:0:0:0:
320,192,23522,128,0,23740:0:0:0:0:
192,192,23522,1,0,0:0:0:0:
448,192,23631,1,0,2:0:0:0:
192,192,23740,128,0,23959:0:0:0:0:
64,192,23740,1,0,0:0:0:0:
448,192,23850,1,0,2:0:0:0:
320,192,23959,128,0,24068:0:0:0:0:
64,192,23959,1,0,2:0:0:0:
448,192,24068,1,0,2:0:0:0:
192,192,24178,128,0,24287:0:0:0:0:
448,192,24178,1,0,2:0:0:0:
64,192,24178,1,0,2:0:0:0:
448,192,24287,128,0,24396:0:0:0:0:
320,192,24287,1,0,2:0:0:0:
64,192,24396,128,0,24505:0:0:0:0:
192,192,24396,1,0,2:0:0:0:
320,192,24505,1,0,2:0:0:0:
448,192,24614,128,4,24833:0:0:0:0:
192,192,24614,128,0,24724:0:0:0:0:
64,192,24724,128,4,24833:0:0:0:0:
320,192,24833,1,4,2:2:0:0:
192,192,24942,1,0,0:0:0:0:
64,192,25052,1,0,2:0:0:0:
448,192,25052,1,0,2:0:0:0:
320,192,25161,1,0,2:0:0:0:
448,192,25270,1,0,2:0:0:0:
192,192,25270,1,0,2:0:0:0:
64,192,25380,1,0,2:0:0:0:
320,192,25489,1,0,2:0:0:0:
192,192,25489,1,0,2:0:0:0:
448,192,25598,1,0,2:0:0:0:
320,192,25708,1,0,2:0:0:0:
192,192,25708,1,0,2:0:0:0:
64,192,25817,1,0,2:0:0:0:
448,192,25926,1,0,2:0:0:0:
320,192,26035,1,0,2:0:0:0:
192,192,26035,1,0,2:0:0:0:
448,192,26144,1,0,2:0:0:0:
64,192,26144,1,0,2:0:0:0:
192,192,26254,1,0,2:0:0:0:
320,192,26254,1,0,2:0:0:0:
64,192,26363,1,8,2:2:0:0:
320,192,26363,1,8,2:2:0:0:
192,192,26363,1,0,0:0:0:0:
192,192,26472,1,0,2:0:0:0:
320,192,26472,1,0,0:0:0:0:
448,192,26582,1,4,2:2:0:0:
320,192,26582,128,0,26800:0:0:0:0:
192,192,26582,1,0,0:0:0:0:
64,192,26691,1,0,0:0:0:0:
192,192,26800,128,0,27019:0:0:0:0:
448,192,26800,1,0,2:0:0:0:
64,192,26910,1,0,2:0:0:0:
448,192,27019,128,0,27238:0:0:0:0:
320,192,27019,1,0,0:0:0:0:
64,192,27128,1,0,0:0:0:0:
192,192,27238,1,0,0:0:0:0:
320,192,27347,128,0,27674:0:0:0:0:
64,192,27347,1,0,0:0:0:0:
448,192,27456,1,0,2:0:0:0:
192,192,27566,1,0,2:0:0:0:
192,192,27674,1,0,0:0:0:0:
64,192,27674,1,0,0:0:0:0:
448,192,27674,128,0,27893:0:0:0:0:
192,192,27784,1,0,2:0:0:0:
64,192,27784,1,0,0:0:0:0:
320,192,27893,128,8,28112:0:0:0:0:
64,192,27893,1,0,0:0:0:0:
192,192,27893,1,0,0:0:0:0:
64,192,28002,1,0,0:0:0:0:
448,192,28112,1,8,2:2:0:0:
192,192,28112,1,0,0:0:0:0:
64,192,28166,1,0,0:0:0:0:
192,192,28221,1,0,0:0:0:0:
448,192,28221,1,0,0:0:0:0:
320,192,28276,1,0,0:0:0:0:
64,192,28330,1,4,2:2:0:0:
192,192,28330,1,4,2:2:0:0:
320,192,28385,1,0,0:0:0:0:
448,192,28440,1,0,0:0:0:0:
64,192,28494,1,0,0:0:0:0:
192,192,28549,1,0,2:0:0:0:
320,192,28549,1,0,2:0:0:0:
448,192,28604,1,0,0:0:0:0:
64,192,28658,1,0,2:0:0:0:
192,192,28713,1,0,0:0:0:0:
448,192,28768,1,0,2:0:0:0:
320,192,28768,1,0,2:0:0:0:
192,192,28822,1,0,0:0:0:0:
64,192,28877,1,0,2:0:0:0:
448,192,28932,1,0,0:0:0:0:
320,192,28986,1,0,2:0:0:0:
192,192,28986,1,0,2:0:0:0:
64,192,29041,1,0,0:0:0:0:
448,192,29096,1,0,2:0:0:0:
320,192,29150,1,0,0:0:0:0:
64,192,29205,1,0,2:0:0:0:
192,192,29205,1,0,2:0:0:0:
320,192,29260,1,0,0:0:0:0:
448,192,29314,1,0,2:0:0:0:
64,192,29368,1,0,0:0:0:0:
192,192,29423,1,0,2:0:0:0:
320,192,29423,1,0,2:0:0:0:
448,192,29478,1,0,0:0:0:0:
320,192,29532,1,0,0:0:0:0:
192,192,29587,1,0,0:0:0:0:
448,192,29642,1,2,2:1:0:0:
320,192,29642,1,2,2:1:0:0:
64,192,29642,1,2,2:1:0:0:
192,192,29751,1,2,2:1:0:0:
64,192,29751,1,2,2:1:0:0:
448,192,29751,1,2,2:1:0:0:
320,192,29970,1,2,0:1:0:0:
192,192,29970,1,2,0:1:0:0:
448,192,29970,1,2,0:1:0:0:
64,192,30079,1,0,0:0:0:0:
192,192,30134,1,0,0:0:0:0:
320,192,30188,1,0,0:0:0:0:
448,192,30188,1,0,0:0:0:0:
192,192,30243,1,0,0:0:0:0:
448,192,30298,128,0,30516:0:0:0:0:
320,192,30298,1,8,0:0:0:0:
64,192,30407,1,0,0:0:0:0:
192,192,30462,1,0,0:0:0:0:
320,192,30516,128,0,30626:0:0:0:0:
64,192,30516,1,0,2:0:0:0:
448,192,30626,1,0,2:0:0:0:
192,192,30626,128,8,30735:0:0:0:0:
64,192,30735,1,8,0:0:0:0:
320,192,30735,128,0,30844:0:0:0:0:
448,192,30844,128,0,30954:0:0:0:0:
192,192,30844,1,0,0:0:0:0:
320,192,31008,1,0,0:0:0:0:
192,192,31062,1,0,0:0:0:0:
64,192,31062,1,0,0:0:0:0:
320,192,31117,1,0,0:0:0:0:
64,192,31172,128,0,31390:0:0:0:0:
192,192,31172,1,8,0:0:0:0:
448,192,31281,1,0,0:0:0:0:
320,192,31336,1,0,0:0:0:0:
192,192,31390,128,8,31609:0:0:0:0:
448,192,31390,1,0,2:0:0:0:
320,192,31500,1,0,0:0:0:0:
64,192,31609,1,8,0:0:0:0:
320,192,31609,128,0,31828:0:0:0:0:
448,192,31718,1,0,0:0:0:0:
192,192,31828,1,0,0:0:0:0:
448,192,31882,1,0,0:0:0:0:
64,192,31937,1,0,0:0:0:0:
192,192,31937,1,0,0:0:0:0:
320,192,31992,1,0,0:0:0:0:
448,192,32046,1,8,0:0:0:0:
64,192,32046,1,8,0:0:0:0:
192,192,32101,1,0,0:0:0:0:
320,192,32156,1,0,0:0:0:0:
448,192,32156,1,0,0:0:0:0:
192,192,32210,1,0,2:0:0:0:
448,192,32265,1,0,2:0:0:0:
64,192,32265,1,0,2:0:0:0:
320,192,32320,1,0,0:0:0:0:
192,192,32374,1,0,2:0:0:0:
64,192,32374,1,0,2:0:0:0:
320,192,32429,1,0,0:0:0:0:
448,192,32484,1,8,0:0:0:0:
64,192,32484,1,8,0:0:0:0:
192,192,32538,1,0,0:0:0:0:
448,192,32593,1,0,0:0:0:0:
320,192,32593,1,0,0:0:0:0:
192,192,32648,1,0,0:0:0:0:
64,192,32702,1,0,2:0:0:0:
192,192,32756,1,0,0:0:0:0:
320,192,32811,1,0,0:0:0:0:
448,192,32811,1,0,0:0:0:0:
64,192,32866,1,0,2:0:0:0:
192,192,32920,1,8,0:0:0:0:
320,192,32920,1,8,0:0:0:0:
448,192,32975,1,0,0:0:0:0:
64,192,33030,1,0,2:0:0:0:
192,192,33030,1,0,2:0:0:0:
320,192,33084,1,0,0:0:0:0:
192,192,33139,1,0,2:0:0:0:
448,192,33139,1,0,2:0:0:0:
320,192,33194,1,0,0:0:0:0:
192,192,33248,1,0,2:0:0:0:
64,192,33248,1,0,2:0:0:0:
320,192,33358,1,8,0:0:0:0:
192,192,33358,1,8,0:0:0:0:
320,192,33467,1,4,0:0:0:0:
448,192,33467,1,4,0:0:0:0:
64,192,33576,128,0,33686:0:0:0:0:
192,192,33576,1,0,0:0:0:0:
320,192,33686,1,0,2:0:0:0:
448,192,33686,128,8,33795:0:0:0:0:
192,192,33795,128,0,33904:0:0:0:0:
64,192,33795,1,8,0:0:0:0:
320,192,33904,128,0,34014:0:0:0:0:
448,192,33904,1,0,0:0:0:0:
64,192,34014,1,0,2:0:0:0:
192,192,34068,1,0,0:0:0:0:
64,192,34123,1,0,2:0:0:0:
320,192,34123,1,0,2:0:0:0:
192,192,34178,1,0,0:0:0:0:
320,192,34232,1,8,0:0:0:0:
448,192,34232,1,8,0:0:0:0:
64,192,34341,1,4,0:0:0:0:
192,192,34341,1,4,0:0:0:0:
448,192,34450,1,0,0:0:0:0:
320,192,34450,128,0,34560:0:0:0:0:
192,192,34560,128,8,34669:0:0:0:0:
64,192,34560,1,0,0:0:0:0:
448,192,34669,128,0,34778:0:0:0:0:
64,192,34778,128,0,34888:0:0:0:0:
320,192,34778,1,0,0:0:0:0:
192,192,34888,1,0,2:0:0:0:
320,192,34942,1,0,0:0:0:0:
448,192,34997,1,0,2:0:0:0:
192,192,34997,1,0,2:0:0:0:
320,192,35052,1,0,0:0:0:0:
64,192,35106,1,8,0:0:0:0:
192,192,35106,1,8,0:0:0:0:
448,192,35216,1,4,0:0:0:0:
320,192,35216,1,4,0:0:0:0:
64,192,35325,1,0,2:0:0:0:
192,192,35325,1,0,2:0:0:0:
320,192,35380,1,0,0:0:0:0:
448,192,35434,1,0,0:0:0:0:
192,192,35434,1,0,0:0:0:0:
320,192,35489,1,0,0:0:0:0:
64,192,35544,1,8,0:0:0:0:
192,192,35544,1,8,0:0:0:0:
320,192,35598,1,0,0:0:0:0:
64,192,35653,1,0,0:0:0:0:
448,192,35653,1,0,0:0:0:0:
320,192,35708,1,0,0:0:0:0:
192,192,35762,1,0,2:0:0:0:
448,192,35762,1,0,2:0:0:0:
64,192,35817,1,0,0:0:0:0:
320,192,35872,1,0,2:0:0:0:
448,192,35872,1,0,2:0:0:0:
192,192,35926,1,0,0:0:0:0:
64,192,35981,1,8,0:0:0:0:
320,192,35981,1,8,0:0:0:0:
448,192,36035,1,0,0:0:0:0:
192,192,36090,1,0,2:0:0:0:
64,192,36090,1,0,2:0:0:0:
320,192,36144,1,0,0:0:0:0:
64,192,36199,1,0,2:0:0:0:
448,192,36199,1,0,2:0:0:0:
192,192,36254,1,0,0:0:0:0:
448,192,36308,1,8,0:0:0:0:
320,192,36308,1,8,0:0:0:0:
64,192,36308,1,8,0:0:0:0:
64,192,36418,1,8,0:0:0:0:
320,192,36418,1,8,0:0:0:0:
448,192,36418,1,8,0:0:0:0:
192,192,36491,1,0,0:0:0:0:
320,192,36564,1,0,0:0:0:0:
448,192,36636,1,2,2:2:0:0:
192,192,36636,1,2,2:2:0:0:
320,192,36709,1,0,0:0:0:0:
192,192,36782,1,0,2:0:0:0:
64,192,36855,1,2,2:2:0:0:
320,192,36855,1,2,2:2:0:0:
192,192,36928,1,0,0:0:0:0:
448,192,36964,1,0,0:0:0:0:
320,192,37001,1,0,2:0:0:0:
192,192,37037,1,0,0:0:0:0:
64,192,37074,1,4,2:2:0:0:
448,192,37074,1,4,2:2:0:0:
320,192,37183,1,0,2:0:0:0:
192,192,37292,1,0,0:0:0:0:
64,192,37292,1,0,0:0:0:0:
320,192,37365,1,0,0:0:0:0:
448,192,37365,1,0,0:0:0:0:
320,192,37438,1,0,0:0:0:0:
64,192,37438,1,0,0:0:0:0:
192,192,37511,1,8,0:0:0:0:
64,192,37511,1,8,0:0:0:0:
448,192,37511,1,0,0:0:0:0:
320,192,37620,1,0,0:0:0:0:
64,192,37620,1,0,0:0:0:0:
448,192,37729,1,0,2:0:0:0:
192,192,37729,1,0,2:0:0:0:
320,192,37784,1,0,0:0:0:0:
64,192,37838,1,0,0:0:0:0:
192,192,37875,1,0,0:0:0:0:
320,192,37912,1,0,0:0:0:0:
64,192,37948,1,0,2:0:0:0:
448,192,37948,1,0,2:0:0:0:
192,192,38057,1,0,1:0:0:0:
320,192,38166,1,0,2:0:0:0:
448,192,38166,1,0,2:0:0:0:
64,192,38239,1,0,0:0:0:0:
192,192,38239,1,0,0:0:0:0:
192,192,38312,1,0,0:0:0:0:
448,192,38312,1,0,0:0:0:0:
320,192,38385,1,8,0:0:0:0:
448,192,38385,1,8,0:0:0:0:
64,192,38385,1,0,0:0:0:0:
192,192,38494,1,0,0:0:0:0:
448,192,38494,1,0,0:0:0:0:
64,192,38604,1,0,2:0:0:0:
320,192,38604,1,0,2:0:0:0:
192,192,38658,1,0,0:0:0:0:
448,192,38713,1,0,0:0:0:0:
320,192,38750,1,0,0:0:0:0:
192,192,38786,1,0,0:0:0:0:
64,192,38822,1,0,2:0:0:0:
448,192,38822,128,0,39041:0:0:0:0:
320,192,38932,1,0,2:0:0:0:
192,192,39041,128,8,39260:0:0:0:0:
64,192,39041,1,0,2:0:0:0:
320,192,39150,1,0,0:0:0:0:
448,192,39260,128,0,39368:0:0:0:0:
64,192,39260,1,8,0:0:0:0:
320,192,39368,128,0,39478:0:0:0:0:
192,192,39368,1,0,0:0:0:0:
64,192,39478,1,0,2:0:0:0:
192,192,39532,1,0,0:0:0:0:
448,192,39587,1,4,0:0:0:0:
320,192,39587,1,4,0:0:0:0:
64,192,39587,1,4,0:0:0:0:
192,192,39642,1,0,0:0:0:0:
448,192,39696,1,0,0:0:0:0:
320,192,39696,1,0,0:0:0:0:
192,192,39751,1,0,0:0:0:0:
64,192,39806,1,0,0:0:0:0:
320,192,39806,1,0,0:0:0:0:
192,192,39860,1,0,0:0:0:0:
320,192,39915,1,0,0:0:0:0:
448,192,39915,1,0,0:0:0:0:
192,192,39970,1,0,0:0:0:0:
64,192,40024,1,0,0:0:0:0:
448,192,40024,1,0,0:0:0:0:
320,192,40079,1,0,0:0:0:0:
64,192,40134,1,8,0:0:0:0:
192,192,40134,1,8,0:0:0:0:
448,192,40188,1,0,0:0:0:0:
320,192,40243,1,0,2:0:0:0:
192,192,40243,1,0,2:0:0:0:
448,192,40298,1,0,0:0:0:0:
64,192,40352,1,8,0:0:0:0:
192,192,40380,1,0,0:0:0:0:
320,192,40407,1,0,0:0:0:0:
448,192,40434,1,0,0:0:0:0:
64,192,40462,1,8,0:0:0:0:
192,192,40489,1,0,0:0:0:0:
320,192,40516,1,0,0:0:0:0:
448,192,40544,1,0,0:0:0:0:
64,192,40571,1,6,2:2:0:0:
192,192,40571,1,6,2:2:0:0:
448,192,40680,1,0,0:0:0:0:
192,192,40680,1,0,0:0:0:0:
320,192,40735,1,0,0:0:0:0:
64,192,40790,1,8,0:0:0:0:
192,192,40790,1,8,0:0:0:0:
192,192,40899,1,6,2:2:0:0:
320,192,40899,1,6,2:2:0:0:
192,192,41008,1,0,0:0:0:0:
320,192,41008,1,0,0:0:0:0:
64,192,41117,1,0,2:0:0:0:
320,192,41117,1,0,2:0:0:0:
192,192,41172,1,0,0:0:0:0:
448,192,41226,1,10,0:0:0:0:
320,192,41226,1,10,0:0:0:0:
192,192,41281,1,0,0:0:0:0:
320,192,41336,1,0,2:0:0:0:
64,192,41336,1,0,2:0:0:0:
448,192,41390,1,0,0:0:0:0:
320,192,41445,1,6,2:2:0:0:
64,192,41445,1,6,2:2:0:0:
192,192,41445,1,6,2:2:0:0:
320,192,41554,1,0,0:0:0:0:
448,192,41554,1,0,0:0:0:0:
64,192,41609,1,0,0:0:0:0:
320,192,41664,1,8,0:0:0:0:
448,192,41664,1,8,0:0:0:0:
192,192,41773,1,6,2:2:0:0:
448,192,41773,1,6,2:2:0:0:
320,192,41882,1,0,0:0:0:0:
64,192,41882,1,0,0:0:0:0:
320,192,41992,1,0,0:0:0:0:
64,192,41992,1,0,0:0:0:0:
448,192,42046,1,0,2:0:0:0:
192,192,42101,1,10,0:0:0:0:
64,192,42101,1,10,0:0:0:0:
448,192,42156,1,0,0:0:0:0:
320,192,42210,1,0,2:0:0:0:
64,192,42210,1,0,2:0:0:0:
192,192,42265,1,0,0:0:0:0:
64,192,42320,1,4,2:2:0:0:
320,192,42320,1,4,2:2:0:0:
448,192,42374,1,0,0:0:0:0:
192,192,42429,1,0,2:0:0:0:
64,192,42429,1,0,2:0:0:0:
320,192,42484,1,0,0:0:0:0:
448,192,42538,1,10,2:2:0:0:
64,192,42538,1,10,2:2:0:0:
192,192,42593,1,0,0:0:0:0:
320,192,42648,1,0,2:0:0:0:
448,192,42648,1,0,2:0:0:0:
192,192,42702,1,0,2:0:0:0:
64,192,42756,1,0,0:0:0:0:
320,192,42756,1,0,0:0:0:0:
192,192,42811,1,0,2:0:0:0:
448,192,42866,1,0,0:0:0:0:
64,192,42866,1,0,0:0:0:0:
320,192,42920,1,0,0:0:0:0:
192,192,42975,1,10,0:0:0:0:
64,192,42975,1,10,0:0:0:0:
320,192,43030,1,0,0:0:0:0:
448,192,43084,1,0,2:0:0:0:
320,192,43139,1,0,0:0:0:0:
192,192,43194,1,0,2:0:0:0:
64,192,43194,1,0,2:0:0:0:
448,192,43194,1,0,2:0:0:0:
320,192,43248,1,0,0:0:0:0:
448,192,43303,1,0,2:0:0:0:
192,192,43303,1,0,2:0:0:0:
64,192,43358,1,0,0:0:0:0:
192,192,43412,1,10,2:2:0:0:
320,192,43412,1,10,2:2:0:0:
64,192,43467,1,0,0:0:0:0:
192,192,43522,1,0,2:0:0:0:
320,192,43576,1,0,2:0:0:0:
448,192,43631,1,0,0:0:0:0:
192,192,43631,1,0,0:0:0:0:
320,192,43686,1,0,0:0:0:0:
448,192,43740,1,0,2:0:0:0:
64,192,43740,1,0,2:0:0:0:
192,192,43795,1,0,0:0:0:0:
320,192,43850,1,10,0:0:0:0:
64,192,43850,1,10,0:0:0:0:
192,192,43904,1,0,0:0:0:0:
448,192,43959,1,0,2:0:0:0:
320,192,44014,1,0,0:0:0:0:
448,192,44068,1,4,2:2:0:0:
192,192,44068,1,4,2:2:0:0:
64,192,44068,1,4,2:2:0:0:
320,192,44123,1,0,0:0:0:0:
192,192,44178,1,0,2:0:0:0:
448,192,44178,1,0,2:0:0:0:
64,192,44232,1,0,0:0:0:0:
192,192,44287,1,10,2:2:0:0:
320,192,44287,1,10,2:2:0:0:
448,192,44287,1,10,2:2:0:0:
64,192,44341,1,0,0:0:0:0:
448,192,44396,1,0,2:0:0:0:
192,192,44396,1,0,2:0:0:0:
320,192,44450,1,0,2:0:0:0:
192,192,44505,1,0,0:0:0:0:
64,192,44505,1,0,0:0:0:0:
448,192,44505,1,0,0:0:0:0:
320,192,44560,1,0,0:0:0:0:
64,192,44614,1,0,0:0:0:0:
448,192,44614,1,0,0:0:0:0:
192,192,44669,1,0,0:0:0:0:
64,192,44724,1,10,0:0:0:0:
320,192,44724,1,10,0:0:0:0:
448,192,44724,1,10,0:0:0:0:
192,192,44778,1,0,2:0:0:0:
64,192,44833,1,4,2:2:0:0:
320,192,44833,1,4,2:2:0:0:
448,192,44888,1,0,2:0:0:0:
320,192,44942,1,0,2:0:0:0:
192,192,44942,1,0,2:0:0:0:
64,192,44942,1,0,2:0:0:0:
448,192,44997,1,0,0:0:0:0:
320,192,45052,1,0,2:0:0:0:
64,192,45052,1,0,2:0:0:0:
192,192,45106,1,0,0:0:0:0:
64,192,45161,1,10,2:2:0:0:
320,192,45161,1,10,2:2:0:0:
448,192,45161,1,10,2:2:0:0:
192,192,45216,1,0,0:0:0:0:
320,192,45270,1,0,2:0:0:0:
448,192,45270,1,0,2:0:0:0:
192,192,45325,1,0,0:0:0:0:
64,192,45325,1,0,0:0:0:0:
320,192,45380,1,10,0:0:0:0:
448,192,45380,1,10,0:0:0:0:
192,192,45434,1,0,2:0:0:0:
64,192,45434,1,0,2:0:0:0:
320,192,45489,1,0,2:0:0:0:
448,192,45544,1,0,0:0:0:0:
64,192,45598,1,0,2:0:0:0:
192,192,45626,1,0,0:0:0:0:
320,192,45653,1,0,0:0:0:0:
448,192,45680,1,0,0:0:0:0:
64,192,45708,1,0,2:0:0:0:
192,192,45735,1,0,0:0:0:0:
320,192,45762,1,0,0:0:0:0:
448,192,45790,1,0,0:0:0:0:
192,192,45817,1,8,2:2:0:0:
64,192,45817,1,8,2:2:0:0:
64,192,45926,1,0,2:0:0:0:
192,192,45926,1,0,2:0:0:0:
320,192,45926,1,0,2:0:0:0:
448,192,46035,1,0,0:0:0:0:
320,192,46035,1,0,0:0:0:0:
192,192,46035,1,0,0:0:0:0:
64,192,46035,1,0,0:0:0:0:
448,192,46144,1,0,0:0:0:0:
320,192,46144,1,0,0:0:0:0:
192,192,46144,1,0,0:0:0:0:
448,192,46254,1,0,2:0:0:0:
320,192,46254,1,0,2:0:0:0:
192,192,46254,1,0,0:0:0:0:
64,192,46254,1,0,0:0:0:0:
192,192,46363,1,0,2:0:0:0:
64,192,46363,1,0,2:0:0:0:
320,192,46363,1,0,0:0:0:0:
320,192,46472,1,8,2:2:0:0:
64,192,46472,1,8,2:2:0:0:
192,192,46472,1,0,0:0:0:0:
448,192,46472,1,0,0:0:0:0:
192,192,46582,1,0,0:0:0:0:
320,192,46582,1,0,0:0:0:0:
320,192,46691,1,2,2:1:0:0:
448,192,46691,1,2,2:1:0:0:
64,192,46691,1,2,2:1:0:0:
192,192,46691,1,2,2:1:0:0:
448,192,46800,1,2,0:1:0:0:
320,192,46800,1,2,0:1:0:0:
192,192,46800,1,2,0:1:0:0:
64,192,46800,1,2,0:1:0:0:
64,192,46910,1,2,0:1:0:0:
192,192,46910,1,2,0:1:0:0:
320,192,46910,1,2,0:1:0:0:
448,192,46910,1,2,0:1:0:0:
64,192,47019,1,2,0:1:0:0:
192,192,47019,1,2,0:1:0:0:
448,192,47019,1,2,0:1:0:0:
320,192,47019,1,2,0:1:0:0:
192,192,47128,128,0,47238:0:0:0:0:
64,192,47128,128,0,47238:0:0:0:0:
320,192,47238,128,0,47347:0:0:0:0:
448,192,47238,128,0,47347:0:0:0:0:
192,192,47347,1,0,0:0:0:0:
64,192,47347,1,0,0:0:0:0:
448,192,47456,1,4,0:0:0:0:
192,192,47456,1,0,0:0:0:0:
64,192,47456,1,0,0:0:0:0:
320,192,47511,1,0,0:0:0:0:
192,192,47566,1,0,0:0:0:0:
64,192,47566,1,0,0:0:0:0:
448,192,47566,1,0,0:0:0:0:
320,192,47620,1,0,0:0:0:0:
448,192,47674,1,0,0:0:0:0:
192,192,47674,1,0,0:0:0:0:
64,192,47729,1,0,0:0:0:0:
320,192,47784,1,8,0:0:0:0:
448,192,47784,1,8,0:0:0:0:
192,192,47838,1,0,0:0:0:0:
64,192,47893,1,0,0:0:0:0:
320,192,47893,1,0,0:0:0:0:
192,192,47948,1,0,0:0:0:0:
320,192,48002,1,0,2:0:0:0:
448,192,48002,1,0,2:0:0:0:
192,192,48057,1,0,0:0:0:0:
64,192,48112,1,0,0:0:0:0:
320,192,48112,1,0,0:0:0:0:
192,192,48166,1,0,0:0:0:0:
320,192,48221,1,8,0:0:0:0:
448,192,48221,1,8,0:0:0:0:
64,192,48276,1,0,0:0:0:0:
64,192,48330,1,4,0:0:0:0:
320,192,48330,1,4,0:0:0:0:
448,192,48330,1,4,0:0:0:0:
192,192,48385,1,0,0:0:0:0:
448,192,48440,1,0,0:0:0:0:
320,192,48440,1,0,0:0:0:0:
64,192,48494,1,0,0:0:0:0:
448,192,48549,1,0,0:0:0:0:
192,192,48549,1,0,0:0:0:0:
320,192,48604,1,0,0:0:0:0:
192,192,48658,1,8,0:0:0:0:
64,192,48658,1,8,0:0:0:0:
320,192,48713,1,0,0:0:0:0:
448,192,48768,1,0,0:0:0:0:
192,192,48768,1,0,0:0:0:0:
64,192,48822,1,0,0:0:0:0:
320,192,48877,1,0,2:0:0:0:
448,192,48877,1,0,2:0:0:0:
192,192,48932,1,0,0:0:0:0:
64,192,48986,1,0,0:0:0:0:
320,192,48986,1,0,0:0:0:0:
448,192,49041,1,0,0:0:0:0:
192,192,49096,1,8,0:0:0:0:
64,192,49096,1,8,0:0:0:0:
448,192,49150,1,0,0:0:0:0:
192,192,49205,1,4,0:0:0:0:
448,192,49205,1,4,0:0:0:0:
64,192,49205,1,4,0:0:0:0:
320,192,49260,1,0,0:0:0:0:
64,192,49314,1,0,0:0:0:0:
448,192,49314,1,0,0:0:0:0:
192,192,49368,1,0,0:0:0:0:
448,192,49423,1,0,0:0:0:0:
320,192,49423,1,0,0:0:0:0:
64,192,49478,1,0,0:0:0:0:
192,192,49532,1,8,0:0:0:0:
320,192,49532,1,8,0:0:0:0:
448,192,49587,1,0,0:0:0:0:
192,192,49642,1,0,0:0:0:0:
320,192,49642,1,0,0:0:0:0:
64,192,49696,1,0,0:0:0:0:
448,192,49751,1,0,2:0:0:0:
320,192,49751,1,0,2:0:0:0:
192,192,49806,1,0,0:0:0:0:
320,192,49860,1,0,0:0:0:0:
64,192,49860,1,0,0:0:0:0:
448,192,49915,1,0,0:0:0:0:
64,192,49970,1,8,0:0:0:0:
320,192,49970,1,8,0:0:0:0:
192,192,50024,1,0,0:0:0:0:
448,192,50079,1,2,0:0:0:0:
320,192,50134,1,0,0:0:0:0:
192,192,50134,1,0,0:0:0:0:
448,192,50188,1,0,0:0:0:0:
192,192,50243,1,0,0:0:0:0:
320,192,50243,1,0,0:0:0:0:
448,192,50298,1,0,0:0:0:0:
192,192,50352,1,0,0:0:0:0:
64,192,50352,1,0,0:0:0:0:
320,192,50407,1,8,0:0:0:0:
448,192,50407,1,8,0:0:0:0:
192,192,50462,1,0,0:0:0:0:
320,192,50516,1,0,0:0:0:0:
448,192,50516,1,0,0:0:0:0:
192,192,50571,1,0,0:0:0:0:
64,192,50571,1,0,0:0:0:0:
320,192,50626,1,0,2:0:0:0:
64,192,50680,1,0,0:0:0:0:
192,192,50680,1,0,0:0:0:0:
320,192,50735,1,0,2:0:0:0:
448,192,50735,1,0,2:0:0:0:
64,192,50790,1,0,0:0:0:0:
320,192,50844,1,8,0:0:0:0:
448,192,50844,1,8,0:0:0:0:
192,192,50899,1,0,0:0:0:0:
320,192,50954,1,0,0:0:0:0:
448,192,50954,1,0,0:0:0:0:
64,192,51008,1,0,0:0:0:0:
64,192,51062,1,4,0:0:0:0:
320,192,51062,1,4,0:0:0:0:
448,192,51062,1,4,0:0:0:0:
192,192,51117,1,0,0:0:0:0:
448,192,51172,1,0,0:0:0:0:
320,192,51172,1,0,0:0:0:0:
192,192,51226,1,0,0:0:0:0:
64,192,51281,1,8,0:0:0:0:
320,192,51281,1,8,0:0:0:0:
448,192,51336,1,0,0:0:0:0:
192,192,51390,1,0,0:0:0:0:
64,192,51390,1,0,0:0:0:0:
320,192,51445,1,0,0:0:0:0:
448,192,51500,1,0,2:0:0:0:
192,192,51500,1,0,2:0:0:0:
320,192,51554,1,0,0:0:0:0:
64,192,51609,1,0,0:0:0:0:
192,192,51609,1,0,0:0:0:0:
320,192,51664,1,0,0:0:0:0:
64,192,51718,1,8,0:0:0:0:
192,192,51718,1,8,0:0:0:0:
448,192,51773,1,0,0:0:0:0:
192,192,51828,1,4,0:0:0:0:
448,192,51828,1,4,0:0:0:0:
64,192,51828,1,4,0:0:0:0:
320,192,51882,1,0,0:0:0:0:
192,192,51937,1,0,0:0:0:0:
64,192,51937,1,0,0:0:0:0:
320,192,51992,1,0,0:0:0:0:
192,192,52046,1,0,2:0:0:0:
448,192,52046,1,0,2:0:0:0:
320,192,52101,1,0,0:0:0:0:
64,192,52156,1,8,0:0:0:0:
192,192,52156,1,8,0:0:0:0:
320,192,52210,1,0,0:0:0:0:
448,192,52265,1,0,0:0:0:0:
192,192,52265,1,0,0:0:0:0:
64,192,52320,1,0,0:0:0:0:
192,192,52374,1,0,2:0:0:0:
320,192,52374,1,0,2:0:0:0:
448,192,52429,1,0,0:0:0:0:
192,192,52484,1,0,0:0:0:0:
320,192,52484,1,0,0:0:0:0:
64,192,52538,1,0,0:0:0:0:
192,192,52593,1,8,0:0:0:0:
448,192,52648,1,0,0:0:0:0:
320,192,52702,1,0,0:0:0:0:
192,192,52702,1,0,0:0:0:0:
448,192,52756,1,0,0:0:0:0:
192,192,52811,1,4,0:0:0:0:
64,192,52811,1,4,0:0:0:0:
320,192,52866,1,0,0:0:0:0:
192,192,52920,1,0,0:0:0:0:
64,192,52920,1,0,0:0:0:0:
448,192,52975,1,0,0:0:0:0:
320,192,53030,1,8,0:0:0:0:
192,192,53030,1,8,0:0:0:0:
448,192,53084,1,0,0:0:0:0:
192,192,53139,1,0,0:0:0:0:
64,192,53139,1,0,0:0:0:0:
320,192,53194,1,0,0:0:0:0:
448,192,53194,1,0,0:0:0:0:
64,192,53248,1,0,2:0:0:0:
320,192,53303,1,0,0:0:0:0:
192,192,53303,1,0,0:0:0:0:
64,192,53358,1,0,0:0:0:0:
320,192,53412,1,0,0:0:0:0:
448,192,53412,1,0,0:0:0:0:
192,192,53467,1,8,0:0:0:0:
64,192,53467,1,0,0:0:0:0:
448,192,53522,1,0,0:0:0:0:
320,192,53522,1,0,0:0:0:0:
64,192,53576,1,4,0:0:0:0:
192,192,53576,1,4,0:0:0:0:
320,192,53631,1,0,0:0:0:0:
448,192,53631,1,0,0:0:0:0:
64,192,53686,1,0,0:0:0:0:
192,192,53686,1,0,0:0:0:0:
448,192,53740,1,0,0:0:0:0:
320,192,53740,1,0,0:0:0:0:
64,192,53795,1,0,0:0:0:0:
192,192,53795,1,0,0:0:0:0:
320,192,53850,1,0,0:0:0:0:
448,192,53850,1,0,0:0:0:0:
64,192,53904,1,8,0:0:0:0:
192,192,53904,1,8,0:0:0:0:
320,192,53959,1,0,0:0:0:0:
448,192,53959,1,0,0:0:0:0:
192,192,54014,1,0,0:0:0:0:
320,192,54068,1,0,0:0:0:0:
448,192,54068,1,0,0:0:0:0:
64,192,54123,1,0,2:0:0:0:
192,192,54123,1,0,2:0:0:0:
320,192,54178,1,0,0:0:0:0:
192,192,54232,1,0,0:0:0:0:
64,192,54232,1,0,0:0:0:0:
448,192,54287,1,0,0:0:0:0:
320,192,54287,1,0,0:0:0:0:
192,192,54341,1,0,0:0:0:0:
448,192,54396,1,0,0:0:0:0:
320,192,54396,1,0,0:0:0:0:
192,192,54450,1,8,0:0:0:0:
64,192,54450,1,8,0:0:0:0:
448,192,54505,1,0,0:0:0:0:
448,192,54560,1,6,0:0:0:0:
192,192,54560,1,6,0:0:0:0:
64,192,54560,1,6,0:0:0:0:
320,192,54614,1,0,0:0:0:0:
192,192,54669,1,0,0:0:0:0:
448,192,54669,1,0,0:0:0:0:
64,192,54724,1,0,0:0:0:0:
320,192,54778,1,8,0:0:0:0:
192,192,54778,1,8,0:0:0:0:
448,192,54833,1,0,0:0:0:0:
320,192,54888,1,0,0:0:0:0:
192,192,54888,1,0,0:0:0:0:
448,192,54942,1,0,0:0:0:0:
320,192,54997,1,0,2:0:0:0:
64,192,54997,1,0,2:0:0:0:
192,192,55052,1,0,0:0:0:0:
320,192,55106,1,0,0:0:0:0:
64,192,55106,1,0,0:0:0:0:
192,192,55161,1,0,0:0:0:0:
320,192,55216,1,8,0:0:0:0:
448,192,55216,1,8,0:0:0:0:
192,192,55270,1,0,0:0:0:0:
320,192,55325,1,0,0:0:0:0:
448,192,55325,1,0,0:0:0:0:
64,192,55380,1,0,0:0:0:0:
64,192,55434,1,4,0:0:0:0:
320,192,55434,1,4,0:0:0:0:
448,192,55434,1,4,0:0:0:0:
192,192,55489,1,0,0:0:0:0:
320,192,55544,1,0,0:0:0:0:
448,192,55544,1,0,0:0:0:0:
192,192,55598,1,0,0:0:0:0:
448,192,55653,1,8,0:0:0:0:
64,192,55653,1,8,0:0:0:0:
320,192,55708,1,0,0:0:0:0:
448,192,55762,1,0,0:0:0:0:
64,192,55762,1,0,0:0:0:0:
192,192,55817,1,0,0:0:0:0:
64,192,55872,1,0,2:0:0:0:
448,192,55872,1,0,2:0:0:0:
320,192,55926,1,0,0:0:0:0:
192,192,55981,1,0,0:0:0:0:
64,192,55981,1,0,0:0:0:0:
448,192,56035,1,0,0:0:0:0:
320,192,56090,1,8,0:0:0:0:
192,192,56090,1,8,0:0:0:0:
64,192,56144,1,0,0:0:0:0:
320,192,56199,1,0,2:0:0:0:
192,192,56199,1,0,2:0:0:0:
448,192,56254,1,0,0:0:0:0:
192,192,56308,1,14,0:0:0:0:
64,192,56308,1,14,0:0:0:0:
448,192,56308,1,14,0:0:0:0:
64,192,56418,1,0,2:0:0:0:
320,192,56418,1,0,2:0:0:0:
448,192,56418,1,0,2:0:0:0:
320,192,56527,1,0,2:0:0:0:
448,192,56527,1,0,2:0:0:0:
448,192,56636,1,14,0:0:0:0:
320,192,56636,1,14,0:0:0:0:
192,192,56636,1,14,0:0:0:0:
64,192,56636,1,14,0:0:0:0:
192,192,56746,1,0,2:0:0:0:
64,192,56746,1,0,2:0:0:0:
448,192,56855,1,0,2:0:0:0:
192,192,56855,1,0,2:0:0:0:
64,192,56855,1,0,2:0:0:0:
192,192,56964,1,6,0:0:0:0:
320,192,56964,1,6,0:0:0:0:
448,192,56964,1,6,0:0:0:0:
64,192,57019,1,0,0:0:0:0:
192,192,57074,1,0,0:0:0:0:
320,192,57074,1,0,0:0:0:0:
448,192,57128,1,0,0:0:0:0:
64,192,57183,1,0,0:0:0:0:
192,192,57183,1,0,0:0:0:0:
320,192,57238,1,0,0:0:0:0:
448,192,57292,1,0,0:0:0:0:
64,192,57292,1,0,0:0:0:0:
192,192,57347,1,0,0:0:0:0:
320,192,57402,1,8,0:0:0:0:
448,192,57402,1,8,0:0:0:0:
192,192,57456,1,0,0:0:0:0:
320,192,57511,1,0,0:0:0:0:
64,192,57511,1,0,0:0:0:0:
448,192,57566,1,0,0:0:0:0:
64,192,57620,1,0,2:0:0:0:
192,192,57648,1,0,0:0:0:0:
320,192,57674,1,0,2:0:0:0:
448,192,57702,1,0,0:0:0:0:
64,192,57729,1,0,2:0:0:0:
192,192,57756,1,0,0:0:0:0:
320,192,57784,1,0,2:0:0:0:
448,192,57811,1,0,0:0:0:0:
64,192,57838,1,8,0:0:0:0:
192,192,57866,1,0,0:0:0:0:
320,192,57893,1,0,0:0:0:0:
448,192,57920,1,0,0:0:0:0:
64,192,57948,1,0,2:0:0:0:
192,192,57975,1,0,0:0:0:0:
320,192,58002,1,0,0:0:0:0:
448,192,58030,1,0,0:0:0:0:
64,192,58057,1,4,0:0:0:0:
192,192,58112,1,0,0:0:0:0:
320,192,58166,1,0,0:0:0:0:
448,192,58166,1,0,0:0:0:0:
192,192,58221,1,0,0:0:0:0:
64,192,58276,1,8,0:0:0:0:
320,192,58276,1,8,0:0:0:0:
192,192,58330,1,0,0:0:0:0:
320,192,58385,1,0,0:0:0:0:
448,192,58385,1,0,0:0:0:0:
192,192,58440,1,0,0:0:0:0:
448,192,58494,1,0,2:0:0:0:
64,192,58494,1,0,2:0:0:0:
192,192,58549,1,0,0:0:0:0:
64,192,58604,1,0,0:0:0:0:
448,192,58604,1,0,0:0:0:0:
192,192,58658,1,0,0:0:0:0:
448,192,58713,1,8,0:0:0:0:
320,192,58713,1,8,0:0:0:0:
64,192,58768,1,0,0:0:0:0:
64,192,58822,1,4,0:0:0:0:
320,192,58822,1,4,0:0:0:0:
448,192,58822,1,4,0:0:0:0:
192,192,58877,1,0,0:0:0:0:
320,192,58932,1,0,0:0:0:0:
448,192,58932,1,0,0:0:0:0:
192,192,58986,1,0,0:0:0:0:
448,192,59041,1,0,0:0:0:0:
64,192,59041,1,0,0:0:0:0:
192,192,59096,1,0,0:0:0:0:
448,192,59150,1,8,0:0:0:0:
320,192,59150,1,8,0:0:0:0:
64,192,59205,1,0,0:0:0:0:
320,192,59260,1,0,0:0:0:0:
192,192,59260,1,0,0:0:0:0:
448,192,59314,1,0,0:0:0:0:
64,192,59368,1,0,2:0:0:0:
192,192,59368,1,0,2:0:0:0:
320,192,59423,1,0,2:0:0:0:
448,192,59478,1,0,0:0:0:0:
192,192,59478,1,0,0:0:0:0:
320,192,59532,1,0,0:0:0:0:
192,192,59587,1,8,0:0:0:0:
64,192,59587,1,8,0:0:0:0:
320,192,59642,1,0,0:0:0:0:
64,192,59696,1,0,0:0:0:0:
192,192,59696,1,0,0:0:0:0:
448,192,59696,1,0,0:0:0:0:
320,192,59751,1,0,0:0:0:0:
448,192,59806,1,0,0:0:0:0:
64,192,59806,1,0,0:0:0:0:
192,192,59860,1,0,0:0:0:0:
448,192,59915,1,0,0:0:0:0:
64,192,59915,1,0,0:0:0:0:
320,192,59970,1,0,0:0:0:0:
64,192,60024,1,8,0:0:0:0:
448,192,60024,1,8,0:0:0:0:
192,192,60079,1,0,0:0:0:0:
320,192,60134,1,0,0:0:0:0:
448,192,60134,1,0,0:0:0:0:
64,192,60188,1,0,0:0:0:0:
320,192,60243,1,0,2:0:0:0:
192,192,60243,1,0,2:0:0:0:
448,192,60298,1,0,0:0:0:0:
64,192,60352,1,0,0:0:0:0:
192,192,60352,1,0,0:0:0:0:
320,192,60407,1,0,0:0:0:0:
448,192,60407,1,0,0:0:0:0:
64,192,60462,1,8,0:0:0:0:
192,192,60462,1,8,0:0:0:0:
64,192,60516,1,0,0:0:0:0:
320,192,60571,1,0,0:0:0:0:
448,192,60571,1,0,0:0:0:0:
192,192,60626,1,0,0:0:0:0:
64,192,60626,1,0,0:0:0:0:
320,192,60680,1,4,2:2:0:0:
448,192,60680,1,4,2:2:0:0:
448,192,60735,1,0,0:0:0:0:
192,192,60790,1,0,0:0:0:0:
64,192,60790,1,0,0:0:0:0:
320,192,60844,1,0,0:0:0:0:
448,192,60899,1,12,0:0:0:0:
192,192,60899,1,12,0:0:0:0:
64,192,60954,1,0,0:0:0:0:
320,192,61008,1,0,0:0:0:0:
192,192,61008,1,0,0:0:0:0:
448,192,61062,1,0,0:0:0:0:
64,192,61117,1,4,2:2:0:0:
192,192,61144,1,0,0:0:0:0:
320,192,61172,1,0,2:2:0:0:
448,192,61199,1,0,0:0:0:0:
64,192,61226,1,2,2:2:0:0:
192,192,61254,1,0,0:0:0:0:
320,192,61281,1,0,2:0:0:0:
448,192,61308,1,0,0:0:0:0:
64,192,61336,1,10,2:2:0:0:
192,192,61363,1,0,0:0:0:0:
320,192,61390,1,0,0:0:0:0:
448,192,61418,1,0,0:0:0:0:
64,192,61445,1,8,2:2:0:0:
192,192,61472,1,0,0:0:0:0:
320,192,61500,1,8,2:2:0:0:
448,192,61527,1,0,0:0:0:0:
192,192,61554,1,4,2:2:0:0:
64,192,61591,1,0,0:0:0:0:
320,192,61627,1,0,0:0:0:0:
448,192,61664,1,2,0:0:0:0:
192,192,61700,1,0,0:0:0:0:
320,192,61736,1,0,0:0:0:0:
64,192,61773,1,10,2:2:0:0:
192,192,61810,1,0,0:0:0:0:
320,192,61846,1,0,0:0:0:0:
448,192,61882,1,0,0:0:0:0:
192,192,61919,1,0,0:0:0:0:
64,192,61955,1,0,0:0:0:0:
320,192,61992,1,0,0:0:0:0:
448,192,62028,1,0,0:0:0:0:
64,192,62064,1,0,0:0:0:0:
192,192,62101,1,2,0:0:0:0:
320,192,62137,1,0,0:0:0:0:
448,192,62174,1,0,0:0:0:0:
192,192,62210,1,8,0:0:0:0:
64,192,62246,1,0,0:0:0:0:
320,192,62283,1,0,0:0:0:0:
192,192,62320,1,0,0:0:0:0:
448,192,62356,1,0,0:0:0:0:
320,192,62392,1,0,0:0:0:0:
64,192,62429,1,0,0:0:0:0:
192,192,62465,1,0,0:0:0:0:
320,192,62502,1,0,0:0:0:0:
448,192,62538,1,2,0:0:0:0:
192,192,62574,1,0,0:0:0:0:
320,192,62611,1,0,0:0:0:0:
64,192,62648,1,8,0:0:0:0:
192,192,62684,1,0,0:0:0:0:
448,192,62720,1,0,0:0:0:0:
320,192,62756,1,0,0:0:0:0:
192,192,62793,1,0,0:0:0:0:
64,192,62830,1,0,0:0:0:0:
320,192,62866,1,0,0:0:0:0:
448,192,62902,1,0,0:0:0:0:
192,192,62939,1,0,0:0:0:0:
64,192,62975,1,2,0:0:0:0:
320,192,63012,1,0,0:0:0:0:
192,192,63048,1,0,0:0:0:0:
448,192,63084,1,8,0:0:0:0:
320,192,63121,1,0,0:0:0:0:
192,192,63158,1,0,0:0:0:0:
64,192,63194,1,0,0:0:0:0:
320,192,63230,1,0,0:0:0:0:
448,192,63266,1,0,0:0:0:0:
192,192,63303,1,0,0:0:0:0:
320,192,63340,1,0,0:0:0:0:
64,192,63376,1,0,0:0:0:0:
192,192,63412,1,2,0:0:0:0:
320,192,63449,1,0,0:0:0:0:
448,192,63485,1,0,0:0:0:0:
64,192,63522,1,8,0:0:0:0:
192,192,63558,1,0,0:0:0:0:
320,192,63594,1,0,0:0:0:0:
64,192,63631,1,0,0:0:0:0:
192,192,63668,1,0,0:0:0:0:
448,192,63704,1,0,0:0:0:0:
320,192,63740,1,0,0:0:0:0:
192,192,63777,1,0,0:0:0:0:
64,192,63813,1,0,0:0:0:0:
448,192,63850,1,2,0:0:0:0:
320,192,63886,1,0,0:0:0:0:
192,192,63922,1,0,0:0:0:0:
448,192,63959,1,8,0:0:0:0:
320,192,63995,1,0,0:0:0:0:
64,192,64032,1,0,0:0:0:0:
192,192,64068,1,0,0:0:0:0:
320,192,64104,1,0,0:0:0:0:
448,192,64141,1,0,0:0:0:0:
192,192,64178,1,2,0:0:0:0:
64,192,64214,1,0,0:0:0:0:
320,192,64250,1,0,0:0:0:0:
448,192,64287,1,2,0:0:0:0:
192,192,64323,1,0,0:0:0:0:
64,192,64360,1,0,0:0:0:0:
320,192,64396,1,8,0:0:0:0:
448,192,64432,1,0,0:0:0:0:
64,192,64469,1,0,0:0:0:0:
192,192,64505,1,0,0:0:0:0:
320,192,64542,1,0,0:0:0:0:
448,192,64578,1,0,0:0:0:0:
64,192,64614,1,2,0:0:0:0:
192,192,64642,1,0,0:0:0:0:
320,192,64669,1,0,0:0:0:0:
448,192,64696,1,0,0:0:0:0:
64,192,64724,1,2,0:0:0:0:
192,192,64751,1,0,0:0:0:0:
320,192,64778,1,0,0:0:0:0:
448,192,64806,1,0,0:0:0:0:
64,192,64833,1,8,0:0:0:0:
192,192,64860,1,0,0:0:0:0:
320,192,64888,1,0,0:0:0:0:
448,192,64915,1,0,0:0:0:0:
64,192,64942,1,0,2:0:0:0:
192,192,64970,1,0,0:0:0:0:
320,192,64997,1,0,2:0:0:0:
448,192,65024,1,0,0:0:0:0:
64,192,65052,1,4,0:0:0:0:
192,192,65088,1,0,0:0:0:0:
448,192,65124,1,0,0:0:0:0:
320,192,65161,1,2,0:0:0:0:
192,192,65198,1,0,0:0:0:0:
64,192,65234,1,0,0:0:0:0:
320,192,65270,1,8,2:2:0:0:
448,192,65307,1,0,0:0:0:0:
192,192,65343,1,0,0:0:0:0:
64,192,65380,1,0,0:0:0:0:
448,192,65416,1,0,0:0:0:0:
320,192,65452,1,0,0:0:0:0:
192,192,65489,1,0,0:0:0:0:
64,192,65525,1,0,0:0:0:0:
320,192,65562,1,0,0:0:0:0:
192,192,65598,1,2,0:0:0:0:
448,192,65634,1,0,0:0:0:0:
320,192,65671,1,0,0:0:0:0:
64,192,65708,1,8,0:0:0:0:
192,192,65744,1,0,0:0:0:0:
320,192,65780,1,0,0:0:0:0:
448,192,65817,1,0,0:0:0:0:
192,192,65853,1,0,0:0:0:0:
320,192,65890,1,0,0:0:0:0:
64,192,65926,1,0,0:0:0:0:
192,192,65962,1,0,0:0:0:0:
320,192,65999,1,0,0:0:0:0:
448,192,66035,1,2,0:0:0:0:
64,192,66072,1,0,0:0:0:0:
192,192,66108,1,0,0:0:0:0:
320,192,66144,1,8,0:0:0:0:
64,192,66181,1,0,0:0:0:0:
192,192,66218,1,0,0:0:0:0:
448,192,66254,1,0,0:0:0:0:
320,192,66290,1,0,0:0:0:0:
192,192,66327,1,0,0:0:0:0:
64,192,66363,1,0,0:0:0:0:
448,192,66400,1,0,0:0:0:0:
320,192,66436,1,0,0:0:0:0:
192,192,66472,1,2,0:0:0:0:
448,192,66509,1,0,0:0:0:0:
320,192,66546,1,0,0:0:0:0:
64,192,66582,1,8,0:0:0:0:
192,192,66618,1,0,0:0:0:0:
320,192,66654,1,0,0:0:0:0:
448,192,66691,1,0,0:0:0:0:
192,192,66728,1,0,0:0:0:0:
64,192,66764,1,0,0:0:0:0:
320,192,66800,1,2,0:0:0:0:
192,192,66837,1,0,0:0:0:0:
448,192,66873,1,0,0:0:0:0:
320,192,66910,1,0,0:0:0:0:
64,192,66946,1,0,0:0:0:0:
192,192,66982,1,0,0:0:0:0:
320,192,67019,1,8,0:0:0:0:
448,192,67056,1,0,0:0:0:0:
192,192,67092,1,0,0:0:0:0:
320,192,67128,1,0,0:0:0:0:
64,192,67164,1,0,0:0:0:0:
192,192,67201,1,0,0:0:0:0:
320,192,67238,1,2,0:0:0:0:
448,192,67274,1,0,0:0:0:0:
192,192,67310,1,0,0:0:0:0:
64,192,67347,1,2,0:0:0:0:
320,192,67383,1,0,0:0:0:0:
448,192,67420,1,0,0:0:0:0:
192,192,67456,1,8,0:0:0:0:
64,192,67492,1,0,0:0:0:0:
448,192,67529,1,0,0:0:0:0:
320,192,67566,1,2,0:1:0:0:
192,192,67602,1,0,0:0:0:0:
64,192,67638,1,0,0:0:0:0:
320,192,67674,1,0,0:0:0:0:
192,192,67711,1,0,0:0:0:0:
448,192,67748,1,0,0:0:0:0:
320,192,67784,1,0,0:0:0:0:
64,192,67820,1,0,0:0:0:0:
192,192,67857,1,0,0:0:0:0:
448,192,67893,1,10,0:0:0:0:
320,192,67920,1,0,0:0:0:0:
192,192,67948,1,0,0:0:0:0:
64,192,67975,1,0,0:0:0:0:
448,192,68002,1,2,0:1:0:0:
320,192,68030,1,0,0:0:0:0:
192,192,68057,1,0,0:0:0:0:
64,192,68084,1,0,0:0:0:0:
448,192,68112,1,2,2:2:0:0:
320,192,68139,1,0,0:0:0:0:
192,192,68166,1,0,0:0:0:0:
64,192,68194,1,0,0:0:0:0:
448,192,68221,1,0,2:0:0:0:
320,192,68248,1,0,0:0:0:0:
192,192,68276,1,0,0:0:0:0:
64,192,68303,1,0,0:0:0:0:
448,192,68330,1,10,2:2:0:0:
320,192,68358,1,0,0:0:0:0:
192,192,68385,1,0,0:0:0:0:
64,192,68412,1,0,0:0:0:0:
448,192,68440,1,8,0:0:0:0:
320,192,68467,1,0,0:0:0:0:
192,192,68494,1,8,0:0:0:0:
64,192,68522,1,0,0:0:0:0:
320,192,68549,1,4,0:0:0:0:
448,192,68586,1,0,0:0:0:0:
192,192,68622,1,0,0:0:0:0:
320,192,68658,1,2,0:0:0:0:
64,192,68695,1,0,0:0:0:0:
192,192,68731,1,0,0:0:0:0:
320,192,68768,1,8,2:2:0:0:
448,192,68804,1,0,0:0:0:0:
192,192,68840,1,0,0:0:0:0:
64,192,68877,1,0,0:0:0:0:
320,192,68913,1,0,0:0:0:0:
192,192,68950,1,0,0:0:0:0:
448,192,68986,1,0,0:0:0:0:
320,192,69022,1,0,0:0:0:0:
192,192,69059,1,0,0:0:0:0:
64,192,69096,1,2,0:0:0:0:
320,192,69132,1,0,0:0:0:0:
448,192,69168,1,0,0:0:0:0:
192,192,69205,1,8,0:0:0:0:
64,192,69241,1,0,0:0:0:0:
320,192,69278,1,0,0:0:0:0:
192,192,69314,1,0,0:0:0:0:
448,192,69350,1,0,0:0:0:0:
320,192,69387,1,0,0:0:0:0:
64,192,69423,1,0,0:0:0:0:
192,192,69460,1,0,0:0:0:0:
320,192,69496,1,0,0:0:0:0:
64,192,69532,1,2,0:0:0:0:
192,192,69569,1,0,0:0:0:0:
448,192,69606,1,0,0:0:0:0:
320,192,69642,1,8,0:0:0:0:
192,192,69678,1,0,0:0:0:0:
64,192,69715,1,0,0:0:0:0:
448,192,69751,1,0,0:0:0:0:
320,192,69788,1,0,0:0:0:0:
192,192,69824,1,0,0:0:0:0:
448,192,69860,1,0,0:0:0:0:
320,192,69897,1,0,0:0:0:0:
64,192,69933,1,0,0:0:0:0:
192,192,69970,1,2,0:0:0:0:
320,192,70006,1,0,0:0:0:0:
448,192,70042,1,0,0:0:0:0:
192,192,70079,1,8,0:0:0:0:
320,192,70116,1,0,0:0:0:0:
64,192,70152,1,0,0:0:0:0:
192,192,70188,1,0,0:0:0:0:
320,192,70225,1,0,0:0:0:0:
448,192,70261,1,0,0:0:0:0:
192,192,70298,1,0,0:0:0:0:
64,192,70334,1,0,0:0:0:0:
320,192,70370,1,0,0:0:0:0:
192,192,70407,1,2,0:0:0:0:
64,192,70444,1,0,0:0:0:0:
448,192,70480,1,0,0:0:0:0:
320,192,70516,1,8,0:0:0:0:
192,192,70552,1,0,0:0:0:0:
64,192,70589,1,0,0:0:0:0:
320,192,70626,1,0,0:0:0:0:
448,192,70662,1,0,0:0:0:0:
192,192,70698,1,0,0:0:0:0:
320,192,70735,1,0,0:0:0:0:
448,192,70771,1,0,0:0:0:0:
64,192,70808,1,0,0:0:0:0:
192,192,70844,1,2,0:0:0:0:
320,192,70880,1,0,0:0:0:0:
448,192,70917,1,0,0:0:0:0:
320,192,70954,1,8,0:0:0:0:
192,192,70990,1,0,0:0:0:0:
64,192,71026,1,0,0:0:0:0:
192,192,71062,1,0,0:0:0:0:
320,192,71099,1,0,0:0:0:0:
448,192,71136,1,0,0:0:0:0:
192,192,71172,1,2,0:0:0:0:
64,192,71208,1,0,0:0:0:0:
320,192,71245,1,0,0:0:0:0:
448,192,71281,1,2,0:0:0:0:
192,192,71318,1,0,0:0:0:0:
64,192,71354,1,0,0:0:0:0:
320,192,71390,1,8,0:0:0:0:
448,192,71427,1,0,0:0:0:0:
192,192,71464,1,0,0:0:0:0:
64,192,71500,1,0,0:0:0:0:
448,192,71536,1,0,0:0:0:0:
320,192,71572,1,0,0:0:0:0:
64,192,71609,1,0,0:0:0:0:
192,192,71646,1,0,0:0:0:0:
448,192,71682,1,0,0:0:0:0:
320,192,71718,1,0,2:0:0:0:
64,192,71755,1,0,0:0:0:0:
192,192,71791,1,0,0:0:0:0:
448,192,71828,1,8,0:0:0:0:
320,192,71864,1,0,0:0:0:0:
64,192,71900,1,0,0:0:0:0:
192,192,71937,1,0,0:0:0:0:
320,192,71974,1,0,0:0:0:0:
448,192,72010,1,0,0:0:0:0:
64,192,72046,128,0,72101:0:0:0:0:
192,192,72046,128,0,72101:0:0:0:0:
320,192,72101,128,0,72156:0:0:0:0:
448,192,72156,128,0,72210:0:0:0:0:
192,192,72210,128,0,72265:0:0:0:0:
64,192,72265,128,0,72320:0:0:0:0:
320,192,72265,128,0,72320:0:0:0:0:
448,192,72320,128,0,72374:0:0:0:0:
192,192,72374,128,0,72429:0:0:0:0:
64,192,72429,128,8,72484:0:0:0:0:
320,192,72484,128,0,72538:0:0:0:0:
448,192,72484,128,0,72538:0:0:0:0:
192,192,72538,128,0,72593:0:0:0:0:
64,192,72593,128,0,72648:0:0:0:0:
320,192,72648,128,0,72702:0:0:0:0:
448,192,72702,128,0,72756:0:0:0:0:
192,192,72702,128,0,72756:0:0:0:0:
64,192,72756,128,0,72811:0:0:0:0:
320,192,72811,128,0,72866:0:0:0:0:
448,192,72866,128,2,72920:0:0:0:0:
192,192,72920,128,0,72975:0:0:0:0:
64,192,72920,128,0,72975:0:0:0:0:
320,192,72975,128,0,73030:0:0:0:0:
448,192,73030,128,0,73084:0:0:0:0:
192,192,73084,128,0,73139:0:0:0:0:
64,192,73084,128,0,73139:0:0:0:0:
320,192,73139,128,0,73194:0:0:0:0:
448,192,73194,128,0,73248:0:0:0:0:
192,192,73248,128,0,73303:0:0:0:0:
320,192,73303,128,8,73358:0:0:0:0:
64,192,73303,128,8,73358:0:0:0:0:
448,192,73358,128,0,73412:0:0:0:0:
192,192,73412,128,0,73467:0:0:0:0:
64,192,73467,128,0,73522:0:0:0:0:
448,192,73522,128,0,73576:0:0:0:0:
320,192,73576,128,0,73631:0:0:0:0:
192,192,73576,128,0,73631:0:0:0:0:
64,192,73631,128,0,73686:0:0:0:0:
448,192,73686,128,0,73740:0:0:0:0:
64,192,73795,1,4,2:2:0:0:
192,192,73822,1,0,0:0:0:0:
320,192,73850,1,0,0:0:0:0:
448,192,73877,1,0,0:0:0:0:
64,192,73904,1,0,0:0:0:0:
192,192,73932,1,0,0:0:0:0:
320,192,73959,1,0,0:0:0:0:
448,192,73986,1,0,0:0:0:0:
64,192,74014,1,0,0:0:0:0:
192,192,74041,1,0,0:0:0:0:
320,192,74068,1,0,0:0:0:0:
448,192,74096,1,0,0:0:0:0:
64,192,74123,1,0,0:0:0:0:
192,192,74150,1,0,0:0:0:0:
320,192,74178,1,0,0:0:0:0:
448,192,74205,1,0,0:0:0:0:
64,192,74232,1,0,0:0:0:0:
192,192,74260,1,0,0:0:0:0:
320,192,74287,1,0,0:0:0:0:
448,192,74314,1,0,0:0:0:0:
64,192,74341,1,0,0:0:0:0:
192,192,74368,1,0,0:0:0:0:
320,192,74396,1,0,0:0:0:0:
448,192,74423,1,0,0:0:0:0:
64,192,74450,1,0,0:0:0:0:
192,192,74478,1,0,0:0:0:0:
320,192,74505,1,0,0:0:0:0:
448,192,74532,1,0,0:0:0:0:
64,192,74560,1,0,0:0:0:0:
192,192,74587,1,0,0:0:0:0:
320,192,74614,1,0,0:0:0:0:
448,192,74642,1,0,0:0:0:0:
64,192,74669,1,8,2:2:0:0:
192,192,74724,1,0,0:0:0:0:
448,192,74778,1,0,2:0:0:0:
64,192,74778,1,0,2:0:0:0:
320,192,74833,1,0,2:0:0:0:
64,192,74888,1,0,2:0:0:0:
448,192,74888,1,0,2:0:0:0:
192,192,74942,1,0,0:0:0:0:
448,192,74997,1,8,2:2:0:0:
320,192,75024,1,0,0:0:0:0:
192,192,75052,1,0,0:0:0:0:
64,192,75079,1,0,0:0:0:0:
448,192,75106,1,0,2:0:0:0:
320,192,75134,1,0,0:0:0:0:
192,192,75161,1,0,2:0:0:0:
64,192,75188,1,0,0:0:0:0:
448,192,75216,1,0,2:0:0:0:
320,192,75243,1,0,0:0:0:0:
192,192,75270,1,0,0:0:0:0:
64,192,75298,1,0,0:0:0:0:
448,192,75325,1,8,2:2:0:0:
320,192,75352,1,0,0:0:0:0:
192,192,75380,1,0,0:0:0:0:
64,192,75407,1,0,0:0:0:0:
448,192,75434,1,4,2:2:0:0:
320,192,75462,1,0,0:0:0:0:
192,192,75489,1,0,0:0:0:0:
64,192,75516,1,0,0:0:0:0:
320,192,75544,1,0,0:0:0:0:
448,192,75580,1,0,0:0:0:0:
192,192,75616,1,0,0:0:0:0:
64,192,75653,1,0,2:0:0:0:
448,192,75689,1,0,0:0:0:0:
320,192,75726,1,0,0:0:0:0:
192,192,75762,1,8,0:0:0:0:
64,192,75798,1,0,0:0:0:0:
192,192,75835,1,0,0:0:0:0:
320,192,75872,1,0,0:0:0:0:
448,192,75908,1,0,0:0:0:0:
64,192,75944,1,0,0:0:0:0:
192,192,75981,1,0,2:0:0:0:
320,192,76017,1,0,0:0:0:0:
448,192,76054,1,0,0:0:0:0:
320,192,76090,1,0,2:0:0:0:
192,192,76126,1,0,0:0:0:0:
64,192,76163,1,0,0:0:0:0:
448,192,76199,1,8,0:0:0:0:
320,192,76236,1,0,0:0:0:0:
192,192,76272,1,0,0:0:0:0:
64,192,76308,1,0,2:0:0:0:
320,192,76345,1,0,0:0:0:0:
448,192,76382,1,0,0:0:0:0:
64,192,76418,1,0,2:0:0:0:
192,192,76454,1,0,0:0:0:0:
320,192,76491,1,0,0:0:0:0:
448,192,76527,1,0,2:0:0:0:
64,192,76564,1,0,0:0:0:0:
192,192,76600,1,0,0:0:0:0:
320,192,76636,1,8,0:0:0:0:
64,192,76673,1,0,0:0:0:0:
192,192,76709,1,0,0:0:0:0:
448,192,76746,1,0,2:0:0:0:
320,192,76782,1,0,0:0:0:0:
192,192,76818,1,0,0:0:0:0:
64,192,76855,1,0,2:0:0:0:
448,192,76892,1,0,0:0:0:0:
320,192,76928,1,0,0:0:0:0:
192,192,76964,1,0,2:0:0:0:
448,192,77001,1,0,0:0:0:0:
320,192,77037,1,0,0:0:0:0:
64,192,77074,1,8,0:0:0:0:
192,192,77110,1,0,0:0:0:0:
448,192,77146,1,0,0:0:0:0:
320,192,77183,1,0,2:0:0:0:
192,192,77219,1,0,0:0:0:0:
64,192,77256,1,0,0:0:0:0:
320,192,77292,1,0,0:0:0:0:
448,192,77328,1,0,0:0:0:0:
192,192,77365,1,0,0:0:0:0:
320,192,77402,1,0,2:0:0:0:
448,192,77438,1,0,0:0:0:0:
64,192,77474,1,0,0:0:0:0:
192,192,77511,1,8,0:0:0:0:
320,192,77547,1,0,0:0:0:0:
448,192,77584,1,0,0:0:0:0:
192,192,77620,1,0,2:0:0:0:
64,192,77656,1,0,0:0:0:0:
320,192,77693,1,0,0:0:0:0:
192,192,77729,1,0,2:0:0:0:
64,192,77766,1,0,0:0:0:0:
448,192,77802,1,0,0:0:0:0:
320,192,77838,1,0,2:0:0:0:
192,192,77875,1,0,0:0:0:0:
64,192,77912,1,0,0:0:0:0:
320,192,77948,1,8,0:0:0:0:
448,192,77984,1,0,0:0:0:0:
192,192,78021,1,0,0:0:0:0:
320,192,78057,1,0,2:0:0:0:
64,192,78094,1,0,0:0:0:0:
192,192,78130,1,0,0:0:0:0:
448,192,78166,1,0,2:0:0:0:
320,192,78203,1,0,0:0:0:0:
192,192,78239,1,0,0:0:0:0:
64,192,78276,1,8,2:2:0:0:
320,192,78312,1,0,0:0:0:0:
192,192,78348,1,0,0:0:0:0:
448,192,78385,1,8,0:0:0:0:
320,192,78422,1,0,0:0:0:0:
192,192,78458,1,0,0:0:0:0:
64,192,78494,1,0,2:0:0:0:
320,192,78531,1,0,0:0:0:0:
448,192,78567,1,0,0:0:0:0:
64,192,78604,1,8,0:0:0:0:
192,192,78631,1,0,0:0:0:0:
320,192,78658,1,0,2:0:0:0:
448,192,78686,1,0,0:0:0:0:
64,192,78713,1,0,2:0:0:0:
192,192,78740,1,0,0:0:0:0:
320,192,78768,1,0,0:0:0:0:
448,192,78795,1,0,0:0:0:0:
64,192,78822,1,8,2:2:0:0:
192,192,78850,1,0,0:0:0:0:
320,192,78877,1,0,2:0:0:0:
448,192,78904,1,0,0:0:0:0:
64,192,78932,1,4,2:2:0:0:
192,192,78959,1,0,0:0:0:0:
320,192,78986,1,0,0:0:0:0:
448,192,79014,1,0,0:0:0:0:
192,192,79041,1,0,0:0:0:0:
64,192,79077,1,0,0:0:0:0:
320,192,79114,1,0,0:0:0:0:
192,192,79150,1,0,2:0:0:0:
448,192,79186,1,0,0:0:0:0:
320,192,79223,1,0,0:0:0:0:
192,192,79260,1,8,0:0:0:0:
64,192,79296,1,0,0:0:0:0:
320,192,79332,1,0,0:0:0:0:
448,192,79368,1,0,2:0:0:0:
192,192,79405,1,0,0:0:0:0:
320,192,79442,1,0,0:0:0:0:
64,192,79478,1,0,2:0:0:0:
192,192,79514,1,0,0:0:0:0:
320,192,79551,1,0,0:0:0:0:
448,192,79587,1,0,2:0:0:0:
64,192,79624,1,0,0:0:0:0:
192,192,79660,1,0,0:0:0:0:
320,192,79696,1,8,0:0:0:0:
448,192,79733,1,0,0:0:0:0:
64,192,79770,1,0,0:0:0:0:
192,192,79806,1,0,2:0:0:0:
320,192,79842,1,0,0:0:0:0:
64,192,79879,1,0,0:0:0:0:
192,192,79915,1,0,2:0:0:0:
448,192,79952,1,0,0:0:0:0:
320,192,79988,1,0,0:0:0:0:
192,192,80024,1,0,2:0:0:0:
448,192,80061,1,0,0:0:0:0:
320,192,80097,1,0,0:0:0:0:
64,192,80134,1,8,0:0:0:0:
192,192,80170,1,0,0:0:0:0:
320,192,80206,1,0,0:0:0:0:
448,192,80243,1,0,2:0:0:0:
192,192,80280,1,0,0:0:0:0:
320,192,80316,1,0,0:0:0:0:
64,192,80352,1,0,2:0:0:0:
192,192,80389,1,0,0:0:0:0:
320,192,80425,1,0,0:0:0:0:
448,192,80462,1,0,2:0:0:0:
192,192,80498,1,0,0:0:0:0:
64,192,80534,1,0,0:0:0:0:
320,192,80571,1,8,0:0:0:0:
192,192,80607,1,0,0:0:0:0:
448,192,80644,1,0,0:0:0:0:
320,192,80680,1,0,2:0:0:0:
64,192,80716,1,0,0:0:0:0:
192,192,80753,1,0,0:0:0:0:
320,192,80790,1,0,0:0:0:0:
448,192,80826,1,0,0:0:0:0:
192,192,80862,1,0,0:0:0:0:
64,192,80899,1,0,2:0:0:0:
448,192,80935,1,0,0:0:0:0:
320,192,80972,1,0,0:0:0:0:
192,192,81008,1,8,0:0:0:0:
64,192,81044,1,0,0:0:0:0:
320,192,81081,1,0,0:0:0:0:
192,192,81117,1,0,2:0:0:0:
448,192,81154,1,0,0:0:0:0:
320,192,81190,1,0,0:0:0:0:
192,192,81226,1,0,2:0:0:0:
64,192,81263,1,0,0:0:0:0:
320,192,81300,1,0,0:0:0:0:
448,192,81336,1,0,0:0:0:0:
192,192,81372,1,0,0:0:0:0:
320,192,81409,1,0,0:0:0:0:
64,192,81445,1,0,0:0:0:0:
192,192,81482,1,0,0:0:0:0:
320,192,81518,1,0,0:0:0:0:
448,192,81554,1,0,0:0:0:0:
192,192,81591,1,0,0:0:0:0:
64,192,81627,1,0,0:0:0:0:
448,192,81664,1,0,0:0:0:0:
320,192,81664,1,0,0:0:0:0:
192,192,81718,1,0,0:0:0:0:
320,192,81773,1,0,0:0:0:0:
448,192,81773,1,0,0:0:0:0:
192,192,81828,1,0,0:0:0:0:
64,192,81828,1,0,0:0:0:0:
448,192,81882,1,0,0:0:0:0:
320,192,81882,1,0,0:0:0:0:
192,192,81937,1,0,0:0:0:0:
64,192,81937,1,0,0:0:0:0:
320,192,81992,1,0,0:0:0:0:
448,192,81992,1,0,0:0:0:0:
192,192,82046,1,0,0:0:0:0:
64,192,82046,1,0,0:0:0:0:
320,192,82101,1,0,0:0:0:0:
192,192,82156,1,0,0:0:0:0:
64,192,82156,1,0,0:0:0:0:
448,192,82210,1,0,2:0:0:0:
320,192,82210,1,0,0:0:0:0:
192,192,82265,1,0,0:0:0:0:
448,192,82320,1,0,2:0:0:0:
320,192,82320,1,0,0:0:0:0:
192,192,82374,1,0,0:0:0:0:
64,192,82374,1,0,0:0:0:0:
320,192,82429,1,0,0:0:0:0:
192,192,82484,1,0,0:0:0:0:
64,192,82484,1,0,0:0:0:0:
448,192,82538,1,4,2:2:0:0:
320,192,82538,1,0,0:0:0:0:
192,192,82593,1,0,0:0:0:0:
64,192,82648,1,0,0:0:0:0:
320,192,82648,1,0,0:0:0:0:
448,192,82702,1,0,0:0:0:0:
64,192,82756,1,8,0:0:0:0:
192,192,82784,1,0,0:0:0:0:
320,192,82811,1,0,0:0:0:0:
448,192,82838,1,0,0:0:0:0:
64,192,82866,1,0,0:0:0:0:
320,192,82920,1,0,0:0:0:0:
192,192,82975,1,0,0:0:0:0:
448,192,82975,1,0,0:0:0:0:
320,192,83030,1,0,0:0:0:0:
192,192,83084,1,0,0:0:0:0:
64,192,83139,1,0,0:0:0:0:
448,192,83194,1,8,0:0:0:0:
320,192,83221,1,0,0:0:0:0:
192,192,83248,1,0,0:0:0:0:
64,192,83276,1,0,0:0:0:0:
448,192,83303,1,0,0:0:0:0:
320,192,83358,1,0,0:0:0:0:
64,192,83412,1,2,0:0:0:0:
192,192,83412,1,2,0:0:0:0:
448,192,83467,1,0,0:0:0:0:
320,192,83522,1,0,0:0:0:0:
192,192,83522,1,0,0:0:0:0:
448,192,83576,1,0,0:0:0:0:
64,192,83631,1,10,0:0:0:0:
192,192,83658,1,0,0:0:0:0:
320,192,83686,1,0,0:0:0:0:
448,192,83713,1,0,0:0:0:0:
64,192,83740,1,0,0:0:0:0:
192,192,83795,1,0,0:0:0:0:
64,192,83850,1,2,0:0:0:0:
448,192,83850,1,2,0:0:0:0:
320,192,83904,1,0,0:0:0:0:
192,192,83959,1,0,0:0:0:0:
448,192,83959,1,0,0:0:0:0:
64,192,84014,1,0,0:0:0:0:
448,192,84068,1,10,0:0:0:0:
320,192,84096,1,0,0:0:0:0:
192,192,84123,1,0,0:0:0:0:
64,192,84150,1,0,0:0:0:0:
448,192,84178,1,0,0:0:0:0:
320,192,84232,1,0,0:0:0:0:
448,192,84287,1,2,0:0:0:0:
64,192,84287,1,2,0:0:0:0:
192,192,84341,1,0,0:0:0:0:
320,192,84396,1,0,0:0:0:0:
64,192,84396,1,0,0:0:0:0:
448,192,84450,1,0,0:0:0:0:
64,192,84505,1,8,0:0:0:0:
192,192,84532,1,0,0:0:0:0:
320,192,84560,1,0,0:0:0:0:
448,192,84587,1,0,0:0:0:0:
64,192,84614,1,0,0:0:0:0:
192,192,84669,1,0,0:0:0:0:
320,192,84724,1,2,0:0:0:0:
448,192,84724,1,2,0:0:0:0:
64,192,84778,1,0,0:0:0:0:
320,192,84833,1,0,0:0:0:0:
192,192,84833,1,0,0:0:0:0:
64,192,84888,1,0,0:0:0:0:
448,192,84942,1,8,0:0:0:0:
320,192,84970,1,0,0:0:0:0:
192,192,84997,1,0,0:0:0:0:
64,192,85024,1,0,0:0:0:0:
448,192,85052,1,4,0:0:0:0:
320,192,85106,1,0,2:0:0:0:
64,192,85161,1,2,0:0:0:0:
192,192,85161,1,2,0:0:0:0:
320,192,85216,1,0,0:0:0:0:
448,192,85270,1,0,0:0:0:0:
192,192,85270,1,0,0:0:0:0:
320,192,85325,1,0,0:0:0:0:
64,192,85380,1,8,0:0:0:0:
192,192,85380,1,0,0:0:0:0:
320,192,85434,1,0,0:0:0:0:
448,192,85434,1,0,0:0:0:0:
192,192,85489,1,0,0:0:0:0:
320,192,85544,1,0,0:0:0:0:
448,192,85544,1,0,0:0:0:0:
64,192,85598,1,2,0:0:0:0:
192,192,85598,1,0,0:0:0:0:
320,192,85653,1,0,0:0:0:0:
192,192,85708,1,0,0:0:0:0:
64,192,85708,1,0,0:0:0:0:
320,192,85762,1,0,0:0:0:0:
448,192,85762,1,0,0:0:0:0:
192,192,85817,1,0,0:0:0:0:
320,192,85872,1,0,0:0:0:0:
448,192,85872,1,0,0:0:0:0:
64,192,85926,1,8,0:0:0:0:
192,192,85926,1,0,0:0:0:0:
320,192,85981,1,0,2:0:0:0:
448,192,85981,1,0,0:0:0:0:
64,192,86035,1,4,0:0:0:0:
192,192,86035,1,0,0:0:0:0:
320,192,86090,1,0,0:0:0:0:
192,192,86144,1,0,0:0:0:0:
64,192,86199,1,0,0:0:0:0:
448,192,86254,1,8,0:0:0:0:
320,192,86281,1,0,0:0:0:0:
192,192,86308,1,0,0:0:0:0:
64,192,86336,1,0,0:0:0:0:
448,192,86363,1,0,0:0:0:0:
320,192,86418,1,0,0:0:0:0:
64,192,86472,1,0,0:0:0:0:
192,192,86472,1,0,0:0:0:0:
448,192,86527,1,0,0:0:0:0:
320,192,86582,1,0,0:0:0:0:
192,192,86582,1,0,0:0:0:0:
448,192,86636,1,0,0:0:0:0:
64,192,86691,1,8,0:0:0:0:
192,192,86718,1,0,0:0:0:0:
320,192,86746,1,0,0:0:0:0:
448,192,86773,1,0,0:0:0:0:
64,192,86800,1,0,0:0:0:0:
192,192,86855,1,0,0:0:0:0:
448,192,86910,1,2,0:0:0:0:
64,192,86910,1,2,0:0:0:0:
320,192,86964,1,0,0:0:0:0:
192,192,87019,1,8,0:0:0:0:
448,192,87019,1,8,0:0:0:0:
64,192,87074,1,0,0:0:0:0:
448,192,87128,1,8,0:0:0:0:
320,192,87156,1,0,0:0:0:0:
192,192,87183,1,0,0:0:0:0:
64,192,87210,1,0,0:0:0:0:
448,192,87238,1,0,2:0:0:0:
320,192,87238,1,0,2:0:0:0:
192,192,87292,1,0,0:0:0:0:
64,192,87292,1,0,0:0:0:0:
448,192,87347,1,10,0:0:0:0:
320,192,87374,1,0,0:0:0:0:
192,192,87402,1,0,0:0:0:0:
64,192,87429,1,0,0:0:0:0:
448,192,87456,1,0,0:0:0:0:
320,192,87484,1,0,0:0:0:0:
192,192,87511,1,0,0:0:0:0:
64,192,87538,1,0,0:0:0:0:
448,192,87566,1,0,2:0:0:0:
320,192,87593,1,0,0:0:0:0:
192,192,87620,1,0,0:0:0:0:
64,192,87648,1,0,0:0:0:0:
448,192,87674,1,8,0:0:0:0:
320,192,87702,1,0,0:0:0:0:
192,192,87729,1,0,0:0:0:0:
64,192,87756,1,0,0:0:0:0:
448,192,87784,1,4,0:0:0:0:
320,192,87784,1,4,0:0:0:0:
320,192,87893,1,0,0:0:0:0:
448,192,87893,1,0,0:0:0:0:
192,192,88002,1,0,0:0:0:0:
320,192,88002,1,0,0:0:0:0:
448,192,88002,1,0,0:0:0:0:
64,192,88112,1,0,0:0:0:0:
320,192,88112,1,0,0:0:0:0:
64,192,88221,1,0,0:0:0:0:
192,192,88221,1,0,0:0:0:0:
320,192,88221,1,0,0:0:0:0:
192,192,88330,1,0,0:0:0:0:
448,192,88330,1,0,0:0:0:0:
448,192,88440,1,0,0:0:0:0:
320,192,88440,1,0,0:0:0:0:
192,192,88440,1,0,0:0:0:0:
192,192,88549,1,0,0:0:0:0:
320,192,88549,1,0,0:0:0:0:
64,192,88658,1,0,0:0:0:0:
320,192,88658,1,0,0:0:0:0:
448,192,88658,1,0,0:0:0:0:
192,192,88768,1,0,0:0:0:0:
320,192,88768,1,0,0:0:0:0:
64,192,88877,1,0,0:0:0:0:
192,192,88877,1,0,0:0:0:0:
448,192,88877,1,0,0:0:0:0:
64,192,88986,1,0,0:0:0:0:
192,192,88986,1,0,0:0:0:0:
448,192,89096,1,0,0:0:0:0:
320,192,89096,1,0,0:0:0:0:
192,192,89096,1,0,0:0:0:0:
320,192,89205,1,0,0:0:0:0:
448,192,89205,1,0,0:0:0:0:
64,192,89314,1,0,0:0:0:0:
192,192,89314,1,0,0:0:0:0:
320,192,89314,1,0,0:0:0:0:
64,192,89423,1,0,0:0:0:0:
192,192,89423,1,0,0:0:0:0:
448,192,89532,128,0,89642:0:0:0:0:
64,192,89532,1,0,0:0:0:0:
192,192,89532,1,0,0:0:0:0:
320,192,89642,128,0,89751:0:0:0:0:
448,192,89751,1,0,0:0:0:0:
192,192,89751,128,0,89860:0:0:0:0:
64,192,89860,128,0,89970:0:0:0:0:
448,192,89860,128,0,89970:0:0:0:0:
320,192,89970,128,0,90079:0:0:0:0:
192,192,89970,1,0,0:0:0:0:
192,192,90079,128,0,90188:0:0:0:0:
64,192,90188,128,0,90298:0:0:0:0:
448,192,90188,128,0,90298:0:0:0:0:
320,192,90188,1,0,0:0:0:0:
320,192,90298,128,0,90407:0:0:0:0:
192,192,90407,128,0,90516:0:0:0:0:
448,192,90407,1,0,0:0:0:0:
64,192,90516,128,0,90626:0:0:0:0:
448,192,90516,128,0,90626:0:0:0:0:
320,192,90626,128,0,90735:0:0:0:0:
192,192,90626,1,0,0:0:0:0:
192,192,90735,128,6,90844:0:0:0:0:
64,192,90844,128,0,90954:0:0:0:0:
320,192,90844,1,6,0:1:0:0:
448,192,90954,128,4,91281:0:0:0:0:
192,192,90954,1,0,0:0:0:0:
64,192,91281,128,0,91390:0:0:0:0:
192,192,91281,1,4,2:2:0:0:
320,192,91390,128,0,91500:0:0:0:0:
192,192,91500,128,0,91609:0:0:0:0:
448,192,91500,1,0,0:0:0:0:
320,192,91609,128,0,91828:0:0:0:0:
64,192,91609,1,0,0:0:0:0:
64,192,91828,128,0,92046:0:0:0:0:
192,192,91828,1,0,0:0:0:0:
448,192,92046,128,0,99260:0:0:0:0:
320,192,92046,1,0,0:0:0:0:
192,192,92046,128,0,96855:0:0:0:0:
