osu file format v14

[General]
AudioFilename: audio_1.3_P.mp3
AudioLeadIn: 0
PreviewTime: 70458
Countdown: 0
SampleSet: None
StackLeniency: 0.5
Mode: 3
LetterboxInBreaks: 0
SpecialStyle: 0
WidescreenStoryboard: 1

[Editor]
Bookmarks: 46813,70521,83130,95237
DistanceSpacing: 0.8
BeatDivisor: 4
GridSize: 4
TimelineZoom: 1.999999

[Metadata]
Title:Watashitachi wa Mirai no Hana
TitleUnicode:私たちは未来の花
Artist:Sonoda Umi (CV.Mimori Suzuko)
ArtistUnicode:園田海未(CV.三森すずこ)
Creator:DakkyChan
Version:Dakky's Love Arrow Shoot x1.3
Source:ラブライブ! School idol project
Tags:Love Live 海色少女に魅せられて μ's u's 7odoa
BeatmapID:1864821
BeatmapSetID:803990

[Difficulty]
HPDrainRate:7
CircleSize:4
OverallDifficulty:8
ApproachRate:9.3
SliderMultiplier:1.8
SliderTickRate:1

[Events]
//Background and Video events
0,0,"BG Umi.jpg",0,0
//Break Periods
//Storyboard Layer 0 (Background)
//Storyboard Layer 1 (Fail)
//Storyboard Layer 2 (Pass)
//Storyboard Layer 3 (Foreground)
//Storyboard Sound Samples

[TimingPoints]
3114,699.300699300699,4,2,10,55,1,0
3114,-36.101083032491,4,2,10,55,0,0
5212,-36.101083032491,4,2,10,55,0,0
11505,252.206809583858,4,2,1,70,1,0
71025,-100,4,2,10,100,0,1
83131,-100,4,2,1,100,0,0
87167,-100,4,2,10,100,0,1
95237,-100,4,2,1,100,0,0

[Colours]
Combo1 : 255,128,128
Combo2 : 128,128,255
Combo3 : 0,128,192
Combo4 : 255,128,255

[HitObjects]
64,192,5212,128,0,5561:0:0:0:0:
192,192,5212,128,0,5911:0:0:0:0:
448,192,5212,1,0,0:0:0:0:
320,192,5212,1,0,0:0:0:0:
448,192,5561,128,0,5911:0:0:0:0:
320,192,5561,1,0,0:0:0:0:
64,192,5911,128,0,6610:0:0:0:0:
320,192,5911,1,0,0:0:0:0:
448,192,6086,1,0,0:0:0:0:
320,192,6260,128,0,6960:0:0:0:0:
448,192,6260,1,0,0:0:0:0:
192,192,6436,1,0,0:0:0:0:
448,192,6610,128,0,7310:0:0:0:0:
192,192,6610,1,0,0:0:0:0:
64,192,6785,1,0,0:0:0:0:
192,192,6960,128,0,7660:0:0:0:0:
64,192,6960,1,0,0:0:0:0:
320,192,7135,1,0,0:0:0:0:
64,192,7310,128,8,8009:0:0:0:0:
320,192,7310,1,0,0:0:0:0:
448,192,7484,1,0,0:0:0:0:
320,192,7660,128,0,8359:0:0:0:0:
448,192,7660,1,0,0:0:0:0:
192,192,7834,1,0,0:0:0:0:
448,192,8009,128,4,8708:0:0:0:0:
192,192,8009,1,8,0:0:0:0:
64,192,8183,1,0,0:0:0:0:
192,192,8359,128,0,9058:0:0:0:0:
64,192,8359,1,0,0:0:0:0:
320,192,8533,1,0,0:0:0:0:
64,192,8708,128,8,9407:0:0:0:0:
320,192,8708,1,4,0:0:0:0:
448,192,8883,1,0,0:0:0:0:
320,192,9058,128,0,11506:0:0:0:0:
448,192,9058,1,0,0:0:0:0:
192,192,9233,1,0,0:0:0:0:
448,192,9407,128,0,11156:0:0:0:0:
192,192,9407,1,8,0:0:0:0:
64,192,9583,1,0,0:0:0:0:
192,192,9757,128,0,11506:0:0:0:0:
64,192,9757,1,8,0:0:0:0:
64,192,9932,1,0,0:0:0:0:
64,192,10106,128,0,11505:0:0:0:0:
448,192,11505,128,0,11756:0:0:0:0:
64,192,11756,128,0,12009:0:0:0:0:
192,192,11756,1,0,0:0:0:0:
320,192,11756,1,0,0:0:0:0:
448,192,12009,128,0,12135:0:0:0:0:
192,192,12009,1,0,2:0:0:0:
320,192,12009,1,0,2:0:0:0:
64,192,12135,128,0,12387:0:0:0:0:
320,192,12135,1,0,2:0:0:0:
192,192,12135,1,0,2:0:0:0:
192,192,12387,1,0,0:0:0:0:
448,192,12387,128,0,12891:0:0:0:0:
320,192,12387,128,0,12891:0:0:0:0:
64,192,12513,1,0,0:0:0:0:
192,192,12639,1,0,0:0:0:0:
64,192,12765,1,0,0:0:0:0:
192,192,12891,128,0,13017:0:0:0:0:
448,192,13017,128,0,13143:0:0:0:0:
64,192,13143,128,0,13270:0:0:0:0:
192,192,13143,128,0,13270:0:0:0:0:
320,192,13270,128,0,13396:0:0:0:0:
64,192,13396,128,0,13900:0:0:0:0:
192,192,13396,128,0,13900:0:0:0:0:
448,192,13522,1,0,0:0:0:0:
320,192,13648,1,0,0:0:0:0:
448,192,13774,1,0,0:0:0:0:
320,192,13900,128,0,14026:0:0:0:0:
64,192,14026,128,0,14153:0:0:0:0:
320,192,14153,128,0,14279:0:0:0:0:
448,192,14153,128,0,14279:0:0:0:0:
192,192,14279,128,0,14404:0:0:0:0:
448,192,14404,1,0,0:0:0:0:
320,192,14467,1,0,0:0:0:0:
192,192,14530,1,0,0:0:0:0:
64,192,14530,1,0,0:0:0:0:
320,192,14593,1,0,0:0:0:0:
64,192,14656,1,0,0:0:0:0:
448,192,14656,1,0,0:0:0:0:
192,192,14720,1,0,0:0:0:0:
448,192,14783,1,0,0:0:0:0:
320,192,14783,1,0,0:0:0:0:
64,192,14846,1,0,0:0:0:0:
192,192,14909,1,0,0:0:0:0:
320,192,14909,1,0,0:0:0:0:
448,192,14972,1,0,0:0:0:0:
192,192,15035,1,0,0:0:0:0:
320,192,15035,1,0,0:0:0:0:
64,192,15098,1,0,0:0:0:0:
448,192,15161,1,0,0:0:0:0:
320,192,15161,1,0,0:0:0:0:
192,192,15224,1,0,0:0:0:0:
64,192,15287,1,0,0:0:0:0:
320,192,15287,1,0,0:0:0:0:
448,192,15350,1,0,0:0:0:0:
192,192,15413,1,0,0:0:0:0:
64,192,15413,1,0,0:0:0:0:
320,192,15476,1,0,0:0:0:0:
64,192,15540,1,0,0:0:0:0:
192,192,15540,1,0,0:0:0:0:
448,192,15603,1,0,0:0:0:0:
320,192,15603,1,0,0:0:0:0:
192,192,15666,1,0,0:0:0:0:
64,192,15666,1,0,0:0:0:0:
448,192,15729,1,0,0:0:0:0:
320,192,15729,1,0,0:0:0:0:
64,192,15792,1,0,0:0:0:0:
192,192,15792,1,0,0:0:0:0:
448,192,15855,1,0,0:0:0:0:
320,192,15855,1,0,0:0:0:0:
192,192,15918,1,0,0:0:0:0:
448,192,15981,1,0,0:0:0:0:
320,192,15981,1,0,0:0:0:0:
192,192,16044,1,0,0:0:0:0:
64,192,16044,1,0,2:0:0:0:
320,192,16107,1,0,0:0:0:0:
192,192,16170,1,0,0:0:0:0:
64,192,16170,1,0,2:0:0:0:
448,192,16233,1,0,0:0:0:0:
320,192,16233,1,0,0:0:0:0:
64,192,16296,1,0,0:0:0:0:
192,192,16296,1,0,0:0:0:0:
448,192,16359,1,0,0:0:0:0:
320,192,16359,1,0,0:0:0:0:
64,192,16422,1,0,0:0:0:0:
192,192,16453,1,0,0:0:0:0:
320,192,16485,1,0,0:0:0:0:
448,192,16516,1,0,0:0:0:0:
64,192,16548,1,0,0:0:0:0:
320,192,16610,1,0,0:0:0:0:
192,192,16673,1,0,0:0:0:0:
448,192,16673,1,0,0:0:0:0:
64,192,16736,1,0,0:0:0:0:
448,192,16800,1,8,0:0:0:0:
320,192,16831,1,0,0:0:0:0:
192,192,16863,1,0,0:0:0:0:
64,192,16894,1,0,0:0:0:0:
448,192,16926,1,0,0:0:0:0:
320,192,16989,1,0,0:0:0:0:
192,192,17052,1,0,0:0:0:0:
64,192,17052,1,0,0:0:0:0:
320,192,17115,1,0,0:0:0:0:
448,192,17178,1,0,0:0:0:0:
192,192,17178,1,0,0:0:0:0:
320,192,17241,1,0,0:0:0:0:
64,192,17304,1,8,0:0:0:0:
192,192,17336,1,0,0:0:0:0:
320,192,17367,1,0,0:0:0:0:
448,192,17399,1,0,0:0:0:0:
64,192,17430,1,0,0:0:0:0:
192,192,17493,1,0,0:0:0:0:
448,192,17556,1,2,0:0:0:0:
320,192,17556,1,2,0:0:0:0:
192,192,17620,1,0,0:0:0:0:
64,192,17683,1,0,0:0:0:0:
320,192,17683,1,0,0:0:0:0:
192,192,17746,1,0,0:0:0:0:
448,192,17809,1,10,0:0:0:0:
320,192,17840,1,0,0:0:0:0:
192,192,17872,1,0,0:0:0:0:
64,192,17903,1,0,0:0:0:0:
448,192,17935,1,0,0:0:0:0:
320,192,17998,1,0,0:0:0:0:
448,192,18061,1,2,0:0:0:0:
64,192,18061,1,2,0:0:0:0:
192,192,18124,1,0,0:0:0:0:
64,192,18187,1,0,0:0:0:0:
320,192,18187,1,0,0:0:0:0:
448,192,18250,1,0,0:0:0:0:
64,192,18313,1,10,0:0:0:0:
192,192,18345,1,0,0:0:0:0:
320,192,18376,1,0,0:0:0:0:
448,192,18408,1,0,0:0:0:0:
64,192,18440,1,0,0:0:0:0:
192,192,18502,1,0,0:0:0:0:
64,192,18565,1,2,0:0:0:0:
448,192,18565,1,2,0:0:0:0:
320,192,18628,1,0,0:0:0:0:
64,192,18691,1,0,0:0:0:0:
448,192,18691,1,0,0:0:0:0:
192,192,18754,1,0,0:0:0:0:
448,192,18817,1,10,0:0:0:0:
320,192,18849,1,0,0:0:0:0:
192,192,18880,1,0,0:0:0:0:
64,192,18912,1,0,0:0:0:0:
448,192,18943,1,0,0:0:0:0:
320,192,19006,1,0,0:0:0:0:
448,192,19070,1,2,0:0:0:0:
64,192,19070,1,2,0:0:0:0:
192,192,19133,1,0,0:0:0:0:
64,192,19196,1,0,0:0:0:0:
448,192,19196,1,0,0:0:0:0:
320,192,19259,1,0,0:0:0:0:
64,192,19322,1,8,0:0:0:0:
192,192,19353,1,0,0:0:0:0:
320,192,19385,1,0,0:0:0:0:
448,192,19416,1,0,0:0:0:0:
64,192,19448,1,4,0:0:0:0:
192,192,19511,1,0,2:0:0:0:
448,192,19574,1,2,0:0:0:0:
320,192,19574,1,2,0:0:0:0:
192,192,19637,1,0,0:0:0:0:
64,192,19700,1,0,0:0:0:0:
320,192,19700,1,0,0:0:0:0:
192,192,19763,1,0,0:0:0:0:
320,192,19826,1,0,0:0:0:0:
192,192,19890,1,0,0:0:0:0:
64,192,19890,1,0,0:0:0:0:
320,192,19953,1,0,0:0:0:0:
448,192,19953,1,0,0:0:0:0:
192,192,20016,1,0,0:0:0:0:
448,192,20079,1,2,0:0:0:0:
320,192,20079,1,0,0:0:0:0:
192,192,20142,1,0,0:0:0:0:
64,192,20142,1,0,0:0:0:0:
320,192,20205,1,0,0:0:0:0:
192,192,20268,1,0,0:0:0:0:
64,192,20268,1,0,0:0:0:0:
448,192,20331,1,8,0:0:0:0:
320,192,20331,1,0,0:0:0:0:
192,192,20393,1,0,0:0:0:0:
448,192,20456,1,8,0:0:0:0:
320,192,20456,1,0,0:0:0:0:
192,192,20520,1,0,2:0:0:0:
64,192,20520,1,0,0:0:0:0:
448,192,20583,1,4,0:0:0:0:
320,192,20583,1,0,0:0:0:0:
192,192,20646,1,0,0:0:0:0:
320,192,20709,1,0,0:0:0:0:
64,192,20709,1,0,0:0:0:0:
448,192,20772,1,0,0:0:0:0:
64,192,20835,1,8,0:0:0:0:
192,192,20866,1,0,0:0:0:0:
320,192,20898,1,0,0:0:0:0:
448,192,20930,1,0,0:0:0:0:
64,192,20961,1,0,0:0:0:0:
192,192,21024,1,0,0:0:0:0:
448,192,21087,1,0,0:0:0:0:
320,192,21087,1,0,0:0:0:0:
192,192,21150,1,0,0:0:0:0:
64,192,21213,1,0,0:0:0:0:
320,192,21213,1,0,0:0:0:0:
192,192,21276,1,0,0:0:0:0:
448,192,21340,1,8,0:0:0:0:
320,192,21371,1,0,0:0:0:0:
192,192,21403,1,0,0:0:0:0:
64,192,21434,1,0,0:0:0:0:
448,192,21466,1,0,0:0:0:0:
320,192,21529,1,0,0:0:0:0:
64,192,21592,1,2,0:0:0:0:
448,192,21592,1,2,0:0:0:0:
192,192,21655,1,0,0:0:0:0:
448,192,21718,1,8,0:0:0:0:
64,192,21718,1,8,0:0:0:0:
320,192,21781,1,0,0:0:0:0:
64,192,21844,1,8,0:0:0:0:
192,192,21876,1,0,0:0:0:0:
320,192,21907,1,0,0:0:0:0:
448,192,21939,1,0,0:0:0:0:
64,192,21970,1,0,2:0:0:0:
192,192,21970,1,0,2:0:0:0:
320,192,22033,1,0,0:0:0:0:
448,192,22033,1,0,0:0:0:0:
64,192,22096,1,10,0:0:0:0:
192,192,22128,1,0,0:0:0:0:
320,192,22160,1,0,0:0:0:0:
448,192,22191,1,0,0:0:0:0:
64,192,22223,1,0,0:0:0:0:
192,192,22254,1,0,0:0:0:0:
320,192,22286,1,0,0:0:0:0:
448,192,22316,1,0,0:0:0:0:
64,192,22348,1,0,2:0:0:0:
192,192,22380,1,0,0:0:0:0:
320,192,22411,1,0,0:0:0:0:
448,192,22443,1,0,0:0:0:0:
64,192,22474,1,8,0:0:0:0:
192,192,22506,1,0,0:0:0:0:
320,192,22537,1,0,0:0:0:0:
448,192,22569,1,0,0:0:0:0:
192,192,22600,1,6,0:0:0:0:
64,192,22600,1,6,0:0:0:0:
64,192,22726,1,0,0:0:0:0:
192,192,22726,1,0,0:0:0:0:
448,192,22853,1,0,2:0:0:0:
320,192,22853,1,0,2:0:0:0:
192,192,22853,1,0,2:0:0:0:
448,192,22979,1,0,0:0:0:0:
320,192,22979,1,0,0:0:0:0:
192,192,23105,1,0,0:0:0:0:
320,192,23105,1,0,0:0:0:0:
448,192,23105,1,0,0:0:0:0:
64,192,23231,1,0,0:0:0:0:
192,192,23231,1,0,0:0:0:0:
192,192,23357,1,0,2:0:0:0:
64,192,23357,1,0,2:0:0:0:
320,192,23357,1,0,2:0:0:0:
64,192,23483,1,0,0:0:0:0:
320,192,23483,1,0,0:0:0:0:
64,192,23610,1,0,0:0:0:0:
192,192,23610,1,0,0:0:0:0:
320,192,23610,1,0,0:0:0:0:
192,192,23736,1,0,0:0:0:0:
448,192,23736,1,0,0:0:0:0:
448,192,23862,1,0,2:0:0:0:
192,192,23862,1,0,2:0:0:0:
320,192,23862,1,0,2:0:0:0:
192,192,23988,1,0,0:0:0:0:
448,192,23988,1,0,0:0:0:0:
64,192,24114,1,0,0:0:0:0:
192,192,24114,1,0,0:0:0:0:
320,192,24114,1,0,0:0:0:0:
64,192,24240,1,0,0:0:0:0:
192,192,24240,1,0,0:0:0:0:
320,192,24366,1,0,2:0:0:0:
64,192,24366,1,0,2:0:0:0:
192,192,24366,1,0,2:0:0:0:
448,192,24492,1,0,0:0:0:0:
192,192,24492,1,0,0:0:0:0:
64,192,24618,128,0,24744:0:0:0:0:
448,192,24618,1,2,0:1:0:0:
320,192,24618,1,2,0:1:0:0:
192,192,24744,128,0,24870:0:0:0:0:
320,192,24870,128,0,24996:0:0:0:0:
64,192,24870,1,0,2:0:0:0:
448,192,24996,128,0,25123:0:0:0:0:
64,192,24996,128,0,25123:0:0:0:0:
192,192,25123,128,0,25249:0:0:0:0:
448,192,25249,1,0,0:0:0:0:
320,192,25249,128,0,25375:0:0:0:0:
448,192,25375,128,0,25501:0:0:0:0:
64,192,25375,128,0,25501:0:0:0:0:
192,192,25501,128,8,25627:0:0:0:0:
320,192,25627,128,0,25753:0:0:0:0:
64,192,25627,1,8,0:0:0:0:
448,192,25753,128,0,25880:0:0:0:0:
64,192,25753,128,0,25880:0:0:0:0:
192,192,25880,128,0,26006:0:0:0:0:
448,192,26006,1,0,2:0:0:0:
320,192,26006,128,2,26132:0:0:0:0:
448,192,26132,128,2,26257:0:0:0:0:
64,192,26132,1,2,2:1:0:0:
64,192,26257,128,4,26636:0:0:0:0:
320,192,26257,1,2,0:1:0:0:
192,192,26257,128,4,26636:0:0:0:0:
448,192,26636,128,0,26888:0:0:0:0:
320,192,26636,1,4,2:2:0:0:
192,192,26762,1,0,0:0:0:0:
64,192,26888,128,0,27140:0:0:0:0:
320,192,26888,1,0,2:0:0:0:
192,192,27014,1,0,2:0:0:0:
320,192,27140,128,0,27393:0:0:0:0:
192,192,27140,1,0,0:0:0:0:
448,192,27266,1,0,2:0:0:0:
192,192,27393,128,0,27645:0:0:0:0:
64,192,27393,1,0,0:0:0:0:
448,192,27519,1,0,2:0:0:0:
320,192,27645,128,0,27771:0:0:0:0:
64,192,27645,1,0,2:0:0:0:
448,192,27771,1,0,2:0:0:0:
192,192,27897,128,0,28023:0:0:0:0:
448,192,27897,1,0,2:0:0:0:
64,192,27897,1,0,2:0:0:0:
448,192,28023,128,0,28149:0:0:0:0:
320,192,28023,1,0,2:0:0:0:
64,192,28149,128,0,28275:0:0:0:0:
192,192,28149,1,0,2:0:0:0:
320,192,28275,1,0,2:0:0:0:
448,192,28401,128,4,28653:0:0:0:0:
192,192,28401,128,0,28527:0:0:0:0:
64,192,28527,128,4,28653:0:0:0:0:
320,192,28653,1,4,2:2:0:0:
192,192,28780,1,0,0:0:0:0:
64,192,28906,1,0,2:0:0:0:
448,192,28906,1,0,2:0:0:0:
320,192,29032,1,0,2:0:0:0:
448,192,29158,1,0,2:0:0:0:
192,192,29158,1,0,2:0:0:0:
64,192,29284,1,0,2:0:0:0:
320,192,29410,1,0,2:0:0:0:
192,192,29410,1,0,2:0:0:0:
448,192,29536,1,0,2:0:0:0:
320,192,29663,1,0,2:0:0:0:
192,192,29663,1,0,2:0:0:0:
64,192,29789,1,0,2:0:0:0:
448,192,29915,1,0,2:0:0:0:
320,192,30040,1,0,2:0:0:0:
192,192,30040,1,0,2:0:0:0:
448,192,30166,1,0,2:0:0:0:
64,192,30166,1,0,2:0:0:0:
192,192,30293,1,0,2:0:0:0:
320,192,30293,1,0,2:0:0:0:
64,192,30419,1,8,2:2:0:0:
320,192,30419,1,8,2:2:0:0:
192,192,30419,1,0,0:0:0:0:
192,192,30545,1,0,2:0:0:0:
320,192,30545,1,0,0:0:0:0:
448,192,30671,1,4,2:2:0:0:
320,192,30671,128,0,30923:0:0:0:0:
192,192,30671,1,0,0:0:0:0:
64,192,30797,1,0,0:0:0:0:
192,192,30923,128,0,31176:0:0:0:0:
448,192,30923,1,0,2:0:0:0:
64,192,31050,1,0,2:0:0:0:
448,192,31176,128,0,31428:0:0:0:0:
320,192,31176,1,0,0:0:0:0:
64,192,31302,1,0,0:0:0:0:
192,192,31428,1,0,0:0:0:0:
320,192,31554,128,0,31932:0:0:0:0:
64,192,31554,1,0,0:0:0:0:
448,192,31680,1,0,2:0:0:0:
192,192,31806,1,0,2:0:0:0:
192,192,31932,1,0,0:0:0:0:
64,192,31932,1,0,0:0:0:0:
448,192,31932,128,0,32184:0:0:0:0:
192,192,32058,1,0,2:0:0:0:
64,192,32058,1,0,0:0:0:0:
320,192,32184,128,8,32436:0:0:0:0:
64,192,32184,1,0,0:0:0:0:
192,192,32184,1,0,0:0:0:0:
64,192,32310,1,0,0:0:0:0:
448,192,32436,1,8,2:2:0:0:
192,192,32436,1,0,0:0:0:0:
64,192,32500,1,0,0:0:0:0:
192,192,32563,1,0,0:0:0:0:
448,192,32563,1,0,0:0:0:0:
320,192,32626,1,0,0:0:0:0:
64,192,32689,1,4,2:2:0:0:
192,192,32689,1,4,2:2:0:0:
320,192,32752,1,0,0:0:0:0:
448,192,32815,1,0,0:0:0:0:
64,192,32878,1,0,0:0:0:0:
192,192,32941,1,0,2:0:0:0:
320,192,32941,1,0,2:0:0:0:
448,192,33004,1,0,0:0:0:0:
64,192,33067,1,0,2:0:0:0:
192,192,33130,1,0,0:0:0:0:
448,192,33193,1,0,2:0:0:0:
320,192,33193,1,0,2:0:0:0:
192,192,33256,1,0,0:0:0:0:
64,192,33320,1,0,2:0:0:0:
448,192,33383,1,0,0:0:0:0:
320,192,33446,1,0,2:0:0:0:
192,192,33446,1,0,2:0:0:0:
64,192,33509,1,0,0:0:0:0:
448,192,33572,1,0,2:0:0:0:
320,192,33635,1,0,0:0:0:0:
64,192,33698,1,0,2:0:0:0:
192,192,33698,1,0,2:0:0:0:
320,192,33761,1,0,0:0:0:0:
448,192,33824,1,0,2:0:0:0:
64,192,33886,1,0,0:0:0:0:
192,192,33950,1,0,2:0:0:0:
320,192,33950,1,0,2:0:0:0:
448,192,34013,1,0,0:0:0:0:
320,192,34076,1,0,0:0:0:0:
192,192,34139,1,0,0:0:0:0:
448,192,34202,1,2,2:1:0:0:
320,192,34202,1,2,2:1:0:0:
64,192,34202,1,2,2:1:0:0:
192,192,34328,1,2,2:1:0:0:
64,192,34328,1,2,2:1:0:0:
448,192,34328,1,2,2:1:0:0:
320,192,34580,1,2,0:1:0:0:
192,192,34580,1,2,0:1:0:0:
448,192,34580,1,2,0:1:0:0:
64,192,34706,1,0,0:0:0:0:
192,192,34770,1,0,0:0:0:0:
320,192,34833,1,0,0:0:0:0:
448,192,34833,1,0,0:0:0:0:
192,192,34896,1,0,0:0:0:0:
448,192,34959,128,0,35211:0:0:0:0:
320,192,34959,1,8,0:0:0:0:
64,192,35085,1,0,0:0:0:0:
192,192,35148,1,0,0:0:0:0:
320,192,35211,128,0,35337:0:0:0:0:
64,192,35211,1,0,2:0:0:0:
448,192,35337,1,0,2:0:0:0:
192,192,35337,128,8,35463:0:0:0:0:
64,192,35463,1,8,0:0:0:0:
320,192,35463,128,0,35590:0:0:0:0:
448,192,35590,128,0,35716:0:0:0:0:
192,192,35590,1,0,0:0:0:0:
320,192,35778,1,0,0:0:0:0:
192,192,35841,1,0,0:0:0:0:
64,192,35841,1,0,0:0:0:0:
320,192,35904,1,0,0:0:0:0:
64,192,35967,128,0,36220:0:0:0:0:
192,192,35967,1,8,0:0:0:0:
448,192,36093,1,0,0:0:0:0:
320,192,36156,1,0,0:0:0:0:
192,192,36220,128,8,36472:0:0:0:0:
448,192,36220,1,0,2:0:0:0:
320,192,36346,1,0,0:0:0:0:
64,192,36472,1,8,0:0:0:0:
320,192,36472,128,0,36724:0:0:0:0:
448,192,36598,1,0,0:0:0:0:
192,192,36724,1,0,0:0:0:0:
448,192,36787,1,0,0:0:0:0:
64,192,36850,1,0,0:0:0:0:
192,192,36850,1,0,0:0:0:0:
320,192,36913,1,0,0:0:0:0:
448,192,36976,1,8,0:0:0:0:
64,192,36976,1,8,0:0:0:0:
192,192,37040,1,0,0:0:0:0:
320,192,37103,1,0,0:0:0:0:
448,192,37103,1,0,0:0:0:0:
192,192,37166,1,0,2:0:0:0:
448,192,37229,1,0,2:0:0:0:
64,192,37229,1,0,2:0:0:0:
320,192,37292,1,0,0:0:0:0:
192,192,37355,1,0,2:0:0:0:
64,192,37355,1,0,2:0:0:0:
320,192,37418,1,0,0:0:0:0:
448,192,37481,1,8,0:0:0:0:
64,192,37481,1,8,0:0:0:0:
192,192,37544,1,0,0:0:0:0:
448,192,37607,1,0,0:0:0:0:
320,192,37607,1,0,0:0:0:0:
192,192,37670,1,0,0:0:0:0:
64,192,37733,1,0,2:0:0:0:
192,192,37796,1,0,0:0:0:0:
320,192,37859,1,0,0:0:0:0:
448,192,37859,1,0,0:0:0:0:
64,192,37922,1,0,2:0:0:0:
192,192,37985,1,8,0:0:0:0:
320,192,37985,1,8,0:0:0:0:
448,192,38048,1,0,0:0:0:0:
64,192,38111,1,0,2:0:0:0:
192,192,38111,1,0,2:0:0:0:
320,192,38174,1,0,0:0:0:0:
192,192,38237,1,0,2:0:0:0:
448,192,38237,1,0,2:0:0:0:
320,192,38300,1,0,0:0:0:0:
192,192,38363,1,0,2:0:0:0:
64,192,38363,1,0,2:0:0:0:
320,192,38490,1,8,0:0:0:0:
192,192,38490,1,8,0:0:0:0:
320,192,38616,1,4,0:0:0:0:
448,192,38616,1,4,0:0:0:0:
64,192,38742,128,0,38868:0:0:0:0:
192,192,38742,1,0,0:0:0:0:
320,192,38868,1,0,2:0:0:0:
448,192,38868,128,8,38994:0:0:0:0:
192,192,38994,128,0,39120:0:0:0:0:
64,192,38994,1,8,0:0:0:0:
320,192,39120,128,0,39246:0:0:0:0:
448,192,39120,1,0,0:0:0:0:
64,192,39246,1,0,2:0:0:0:
192,192,39310,1,0,0:0:0:0:
64,192,39373,1,0,2:0:0:0:
320,192,39373,1,0,2:0:0:0:
192,192,39436,1,0,0:0:0:0:
320,192,39499,1,8,0:0:0:0:
448,192,39499,1,8,0:0:0:0:
64,192,39624,1,4,0:0:0:0:
192,192,39624,1,4,0:0:0:0:
448,192,39750,1,0,0:0:0:0:
320,192,39750,128,0,39876:0:0:0:0:
192,192,39876,128,8,40003:0:0:0:0:
64,192,39876,1,0,0:0:0:0:
448,192,40003,128,0,40129:0:0:0:0:
64,192,40129,128,0,40255:0:0:0:0:
320,192,40129,1,0,0:0:0:0:
192,192,40255,1,0,2:0:0:0:
320,192,40318,1,0,0:0:0:0:
448,192,40381,1,0,2:0:0:0:
192,192,40381,1,0,2:0:0:0:
320,192,40444,1,0,0:0:0:0:
64,192,40507,1,8,0:0:0:0:
192,192,40507,1,8,0:0:0:0:
448,192,40633,1,4,0:0:0:0:
320,192,40633,1,4,0:0:0:0:
64,192,40760,1,0,2:0:0:0:
192,192,40760,1,0,2:0:0:0:
320,192,40823,1,0,0:0:0:0:
448,192,40886,1,0,0:0:0:0:
192,192,40886,1,0,0:0:0:0:
320,192,40949,1,0,0:0:0:0:
64,192,41012,1,8,0:0:0:0:
192,192,41012,1,8,0:0:0:0:
320,192,41075,1,0,0:0:0:0:
64,192,41138,1,0,0:0:0:0:
448,192,41138,1,0,0:0:0:0:
320,192,41201,1,0,0:0:0:0:
192,192,41264,1,0,2:0:0:0:
448,192,41264,1,0,2:0:0:0:
64,192,41327,1,0,0:0:0:0:
320,192,41390,1,0,2:0:0:0:
448,192,41390,1,0,2:0:0:0:
192,192,41453,1,0,0:0:0:0:
64,192,41516,1,8,0:0:0:0:
320,192,41516,1,8,0:0:0:0:
448,192,41579,1,0,0:0:0:0:
192,192,41642,1,0,2:0:0:0:
64,192,41642,1,0,2:0:0:0:
320,192,41705,1,0,0:0:0:0:
64,192,41768,1,0,2:0:0:0:
448,192,41768,1,0,2:0:0:0:
192,192,41831,1,0,0:0:0:0:
448,192,41894,1,8,0:0:0:0:
320,192,41894,1,8,0:0:0:0:
64,192,41894,1,8,0:0:0:0:
64,192,42020,1,8,0:0:0:0:
320,192,42020,1,8,0:0:0:0:
448,192,42020,1,8,0:0:0:0:
192,192,42105,1,0,0:0:0:0:
320,192,42189,1,0,0:0:0:0:
448,192,42273,1,2,2:2:0:0:
192,192,42273,1,2,2:2:0:0:
320,192,42356,1,0,0:0:0:0:
192,192,42441,1,0,2:0:0:0:
64,192,42525,1,2,2:2:0:0:
320,192,42525,1,2,2:2:0:0:
192,192,42609,1,0,0:0:0:0:
448,192,42651,1,0,0:0:0:0:
320,192,42693,1,0,2:0:0:0:
192,192,42735,1,0,0:0:0:0:
64,192,42777,1,4,2:2:0:0:
448,192,42777,1,4,2:2:0:0:
320,192,42903,1,0,2:0:0:0:
192,192,43030,1,0,0:0:0:0:
64,192,43030,1,0,0:0:0:0:
320,192,43113,1,0,0:0:0:0:
448,192,43113,1,0,0:0:0:0:
320,192,43197,1,0,0:0:0:0:
64,192,43197,1,0,0:0:0:0:
192,192,43282,1,8,0:0:0:0:
64,192,43282,1,8,0:0:0:0:
448,192,43282,1,0,0:0:0:0:
320,192,43408,1,0,0:0:0:0:
64,192,43408,1,0,0:0:0:0:
448,192,43533,1,0,2:0:0:0:
192,192,43533,1,0,2:0:0:0:
320,192,43596,1,0,0:0:0:0:
64,192,43660,1,0,0:0:0:0:
192,192,43702,1,0,0:0:0:0:
320,192,43744,1,0,0:0:0:0:
64,192,43786,1,0,2:0:0:0:
448,192,43786,1,0,2:0:0:0:
192,192,43912,1,0,1:0:0:0:
320,192,44038,1,0,2:0:0:0:
448,192,44038,1,0,2:0:0:0:
64,192,44122,1,0,0:0:0:0:
192,192,44122,1,0,0:0:0:0:
192,192,44206,1,0,0:0:0:0:
448,192,44206,1,0,0:0:0:0:
320,192,44290,1,8,0:0:0:0:
448,192,44290,1,8,0:0:0:0:
64,192,44290,1,0,0:0:0:0:
192,192,44416,1,0,0:0:0:0:
448,192,44416,1,0,0:0:0:0:
64,192,44543,1,0,2:0:0:0:
320,192,44543,1,0,2:0:0:0:
192,192,44606,1,0,0:0:0:0:
448,192,44669,1,0,0:0:0:0:
320,192,44711,1,0,0:0:0:0:
192,192,44753,1,0,0:0:0:0:
64,192,44795,1,0,2:0:0:0:
448,192,44795,128,0,45047:0:0:0:0:
320,192,44921,1,0,2:0:0:0:
192,192,45047,128,8,45300:0:0:0:0:
64,192,45047,1,0,2:0:0:0:
320,192,45173,1,0,0:0:0:0:
448,192,45300,128,0,45425:0:0:0:0:
64,192,45300,1,8,0:0:0:0:
320,192,45425,128,0,45551:0:0:0:0:
192,192,45425,1,0,0:0:0:0:
64,192,45551,1,0,2:0:0:0:
192,192,45614,1,0,0:0:0:0:
448,192,45677,1,4,0:0:0:0:
320,192,45677,1,4,0:0:0:0:
64,192,45677,1,4,0:0:0:0:
192,192,45740,1,0,0:0:0:0:
448,192,45803,1,0,0:0:0:0:
320,192,45803,1,0,0:0:0:0:
192,192,45866,1,0,0:0:0:0:
64,192,45930,1,0,0:0:0:0:
320,192,45930,1,0,0:0:0:0:
192,192,45993,1,0,0:0:0:0:
320,192,46056,1,0,0:0:0:0:
448,192,46056,1,0,0:0:0:0:
192,192,46119,1,0,0:0:0:0:
64,192,46182,1,0,0:0:0:0:
448,192,46182,1,0,0:0:0:0:
320,192,46245,1,0,0:0:0:0:
64,192,46308,1,8,0:0:0:0:
192,192,46308,1,8,0:0:0:0:
448,192,46371,1,0,0:0:0:0:
320,192,46434,1,0,2:0:0:0:
192,192,46434,1,0,2:0:0:0:
448,192,46497,1,0,0:0:0:0:
64,192,46560,1,8,0:0:0:0:
192,192,46592,1,0,0:0:0:0:
320,192,46623,1,0,0:0:0:0:
448,192,46655,1,0,0:0:0:0:
64,192,46686,1,8,0:0:0:0:
192,192,46718,1,0,0:0:0:0:
320,192,46750,1,0,0:0:0:0:
448,192,46781,1,0,0:0:0:0:
64,192,46813,1,6,2:2:0:0:
192,192,46813,1,6,2:2:0:0:
448,192,46939,1,0,0:0:0:0:
192,192,46939,1,0,0:0:0:0:
320,192,47002,1,0,0:0:0:0:
64,192,47065,1,8,0:0:0:0:
192,192,47065,1,8,0:0:0:0:
192,192,47191,1,6,2:2:0:0:
320,192,47191,1,6,2:2:0:0:
192,192,47316,1,0,0:0:0:0:
320,192,47316,1,0,0:0:0:0:
64,192,47443,1,0,2:0:0:0:
320,192,47443,1,0,2:0:0:0:
192,192,47506,1,0,0:0:0:0:
448,192,47569,1,10,0:0:0:0:
320,192,47569,1,10,0:0:0:0:
192,192,47632,1,0,0:0:0:0:
320,192,47695,1,0,2:0:0:0:
64,192,47695,1,0,2:0:0:0:
448,192,47758,1,0,0:0:0:0:
320,192,47821,1,6,2:2:0:0:
64,192,47821,1,6,2:2:0:0:
192,192,47821,1,6,2:2:0:0:
320,192,47947,1,0,0:0:0:0:
448,192,47947,1,0,0:0:0:0:
64,192,48010,1,0,0:0:0:0:
320,192,48073,1,8,0:0:0:0:
448,192,48073,1,8,0:0:0:0:
192,192,48200,1,6,2:2:0:0:
448,192,48200,1,6,2:2:0:0:
320,192,48326,1,0,0:0:0:0:
64,192,48326,1,0,0:0:0:0:
320,192,48452,1,0,0:0:0:0:
64,192,48452,1,0,0:0:0:0:
448,192,48515,1,0,2:0:0:0:
192,192,48578,1,10,0:0:0:0:
64,192,48578,1,10,0:0:0:0:
448,192,48641,1,0,0:0:0:0:
320,192,48704,1,0,2:0:0:0:
64,192,48704,1,0,2:0:0:0:
192,192,48767,1,0,0:0:0:0:
64,192,48830,1,4,2:2:0:0:
320,192,48830,1,4,2:2:0:0:
448,192,48893,1,0,0:0:0:0:
192,192,48956,1,0,2:0:0:0:
64,192,48956,1,0,2:0:0:0:
320,192,49020,1,0,0:0:0:0:
448,192,49083,1,10,2:2:0:0:
64,192,49083,1,10,2:2:0:0:
192,192,49146,1,0,0:0:0:0:
320,192,49209,1,0,2:0:0:0:
448,192,49209,1,0,2:0:0:0:
192,192,49271,1,0,2:0:0:0:
64,192,49334,1,0,0:0:0:0:
320,192,49334,1,0,0:0:0:0:
192,192,49397,1,0,2:0:0:0:
448,192,49460,1,0,0:0:0:0:
64,192,49460,1,0,0:0:0:0:
320,192,49523,1,0,0:0:0:0:
192,192,49586,1,10,0:0:0:0:
64,192,49586,1,10,0:0:0:0:
320,192,49650,1,0,0:0:0:0:
448,192,49713,1,0,2:0:0:0:
320,192,49776,1,0,0:0:0:0:
192,192,49839,1,0,2:0:0:0:
64,192,49839,1,0,2:0:0:0:
448,192,49839,1,0,2:0:0:0:
320,192,49902,1,0,0:0:0:0:
448,192,49965,1,0,2:0:0:0:
192,192,49965,1,0,2:0:0:0:
64,192,50028,1,0,0:0:0:0:
192,192,50091,1,10,2:2:0:0:
320,192,50091,1,10,2:2:0:0:
64,192,50154,1,0,0:0:0:0:
192,192,50217,1,0,2:0:0:0:
320,192,50280,1,0,2:0:0:0:
448,192,50343,1,0,0:0:0:0:
192,192,50343,1,0,0:0:0:0:
320,192,50406,1,0,0:0:0:0:
448,192,50470,1,0,2:0:0:0:
64,192,50470,1,0,2:0:0:0:
192,192,50533,1,0,0:0:0:0:
320,192,50596,1,10,0:0:0:0:
64,192,50596,1,10,0:0:0:0:
192,192,50659,1,0,0:0:0:0:
448,192,50722,1,0,2:0:0:0:
320,192,50785,1,0,0:0:0:0:
448,192,50848,1,4,2:2:0:0:
192,192,50848,1,4,2:2:0:0:
64,192,50848,1,4,2:2:0:0:
320,192,50911,1,0,0:0:0:0:
192,192,50974,1,0,2:0:0:0:
448,192,50974,1,0,2:0:0:0:
64,192,51037,1,0,0:0:0:0:
192,192,51100,1,10,2:2:0:0:
320,192,51100,1,10,2:2:0:0:
448,192,51100,1,10,2:2:0:0:
64,192,51163,1,0,0:0:0:0:
448,192,51226,1,0,2:0:0:0:
192,192,51226,1,0,2:0:0:0:
320,192,51289,1,0,2:0:0:0:
192,192,51352,1,0,0:0:0:0:
64,192,51352,1,0,0:0:0:0:
448,192,51352,1,0,0:0:0:0:
320,192,51415,1,0,0:0:0:0:
64,192,51478,1,0,0:0:0:0:
448,192,51478,1,0,0:0:0:0:
192,192,51541,1,0,0:0:0:0:
64,192,51604,1,10,0:0:0:0:
320,192,51604,1,10,0:0:0:0:
448,192,51604,1,10,0:0:0:0:
192,192,51667,1,0,2:0:0:0:
64,192,51730,1,4,2:2:0:0:
320,192,51730,1,4,2:2:0:0:
448,192,51793,1,0,2:0:0:0:
320,192,51856,1,0,2:0:0:0:
192,192,51856,1,0,2:0:0:0:
64,192,51856,1,0,2:0:0:0:
448,192,51920,1,0,0:0:0:0:
320,192,51983,1,0,2:0:0:0:
64,192,51983,1,0,2:0:0:0:
192,192,52046,1,0,0:0:0:0:
64,192,52109,1,10,2:2:0:0:
320,192,52109,1,10,2:2:0:0:
448,192,52109,1,10,2:2:0:0:
192,192,52172,1,0,0:0:0:0:
320,192,52235,1,0,2:0:0:0:
448,192,52235,1,0,2:0:0:0:
192,192,52298,1,0,0:0:0:0:
64,192,52298,1,0,0:0:0:0:
320,192,52361,1,10,0:0:0:0:
448,192,52361,1,10,0:0:0:0:
192,192,52424,1,0,2:0:0:0:
64,192,52424,1,0,2:0:0:0:
320,192,52487,1,0,2:0:0:0:
448,192,52550,1,0,0:0:0:0:
64,192,52613,1,0,2:0:0:0:
192,192,52645,1,0,0:0:0:0:
320,192,52676,1,0,0:0:0:0:
448,192,52708,1,0,0:0:0:0:
64,192,52740,1,0,2:0:0:0:
192,192,52771,1,0,0:0:0:0:
320,192,52803,1,0,0:0:0:0:
448,192,52834,1,0,0:0:0:0:
192,192,52866,1,8,2:2:0:0:
64,192,52866,1,8,2:2:0:0:
64,192,52992,1,0,2:0:0:0:
192,192,52992,1,0,2:0:0:0:
320,192,52992,1,0,2:0:0:0:
448,192,53117,1,0,0:0:0:0:
320,192,53117,1,0,0:0:0:0:
192,192,53117,1,0,0:0:0:0:
64,192,53117,1,0,0:0:0:0:
448,192,53243,1,0,0:0:0:0:
320,192,53243,1,0,0:0:0:0:
192,192,53243,1,0,0:0:0:0:
448,192,53370,1,0,2:0:0:0:
320,192,53370,1,0,2:0:0:0:
192,192,53370,1,0,0:0:0:0:
64,192,53370,1,0,0:0:0:0:
192,192,53496,1,0,2:0:0:0:
64,192,53496,1,0,2:0:0:0:
320,192,53496,1,0,0:0:0:0:
320,192,53622,1,8,2:2:0:0:
64,192,53622,1,8,2:2:0:0:
192,192,53622,1,0,0:0:0:0:
448,192,53622,1,0,0:0:0:0:
192,192,53748,1,0,0:0:0:0:
320,192,53748,1,0,0:0:0:0:
320,192,53874,1,2,2:1:0:0:
448,192,53874,1,2,2:1:0:0:
64,192,53874,1,2,2:1:0:0:
192,192,53874,1,2,2:1:0:0:
448,192,54000,1,2,0:1:0:0:
320,192,54000,1,2,0:1:0:0:
192,192,54000,1,2,0:1:0:0:
64,192,54000,1,2,0:1:0:0:
64,192,54126,1,2,0:1:0:0:
192,192,54126,1,2,0:1:0:0:
320,192,54126,1,2,0:1:0:0:
448,192,54126,1,2,0:1:0:0:
64,192,54253,1,2,0:1:0:0:
192,192,54253,1,2,0:1:0:0:
448,192,54253,1,2,0:1:0:0:
320,192,54253,1,2,0:1:0:0:
192,192,54379,128,0,54505:0:0:0:0:
64,192,54379,128,0,54505:0:0:0:0:
320,192,54505,128,0,54631:0:0:0:0:
448,192,54505,128,0,54631:0:0:0:0:
192,192,54631,1,0,0:0:0:0:
64,192,54631,1,0,0:0:0:0:
448,192,54757,1,4,0:0:0:0:
192,192,54757,1,0,0:0:0:0:
64,192,54757,1,0,0:0:0:0:
320,192,54820,1,0,0:0:0:0:
192,192,54883,1,0,0:0:0:0:
64,192,54883,1,0,0:0:0:0:
448,192,54883,1,0,0:0:0:0:
320,192,54946,1,0,0:0:0:0:
448,192,55009,1,0,0:0:0:0:
192,192,55009,1,0,0:0:0:0:
64,192,55072,1,0,0:0:0:0:
320,192,55135,1,8,0:0:0:0:
448,192,55135,1,8,0:0:0:0:
192,192,55198,1,0,0:0:0:0:
64,192,55261,1,0,0:0:0:0:
320,192,55261,1,0,0:0:0:0:
192,192,55324,1,0,0:0:0:0:
320,192,55387,1,0,2:0:0:0:
448,192,55387,1,0,2:0:0:0:
192,192,55450,1,0,0:0:0:0:
64,192,55513,1,0,0:0:0:0:
320,192,55513,1,0,0:0:0:0:
192,192,55576,1,0,0:0:0:0:
320,192,55640,1,8,0:0:0:0:
448,192,55640,1,8,0:0:0:0:
64,192,55703,1,0,0:0:0:0:
64,192,55766,1,4,0:0:0:0:
320,192,55766,1,4,0:0:0:0:
448,192,55766,1,4,0:0:0:0:
192,192,55829,1,0,0:0:0:0:
448,192,55892,1,0,0:0:0:0:
320,192,55892,1,0,0:0:0:0:
64,192,55955,1,0,0:0:0:0:
448,192,56018,1,0,0:0:0:0:
192,192,56018,1,0,0:0:0:0:
320,192,56081,1,0,0:0:0:0:
192,192,56144,1,8,0:0:0:0:
64,192,56144,1,8,0:0:0:0:
320,192,56207,1,0,0:0:0:0:
448,192,56270,1,0,0:0:0:0:
192,192,56270,1,0,0:0:0:0:
64,192,56333,1,0,0:0:0:0:
320,192,56396,1,0,2:0:0:0:
448,192,56396,1,0,2:0:0:0:
192,192,56460,1,0,0:0:0:0:
64,192,56523,1,0,0:0:0:0:
320,192,56523,1,0,0:0:0:0:
448,192,56586,1,0,0:0:0:0:
192,192,56649,1,8,0:0:0:0:
64,192,56649,1,8,0:0:0:0:
448,192,56712,1,0,0:0:0:0:
192,192,56775,1,4,0:0:0:0:
448,192,56775,1,4,0:0:0:0:
64,192,56775,1,4,0:0:0:0:
320,192,56838,1,0,0:0:0:0:
64,192,56901,1,0,0:0:0:0:
448,192,56901,1,0,0:0:0:0:
192,192,56963,1,0,0:0:0:0:
448,192,57026,1,0,0:0:0:0:
320,192,57026,1,0,0:0:0:0:
64,192,57090,1,0,0:0:0:0:
192,192,57153,1,8,0:0:0:0:
320,192,57153,1,8,0:0:0:0:
448,192,57216,1,0,0:0:0:0:
192,192,57279,1,0,0:0:0:0:
320,192,57279,1,0,0:0:0:0:
64,192,57342,1,0,0:0:0:0:
448,192,57405,1,0,2:0:0:0:
320,192,57405,1,0,2:0:0:0:
192,192,57468,1,0,0:0:0:0:
320,192,57531,1,0,0:0:0:0:
64,192,57531,1,0,0:0:0:0:
448,192,57594,1,0,0:0:0:0:
64,192,57657,1,8,0:0:0:0:
320,192,57657,1,8,0:0:0:0:
192,192,57720,1,0,0:0:0:0:
448,192,57783,1,2,0:0:0:0:
320,192,57846,1,0,0:0:0:0:
192,192,57846,1,0,0:0:0:0:
448,192,57910,1,0,0:0:0:0:
192,192,57973,1,0,0:0:0:0:
320,192,57973,1,0,0:0:0:0:
448,192,58036,1,0,0:0:0:0:
192,192,58099,1,0,0:0:0:0:
64,192,58099,1,0,0:0:0:0:
320,192,58162,1,8,0:0:0:0:
448,192,58162,1,8,0:0:0:0:
192,192,58225,1,0,0:0:0:0:
320,192,58288,1,0,0:0:0:0:
448,192,58288,1,0,0:0:0:0:
192,192,58351,1,0,0:0:0:0:
64,192,58351,1,0,0:0:0:0:
320,192,58414,1,0,2:0:0:0:
64,192,58477,1,0,0:0:0:0:
192,192,58477,1,0,0:0:0:0:
320,192,58540,1,0,2:0:0:0:
448,192,58540,1,0,2:0:0:0:
64,192,58603,1,0,0:0:0:0:
320,192,58666,1,8,0:0:0:0:
448,192,58666,1,8,0:0:0:0:
192,192,58730,1,0,0:0:0:0:
320,192,58793,1,0,0:0:0:0:
448,192,58793,1,0,0:0:0:0:
64,192,58855,1,0,0:0:0:0:
64,192,58918,1,4,0:0:0:0:
320,192,58918,1,4,0:0:0:0:
448,192,58918,1,4,0:0:0:0:
192,192,58981,1,0,0:0:0:0:
448,192,59044,1,0,0:0:0:0:
320,192,59044,1,0,0:0:0:0:
192,192,59107,1,0,0:0:0:0:
64,192,59170,1,8,0:0:0:0:
320,192,59170,1,8,0:0:0:0:
448,192,59233,1,0,0:0:0:0:
192,192,59296,1,0,0:0:0:0:
64,192,59296,1,0,0:0:0:0:
320,192,59360,1,0,0:0:0:0:
448,192,59423,1,0,2:0:0:0:
192,192,59423,1,0,2:0:0:0:
320,192,59486,1,0,0:0:0:0:
64,192,59549,1,0,0:0:0:0:
192,192,59549,1,0,0:0:0:0:
320,192,59612,1,0,0:0:0:0:
64,192,59675,1,8,0:0:0:0:
192,192,59675,1,8,0:0:0:0:
448,192,59738,1,0,0:0:0:0:
192,192,59801,1,4,0:0:0:0:
448,192,59801,1,4,0:0:0:0:
64,192,59801,1,4,0:0:0:0:
320,192,59864,1,0,0:0:0:0:
192,192,59927,1,0,0:0:0:0:
64,192,59927,1,0,0:0:0:0:
320,192,59990,1,0,0:0:0:0:
192,192,60053,1,0,2:0:0:0:
448,192,60053,1,0,2:0:0:0:
320,192,60116,1,0,0:0:0:0:
64,192,60180,1,8,0:0:0:0:
192,192,60180,1,8,0:0:0:0:
320,192,60243,1,0,0:0:0:0:
448,192,60306,1,0,0:0:0:0:
192,192,60306,1,0,0:0:0:0:
64,192,60369,1,0,0:0:0:0:
192,192,60432,1,0,2:0:0:0:
320,192,60432,1,0,2:0:0:0:
448,192,60495,1,0,0:0:0:0:
192,192,60558,1,0,0:0:0:0:
320,192,60558,1,0,0:0:0:0:
64,192,60621,1,0,0:0:0:0:
192,192,60684,1,8,0:0:0:0:
448,192,60747,1,0,0:0:0:0:
320,192,60810,1,0,0:0:0:0:
192,192,60810,1,0,0:0:0:0:
448,192,60873,1,0,0:0:0:0:
192,192,60936,1,4,0:0:0:0:
64,192,60936,1,4,0:0:0:0:
320,192,60999,1,0,0:0:0:0:
192,192,61062,1,0,0:0:0:0:
64,192,61062,1,0,0:0:0:0:
448,192,61125,1,0,0:0:0:0:
320,192,61188,1,8,0:0:0:0:
192,192,61188,1,8,0:0:0:0:
448,192,61251,1,0,0:0:0:0:
192,192,61314,1,0,0:0:0:0:
64,192,61314,1,0,0:0:0:0:
320,192,61377,1,0,0:0:0:0:
448,192,61377,1,0,0:0:0:0:
64,192,61440,1,0,2:0:0:0:
320,192,61503,1,0,0:0:0:0:
192,192,61503,1,0,0:0:0:0:
64,192,61566,1,0,0:0:0:0:
320,192,61630,1,0,0:0:0:0:
448,192,61630,1,0,0:0:0:0:
192,192,61693,1,8,0:0:0:0:
64,192,61693,1,0,0:0:0:0:
448,192,61756,1,0,0:0:0:0:
320,192,61756,1,0,0:0:0:0:
64,192,61819,1,4,0:0:0:0:
192,192,61819,1,4,0:0:0:0:
320,192,61882,1,0,0:0:0:0:
448,192,61882,1,0,0:0:0:0:
64,192,61945,1,0,0:0:0:0:
192,192,61945,1,0,0:0:0:0:
448,192,62008,1,0,0:0:0:0:
320,192,62008,1,0,0:0:0:0:
64,192,62071,1,0,0:0:0:0:
192,192,62071,1,0,0:0:0:0:
320,192,62134,1,0,0:0:0:0:
448,192,62134,1,0,0:0:0:0:
64,192,62197,1,8,0:0:0:0:
192,192,62197,1,8,0:0:0:0:
320,192,62260,1,0,0:0:0:0:
448,192,62260,1,0,0:0:0:0:
192,192,62323,1,0,0:0:0:0:
320,192,62386,1,0,0:0:0:0:
448,192,62386,1,0,0:0:0:0:
64,192,62450,1,0,2:0:0:0:
192,192,62450,1,0,2:0:0:0:
320,192,62513,1,0,0:0:0:0:
192,192,62576,1,0,0:0:0:0:
64,192,62576,1,0,0:0:0:0:
448,192,62639,1,0,0:0:0:0:
320,192,62639,1,0,0:0:0:0:
192,192,62701,1,0,0:0:0:0:
448,192,62764,1,0,0:0:0:0:
320,192,62764,1,0,0:0:0:0:
192,192,62827,1,8,0:0:0:0:
64,192,62827,1,8,0:0:0:0:
448,192,62890,1,0,0:0:0:0:
448,192,62953,1,6,0:0:0:0:
192,192,62953,1,6,0:0:0:0:
64,192,62953,1,6,0:0:0:0:
320,192,63016,1,0,0:0:0:0:
192,192,63080,1,0,0:0:0:0:
448,192,63080,1,0,0:0:0:0:
64,192,63143,1,0,0:0:0:0:
320,192,63206,1,8,0:0:0:0:
192,192,63206,1,8,0:0:0:0:
448,192,63269,1,0,0:0:0:0:
320,192,63332,1,0,0:0:0:0:
192,192,63332,1,0,0:0:0:0:
448,192,63395,1,0,0:0:0:0:
320,192,63458,1,0,2:0:0:0:
64,192,63458,1,0,2:0:0:0:
192,192,63521,1,0,0:0:0:0:
320,192,63584,1,0,0:0:0:0:
64,192,63584,1,0,0:0:0:0:
192,192,63647,1,0,0:0:0:0:
320,192,63710,1,8,0:0:0:0:
448,192,63710,1,8,0:0:0:0:
192,192,63773,1,0,0:0:0:0:
320,192,63836,1,0,0:0:0:0:
448,192,63836,1,0,0:0:0:0:
64,192,63900,1,0,0:0:0:0:
64,192,63963,1,4,0:0:0:0:
320,192,63963,1,4,0:0:0:0:
448,192,63963,1,4,0:0:0:0:
192,192,64026,1,0,0:0:0:0:
320,192,64089,1,0,0:0:0:0:
448,192,64089,1,0,0:0:0:0:
192,192,64152,1,0,0:0:0:0:
448,192,64215,1,8,0:0:0:0:
64,192,64215,1,8,0:0:0:0:
320,192,64278,1,0,0:0:0:0:
448,192,64341,1,0,0:0:0:0:
64,192,64341,1,0,0:0:0:0:
192,192,64404,1,0,0:0:0:0:
64,192,64467,1,0,2:0:0:0:
448,192,64467,1,0,2:0:0:0:
320,192,64530,1,0,0:0:0:0:
192,192,64593,1,0,0:0:0:0:
64,192,64593,1,0,0:0:0:0:
448,192,64656,1,0,0:0:0:0:
320,192,64719,1,8,0:0:0:0:
192,192,64719,1,8,0:0:0:0:
64,192,64782,1,0,0:0:0:0:
320,192,64845,1,0,2:0:0:0:
192,192,64845,1,0,2:0:0:0:
448,192,64908,1,0,0:0:0:0:
192,192,64971,1,14,0:0:0:0:
64,192,64971,1,14,0:0:0:0:
448,192,64971,1,14,0:0:0:0:
64,192,65097,1,0,2:0:0:0:
320,192,65097,1,0,2:0:0:0:
448,192,65097,1,0,2:0:0:0:
320,192,65223,1,0,2:0:0:0:
448,192,65223,1,0,2:0:0:0:
448,192,65350,1,14,0:0:0:0:
320,192,65350,1,14,0:0:0:0:
192,192,65350,1,14,0:0:0:0:
64,192,65350,1,14,0:0:0:0:
192,192,65476,1,0,2:0:0:0:
64,192,65476,1,0,2:0:0:0:
448,192,65602,1,0,2:0:0:0:
192,192,65602,1,0,2:0:0:0:
64,192,65602,1,0,2:0:0:0:
192,192,65728,1,6,0:0:0:0:
320,192,65728,1,6,0:0:0:0:
448,192,65728,1,6,0:0:0:0:
64,192,65791,1,0,0:0:0:0:
192,192,65854,1,0,0:0:0:0:
320,192,65854,1,0,0:0:0:0:
448,192,65917,1,0,0:0:0:0:
64,192,65980,1,0,0:0:0:0:
192,192,65980,1,0,0:0:0:0:
320,192,66043,1,0,0:0:0:0:
448,192,66106,1,0,0:0:0:0:
64,192,66106,1,0,0:0:0:0:
192,192,66170,1,0,0:0:0:0:
320,192,66233,1,8,0:0:0:0:
448,192,66233,1,8,0:0:0:0:
192,192,66296,1,0,0:0:0:0:
320,192,66359,1,0,0:0:0:0:
64,192,66359,1,0,0:0:0:0:
448,192,66422,1,0,0:0:0:0:
64,192,66485,1,0,2:0:0:0:
192,192,66516,1,0,0:0:0:0:
320,192,66547,1,0,2:0:0:0:
448,192,66579,1,0,0:0:0:0:
64,192,66610,1,0,2:0:0:0:
192,192,66642,1,0,0:0:0:0:
320,192,66673,1,0,2:0:0:0:
448,192,66705,1,0,0:0:0:0:
64,192,66736,1,8,0:0:0:0:
192,192,66768,1,0,0:0:0:0:
320,192,66800,1,0,0:0:0:0:
448,192,66831,1,0,0:0:0:0:
64,192,66863,1,0,2:0:0:0:
192,192,66894,1,0,0:0:0:0:
320,192,66926,1,0,0:0:0:0:
448,192,66957,1,0,0:0:0:0:
64,192,66989,1,4,0:0:0:0:
192,192,67052,1,0,0:0:0:0:
320,192,67115,1,0,0:0:0:0:
448,192,67115,1,0,0:0:0:0:
192,192,67178,1,0,0:0:0:0:
64,192,67241,1,8,0:0:0:0:
320,192,67241,1,8,0:0:0:0:
192,192,67304,1,0,0:0:0:0:
320,192,67367,1,0,0:0:0:0:
448,192,67367,1,0,0:0:0:0:
192,192,67430,1,0,0:0:0:0:
448,192,67493,1,0,2:0:0:0:
64,192,67493,1,0,2:0:0:0:
192,192,67556,1,0,0:0:0:0:
64,192,67620,1,0,0:0:0:0:
448,192,67620,1,0,0:0:0:0:
192,192,67683,1,0,0:0:0:0:
448,192,67746,1,8,0:0:0:0:
320,192,67746,1,8,0:0:0:0:
64,192,67809,1,0,0:0:0:0:
64,192,67872,1,4,0:0:0:0:
320,192,67872,1,4,0:0:0:0:
448,192,67872,1,4,0:0:0:0:
192,192,67935,1,0,0:0:0:0:
320,192,67998,1,0,0:0:0:0:
448,192,67998,1,0,0:0:0:0:
192,192,68061,1,0,0:0:0:0:
448,192,68124,1,0,0:0:0:0:
64,192,68124,1,0,0:0:0:0:
192,192,68187,1,0,0:0:0:0:
448,192,68250,1,8,0:0:0:0:
320,192,68250,1,8,0:0:0:0:
64,192,68313,1,0,0:0:0:0:
320,192,68376,1,0,0:0:0:0:
192,192,68376,1,0,0:0:0:0:
448,192,68440,1,0,0:0:0:0:
64,192,68502,1,0,2:0:0:0:
192,192,68502,1,0,2:0:0:0:
320,192,68565,1,0,2:0:0:0:
448,192,68628,1,0,0:0:0:0:
192,192,68628,1,0,0:0:0:0:
320,192,68691,1,0,0:0:0:0:
192,192,68754,1,8,0:0:0:0:
64,192,68754,1,8,0:0:0:0:
320,192,68817,1,0,0:0:0:0:
64,192,68880,1,0,0:0:0:0:
192,192,68880,1,0,0:0:0:0:
448,192,68880,1,0,0:0:0:0:
320,192,68943,1,0,0:0:0:0:
448,192,69006,1,0,0:0:0:0:
64,192,69006,1,0,0:0:0:0:
192,192,69070,1,0,0:0:0:0:
448,192,69133,1,0,0:0:0:0:
64,192,69133,1,0,0:0:0:0:
320,192,69196,1,0,0:0:0:0:
64,192,69259,1,8,0:0:0:0:
448,192,69259,1,8,0:0:0:0:
192,192,69322,1,0,0:0:0:0:
320,192,69385,1,0,0:0:0:0:
448,192,69385,1,0,0:0:0:0:
64,192,69448,1,0,0:0:0:0:
320,192,69511,1,0,2:0:0:0:
192,192,69511,1,0,2:0:0:0:
448,192,69574,1,0,0:0:0:0:
64,192,69637,1,0,0:0:0:0:
192,192,69637,1,0,0:0:0:0:
320,192,69700,1,0,0:0:0:0:
448,192,69700,1,0,0:0:0:0:
64,192,69763,1,8,0:0:0:0:
192,192,69763,1,8,0:0:0:0:
64,192,69826,1,0,0:0:0:0:
320,192,69890,1,0,0:0:0:0:
448,192,69890,1,0,0:0:0:0:
192,192,69953,1,0,0:0:0:0:
64,192,69953,1,0,0:0:0:0:
320,192,70016,1,4,2:2:0:0:
448,192,70016,1,4,2:2:0:0:
448,192,70079,1,0,0:0:0:0:
192,192,70142,1,0,0:0:0:0:
64,192,70142,1,0,0:0:0:0:
320,192,70205,1,0,0:0:0:0:
448,192,70268,1,12,0:0:0:0:
192,192,70268,1,12,0:0:0:0:
64,192,70331,1,0,0:0:0:0:
320,192,70393,1,0,0:0:0:0:
192,192,70393,1,0,0:0:0:0:
448,192,70456,1,0,0:0:0:0:
64,192,70520,1,4,2:2:0:0:
192,192,70551,1,0,0:0:0:0:
320,192,70583,1,0,2:2:0:0:
448,192,70614,1,0,0:0:0:0:
64,192,70646,1,2,2:2:0:0:
192,192,70677,1,0,0:0:0:0:
320,192,70709,1,0,2:0:0:0:
448,192,70740,1,0,0:0:0:0:
64,192,70772,1,10,2:2:0:0:
192,192,70803,1,0,0:0:0:0:
320,192,70835,1,0,0:0:0:0:
448,192,70866,1,0,0:0:0:0:
64,192,70898,1,8,2:2:0:0:
192,192,70930,1,0,0:0:0:0:
320,192,70961,1,8,2:2:0:0:
448,192,70993,1,0,0:0:0:0:
192,192,71024,1,4,2:2:0:0:
64,192,71066,1,0,0:0:0:0:
320,192,71108,1,0,0:0:0:0:
448,192,71150,1,2,0:0:0:0:
192,192,71193,1,0,0:0:0:0:
320,192,71234,1,0,0:0:0:0:
64,192,71276,1,10,2:2:0:0:
192,192,71319,1,0,0:0:0:0:
320,192,71360,1,0,0:0:0:0:
448,192,71403,1,0,0:0:0:0:
192,192,71445,1,0,0:0:0:0:
64,192,71486,1,0,0:0:0:0:
320,192,71529,1,0,0:0:0:0:
448,192,71571,1,0,0:0:0:0:
64,192,71613,1,0,0:0:0:0:
192,192,71655,1,2,0:0:0:0:
320,192,71696,1,0,0:0:0:0:
448,192,71739,1,0,0:0:0:0:
192,192,71781,1,8,0:0:0:0:
64,192,71823,1,0,0:0:0:0:
320,192,71865,1,0,0:0:0:0:
192,192,71907,1,0,0:0:0:0:
448,192,71949,1,0,0:0:0:0:
320,192,71991,1,0,0:0:0:0:
64,192,72033,1,0,0:0:0:0:
192,192,72075,1,0,0:0:0:0:
320,192,72117,1,0,0:0:0:0:
448,192,72160,1,2,0:0:0:0:
192,192,72201,1,0,0:0:0:0:
320,192,72243,1,0,0:0:0:0:
64,192,72286,1,8,0:0:0:0:
192,192,72327,1,0,0:0:0:0:
448,192,72370,1,0,0:0:0:0:
320,192,72411,1,0,0:0:0:0:
192,192,72453,1,0,0:0:0:0:
64,192,72496,1,0,0:0:0:0:
320,192,72537,1,0,0:0:0:0:
448,192,72580,1,0,0:0:0:0:
192,192,72622,1,0,0:0:0:0:
64,192,72663,1,2,0:0:0:0:
320,192,72706,1,0,0:0:0:0:
192,192,72748,1,0,0:0:0:0:
448,192,72790,1,8,0:0:0:0:
320,192,72832,1,0,0:0:0:0:
192,192,72874,1,0,0:0:0:0:
64,192,72916,1,0,0:0:0:0:
320,192,72958,1,0,0:0:0:0:
448,192,73000,1,0,0:0:0:0:
192,192,73042,1,0,0:0:0:0:
320,192,73084,1,0,0:0:0:0:
64,192,73126,1,0,0:0:0:0:
192,192,73168,1,2,0:0:0:0:
320,192,73210,1,0,0:0:0:0:
448,192,73252,1,0,0:0:0:0:
64,192,73294,1,8,0:0:0:0:
192,192,73336,1,0,0:0:0:0:
320,192,73378,1,0,0:0:0:0:
64,192,73420,1,0,0:0:0:0:
192,192,73463,1,0,0:0:0:0:
448,192,73504,1,0,0:0:0:0:
320,192,73546,1,0,0:0:0:0:
192,192,73589,1,0,0:0:0:0:
64,192,73630,1,0,0:0:0:0:
448,192,73673,1,2,0:0:0:0:
320,192,73714,1,0,0:0:0:0:
192,192,73756,1,0,0:0:0:0:
448,192,73799,1,8,0:0:0:0:
320,192,73840,1,0,0:0:0:0:
64,192,73883,1,0,0:0:0:0:
192,192,73925,1,0,0:0:0:0:
320,192,73966,1,0,0:0:0:0:
448,192,74009,1,0,0:0:0:0:
192,192,74051,1,2,0:0:0:0:
64,192,74093,1,0,0:0:0:0:
320,192,74135,1,0,0:0:0:0:
448,192,74177,1,2,0:0:0:0:
192,192,74219,1,0,0:0:0:0:
64,192,74261,1,0,0:0:0:0:
320,192,74303,1,8,0:0:0:0:
448,192,74345,1,0,0:0:0:0:
64,192,74387,1,0,0:0:0:0:
192,192,74429,1,0,0:0:0:0:
320,192,74471,1,0,0:0:0:0:
448,192,74513,1,0,0:0:0:0:
64,192,74555,1,2,0:0:0:0:
192,192,74586,1,0,0:0:0:0:
320,192,74618,1,0,0:0:0:0:
448,192,74650,1,0,0:0:0:0:
64,192,74681,1,2,0:0:0:0:
192,192,74713,1,0,0:0:0:0:
320,192,74744,1,0,0:0:0:0:
448,192,74776,1,0,0:0:0:0:
64,192,74807,1,8,0:0:0:0:
192,192,74839,1,0,0:0:0:0:
320,192,74870,1,0,0:0:0:0:
448,192,74902,1,0,0:0:0:0:
64,192,74933,1,0,2:0:0:0:
192,192,74965,1,0,0:0:0:0:
320,192,74996,1,0,2:0:0:0:
448,192,75028,1,0,0:0:0:0:
64,192,75060,1,4,0:0:0:0:
192,192,75102,1,0,0:0:0:0:
448,192,75143,1,0,0:0:0:0:
320,192,75186,1,2,0:0:0:0:
192,192,75228,1,0,0:0:0:0:
64,192,75270,1,0,0:0:0:0:
320,192,75312,1,8,2:2:0:0:
448,192,75354,1,0,0:0:0:0:
192,192,75396,1,0,0:0:0:0:
64,192,75438,1,0,0:0:0:0:
448,192,75480,1,0,0:0:0:0:
320,192,75522,1,0,0:0:0:0:
192,192,75564,1,0,0:0:0:0:
64,192,75606,1,0,0:0:0:0:
320,192,75648,1,0,0:0:0:0:
192,192,75690,1,2,0:0:0:0:
448,192,75732,1,0,0:0:0:0:
320,192,75774,1,0,0:0:0:0:
64,192,75816,1,8,0:0:0:0:
192,192,75858,1,0,0:0:0:0:
320,192,75900,1,0,0:0:0:0:
448,192,75943,1,0,0:0:0:0:
192,192,75984,1,0,0:0:0:0:
320,192,76026,1,0,0:0:0:0:
64,192,76069,1,0,0:0:0:0:
192,192,76110,1,0,0:0:0:0:
320,192,76153,1,0,0:0:0:0:
448,192,76194,1,2,0:0:0:0:
64,192,76236,1,0,0:0:0:0:
192,192,76279,1,0,0:0:0:0:
320,192,76320,1,8,0:0:0:0:
64,192,76363,1,0,0:0:0:0:
192,192,76405,1,0,0:0:0:0:
448,192,76446,1,0,0:0:0:0:
320,192,76489,1,0,0:0:0:0:
192,192,76531,1,0,0:0:0:0:
64,192,76573,1,0,0:0:0:0:
448,192,76615,1,0,0:0:0:0:
320,192,76657,1,0,0:0:0:0:
192,192,76699,1,2,0:0:0:0:
448,192,76741,1,0,0:0:0:0:
320,192,76783,1,0,0:0:0:0:
64,192,76825,1,8,0:0:0:0:
192,192,76867,1,0,0:0:0:0:
320,192,76909,1,0,0:0:0:0:
448,192,76951,1,0,0:0:0:0:
192,192,76993,1,0,0:0:0:0:
64,192,77035,1,0,0:0:0:0:
320,192,77077,1,2,0:0:0:0:
192,192,77120,1,0,0:0:0:0:
448,192,77161,1,0,0:0:0:0:
320,192,77203,1,0,0:0:0:0:
64,192,77246,1,0,0:0:0:0:
192,192,77287,1,0,0:0:0:0:
320,192,77330,1,8,0:0:0:0:
448,192,77372,1,0,0:0:0:0:
192,192,77413,1,0,0:0:0:0:
320,192,77456,1,0,0:0:0:0:
64,192,77497,1,0,0:0:0:0:
192,192,77540,1,0,0:0:0:0:
320,192,77582,1,2,0:0:0:0:
448,192,77623,1,0,0:0:0:0:
192,192,77666,1,0,0:0:0:0:
64,192,77708,1,2,0:0:0:0:
320,192,77750,1,0,0:0:0:0:
448,192,77792,1,0,0:0:0:0:
192,192,77834,1,8,0:0:0:0:
64,192,77876,1,0,0:0:0:0:
448,192,77918,1,0,0:0:0:0:
320,192,77960,1,2,0:1:0:0:
192,192,78002,1,0,0:0:0:0:
64,192,78044,1,0,0:0:0:0:
320,192,78086,1,0,0:0:0:0:
192,192,78128,1,0,0:0:0:0:
448,192,78170,1,0,0:0:0:0:
320,192,78212,1,0,0:0:0:0:
64,192,78254,1,0,0:0:0:0:
192,192,78296,1,0,0:0:0:0:
448,192,78338,1,10,0:0:0:0:
320,192,78370,1,0,0:0:0:0:
192,192,78401,1,0,0:0:0:0:
64,192,78433,1,0,0:0:0:0:
448,192,78464,1,2,0:1:0:0:
320,192,78496,1,0,0:0:0:0:
192,192,78527,1,0,0:0:0:0:
64,192,78559,1,0,0:0:0:0:
448,192,78590,1,2,2:2:0:0:
320,192,78622,1,0,0:0:0:0:
192,192,78653,1,0,0:0:0:0:
64,192,78685,1,0,0:0:0:0:
448,192,78716,1,0,2:0:0:0:
320,192,78748,1,0,0:0:0:0:
192,192,78780,1,0,0:0:0:0:
64,192,78811,1,0,0:0:0:0:
448,192,78843,1,10,2:2:0:0:
320,192,78874,1,0,0:0:0:0:
192,192,78906,1,0,0:0:0:0:
64,192,78937,1,0,0:0:0:0:
448,192,78969,1,8,0:0:0:0:
320,192,79000,1,0,0:0:0:0:
192,192,79032,1,8,0:0:0:0:
64,192,79063,1,0,0:0:0:0:
320,192,79095,1,4,0:0:0:0:
448,192,79137,1,0,0:0:0:0:
192,192,79179,1,0,0:0:0:0:
320,192,79221,1,2,0:0:0:0:
64,192,79263,1,0,0:0:0:0:
192,192,79305,1,0,0:0:0:0:
320,192,79347,1,8,2:2:0:0:
448,192,79389,1,0,0:0:0:0:
192,192,79431,1,0,0:0:0:0:
64,192,79473,1,0,0:0:0:0:
320,192,79515,1,0,0:0:0:0:
192,192,79557,1,0,0:0:0:0:
448,192,79600,1,0,0:0:0:0:
320,192,79641,1,0,0:0:0:0:
192,192,79683,1,0,0:0:0:0:
64,192,79726,1,2,0:0:0:0:
320,192,79767,1,0,0:0:0:0:
448,192,79810,1,0,0:0:0:0:
192,192,79852,1,8,0:0:0:0:
64,192,79893,1,0,0:0:0:0:
320,192,79936,1,0,0:0:0:0:
192,192,79978,1,0,0:0:0:0:
448,192,80020,1,0,0:0:0:0:
320,192,80062,1,0,0:0:0:0:
64,192,80103,1,0,0:0:0:0:
192,192,80146,1,0,0:0:0:0:
320,192,80188,1,0,0:0:0:0:
64,192,80230,1,2,0:0:0:0:
192,192,80272,1,0,0:0:0:0:
448,192,80314,1,0,0:0:0:0:
320,192,80356,1,8,0:0:0:0:
192,192,80398,1,0,0:0:0:0:
64,192,80440,1,0,0:0:0:0:
448,192,80482,1,0,0:0:0:0:
320,192,80524,1,0,0:0:0:0:
192,192,80566,1,0,0:0:0:0:
448,192,80608,1,0,0:0:0:0:
320,192,80650,1,0,0:0:0:0:
64,192,80692,1,0,0:0:0:0:
192,192,80734,1,2,0:0:0:0:
320,192,80776,1,0,0:0:0:0:
448,192,80818,1,0,0:0:0:0:
192,192,80860,1,8,0:0:0:0:
320,192,80903,1,0,0:0:0:0:
64,192,80944,1,0,0:0:0:0:
192,192,80986,1,0,0:0:0:0:
320,192,81029,1,0,0:0:0:0:
448,192,81070,1,0,0:0:0:0:
192,192,81113,1,0,0:0:0:0:
64,192,81155,1,0,0:0:0:0:
320,192,81196,1,0,0:0:0:0:
192,192,81239,1,2,0:0:0:0:
64,192,81281,1,0,0:0:0:0:
448,192,81323,1,0,0:0:0:0:
320,192,81365,1,8,0:0:0:0:
192,192,81406,1,0,0:0:0:0:
64,192,81449,1,0,0:0:0:0:
320,192,81491,1,0,0:0:0:0:
448,192,81533,1,0,0:0:0:0:
192,192,81575,1,0,0:0:0:0:
320,192,81617,1,0,0:0:0:0:
448,192,81659,1,0,0:0:0:0:
64,192,81701,1,0,0:0:0:0:
192,192,81743,1,2,0:0:0:0:
320,192,81785,1,0,0:0:0:0:
448,192,81827,1,0,0:0:0:0:
320,192,81870,1,8,0:0:0:0:
192,192,81911,1,0,0:0:0:0:
64,192,81953,1,0,0:0:0:0:
192,192,81995,1,0,0:0:0:0:
320,192,82037,1,0,0:0:0:0:
448,192,82080,1,0,0:0:0:0:
192,192,82121,1,2,0:0:0:0:
64,192,82163,1,0,0:0:0:0:
320,192,82206,1,0,0:0:0:0:
448,192,82247,1,2,0:0:0:0:
192,192,82290,1,0,0:0:0:0:
64,192,82332,1,0,0:0:0:0:
320,192,82373,1,8,0:0:0:0:
448,192,82416,1,0,0:0:0:0:
192,192,82458,1,0,0:0:0:0:
64,192,82500,1,0,0:0:0:0:
448,192,82542,1,0,0:0:0:0:
320,192,82583,1,0,0:0:0:0:
64,192,82626,1,0,0:0:0:0:
192,192,82668,1,0,0:0:0:0:
448,192,82710,1,0,0:0:0:0:
320,192,82752,1,0,2:0:0:0:
64,192,82794,1,0,0:0:0:0:
192,192,82836,1,0,0:0:0:0:
448,192,82878,1,8,0:0:0:0:
320,192,82920,1,0,0:0:0:0:
64,192,82962,1,0,0:0:0:0:
192,192,83004,1,0,0:0:0:0:
320,192,83046,1,0,0:0:0:0:
448,192,83088,1,0,0:0:0:0:
64,192,83130,128,0,83193:0:0:0:0:
192,192,83130,128,0,83193:0:0:0:0:
320,192,83193,128,0,83256:0:0:0:0:
448,192,83256,128,0,83320:0:0:0:0:
192,192,83320,128,0,83383:0:0:0:0:
64,192,83383,128,0,83446:0:0:0:0:
320,192,83383,128,0,83446:0:0:0:0:
448,192,83446,128,0,83509:0:0:0:0:
192,192,83509,128,0,83572:0:0:0:0:
64,192,83572,128,8,83635:0:0:0:0:
320,192,83635,128,0,83698:0:0:0:0:
448,192,83635,128,0,83698:0:0:0:0:
192,192,83698,128,0,83761:0:0:0:0:
64,192,83761,128,0,83824:0:0:0:0:
320,192,83824,128,0,83886:0:0:0:0:
448,192,83886,128,0,83950:0:0:0:0:
192,192,83886,128,0,83950:0:0:0:0:
64,192,83950,128,0,84013:0:0:0:0:
320,192,84013,128,0,84076:0:0:0:0:
448,192,84076,128,2,84139:0:0:0:0:
192,192,84139,128,0,84202:0:0:0:0:
64,192,84139,128,0,84202:0:0:0:0:
320,192,84202,128,0,84265:0:0:0:0:
448,192,84265,128,0,84328:0:0:0:0:
192,192,84328,128,0,84391:0:0:0:0:
64,192,84328,128,0,84391:0:0:0:0:
320,192,84391,128,0,84454:0:0:0:0:
448,192,84454,128,0,84517:0:0:0:0:
192,192,84517,128,0,84580:0:0:0:0:
320,192,84580,128,8,84643:0:0:0:0:
64,192,84580,128,8,84643:0:0:0:0:
448,192,84643,128,0,84706:0:0:0:0:
192,192,84706,128,0,84770:0:0:0:0:
64,192,84770,128,0,84833:0:0:0:0:
448,192,84833,128,0,84896:0:0:0:0:
320,192,84896,128,0,84959:0:0:0:0:
192,192,84896,128,0,84959:0:0:0:0:
64,192,84959,128,0,85022:0:0:0:0:
448,192,85022,128,0,85085:0:0:0:0:
64,192,85148,1,4,2:2:0:0:
192,192,85180,1,0,0:0:0:0:
320,192,85211,1,0,0:0:0:0:
448,192,85243,1,0,0:0:0:0:
64,192,85274,1,0,0:0:0:0:
192,192,85306,1,0,0:0:0:0:
320,192,85337,1,0,0:0:0:0:
448,192,85369,1,0,0:0:0:0:
64,192,85400,1,0,0:0:0:0:
192,192,85432,1,0,0:0:0:0:
320,192,85463,1,0,0:0:0:0:
448,192,85495,1,0,0:0:0:0:
64,192,85526,1,0,0:0:0:0:
192,192,85558,1,0,0:0:0:0:
320,192,85590,1,0,0:0:0:0:
448,192,85621,1,0,0:0:0:0:
64,192,85653,1,0,0:0:0:0:
192,192,85684,1,0,0:0:0:0:
320,192,85716,1,0,0:0:0:0:
448,192,85747,1,0,0:0:0:0:
64,192,85778,1,0,0:0:0:0:
192,192,85810,1,0,0:0:0:0:
320,192,85841,1,0,0:0:0:0:
448,192,85873,1,0,0:0:0:0:
64,192,85904,1,0,0:0:0:0:
192,192,85936,1,0,0:0:0:0:
320,192,85967,1,0,0:0:0:0:
448,192,85999,1,0,0:0:0:0:
64,192,86030,1,0,0:0:0:0:
192,192,86062,1,0,0:0:0:0:
320,192,86093,1,0,0:0:0:0:
448,192,86125,1,0,0:0:0:0:
64,192,86156,1,8,2:2:0:0:
192,192,86220,1,0,0:0:0:0:
448,192,86283,1,0,2:0:0:0:
64,192,86283,1,0,2:0:0:0:
320,192,86346,1,0,2:0:0:0:
64,192,86409,1,0,2:0:0:0:
448,192,86409,1,0,2:0:0:0:
192,192,86472,1,0,0:0:0:0:
448,192,86535,1,8,2:2:0:0:
320,192,86566,1,0,0:0:0:0:
192,192,86598,1,0,0:0:0:0:
64,192,86630,1,0,0:0:0:0:
448,192,86661,1,0,2:0:0:0:
320,192,86693,1,0,0:0:0:0:
192,192,86724,1,0,2:0:0:0:
64,192,86756,1,0,0:0:0:0:
448,192,86787,1,0,2:0:0:0:
320,192,86819,1,0,0:0:0:0:
192,192,86850,1,0,0:0:0:0:
64,192,86882,1,0,0:0:0:0:
448,192,86913,1,8,2:2:0:0:
320,192,86945,1,0,0:0:0:0:
192,192,86976,1,0,0:0:0:0:
64,192,87008,1,0,0:0:0:0:
448,192,87040,1,4,2:2:0:0:
320,192,87071,1,0,0:0:0:0:
192,192,87103,1,0,0:0:0:0:
64,192,87134,1,0,0:0:0:0:
320,192,87166,1,0,0:0:0:0:
448,192,87207,1,0,0:0:0:0:
192,192,87250,1,0,0:0:0:0:
64,192,87292,1,0,2:0:0:0:
448,192,87333,1,0,0:0:0:0:
320,192,87376,1,0,0:0:0:0:
192,192,87418,1,8,0:0:0:0:
64,192,87460,1,0,0:0:0:0:
192,192,87502,1,0,0:0:0:0:
320,192,87544,1,0,0:0:0:0:
448,192,87586,1,0,0:0:0:0:
64,192,87628,1,0,0:0:0:0:
192,192,87670,1,0,2:0:0:0:
320,192,87712,1,0,0:0:0:0:
448,192,87754,1,0,0:0:0:0:
320,192,87796,1,0,2:0:0:0:
192,192,87838,1,0,0:0:0:0:
64,192,87880,1,0,0:0:0:0:
448,192,87922,1,8,0:0:0:0:
320,192,87964,1,0,0:0:0:0:
192,192,88006,1,0,0:0:0:0:
64,192,88048,1,0,2:0:0:0:
320,192,88090,1,0,0:0:0:0:
448,192,88133,1,0,0:0:0:0:
64,192,88174,1,0,2:0:0:0:
192,192,88216,1,0,0:0:0:0:
320,192,88259,1,0,0:0:0:0:
448,192,88300,1,0,2:0:0:0:
64,192,88343,1,0,0:0:0:0:
192,192,88384,1,0,0:0:0:0:
320,192,88426,1,8,0:0:0:0:
64,192,88469,1,0,0:0:0:0:
192,192,88510,1,0,0:0:0:0:
448,192,88553,1,0,2:0:0:0:
320,192,88595,1,0,0:0:0:0:
192,192,88636,1,0,0:0:0:0:
64,192,88679,1,0,2:0:0:0:
448,192,88721,1,0,0:0:0:0:
320,192,88763,1,0,0:0:0:0:
192,192,88805,1,0,2:0:0:0:
448,192,88847,1,0,0:0:0:0:
320,192,88889,1,0,0:0:0:0:
64,192,88931,1,8,0:0:0:0:
192,192,88973,1,0,0:0:0:0:
448,192,89015,1,0,0:0:0:0:
320,192,89057,1,0,2:0:0:0:
192,192,89099,1,0,0:0:0:0:
64,192,89141,1,0,0:0:0:0:
320,192,89183,1,0,0:0:0:0:
448,192,89225,1,0,0:0:0:0:
192,192,89267,1,0,0:0:0:0:
320,192,89310,1,0,2:0:0:0:
448,192,89351,1,0,0:0:0:0:
64,192,89393,1,0,0:0:0:0:
192,192,89436,1,8,0:0:0:0:
320,192,89477,1,0,0:0:0:0:
448,192,89520,1,0,0:0:0:0:
192,192,89562,1,0,2:0:0:0:
64,192,89603,1,0,0:0:0:0:
320,192,89646,1,0,0:0:0:0:
192,192,89687,1,0,2:0:0:0:
64,192,89730,1,0,0:0:0:0:
448,192,89772,1,0,0:0:0:0:
320,192,89813,1,0,2:0:0:0:
192,192,89856,1,0,0:0:0:0:
64,192,89898,1,0,0:0:0:0:
320,192,89940,1,8,0:0:0:0:
448,192,89982,1,0,0:0:0:0:
192,192,90024,1,0,0:0:0:0:
320,192,90066,1,0,2:0:0:0:
64,192,90108,1,0,0:0:0:0:
192,192,90150,1,0,0:0:0:0:
448,192,90192,1,0,2:0:0:0:
320,192,90234,1,0,0:0:0:0:
192,192,90276,1,0,0:0:0:0:
64,192,90318,1,8,2:2:0:0:
320,192,90360,1,0,0:0:0:0:
192,192,90402,1,0,0:0:0:0:
448,192,90444,1,8,0:0:0:0:
320,192,90486,1,0,0:0:0:0:
192,192,90528,1,0,0:0:0:0:
64,192,90570,1,0,2:0:0:0:
320,192,90613,1,0,0:0:0:0:
448,192,90654,1,0,0:0:0:0:
64,192,90696,1,8,0:0:0:0:
192,192,90728,1,0,0:0:0:0:
320,192,90760,1,0,2:0:0:0:
448,192,90791,1,0,0:0:0:0:
64,192,90823,1,0,2:0:0:0:
192,192,90854,1,0,0:0:0:0:
320,192,90886,1,0,0:0:0:0:
448,192,90917,1,0,0:0:0:0:
64,192,90949,1,8,2:2:0:0:
192,192,90980,1,0,0:0:0:0:
320,192,91012,1,0,2:0:0:0:
448,192,91043,1,0,0:0:0:0:
64,192,91075,1,4,2:2:0:0:
192,192,91106,1,0,0:0:0:0:
320,192,91138,1,0,0:0:0:0:
448,192,91170,1,0,0:0:0:0:
192,192,91201,1,0,0:0:0:0:
64,192,91243,1,0,0:0:0:0:
320,192,91285,1,0,0:0:0:0:
192,192,91327,1,0,2:0:0:0:
448,192,91369,1,0,0:0:0:0:
320,192,91411,1,0,0:0:0:0:
192,192,91453,1,8,0:0:0:0:
64,192,91495,1,0,0:0:0:0:
320,192,91537,1,0,0:0:0:0:
448,192,91579,1,0,2:0:0:0:
192,192,91621,1,0,0:0:0:0:
320,192,91663,1,0,0:0:0:0:
64,192,91705,1,0,2:0:0:0:
192,192,91747,1,0,0:0:0:0:
320,192,91790,1,0,0:0:0:0:
448,192,91831,1,0,2:0:0:0:
64,192,91873,1,0,0:0:0:0:
192,192,91916,1,0,0:0:0:0:
320,192,91957,1,8,0:0:0:0:
448,192,92000,1,0,0:0:0:0:
64,192,92042,1,0,0:0:0:0:
192,192,92083,1,0,2:0:0:0:
320,192,92126,1,0,0:0:0:0:
64,192,92168,1,0,0:0:0:0:
192,192,92210,1,0,2:0:0:0:
448,192,92252,1,0,0:0:0:0:
320,192,92293,1,0,0:0:0:0:
192,192,92336,1,0,2:0:0:0:
448,192,92378,1,0,0:0:0:0:
320,192,92420,1,0,0:0:0:0:
64,192,92462,1,8,0:0:0:0:
192,192,92504,1,0,0:0:0:0:
320,192,92546,1,0,0:0:0:0:
448,192,92588,1,0,2:0:0:0:
192,192,92630,1,0,0:0:0:0:
320,192,92672,1,0,0:0:0:0:
64,192,92714,1,0,2:0:0:0:
192,192,92756,1,0,0:0:0:0:
320,192,92798,1,0,0:0:0:0:
448,192,92840,1,0,2:0:0:0:
192,192,92882,1,0,0:0:0:0:
64,192,92924,1,0,0:0:0:0:
320,192,92966,1,8,0:0:0:0:
192,192,93008,1,0,0:0:0:0:
448,192,93050,1,0,0:0:0:0:
320,192,93093,1,0,2:0:0:0:
64,192,93134,1,0,0:0:0:0:
192,192,93176,1,0,0:0:0:0:
320,192,93219,1,0,0:0:0:0:
448,192,93260,1,0,0:0:0:0:
192,192,93303,1,0,0:0:0:0:
64,192,93345,1,0,2:0:0:0:
448,192,93386,1,0,0:0:0:0:
320,192,93429,1,0,0:0:0:0:
192,192,93470,1,8,0:0:0:0:
64,192,93513,1,0,0:0:0:0:
320,192,93555,1,0,0:0:0:0:
192,192,93596,1,0,2:0:0:0:
448,192,93639,1,0,0:0:0:0:
320,192,93681,1,0,0:0:0:0:
192,192,93723,1,0,2:0:0:0:
64,192,93765,1,0,0:0:0:0:
320,192,93807,1,0,0:0:0:0:
448,192,93849,1,0,0:0:0:0:
192,192,93891,1,0,0:0:0:0:
320,192,93933,1,0,0:0:0:0:
64,192,93975,1,0,0:0:0:0:
192,192,94017,1,0,0:0:0:0:
320,192,94060,1,0,0:0:0:0:
448,192,94101,1,0,0:0:0:0:
192,192,94143,1,0,0:0:0:0:
64,192,94185,1,0,0:0:0:0:
448,192,94227,1,0,0:0:0:0:
320,192,94227,1,0,0:0:0:0:
192,192,94290,1,0,0:0:0:0:
320,192,94353,1,0,0:0:0:0:
448,192,94353,1,0,0:0:0:0:
192,192,94416,1,0,0:0:0:0:
64,192,94416,1,0,0:0:0:0:
448,192,94480,1,0,0:0:0:0:
320,192,94480,1,0,0:0:0:0:
192,192,94543,1,0,0:0:0:0:
64,192,94543,1,0,0:0:0:0:
320,192,94606,1,0,0:0:0:0:
448,192,94606,1,0,0:0:0:0:
192,192,94669,1,0,0:0:0:0:
64,192,94669,1,0,0:0:0:0:
320,192,94732,1,0,0:0:0:0:
192,192,94795,1,0,0:0:0:0:
64,192,94795,1,0,0:0:0:0:
448,192,94858,1,0,2:0:0:0:
320,192,94858,1,0,0:0:0:0:
192,192,94921,1,0,0:0:0:0:
448,192,94984,1,0,2:0:0:0:
320,192,94984,1,0,0:0:0:0:
192,192,95047,1,0,0:0:0:0:
64,192,95047,1,0,0:0:0:0:
320,192,95110,1,0,0:0:0:0:
192,192,95173,1,0,0:0:0:0:
64,192,95173,1,0,0:0:0:0:
448,192,95236,1,4,2:2:0:0:
320,192,95236,1,0,0:0:0:0:
192,192,95300,1,0,0:0:0:0:
64,192,95363,1,0,0:0:0:0:
320,192,95363,1,0,0:0:0:0:
448,192,95425,1,0,0:0:0:0:
64,192,95488,1,8,0:0:0:0:
192,192,95520,1,0,0:0:0:0:
320,192,95551,1,0,0:0:0:0:
448,192,95583,1,0,0:0:0:0:
64,192,95614,1,0,0:0:0:0:
320,192,95677,1,0,0:0:0:0:
192,192,95740,1,0,0:0:0:0:
448,192,95740,1,0,0:0:0:0:
320,192,95803,1,0,0:0:0:0:
192,192,95866,1,0,0:0:0:0:
64,192,95930,1,0,0:0:0:0:
448,192,95993,1,8,0:0:0:0:
320,192,96024,1,0,0:0:0:0:
192,192,96056,1,0,0:0:0:0:
64,192,96087,1,0,0:0:0:0:
448,192,96119,1,0,0:0:0:0:
320,192,96182,1,0,0:0:0:0:
64,192,96245,1,2,0:0:0:0:
192,192,96245,1,2,0:0:0:0:
448,192,96308,1,0,0:0:0:0:
320,192,96371,1,0,0:0:0:0:
192,192,96371,1,0,0:0:0:0:
448,192,96434,1,0,0:0:0:0:
64,192,96497,1,10,0:0:0:0:
192,192,96529,1,0,0:0:0:0:
320,192,96560,1,0,0:0:0:0:
448,192,96592,1,0,0:0:0:0:
64,192,96623,1,0,0:0:0:0:
192,192,96686,1,0,0:0:0:0:
64,192,96750,1,2,0:0:0:0:
448,192,96750,1,2,0:0:0:0:
320,192,96813,1,0,0:0:0:0:
192,192,96876,1,0,0:0:0:0:
448,192,96876,1,0,0:0:0:0:
64,192,96939,1,0,0:0:0:0:
448,192,97002,1,10,0:0:0:0:
320,192,97033,1,0,0:0:0:0:
192,192,97065,1,0,0:0:0:0:
64,192,97096,1,0,0:0:0:0:
448,192,97128,1,0,0:0:0:0:
320,192,97191,1,0,0:0:0:0:
448,192,97254,1,2,0:0:0:0:
64,192,97254,1,2,0:0:0:0:
192,192,97316,1,0,0:0:0:0:
320,192,97380,1,0,0:0:0:0:
64,192,97380,1,0,0:0:0:0:
448,192,97443,1,0,0:0:0:0:
64,192,97506,1,8,0:0:0:0:
192,192,97537,1,0,0:0:0:0:
320,192,97569,1,0,0:0:0:0:
448,192,97600,1,0,0:0:0:0:
64,192,97632,1,0,0:0:0:0:
192,192,97695,1,0,0:0:0:0:
320,192,97758,1,2,0:0:0:0:
448,192,97758,1,2,0:0:0:0:
64,192,97821,1,0,0:0:0:0:
320,192,97884,1,0,0:0:0:0:
192,192,97884,1,0,0:0:0:0:
64,192,97947,1,0,0:0:0:0:
448,192,98010,1,8,0:0:0:0:
320,192,98042,1,0,0:0:0:0:
192,192,98073,1,0,0:0:0:0:
64,192,98105,1,0,0:0:0:0:
448,192,98136,1,4,0:0:0:0:
320,192,98200,1,0,2:0:0:0:
64,192,98263,1,2,0:0:0:0:
192,192,98263,1,2,0:0:0:0:
320,192,98326,1,0,0:0:0:0:
448,192,98389,1,0,0:0:0:0:
192,192,98389,1,0,0:0:0:0:
320,192,98452,1,0,0:0:0:0:
64,192,98515,1,8,0:0:0:0:
192,192,98515,1,0,0:0:0:0:
320,192,98578,1,0,0:0:0:0:
448,192,98578,1,0,0:0:0:0:
192,192,98641,1,0,0:0:0:0:
320,192,98704,1,0,0:0:0:0:
448,192,98704,1,0,0:0:0:0:
64,192,98767,1,2,0:0:0:0:
192,192,98767,1,0,0:0:0:0:
320,192,98830,1,0,0:0:0:0:
192,192,98893,1,0,0:0:0:0:
64,192,98893,1,0,0:0:0:0:
320,192,98956,1,0,0:0:0:0:
448,192,98956,1,0,0:0:0:0:
192,192,99020,1,0,0:0:0:0:
320,192,99083,1,0,0:0:0:0:
448,192,99083,1,0,0:0:0:0:
64,192,99146,1,8,0:0:0:0:
192,192,99146,1,0,0:0:0:0:
320,192,99209,1,0,2:0:0:0:
448,192,99209,1,0,0:0:0:0:
64,192,99271,1,4,0:0:0:0:
192,192,99271,1,0,0:0:0:0:
320,192,99334,1,0,0:0:0:0:
192,192,99397,1,0,0:0:0:0:
64,192,99460,1,0,0:0:0:0:
448,192,99523,1,8,0:0:0:0:
320,192,99555,1,0,0:0:0:0:
192,192,99586,1,0,0:0:0:0:
64,192,99618,1,0,0:0:0:0:
448,192,99650,1,0,0:0:0:0:
320,192,99713,1,0,0:0:0:0:
64,192,99776,1,0,0:0:0:0:
192,192,99776,1,0,0:0:0:0:
448,192,99839,1,0,0:0:0:0:
320,192,99902,1,0,0:0:0:0:
192,192,99902,1,0,0:0:0:0:
448,192,99965,1,0,0:0:0:0:
64,192,100028,1,8,0:0:0:0:
192,192,100060,1,0,0:0:0:0:
320,192,100091,1,0,0:0:0:0:
448,192,100123,1,0,0:0:0:0:
64,192,100154,1,0,0:0:0:0:
192,192,100217,1,0,0:0:0:0:
448,192,100280,1,2,0:0:0:0:
64,192,100280,1,2,0:0:0:0:
320,192,100343,1,0,0:0:0:0:
192,192,100406,1,8,0:0:0:0:
448,192,100406,1,8,0:0:0:0:
64,192,100470,1,0,0:0:0:0:
448,192,100533,1,8,0:0:0:0:
320,192,100564,1,0,0:0:0:0:
192,192,100596,1,0,0:0:0:0:
64,192,100627,1,0,0:0:0:0:
448,192,100659,1,0,2:0:0:0:
320,192,100659,1,0,2:0:0:0:
192,192,100722,1,0,0:0:0:0:
64,192,100722,1,0,0:0:0:0:
448,192,100785,1,10,0:0:0:0:
320,192,100816,1,0,0:0:0:0:
192,192,100848,1,0,0:0:0:0:
64,192,100880,1,0,0:0:0:0:
448,192,100911,1,0,0:0:0:0:
320,192,100943,1,0,0:0:0:0:
192,192,100974,1,0,0:0:0:0:
64,192,101006,1,0,0:0:0:0:
448,192,101037,1,0,2:0:0:0:
320,192,101069,1,0,0:0:0:0:
192,192,101100,1,0,0:0:0:0:
64,192,101132,1,0,0:0:0:0:
448,192,101163,1,8,0:0:0:0:
320,192,101194,1,0,0:0:0:0:
192,192,101226,1,0,0:0:0:0:
64,192,101257,1,0,0:0:0:0:
448,192,101289,1,4,0:0:0:0:
320,192,101289,1,4,0:0:0:0:
320,192,101415,1,0,0:0:0:0:
448,192,101415,1,0,0:0:0:0:
192,192,101541,1,0,0:0:0:0:
320,192,101541,1,0,0:0:0:0:
448,192,101541,1,0,0:0:0:0:
64,192,101667,1,0,0:0:0:0:
320,192,101667,1,0,0:0:0:0:
64,192,101793,1,0,0:0:0:0:
192,192,101793,1,0,0:0:0:0:
320,192,101793,1,0,0:0:0:0:
192,192,101920,1,0,0:0:0:0:
448,192,101920,1,0,0:0:0:0:
448,192,102046,1,0,0:0:0:0:
320,192,102046,1,0,0:0:0:0:
192,192,102046,1,0,0:0:0:0:
192,192,102172,1,0,0:0:0:0:
320,192,102172,1,0,0:0:0:0:
64,192,102298,1,0,0:0:0:0:
320,192,102298,1,0,0:0:0:0:
448,192,102298,1,0,0:0:0:0:
192,192,102424,1,0,0:0:0:0:
320,192,102424,1,0,0:0:0:0:
64,192,102550,1,0,0:0:0:0:
192,192,102550,1,0,0:0:0:0:
448,192,102550,1,0,0:0:0:0:
64,192,102676,1,0,0:0:0:0:
192,192,102676,1,0,0:0:0:0:
448,192,102803,1,0,0:0:0:0:
320,192,102803,1,0,0:0:0:0:
192,192,102803,1,0,0:0:0:0:
320,192,102929,1,0,0:0:0:0:
448,192,102929,1,0,0:0:0:0:
64,192,103055,1,0,0:0:0:0:
192,192,103055,1,0,0:0:0:0:
320,192,103055,1,0,0:0:0:0:
64,192,103180,1,0,0:0:0:0:
192,192,103180,1,0,0:0:0:0:
448,192,103306,128,0,103433:0:0:0:0:
64,192,103306,1,0,0:0:0:0:
192,192,103306,1,0,0:0:0:0:
320,192,103433,128,0,103559:0:0:0:0:
448,192,103559,1,0,0:0:0:0:
192,192,103559,128,0,103685:0:0:0:0:
64,192,103685,128,0,103811:0:0:0:0:
448,192,103685,128,0,103811:0:0:0:0:
320,192,103811,128,0,103937:0:0:0:0:
192,192,103811,1,0,0:0:0:0:
192,192,103937,128,0,104063:0:0:0:0:
64,192,104063,128,0,104190:0:0:0:0:
448,192,104063,128,0,104190:0:0:0:0:
320,192,104063,1,0,0:0:0:0:
320,192,104190,128,0,104316:0:0:0:0:
192,192,104316,128,0,104442:0:0:0:0:
448,192,104316,1,0,0:0:0:0:
64,192,104442,128,0,104568:0:0:0:0:
448,192,104442,128,0,104568:0:0:0:0:
320,192,104568,128,0,104694:0:0:0:0:
192,192,104568,1,0,0:0:0:0:
192,192,104694,128,6,104820:0:0:0:0:
64,192,104820,128,0,104946:0:0:0:0:
320,192,104820,1,6,0:1:0:0:
448,192,104946,128,4,105324:0:0:0:0:
192,192,104946,1,0,0:0:0:0:
64,192,105324,128,0,105450:0:0:0:0:
192,192,105324,1,4,2:2:0:0:
320,192,105450,128,0,105576:0:0:0:0:
192,192,105576,128,0,105703:0:0:0:0:
448,192,105576,1,0,0:0:0:0:
320,192,105703,128,0,105955:0:0:0:0:
64,192,105703,1,0,0:0:0:0:
64,192,105955,128,0,106207:0:0:0:0:
192,192,105955,1,0,0:0:0:0:
448,192,106207,128,0,114530:0:0:0:0:
320,192,106207,1,0,0:0:0:0:
192,192,106207,128,0,111756:0:0:0:0:
