osu file format v14

[General]
AudioFilename: audio_1.1_P.mp3
AudioLeadIn: 0
PreviewTime: 83269
Countdown: 0
SampleSet: None
StackLeniency: 0.5
Mode: 3
LetterboxInBreaks: 0
SpecialStyle: 0
WidescreenStoryboard: 1

[Editor]
Bookmarks: 55324,83343,98245,112553
DistanceSpacing: 0.8
BeatDivisor: 4
GridSize: 4
TimelineZoom: 1.999999

[Metadata]
Title:Watashitachi wa Mirai no Hana
TitleUnicode:私たちは未来の花
Artist:Sonoda Umi (CV.Mimori Suzuko)
ArtistUnicode:園田海未(CV.三森すずこ)
Creator:DakkyChan
Version:Dakky's Love Arrow Shoot x1.1
Source:ラブライブ! School idol project
Tags:Love Live 海色少女に魅せられて μ's u's 7odoa
BeatmapID:1864819
BeatmapSetID:803990

[Difficulty]
HPDrainRate:7
CircleSize:4
OverallDifficulty:8
ApproachRate:9.3
SliderMultiplier:1.8
SliderTickRate:1

[Events]
//Background and Video events
0,0,"BG Umi.jpg",0,0
//Break Periods
//Storyboard Layer 0 (Background)
//Storyboard Layer 1 (Fail)
//Storyboard Layer 2 (Pass)
//Storyboard Layer 3 (Foreground)
//Storyboard Sound Samples

[TimingPoints]
3680,826.446280991735,4,2,10,55,1,0
3680,-36.101083032491,4,2,10,55,0,0
6159,-36.101083032491,4,2,10,55,0,0
13597,298.06259314456,4,2,1,70,1,0
83938,-100,4,2,10,100,0,1
98246,-100,4,2,1,100,0,0
103015,-100,4,2,10,100,0,1
112553,-100,4,2,1,100,0,0

[Colours]
Combo1 : 255,128,128
Combo2 : 128,128,255
Combo3 : 0,128,192
Combo4 : 255,128,255

[HitObjects]
64,192,6159,128,0,6572:0:0:0:0:
192,192,6159,128,0,6986:0:0:0:0:
448,192,6159,1,0,0:0:0:0:
320,192,6159,1,0,0:0:0:0:
448,192,6572,128,0,6986:0:0:0:0:
320,192,6572,1,0,0:0:0:0:
64,192,6986,128,0,7812:0:0:0:0:
320,192,6986,1,0,0:0:0:0:
448,192,7192,1,0,0:0:0:0:
320,192,7399,128,0,8226:0:0:0:0:
448,192,7399,1,0,0:0:0:0:
192,192,7606,1,0,0:0:0:0:
448,192,7812,128,0,8639:0:0:0:0:
192,192,7812,1,0,0:0:0:0:
64,192,8019,1,0,0:0:0:0:
192,192,8226,128,0,9052:0:0:0:0:
64,192,8226,1,0,0:0:0:0:
320,192,8432,1,0,0:0:0:0:
64,192,8639,128,8,9465:0:0:0:0:
320,192,8639,1,0,0:0:0:0:
448,192,8845,1,0,0:0:0:0:
320,192,9052,128,0,9879:0:0:0:0:
448,192,9052,1,0,0:0:0:0:
192,192,9259,1,0,0:0:0:0:
448,192,9465,128,4,10291:0:0:0:0:
192,192,9465,1,8,0:0:0:0:
64,192,9671,1,0,0:0:0:0:
192,192,9879,128,0,10705:0:0:0:0:
64,192,9879,1,0,0:0:0:0:
320,192,10085,1,0,0:0:0:0:
64,192,10291,128,8,11118:0:0:0:0:
320,192,10291,1,4,0:0:0:0:
448,192,10499,1,0,0:0:0:0:
320,192,10705,128,0,13598:0:0:0:0:
448,192,10705,1,0,0:0:0:0:
192,192,10911,1,0,0:0:0:0:
448,192,11118,128,0,13184:0:0:0:0:
192,192,11118,1,8,0:0:0:0:
64,192,11325,1,0,0:0:0:0:
192,192,11531,128,0,13598:0:0:0:0:
64,192,11531,1,8,0:0:0:0:
64,192,11738,1,0,0:0:0:0:
64,192,11944,128,0,13597:0:0:0:0:
448,192,13597,128,0,13894:0:0:0:0:
64,192,13894,128,0,14192:0:0:0:0:
192,192,13894,1,0,0:0:0:0:
320,192,13894,1,0,0:0:0:0:
448,192,14192,128,0,14341:0:0:0:0:
192,192,14192,1,0,2:0:0:0:
320,192,14192,1,0,2:0:0:0:
64,192,14341,128,0,14639:0:0:0:0:
320,192,14341,1,0,2:0:0:0:
192,192,14341,1,0,2:0:0:0:
192,192,14639,1,0,0:0:0:0:
448,192,14639,128,0,15235:0:0:0:0:
320,192,14639,128,0,15235:0:0:0:0:
64,192,14788,1,0,0:0:0:0:
192,192,14937,1,0,0:0:0:0:
64,192,15086,1,0,0:0:0:0:
192,192,15235,128,0,15384:0:0:0:0:
448,192,15384,128,0,15533:0:0:0:0:
64,192,15533,128,0,15682:0:0:0:0:
192,192,15533,128,0,15682:0:0:0:0:
320,192,15682,128,0,15831:0:0:0:0:
64,192,15831,128,0,16428:0:0:0:0:
192,192,15831,128,0,16428:0:0:0:0:
448,192,15980,1,0,0:0:0:0:
320,192,16129,1,0,0:0:0:0:
448,192,16279,1,0,0:0:0:0:
320,192,16428,128,0,16577:0:0:0:0:
64,192,16577,128,0,16726:0:0:0:0:
320,192,16726,128,0,16875:0:0:0:0:
448,192,16726,128,0,16875:0:0:0:0:
192,192,16875,128,0,17023:0:0:0:0:
448,192,17023,1,0,0:0:0:0:
320,192,17098,1,0,0:0:0:0:
192,192,17172,1,0,0:0:0:0:
64,192,17172,1,0,0:0:0:0:
320,192,17247,1,0,0:0:0:0:
64,192,17321,1,0,0:0:0:0:
448,192,17321,1,0,0:0:0:0:
192,192,17396,1,0,0:0:0:0:
448,192,17470,1,0,0:0:0:0:
320,192,17470,1,0,0:0:0:0:
64,192,17545,1,0,0:0:0:0:
192,192,17620,1,0,0:0:0:0:
320,192,17620,1,0,0:0:0:0:
448,192,17694,1,0,0:0:0:0:
192,192,17769,1,0,0:0:0:0:
320,192,17769,1,0,0:0:0:0:
64,192,17843,1,0,0:0:0:0:
448,192,17918,1,0,0:0:0:0:
320,192,17918,1,0,0:0:0:0:
192,192,17992,1,0,0:0:0:0:
64,192,18067,1,0,0:0:0:0:
320,192,18067,1,0,0:0:0:0:
448,192,18141,1,0,0:0:0:0:
192,192,18216,1,0,0:0:0:0:
64,192,18216,1,0,0:0:0:0:
320,192,18290,1,0,0:0:0:0:
64,192,18365,1,0,0:0:0:0:
192,192,18365,1,0,0:0:0:0:
448,192,18440,1,0,0:0:0:0:
320,192,18440,1,0,0:0:0:0:
192,192,18514,1,0,0:0:0:0:
64,192,18514,1,0,0:0:0:0:
448,192,18589,1,0,0:0:0:0:
320,192,18589,1,0,0:0:0:0:
64,192,18663,1,0,0:0:0:0:
192,192,18663,1,0,0:0:0:0:
448,192,18738,1,0,0:0:0:0:
320,192,18738,1,0,0:0:0:0:
192,192,18812,1,0,0:0:0:0:
448,192,18887,1,0,0:0:0:0:
320,192,18887,1,0,0:0:0:0:
192,192,18961,1,0,0:0:0:0:
64,192,18961,1,0,2:0:0:0:
320,192,19036,1,0,0:0:0:0:
192,192,19110,1,0,0:0:0:0:
64,192,19110,1,0,2:0:0:0:
448,192,19184,1,0,0:0:0:0:
320,192,19184,1,0,0:0:0:0:
64,192,19259,1,0,0:0:0:0:
192,192,19259,1,0,0:0:0:0:
448,192,19333,1,0,0:0:0:0:
320,192,19333,1,0,0:0:0:0:
64,192,19408,1,0,0:0:0:0:
192,192,19445,1,0,0:0:0:0:
320,192,19482,1,0,0:0:0:0:
448,192,19520,1,0,0:0:0:0:
64,192,19557,1,0,0:0:0:0:
320,192,19630,1,0,0:0:0:0:
192,192,19705,1,0,0:0:0:0:
448,192,19705,1,0,0:0:0:0:
64,192,19780,1,0,0:0:0:0:
448,192,19854,1,8,0:0:0:0:
320,192,19891,1,0,0:0:0:0:
192,192,19929,1,0,0:0:0:0:
64,192,19966,1,0,0:0:0:0:
448,192,20003,1,0,0:0:0:0:
320,192,20078,1,0,0:0:0:0:
192,192,20152,1,0,0:0:0:0:
64,192,20152,1,0,0:0:0:0:
320,192,20227,1,0,0:0:0:0:
448,192,20301,1,0,0:0:0:0:
192,192,20301,1,0,0:0:0:0:
320,192,20376,1,0,0:0:0:0:
64,192,20450,1,8,0:0:0:0:
192,192,20488,1,0,0:0:0:0:
320,192,20525,1,0,0:0:0:0:
448,192,20562,1,0,0:0:0:0:
64,192,20600,1,0,0:0:0:0:
192,192,20674,1,0,0:0:0:0:
448,192,20749,1,2,0:0:0:0:
320,192,20749,1,2,0:0:0:0:
192,192,20823,1,0,0:0:0:0:
64,192,20898,1,0,0:0:0:0:
320,192,20898,1,0,0:0:0:0:
192,192,20972,1,0,0:0:0:0:
448,192,21047,1,10,0:0:0:0:
320,192,21084,1,0,0:0:0:0:
192,192,21121,1,0,0:0:0:0:
64,192,21159,1,0,0:0:0:0:
448,192,21196,1,0,0:0:0:0:
320,192,21270,1,0,0:0:0:0:
448,192,21345,1,2,0:0:0:0:
64,192,21345,1,2,0:0:0:0:
192,192,21420,1,0,0:0:0:0:
64,192,21494,1,0,0:0:0:0:
320,192,21494,1,0,0:0:0:0:
448,192,21569,1,0,0:0:0:0:
64,192,21643,1,10,0:0:0:0:
192,192,21680,1,0,0:0:0:0:
320,192,21718,1,0,0:0:0:0:
448,192,21755,1,0,0:0:0:0:
64,192,21792,1,0,0:0:0:0:
192,192,21866,1,0,0:0:0:0:
64,192,21940,1,2,0:0:0:0:
448,192,21940,1,2,0:0:0:0:
320,192,22015,1,0,0:0:0:0:
64,192,22090,1,0,0:0:0:0:
448,192,22090,1,0,0:0:0:0:
192,192,22164,1,0,0:0:0:0:
448,192,22239,1,10,0:0:0:0:
320,192,22276,1,0,0:0:0:0:
192,192,22313,1,0,0:0:0:0:
64,192,22350,1,0,0:0:0:0:
448,192,22388,1,0,0:0:0:0:
320,192,22462,1,0,0:0:0:0:
448,192,22537,1,2,0:0:0:0:
64,192,22537,1,2,0:0:0:0:
192,192,22611,1,0,0:0:0:0:
64,192,22686,1,0,0:0:0:0:
448,192,22686,1,0,0:0:0:0:
320,192,22760,1,0,0:0:0:0:
64,192,22835,1,8,0:0:0:0:
192,192,22872,1,0,0:0:0:0:
320,192,22909,1,0,0:0:0:0:
448,192,22947,1,0,0:0:0:0:
64,192,22984,1,4,0:0:0:0:
192,192,23059,1,0,2:0:0:0:
448,192,23133,1,2,0:0:0:0:
320,192,23133,1,2,0:0:0:0:
192,192,23208,1,0,0:0:0:0:
64,192,23282,1,0,0:0:0:0:
320,192,23282,1,0,0:0:0:0:
192,192,23357,1,0,0:0:0:0:
320,192,23431,1,0,0:0:0:0:
192,192,23506,1,0,0:0:0:0:
64,192,23506,1,0,0:0:0:0:
320,192,23580,1,0,0:0:0:0:
448,192,23580,1,0,0:0:0:0:
192,192,23655,1,0,0:0:0:0:
448,192,23729,1,2,0:0:0:0:
320,192,23729,1,0,0:0:0:0:
192,192,23804,1,0,0:0:0:0:
64,192,23804,1,0,0:0:0:0:
320,192,23879,1,0,0:0:0:0:
192,192,23953,1,0,0:0:0:0:
64,192,23953,1,0,0:0:0:0:
448,192,24028,1,8,0:0:0:0:
320,192,24028,1,0,0:0:0:0:
192,192,24101,1,0,0:0:0:0:
448,192,24176,1,8,0:0:0:0:
320,192,24176,1,0,0:0:0:0:
192,192,24250,1,0,2:0:0:0:
64,192,24250,1,0,0:0:0:0:
448,192,24325,1,4,0:0:0:0:
320,192,24325,1,0,0:0:0:0:
192,192,24399,1,0,0:0:0:0:
320,192,24474,1,0,0:0:0:0:
64,192,24474,1,0,0:0:0:0:
448,192,24549,1,0,0:0:0:0:
64,192,24623,1,8,0:0:0:0:
192,192,24660,1,0,0:0:0:0:
320,192,24698,1,0,0:0:0:0:
448,192,24735,1,0,0:0:0:0:
64,192,24772,1,0,0:0:0:0:
192,192,24847,1,0,0:0:0:0:
448,192,24921,1,0,0:0:0:0:
320,192,24921,1,0,0:0:0:0:
192,192,24996,1,0,0:0:0:0:
64,192,25070,1,0,0:0:0:0:
320,192,25070,1,0,0:0:0:0:
192,192,25145,1,0,0:0:0:0:
448,192,25219,1,8,0:0:0:0:
320,192,25257,1,0,0:0:0:0:
192,192,25294,1,0,0:0:0:0:
64,192,25331,1,0,0:0:0:0:
448,192,25369,1,0,0:0:0:0:
320,192,25443,1,0,0:0:0:0:
64,192,25518,1,2,0:0:0:0:
448,192,25518,1,2,0:0:0:0:
192,192,25592,1,0,0:0:0:0:
448,192,25667,1,8,0:0:0:0:
64,192,25667,1,8,0:0:0:0:
320,192,25741,1,0,0:0:0:0:
64,192,25816,1,8,0:0:0:0:
192,192,25853,1,0,0:0:0:0:
320,192,25890,1,0,0:0:0:0:
448,192,25928,1,0,0:0:0:0:
64,192,25965,1,0,2:0:0:0:
192,192,25965,1,0,2:0:0:0:
320,192,26039,1,0,0:0:0:0:
448,192,26039,1,0,0:0:0:0:
64,192,26114,1,10,0:0:0:0:
192,192,26151,1,0,0:0:0:0:
320,192,26189,1,0,0:0:0:0:
448,192,26226,1,0,0:0:0:0:
64,192,26263,1,0,0:0:0:0:
192,192,26300,1,0,0:0:0:0:
320,192,26338,1,0,0:0:0:0:
448,192,26374,1,0,0:0:0:0:
64,192,26411,1,0,2:0:0:0:
192,192,26449,1,0,0:0:0:0:
320,192,26486,1,0,0:0:0:0:
448,192,26523,1,0,0:0:0:0:
64,192,26560,1,8,0:0:0:0:
192,192,26598,1,0,0:0:0:0:
320,192,26635,1,0,0:0:0:0:
448,192,26672,1,0,0:0:0:0:
192,192,26709,1,6,0:0:0:0:
64,192,26709,1,6,0:0:0:0:
64,192,26859,1,0,0:0:0:0:
192,192,26859,1,0,0:0:0:0:
448,192,27008,1,0,2:0:0:0:
320,192,27008,1,0,2:0:0:0:
192,192,27008,1,0,2:0:0:0:
448,192,27157,1,0,0:0:0:0:
320,192,27157,1,0,0:0:0:0:
192,192,27306,1,0,0:0:0:0:
320,192,27306,1,0,0:0:0:0:
448,192,27306,1,0,0:0:0:0:
64,192,27455,1,0,0:0:0:0:
192,192,27455,1,0,0:0:0:0:
192,192,27604,1,0,2:0:0:0:
64,192,27604,1,0,2:0:0:0:
320,192,27604,1,0,2:0:0:0:
64,192,27753,1,0,0:0:0:0:
320,192,27753,1,0,0:0:0:0:
64,192,27902,1,0,0:0:0:0:
192,192,27902,1,0,0:0:0:0:
320,192,27902,1,0,0:0:0:0:
192,192,28051,1,0,0:0:0:0:
448,192,28051,1,0,0:0:0:0:
448,192,28200,1,0,2:0:0:0:
192,192,28200,1,0,2:0:0:0:
320,192,28200,1,0,2:0:0:0:
192,192,28349,1,0,0:0:0:0:
448,192,28349,1,0,0:0:0:0:
64,192,28499,1,0,0:0:0:0:
192,192,28499,1,0,0:0:0:0:
320,192,28499,1,0,0:0:0:0:
64,192,28647,1,0,0:0:0:0:
192,192,28647,1,0,0:0:0:0:
320,192,28796,1,0,2:0:0:0:
64,192,28796,1,0,2:0:0:0:
192,192,28796,1,0,2:0:0:0:
448,192,28945,1,0,0:0:0:0:
192,192,28945,1,0,0:0:0:0:
64,192,29094,128,0,29243:0:0:0:0:
448,192,29094,1,2,0:1:0:0:
320,192,29094,1,2,0:1:0:0:
192,192,29243,128,0,29392:0:0:0:0:
320,192,29392,128,0,29541:0:0:0:0:
64,192,29392,1,0,2:0:0:0:
448,192,29541,128,0,29690:0:0:0:0:
64,192,29541,128,0,29690:0:0:0:0:
192,192,29690,128,0,29839:0:0:0:0:
448,192,29839,1,0,0:0:0:0:
320,192,29839,128,0,29989:0:0:0:0:
448,192,29989,128,0,30138:0:0:0:0:
64,192,29989,128,0,30138:0:0:0:0:
192,192,30138,128,8,30287:0:0:0:0:
320,192,30287,128,0,30436:0:0:0:0:
64,192,30287,1,8,0:0:0:0:
448,192,30436,128,0,30585:0:0:0:0:
64,192,30436,128,0,30585:0:0:0:0:
192,192,30585,128,0,30734:0:0:0:0:
448,192,30734,1,0,2:0:0:0:
320,192,30734,128,2,30883:0:0:0:0:
448,192,30883,128,2,31031:0:0:0:0:
64,192,30883,1,2,2:1:0:0:
64,192,31031,128,4,31479:0:0:0:0:
320,192,31031,1,2,0:1:0:0:
192,192,31031,128,4,31479:0:0:0:0:
448,192,31479,128,0,31777:0:0:0:0:
320,192,31479,1,4,2:2:0:0:
192,192,31628,1,0,0:0:0:0:
64,192,31777,128,0,32075:0:0:0:0:
320,192,31777,1,0,2:0:0:0:
192,192,31926,1,0,2:0:0:0:
320,192,32075,128,0,32373:0:0:0:0:
192,192,32075,1,0,0:0:0:0:
448,192,32224,1,0,2:0:0:0:
192,192,32373,128,0,32671:0:0:0:0:
64,192,32373,1,0,0:0:0:0:
448,192,32522,1,0,2:0:0:0:
320,192,32671,128,0,32820:0:0:0:0:
64,192,32671,1,0,2:0:0:0:
448,192,32820,1,0,2:0:0:0:
192,192,32970,128,0,33119:0:0:0:0:
448,192,32970,1,0,2:0:0:0:
64,192,32970,1,0,2:0:0:0:
448,192,33119,128,0,33267:0:0:0:0:
320,192,33119,1,0,2:0:0:0:
64,192,33267,128,0,33416:0:0:0:0:
192,192,33267,1,0,2:0:0:0:
320,192,33416,1,0,2:0:0:0:
448,192,33565,128,4,33863:0:0:0:0:
192,192,33565,128,0,33714:0:0:0:0:
64,192,33714,128,4,33863:0:0:0:0:
320,192,33863,1,4,2:2:0:0:
192,192,34012,1,0,0:0:0:0:
64,192,34161,1,0,2:0:0:0:
448,192,34161,1,0,2:0:0:0:
320,192,34310,1,0,2:0:0:0:
448,192,34460,1,0,2:0:0:0:
192,192,34460,1,0,2:0:0:0:
64,192,34609,1,0,2:0:0:0:
320,192,34758,1,0,2:0:0:0:
192,192,34758,1,0,2:0:0:0:
448,192,34907,1,0,2:0:0:0:
320,192,35056,1,0,2:0:0:0:
192,192,35056,1,0,2:0:0:0:
64,192,35205,1,0,2:0:0:0:
448,192,35354,1,0,2:0:0:0:
320,192,35502,1,0,2:0:0:0:
192,192,35502,1,0,2:0:0:0:
448,192,35651,1,0,2:0:0:0:
64,192,35651,1,0,2:0:0:0:
192,192,35800,1,0,2:0:0:0:
320,192,35800,1,0,2:0:0:0:
64,192,35950,1,8,2:2:0:0:
320,192,35950,1,8,2:2:0:0:
192,192,35950,1,0,0:0:0:0:
192,192,36099,1,0,2:0:0:0:
320,192,36099,1,0,0:0:0:0:
448,192,36248,1,4,2:2:0:0:
320,192,36248,128,0,36546:0:0:0:0:
192,192,36248,1,0,0:0:0:0:
64,192,36397,1,0,0:0:0:0:
192,192,36546,128,0,36844:0:0:0:0:
448,192,36546,1,0,2:0:0:0:
64,192,36695,1,0,2:0:0:0:
448,192,36844,128,0,37142:0:0:0:0:
320,192,36844,1,0,0:0:0:0:
64,192,36993,1,0,0:0:0:0:
192,192,37142,1,0,0:0:0:0:
320,192,37291,128,0,37738:0:0:0:0:
64,192,37291,1,0,0:0:0:0:
448,192,37440,1,0,2:0:0:0:
192,192,37590,1,0,2:0:0:0:
192,192,37738,1,0,0:0:0:0:
64,192,37738,1,0,0:0:0:0:
448,192,37738,128,0,38036:0:0:0:0:
192,192,37887,1,0,2:0:0:0:
64,192,37887,1,0,0:0:0:0:
320,192,38036,128,8,38334:0:0:0:0:
64,192,38036,1,0,0:0:0:0:
192,192,38036,1,0,0:0:0:0:
64,192,38185,1,0,0:0:0:0:
448,192,38334,1,8,2:2:0:0:
192,192,38334,1,0,0:0:0:0:
64,192,38409,1,0,0:0:0:0:
192,192,38483,1,0,0:0:0:0:
448,192,38483,1,0,0:0:0:0:
320,192,38558,1,0,0:0:0:0:
64,192,38632,1,4,2:2:0:0:
192,192,38632,1,4,2:2:0:0:
320,192,38707,1,0,0:0:0:0:
448,192,38781,1,0,0:0:0:0:
64,192,38856,1,0,0:0:0:0:
192,192,38930,1,0,2:0:0:0:
320,192,38930,1,0,2:0:0:0:
448,192,39005,1,0,0:0:0:0:
64,192,39080,1,0,2:0:0:0:
192,192,39154,1,0,0:0:0:0:
448,192,39229,1,0,2:0:0:0:
320,192,39229,1,0,2:0:0:0:
192,192,39303,1,0,0:0:0:0:
64,192,39378,1,0,2:0:0:0:
448,192,39452,1,0,0:0:0:0:
320,192,39527,1,0,2:0:0:0:
192,192,39527,1,0,2:0:0:0:
64,192,39601,1,0,0:0:0:0:
448,192,39676,1,0,2:0:0:0:
320,192,39750,1,0,0:0:0:0:
64,192,39825,1,0,2:0:0:0:
192,192,39825,1,0,2:0:0:0:
320,192,39900,1,0,0:0:0:0:
448,192,39974,1,0,2:0:0:0:
64,192,40048,1,0,0:0:0:0:
192,192,40122,1,0,2:0:0:0:
320,192,40122,1,0,2:0:0:0:
448,192,40197,1,0,0:0:0:0:
320,192,40271,1,0,0:0:0:0:
192,192,40346,1,0,0:0:0:0:
448,192,40420,1,2,2:1:0:0:
320,192,40420,1,2,2:1:0:0:
64,192,40420,1,2,2:1:0:0:
192,192,40570,1,2,2:1:0:0:
64,192,40570,1,2,2:1:0:0:
448,192,40570,1,2,2:1:0:0:
320,192,40868,1,2,0:1:0:0:
192,192,40868,1,2,0:1:0:0:
448,192,40868,1,2,0:1:0:0:
64,192,41017,1,0,0:0:0:0:
192,192,41091,1,0,0:0:0:0:
320,192,41166,1,0,0:0:0:0:
448,192,41166,1,0,0:0:0:0:
192,192,41240,1,0,0:0:0:0:
448,192,41315,128,0,41613:0:0:0:0:
320,192,41315,1,8,0:0:0:0:
64,192,41464,1,0,0:0:0:0:
192,192,41539,1,0,0:0:0:0:
320,192,41613,128,0,41762:0:0:0:0:
64,192,41613,1,0,2:0:0:0:
448,192,41762,1,0,2:0:0:0:
192,192,41762,128,8,41911:0:0:0:0:
64,192,41911,1,8,0:0:0:0:
320,192,41911,128,0,42060:0:0:0:0:
448,192,42060,128,0,42210:0:0:0:0:
192,192,42060,1,0,0:0:0:0:
320,192,42283,1,0,0:0:0:0:
192,192,42358,1,0,0:0:0:0:
64,192,42358,1,0,0:0:0:0:
320,192,42432,1,0,0:0:0:0:
64,192,42507,128,0,42805:0:0:0:0:
192,192,42507,1,8,0:0:0:0:
448,192,42656,1,0,0:0:0:0:
320,192,42730,1,0,0:0:0:0:
192,192,42805,128,8,43103:0:0:0:0:
448,192,42805,1,0,2:0:0:0:
320,192,42954,1,0,0:0:0:0:
64,192,43103,1,8,0:0:0:0:
320,192,43103,128,0,43401:0:0:0:0:
448,192,43252,1,0,0:0:0:0:
192,192,43401,1,0,0:0:0:0:
448,192,43476,1,0,0:0:0:0:
64,192,43550,1,0,0:0:0:0:
192,192,43550,1,0,0:0:0:0:
320,192,43625,1,0,0:0:0:0:
448,192,43700,1,8,0:0:0:0:
64,192,43700,1,8,0:0:0:0:
192,192,43774,1,0,0:0:0:0:
320,192,43849,1,0,0:0:0:0:
448,192,43849,1,0,0:0:0:0:
192,192,43923,1,0,2:0:0:0:
448,192,43998,1,0,2:0:0:0:
64,192,43998,1,0,2:0:0:0:
320,192,44072,1,0,0:0:0:0:
192,192,44147,1,0,2:0:0:0:
64,192,44147,1,0,2:0:0:0:
320,192,44221,1,0,0:0:0:0:
448,192,44296,1,8,0:0:0:0:
64,192,44296,1,8,0:0:0:0:
192,192,44370,1,0,0:0:0:0:
448,192,44445,1,0,0:0:0:0:
320,192,44445,1,0,0:0:0:0:
192,192,44520,1,0,0:0:0:0:
64,192,44593,1,0,2:0:0:0:
192,192,44668,1,0,0:0:0:0:
320,192,44742,1,0,0:0:0:0:
448,192,44742,1,0,0:0:0:0:
64,192,44817,1,0,2:0:0:0:
192,192,44891,1,8,0:0:0:0:
320,192,44891,1,8,0:0:0:0:
448,192,44966,1,0,0:0:0:0:
64,192,45040,1,0,2:0:0:0:
192,192,45040,1,0,2:0:0:0:
320,192,45115,1,0,0:0:0:0:
192,192,45189,1,0,2:0:0:0:
448,192,45189,1,0,2:0:0:0:
320,192,45264,1,0,0:0:0:0:
192,192,45339,1,0,2:0:0:0:
64,192,45339,1,0,2:0:0:0:
320,192,45488,1,8,0:0:0:0:
192,192,45488,1,8,0:0:0:0:
320,192,45637,1,4,0:0:0:0:
448,192,45637,1,4,0:0:0:0:
64,192,45786,128,0,45935:0:0:0:0:
192,192,45786,1,0,0:0:0:0:
320,192,45935,1,0,2:0:0:0:
448,192,45935,128,8,46084:0:0:0:0:
192,192,46084,128,0,46233:0:0:0:0:
64,192,46084,1,8,0:0:0:0:
320,192,46233,128,0,46382:0:0:0:0:
448,192,46233,1,0,0:0:0:0:
64,192,46382,1,0,2:0:0:0:
192,192,46457,1,0,0:0:0:0:
64,192,46531,1,0,2:0:0:0:
320,192,46531,1,0,2:0:0:0:
192,192,46606,1,0,0:0:0:0:
320,192,46680,1,8,0:0:0:0:
448,192,46680,1,8,0:0:0:0:
64,192,46829,1,4,0:0:0:0:
192,192,46829,1,4,0:0:0:0:
448,192,46978,1,0,0:0:0:0:
320,192,46978,128,0,47127:0:0:0:0:
192,192,47127,128,8,47276:0:0:0:0:
64,192,47127,1,0,0:0:0:0:
448,192,47276,128,0,47425:0:0:0:0:
64,192,47425,128,0,47574:0:0:0:0:
320,192,47425,1,0,0:0:0:0:
192,192,47574,1,0,2:0:0:0:
320,192,47649,1,0,0:0:0:0:
448,192,47723,1,0,2:0:0:0:
192,192,47723,1,0,2:0:0:0:
320,192,47798,1,0,0:0:0:0:
64,192,47872,1,8,0:0:0:0:
192,192,47872,1,8,0:0:0:0:
448,192,48021,1,4,0:0:0:0:
320,192,48021,1,4,0:0:0:0:
64,192,48170,1,0,2:0:0:0:
192,192,48170,1,0,2:0:0:0:
320,192,48245,1,0,0:0:0:0:
448,192,48319,1,0,0:0:0:0:
192,192,48319,1,0,0:0:0:0:
320,192,48394,1,0,0:0:0:0:
64,192,48469,1,8,0:0:0:0:
192,192,48469,1,8,0:0:0:0:
320,192,48543,1,0,0:0:0:0:
64,192,48618,1,0,0:0:0:0:
448,192,48618,1,0,0:0:0:0:
320,192,48692,1,0,0:0:0:0:
192,192,48767,1,0,2:0:0:0:
448,192,48767,1,0,2:0:0:0:
64,192,48841,1,0,0:0:0:0:
320,192,48916,1,0,2:0:0:0:
448,192,48916,1,0,2:0:0:0:
192,192,48990,1,0,0:0:0:0:
64,192,49065,1,8,0:0:0:0:
320,192,49065,1,8,0:0:0:0:
448,192,49139,1,0,0:0:0:0:
192,192,49213,1,0,2:0:0:0:
64,192,49213,1,0,2:0:0:0:
320,192,49288,1,0,0:0:0:0:
64,192,49362,1,0,2:0:0:0:
448,192,49362,1,0,2:0:0:0:
192,192,49437,1,0,0:0:0:0:
448,192,49511,1,8,0:0:0:0:
320,192,49511,1,8,0:0:0:0:
64,192,49511,1,8,0:0:0:0:
64,192,49660,1,8,0:0:0:0:
320,192,49660,1,8,0:0:0:0:
448,192,49660,1,8,0:0:0:0:
192,192,49760,1,0,0:0:0:0:
320,192,49859,1,0,0:0:0:0:
448,192,49959,1,2,2:2:0:0:
192,192,49959,1,2,2:2:0:0:
320,192,50058,1,0,0:0:0:0:
192,192,50158,1,0,2:0:0:0:
64,192,50257,1,2,2:2:0:0:
320,192,50257,1,2,2:2:0:0:
192,192,50356,1,0,0:0:0:0:
448,192,50406,1,0,0:0:0:0:
320,192,50456,1,0,2:0:0:0:
192,192,50505,1,0,0:0:0:0:
64,192,50555,1,4,2:2:0:0:
448,192,50555,1,4,2:2:0:0:
320,192,50704,1,0,2:0:0:0:
192,192,50853,1,0,0:0:0:0:
64,192,50853,1,0,0:0:0:0:
320,192,50952,1,0,0:0:0:0:
448,192,50952,1,0,0:0:0:0:
320,192,51051,1,0,0:0:0:0:
64,192,51051,1,0,0:0:0:0:
192,192,51151,1,8,0:0:0:0:
64,192,51151,1,8,0:0:0:0:
448,192,51151,1,0,0:0:0:0:
320,192,51300,1,0,0:0:0:0:
64,192,51300,1,0,0:0:0:0:
448,192,51449,1,0,2:0:0:0:
192,192,51449,1,0,2:0:0:0:
320,192,51523,1,0,0:0:0:0:
64,192,51598,1,0,0:0:0:0:
192,192,51648,1,0,0:0:0:0:
320,192,51698,1,0,0:0:0:0:
64,192,51747,1,0,2:0:0:0:
448,192,51747,1,0,2:0:0:0:
192,192,51896,1,0,1:0:0:0:
320,192,52045,1,0,2:0:0:0:
448,192,52045,1,0,2:0:0:0:
64,192,52144,1,0,0:0:0:0:
192,192,52144,1,0,0:0:0:0:
192,192,52244,1,0,0:0:0:0:
448,192,52244,1,0,0:0:0:0:
320,192,52343,1,8,0:0:0:0:
448,192,52343,1,8,0:0:0:0:
64,192,52343,1,0,0:0:0:0:
192,192,52492,1,0,0:0:0:0:
448,192,52492,1,0,0:0:0:0:
64,192,52641,1,0,2:0:0:0:
320,192,52641,1,0,2:0:0:0:
192,192,52716,1,0,0:0:0:0:
448,192,52790,1,0,0:0:0:0:
320,192,52840,1,0,0:0:0:0:
192,192,52889,1,0,0:0:0:0:
64,192,52939,1,0,2:0:0:0:
448,192,52939,128,0,53238:0:0:0:0:
320,192,53089,1,0,2:0:0:0:
192,192,53238,128,8,53536:0:0:0:0:
64,192,53238,1,0,2:0:0:0:
320,192,53387,1,0,0:0:0:0:
448,192,53536,128,0,53684:0:0:0:0:
64,192,53536,1,8,0:0:0:0:
320,192,53684,128,0,53833:0:0:0:0:
192,192,53684,1,0,0:0:0:0:
64,192,53833,1,0,2:0:0:0:
192,192,53908,1,0,0:0:0:0:
448,192,53982,1,4,0:0:0:0:
320,192,53982,1,4,0:0:0:0:
64,192,53982,1,4,0:0:0:0:
192,192,54057,1,0,0:0:0:0:
448,192,54131,1,0,0:0:0:0:
320,192,54131,1,0,0:0:0:0:
192,192,54206,1,0,0:0:0:0:
64,192,54280,1,0,0:0:0:0:
320,192,54280,1,0,0:0:0:0:
192,192,54355,1,0,0:0:0:0:
320,192,54429,1,0,0:0:0:0:
448,192,54429,1,0,0:0:0:0:
192,192,54504,1,0,0:0:0:0:
64,192,54579,1,0,0:0:0:0:
448,192,54579,1,0,0:0:0:0:
320,192,54653,1,0,0:0:0:0:
64,192,54728,1,8,0:0:0:0:
192,192,54728,1,8,0:0:0:0:
448,192,54802,1,0,0:0:0:0:
320,192,54877,1,0,2:0:0:0:
192,192,54877,1,0,2:0:0:0:
448,192,54951,1,0,0:0:0:0:
64,192,55026,1,8,0:0:0:0:
192,192,55063,1,0,0:0:0:0:
320,192,55100,1,0,0:0:0:0:
448,192,55138,1,0,0:0:0:0:
64,192,55175,1,8,0:0:0:0:
192,192,55212,1,0,0:0:0:0:
320,192,55249,1,0,0:0:0:0:
448,192,55287,1,0,0:0:0:0:
64,192,55324,1,6,2:2:0:0:
192,192,55324,1,6,2:2:0:0:
448,192,55473,1,0,0:0:0:0:
192,192,55473,1,0,0:0:0:0:
320,192,55548,1,0,0:0:0:0:
64,192,55622,1,8,0:0:0:0:
192,192,55622,1,8,0:0:0:0:
192,192,55771,1,6,2:2:0:0:
320,192,55771,1,6,2:2:0:0:
192,192,55919,1,0,0:0:0:0:
320,192,55919,1,0,0:0:0:0:
64,192,56069,1,0,2:0:0:0:
320,192,56069,1,0,2:0:0:0:
192,192,56143,1,0,0:0:0:0:
448,192,56218,1,10,0:0:0:0:
320,192,56218,1,10,0:0:0:0:
192,192,56292,1,0,0:0:0:0:
320,192,56367,1,0,2:0:0:0:
64,192,56367,1,0,2:0:0:0:
448,192,56441,1,0,0:0:0:0:
320,192,56516,1,6,2:2:0:0:
64,192,56516,1,6,2:2:0:0:
192,192,56516,1,6,2:2:0:0:
320,192,56665,1,0,0:0:0:0:
448,192,56665,1,0,0:0:0:0:
64,192,56739,1,0,0:0:0:0:
320,192,56814,1,8,0:0:0:0:
448,192,56814,1,8,0:0:0:0:
192,192,56963,1,6,2:2:0:0:
448,192,56963,1,6,2:2:0:0:
320,192,57112,1,0,0:0:0:0:
64,192,57112,1,0,0:0:0:0:
320,192,57261,1,0,0:0:0:0:
64,192,57261,1,0,0:0:0:0:
448,192,57336,1,0,2:0:0:0:
192,192,57410,1,10,0:0:0:0:
64,192,57410,1,10,0:0:0:0:
448,192,57485,1,0,0:0:0:0:
320,192,57559,1,0,2:0:0:0:
64,192,57559,1,0,2:0:0:0:
192,192,57634,1,0,0:0:0:0:
64,192,57709,1,4,2:2:0:0:
320,192,57709,1,4,2:2:0:0:
448,192,57783,1,0,0:0:0:0:
192,192,57858,1,0,2:0:0:0:
64,192,57858,1,0,2:0:0:0:
320,192,57932,1,0,0:0:0:0:
448,192,58007,1,10,2:2:0:0:
64,192,58007,1,10,2:2:0:0:
192,192,58081,1,0,0:0:0:0:
320,192,58156,1,0,2:0:0:0:
448,192,58156,1,0,2:0:0:0:
192,192,58229,1,0,2:0:0:0:
64,192,58304,1,0,0:0:0:0:
320,192,58304,1,0,0:0:0:0:
192,192,58379,1,0,2:0:0:0:
448,192,58453,1,0,0:0:0:0:
64,192,58453,1,0,0:0:0:0:
320,192,58528,1,0,0:0:0:0:
192,192,58602,1,10,0:0:0:0:
64,192,58602,1,10,0:0:0:0:
320,192,58677,1,0,0:0:0:0:
448,192,58751,1,0,2:0:0:0:
320,192,58826,1,0,0:0:0:0:
192,192,58900,1,0,2:0:0:0:
64,192,58900,1,0,2:0:0:0:
448,192,58900,1,0,2:0:0:0:
320,192,58975,1,0,0:0:0:0:
448,192,59049,1,0,2:0:0:0:
192,192,59049,1,0,2:0:0:0:
64,192,59124,1,0,0:0:0:0:
192,192,59199,1,10,2:2:0:0:
320,192,59199,1,10,2:2:0:0:
64,192,59273,1,0,0:0:0:0:
192,192,59348,1,0,2:0:0:0:
320,192,59422,1,0,2:0:0:0:
448,192,59497,1,0,0:0:0:0:
192,192,59497,1,0,0:0:0:0:
320,192,59571,1,0,0:0:0:0:
448,192,59646,1,0,2:0:0:0:
64,192,59646,1,0,2:0:0:0:
192,192,59720,1,0,0:0:0:0:
320,192,59795,1,10,0:0:0:0:
64,192,59795,1,10,0:0:0:0:
192,192,59869,1,0,0:0:0:0:
448,192,59944,1,0,2:0:0:0:
320,192,60019,1,0,0:0:0:0:
448,192,60093,1,4,2:2:0:0:
192,192,60093,1,4,2:2:0:0:
64,192,60093,1,4,2:2:0:0:
320,192,60168,1,0,0:0:0:0:
192,192,60242,1,0,2:0:0:0:
448,192,60242,1,0,2:0:0:0:
64,192,60317,1,0,0:0:0:0:
192,192,60391,1,10,2:2:0:0:
320,192,60391,1,10,2:2:0:0:
448,192,60391,1,10,2:2:0:0:
64,192,60465,1,0,0:0:0:0:
448,192,60539,1,0,2:0:0:0:
192,192,60539,1,0,2:0:0:0:
320,192,60614,1,0,2:0:0:0:
192,192,60689,1,0,0:0:0:0:
64,192,60689,1,0,0:0:0:0:
448,192,60689,1,0,0:0:0:0:
320,192,60763,1,0,0:0:0:0:
64,192,60838,1,0,0:0:0:0:
448,192,60838,1,0,0:0:0:0:
192,192,60912,1,0,0:0:0:0:
64,192,60987,1,10,0:0:0:0:
320,192,60987,1,10,0:0:0:0:
448,192,60987,1,10,0:0:0:0:
192,192,61061,1,0,2:0:0:0:
64,192,61136,1,4,2:2:0:0:
320,192,61136,1,4,2:2:0:0:
448,192,61210,1,0,2:0:0:0:
320,192,61285,1,0,2:0:0:0:
192,192,61285,1,0,2:0:0:0:
64,192,61285,1,0,2:0:0:0:
448,192,61359,1,0,0:0:0:0:
320,192,61434,1,0,2:0:0:0:
64,192,61434,1,0,2:0:0:0:
192,192,61509,1,0,0:0:0:0:
64,192,61583,1,10,2:2:0:0:
320,192,61583,1,10,2:2:0:0:
448,192,61583,1,10,2:2:0:0:
192,192,61658,1,0,0:0:0:0:
320,192,61732,1,0,2:0:0:0:
448,192,61732,1,0,2:0:0:0:
192,192,61807,1,0,0:0:0:0:
64,192,61807,1,0,0:0:0:0:
320,192,61881,1,10,0:0:0:0:
448,192,61881,1,10,0:0:0:0:
192,192,61956,1,0,2:0:0:0:
64,192,61956,1,0,2:0:0:0:
320,192,62030,1,0,2:0:0:0:
448,192,62105,1,0,0:0:0:0:
64,192,62179,1,0,2:0:0:0:
192,192,62217,1,0,0:0:0:0:
320,192,62254,1,0,0:0:0:0:
448,192,62291,1,0,0:0:0:0:
64,192,62329,1,0,2:0:0:0:
192,192,62366,1,0,0:0:0:0:
320,192,62403,1,0,0:0:0:0:
448,192,62440,1,0,0:0:0:0:
192,192,62478,1,8,2:2:0:0:
64,192,62478,1,8,2:2:0:0:
64,192,62627,1,0,2:0:0:0:
192,192,62627,1,0,2:0:0:0:
320,192,62627,1,0,2:0:0:0:
448,192,62775,1,0,0:0:0:0:
320,192,62775,1,0,0:0:0:0:
192,192,62775,1,0,0:0:0:0:
64,192,62775,1,0,0:0:0:0:
448,192,62924,1,0,0:0:0:0:
320,192,62924,1,0,0:0:0:0:
192,192,62924,1,0,0:0:0:0:
448,192,63073,1,0,2:0:0:0:
320,192,63073,1,0,2:0:0:0:
192,192,63073,1,0,0:0:0:0:
64,192,63073,1,0,0:0:0:0:
192,192,63222,1,0,2:0:0:0:
64,192,63222,1,0,2:0:0:0:
320,192,63222,1,0,0:0:0:0:
320,192,63371,1,8,2:2:0:0:
64,192,63371,1,8,2:2:0:0:
192,192,63371,1,0,0:0:0:0:
448,192,63371,1,0,0:0:0:0:
192,192,63520,1,0,0:0:0:0:
320,192,63520,1,0,0:0:0:0:
320,192,63669,1,2,2:1:0:0:
448,192,63669,1,2,2:1:0:0:
64,192,63669,1,2,2:1:0:0:
192,192,63669,1,2,2:1:0:0:
448,192,63819,1,2,0:1:0:0:
320,192,63819,1,2,0:1:0:0:
192,192,63819,1,2,0:1:0:0:
64,192,63819,1,2,0:1:0:0:
64,192,63968,1,2,0:1:0:0:
192,192,63968,1,2,0:1:0:0:
320,192,63968,1,2,0:1:0:0:
448,192,63968,1,2,0:1:0:0:
64,192,64117,1,2,0:1:0:0:
192,192,64117,1,2,0:1:0:0:
448,192,64117,1,2,0:1:0:0:
320,192,64117,1,2,0:1:0:0:
192,192,64266,128,0,64415:0:0:0:0:
64,192,64266,128,0,64415:0:0:0:0:
320,192,64415,128,0,64564:0:0:0:0:
448,192,64415,128,0,64564:0:0:0:0:
192,192,64564,1,0,0:0:0:0:
64,192,64564,1,0,0:0:0:0:
448,192,64713,1,4,0:0:0:0:
192,192,64713,1,0,0:0:0:0:
64,192,64713,1,0,0:0:0:0:
320,192,64788,1,0,0:0:0:0:
192,192,64862,1,0,0:0:0:0:
64,192,64862,1,0,0:0:0:0:
448,192,64862,1,0,0:0:0:0:
320,192,64937,1,0,0:0:0:0:
448,192,65010,1,0,0:0:0:0:
192,192,65010,1,0,0:0:0:0:
64,192,65085,1,0,0:0:0:0:
320,192,65159,1,8,0:0:0:0:
448,192,65159,1,8,0:0:0:0:
192,192,65234,1,0,0:0:0:0:
64,192,65309,1,0,0:0:0:0:
320,192,65309,1,0,0:0:0:0:
192,192,65383,1,0,0:0:0:0:
320,192,65458,1,0,2:0:0:0:
448,192,65458,1,0,2:0:0:0:
192,192,65532,1,0,0:0:0:0:
64,192,65607,1,0,0:0:0:0:
320,192,65607,1,0,0:0:0:0:
192,192,65681,1,0,0:0:0:0:
320,192,65756,1,8,0:0:0:0:
448,192,65756,1,8,0:0:0:0:
64,192,65830,1,0,0:0:0:0:
64,192,65905,1,4,0:0:0:0:
320,192,65905,1,4,0:0:0:0:
448,192,65905,1,4,0:0:0:0:
192,192,65980,1,0,0:0:0:0:
448,192,66054,1,0,0:0:0:0:
320,192,66054,1,0,0:0:0:0:
64,192,66129,1,0,0:0:0:0:
448,192,66203,1,0,0:0:0:0:
192,192,66203,1,0,0:0:0:0:
320,192,66278,1,0,0:0:0:0:
192,192,66352,1,8,0:0:0:0:
64,192,66352,1,8,0:0:0:0:
320,192,66427,1,0,0:0:0:0:
448,192,66501,1,0,0:0:0:0:
192,192,66501,1,0,0:0:0:0:
64,192,66576,1,0,0:0:0:0:
320,192,66650,1,0,2:0:0:0:
448,192,66650,1,0,2:0:0:0:
192,192,66725,1,0,0:0:0:0:
64,192,66800,1,0,0:0:0:0:
320,192,66800,1,0,0:0:0:0:
448,192,66874,1,0,0:0:0:0:
192,192,66949,1,8,0:0:0:0:
64,192,66949,1,8,0:0:0:0:
448,192,67023,1,0,0:0:0:0:
192,192,67098,1,4,0:0:0:0:
448,192,67098,1,4,0:0:0:0:
64,192,67098,1,4,0:0:0:0:
320,192,67172,1,0,0:0:0:0:
64,192,67247,1,0,0:0:0:0:
448,192,67247,1,0,0:0:0:0:
192,192,67320,1,0,0:0:0:0:
448,192,67395,1,0,0:0:0:0:
320,192,67395,1,0,0:0:0:0:
64,192,67470,1,0,0:0:0:0:
192,192,67544,1,8,0:0:0:0:
320,192,67544,1,8,0:0:0:0:
448,192,67619,1,0,0:0:0:0:
192,192,67693,1,0,0:0:0:0:
320,192,67693,1,0,0:0:0:0:
64,192,67768,1,0,0:0:0:0:
448,192,67842,1,0,2:0:0:0:
320,192,67842,1,0,2:0:0:0:
192,192,67917,1,0,0:0:0:0:
320,192,67991,1,0,0:0:0:0:
64,192,67991,1,0,0:0:0:0:
448,192,68066,1,0,0:0:0:0:
64,192,68140,1,8,0:0:0:0:
320,192,68140,1,8,0:0:0:0:
192,192,68215,1,0,0:0:0:0:
448,192,68290,1,2,0:0:0:0:
320,192,68364,1,0,0:0:0:0:
192,192,68364,1,0,0:0:0:0:
448,192,68439,1,0,0:0:0:0:
192,192,68513,1,0,0:0:0:0:
320,192,68513,1,0,0:0:0:0:
448,192,68588,1,0,0:0:0:0:
192,192,68662,1,0,0:0:0:0:
64,192,68662,1,0,0:0:0:0:
320,192,68737,1,8,0:0:0:0:
448,192,68737,1,8,0:0:0:0:
192,192,68811,1,0,0:0:0:0:
320,192,68886,1,0,0:0:0:0:
448,192,68886,1,0,0:0:0:0:
192,192,68960,1,0,0:0:0:0:
64,192,68960,1,0,0:0:0:0:
320,192,69035,1,0,2:0:0:0:
64,192,69110,1,0,0:0:0:0:
192,192,69110,1,0,0:0:0:0:
320,192,69184,1,0,2:0:0:0:
448,192,69184,1,0,2:0:0:0:
64,192,69259,1,0,0:0:0:0:
320,192,69333,1,8,0:0:0:0:
448,192,69333,1,8,0:0:0:0:
192,192,69408,1,0,0:0:0:0:
320,192,69482,1,0,0:0:0:0:
448,192,69482,1,0,0:0:0:0:
64,192,69556,1,0,0:0:0:0:
64,192,69630,1,4,0:0:0:0:
320,192,69630,1,4,0:0:0:0:
448,192,69630,1,4,0:0:0:0:
192,192,69705,1,0,0:0:0:0:
448,192,69780,1,0,0:0:0:0:
320,192,69780,1,0,0:0:0:0:
192,192,69854,1,0,0:0:0:0:
64,192,69929,1,8,0:0:0:0:
320,192,69929,1,8,0:0:0:0:
448,192,70003,1,0,0:0:0:0:
192,192,70078,1,0,0:0:0:0:
64,192,70078,1,0,0:0:0:0:
320,192,70152,1,0,0:0:0:0:
448,192,70227,1,0,2:0:0:0:
192,192,70227,1,0,2:0:0:0:
320,192,70301,1,0,0:0:0:0:
64,192,70376,1,0,0:0:0:0:
192,192,70376,1,0,0:0:0:0:
320,192,70450,1,0,0:0:0:0:
64,192,70525,1,8,0:0:0:0:
192,192,70525,1,8,0:0:0:0:
448,192,70600,1,0,0:0:0:0:
192,192,70674,1,4,0:0:0:0:
448,192,70674,1,4,0:0:0:0:
64,192,70674,1,4,0:0:0:0:
320,192,70749,1,0,0:0:0:0:
192,192,70823,1,0,0:0:0:0:
64,192,70823,1,0,0:0:0:0:
320,192,70898,1,0,0:0:0:0:
192,192,70972,1,0,2:0:0:0:
448,192,70972,1,0,2:0:0:0:
320,192,71047,1,0,0:0:0:0:
64,192,71121,1,8,0:0:0:0:
192,192,71121,1,8,0:0:0:0:
320,192,71196,1,0,0:0:0:0:
448,192,71270,1,0,0:0:0:0:
192,192,71270,1,0,0:0:0:0:
64,192,71345,1,0,0:0:0:0:
192,192,71420,1,0,2:0:0:0:
320,192,71420,1,0,2:0:0:0:
448,192,71494,1,0,0:0:0:0:
192,192,71569,1,0,0:0:0:0:
320,192,71569,1,0,0:0:0:0:
64,192,71643,1,0,0:0:0:0:
192,192,71718,1,8,0:0:0:0:
448,192,71792,1,0,0:0:0:0:
320,192,71866,1,0,0:0:0:0:
192,192,71866,1,0,0:0:0:0:
448,192,71940,1,0,0:0:0:0:
192,192,72015,1,4,0:0:0:0:
64,192,72015,1,4,0:0:0:0:
320,192,72090,1,0,0:0:0:0:
192,192,72164,1,0,0:0:0:0:
64,192,72164,1,0,0:0:0:0:
448,192,72239,1,0,0:0:0:0:
320,192,72313,1,8,0:0:0:0:
192,192,72313,1,8,0:0:0:0:
448,192,72388,1,0,0:0:0:0:
192,192,72462,1,0,0:0:0:0:
64,192,72462,1,0,0:0:0:0:
320,192,72537,1,0,0:0:0:0:
448,192,72537,1,0,0:0:0:0:
64,192,72611,1,0,2:0:0:0:
320,192,72686,1,0,0:0:0:0:
192,192,72686,1,0,0:0:0:0:
64,192,72760,1,0,0:0:0:0:
320,192,72835,1,0,0:0:0:0:
448,192,72835,1,0,0:0:0:0:
192,192,72910,1,8,0:0:0:0:
64,192,72910,1,0,0:0:0:0:
448,192,72984,1,0,0:0:0:0:
320,192,72984,1,0,0:0:0:0:
64,192,73059,1,4,0:0:0:0:
192,192,73059,1,4,0:0:0:0:
320,192,73133,1,0,0:0:0:0:
448,192,73133,1,0,0:0:0:0:
64,192,73208,1,0,0:0:0:0:
192,192,73208,1,0,0:0:0:0:
448,192,73282,1,0,0:0:0:0:
320,192,73282,1,0,0:0:0:0:
64,192,73357,1,0,0:0:0:0:
192,192,73357,1,0,0:0:0:0:
320,192,73431,1,0,0:0:0:0:
448,192,73431,1,0,0:0:0:0:
64,192,73506,1,8,0:0:0:0:
192,192,73506,1,8,0:0:0:0:
320,192,73580,1,0,0:0:0:0:
448,192,73580,1,0,0:0:0:0:
192,192,73655,1,0,0:0:0:0:
320,192,73730,1,0,0:0:0:0:
448,192,73730,1,0,0:0:0:0:
64,192,73804,1,0,2:0:0:0:
192,192,73804,1,0,2:0:0:0:
320,192,73879,1,0,0:0:0:0:
192,192,73953,1,0,0:0:0:0:
64,192,73953,1,0,0:0:0:0:
448,192,74028,1,0,0:0:0:0:
320,192,74028,1,0,0:0:0:0:
192,192,74101,1,0,0:0:0:0:
448,192,74176,1,0,0:0:0:0:
320,192,74176,1,0,0:0:0:0:
192,192,74250,1,8,0:0:0:0:
64,192,74250,1,8,0:0:0:0:
448,192,74325,1,0,0:0:0:0:
448,192,74400,1,6,0:0:0:0:
192,192,74400,1,6,0:0:0:0:
64,192,74400,1,6,0:0:0:0:
320,192,74474,1,0,0:0:0:0:
192,192,74549,1,0,0:0:0:0:
448,192,74549,1,0,0:0:0:0:
64,192,74623,1,0,0:0:0:0:
320,192,74698,1,8,0:0:0:0:
192,192,74698,1,8,0:0:0:0:
448,192,74772,1,0,0:0:0:0:
320,192,74847,1,0,0:0:0:0:
192,192,74847,1,0,0:0:0:0:
448,192,74921,1,0,0:0:0:0:
320,192,74996,1,0,2:0:0:0:
64,192,74996,1,0,2:0:0:0:
192,192,75070,1,0,0:0:0:0:
320,192,75145,1,0,0:0:0:0:
64,192,75145,1,0,0:0:0:0:
192,192,75220,1,0,0:0:0:0:
320,192,75294,1,8,0:0:0:0:
448,192,75294,1,8,0:0:0:0:
192,192,75369,1,0,0:0:0:0:
320,192,75443,1,0,0:0:0:0:
448,192,75443,1,0,0:0:0:0:
64,192,75518,1,0,0:0:0:0:
64,192,75592,1,4,0:0:0:0:
320,192,75592,1,4,0:0:0:0:
448,192,75592,1,4,0:0:0:0:
192,192,75667,1,0,0:0:0:0:
320,192,75741,1,0,0:0:0:0:
448,192,75741,1,0,0:0:0:0:
192,192,75816,1,0,0:0:0:0:
448,192,75890,1,8,0:0:0:0:
64,192,75890,1,8,0:0:0:0:
320,192,75965,1,0,0:0:0:0:
448,192,76040,1,0,0:0:0:0:
64,192,76040,1,0,0:0:0:0:
192,192,76114,1,0,0:0:0:0:
64,192,76189,1,0,2:0:0:0:
448,192,76189,1,0,2:0:0:0:
320,192,76263,1,0,0:0:0:0:
192,192,76338,1,0,0:0:0:0:
64,192,76338,1,0,0:0:0:0:
448,192,76411,1,0,0:0:0:0:
320,192,76486,1,8,0:0:0:0:
192,192,76486,1,8,0:0:0:0:
64,192,76560,1,0,0:0:0:0:
320,192,76635,1,0,2:0:0:0:
192,192,76635,1,0,2:0:0:0:
448,192,76710,1,0,0:0:0:0:
192,192,76784,1,14,0:0:0:0:
64,192,76784,1,14,0:0:0:0:
448,192,76784,1,14,0:0:0:0:
64,192,76933,1,0,2:0:0:0:
320,192,76933,1,0,2:0:0:0:
448,192,76933,1,0,2:0:0:0:
320,192,77082,1,0,2:0:0:0:
448,192,77082,1,0,2:0:0:0:
448,192,77231,1,14,0:0:0:0:
320,192,77231,1,14,0:0:0:0:
192,192,77231,1,14,0:0:0:0:
64,192,77231,1,14,0:0:0:0:
192,192,77380,1,0,2:0:0:0:
64,192,77380,1,0,2:0:0:0:
448,192,77530,1,0,2:0:0:0:
192,192,77530,1,0,2:0:0:0:
64,192,77530,1,0,2:0:0:0:
192,192,77679,1,6,0:0:0:0:
320,192,77679,1,6,0:0:0:0:
448,192,77679,1,6,0:0:0:0:
64,192,77753,1,0,0:0:0:0:
192,192,77828,1,0,0:0:0:0:
320,192,77828,1,0,0:0:0:0:
448,192,77902,1,0,0:0:0:0:
64,192,77977,1,0,0:0:0:0:
192,192,77977,1,0,0:0:0:0:
320,192,78051,1,0,0:0:0:0:
448,192,78126,1,0,0:0:0:0:
64,192,78126,1,0,0:0:0:0:
192,192,78200,1,0,0:0:0:0:
320,192,78275,1,8,0:0:0:0:
448,192,78275,1,8,0:0:0:0:
192,192,78350,1,0,0:0:0:0:
320,192,78424,1,0,0:0:0:0:
64,192,78424,1,0,0:0:0:0:
448,192,78499,1,0,0:0:0:0:
64,192,78573,1,0,2:0:0:0:
192,192,78610,1,0,0:0:0:0:
320,192,78647,1,0,2:0:0:0:
448,192,78684,1,0,0:0:0:0:
64,192,78721,1,0,2:0:0:0:
192,192,78759,1,0,0:0:0:0:
320,192,78796,1,0,2:0:0:0:
448,192,78833,1,0,0:0:0:0:
64,192,78870,1,8,0:0:0:0:
192,192,78908,1,0,0:0:0:0:
320,192,78945,1,0,0:0:0:0:
448,192,78982,1,0,0:0:0:0:
64,192,79020,1,0,2:0:0:0:
192,192,79057,1,0,0:0:0:0:
320,192,79094,1,0,0:0:0:0:
448,192,79131,1,0,0:0:0:0:
64,192,79169,1,4,0:0:0:0:
192,192,79243,1,0,0:0:0:0:
320,192,79318,1,0,0:0:0:0:
448,192,79318,1,0,0:0:0:0:
192,192,79392,1,0,0:0:0:0:
64,192,79467,1,8,0:0:0:0:
320,192,79467,1,8,0:0:0:0:
192,192,79541,1,0,0:0:0:0:
320,192,79616,1,0,0:0:0:0:
448,192,79616,1,0,0:0:0:0:
192,192,79690,1,0,0:0:0:0:
448,192,79765,1,0,2:0:0:0:
64,192,79765,1,0,2:0:0:0:
192,192,79840,1,0,0:0:0:0:
64,192,79914,1,0,0:0:0:0:
448,192,79914,1,0,0:0:0:0:
192,192,79989,1,0,0:0:0:0:
448,192,80063,1,8,0:0:0:0:
320,192,80063,1,8,0:0:0:0:
64,192,80138,1,0,0:0:0:0:
64,192,80212,1,4,0:0:0:0:
320,192,80212,1,4,0:0:0:0:
448,192,80212,1,4,0:0:0:0:
192,192,80287,1,0,0:0:0:0:
320,192,80361,1,0,0:0:0:0:
448,192,80361,1,0,0:0:0:0:
192,192,80436,1,0,0:0:0:0:
448,192,80510,1,0,0:0:0:0:
64,192,80510,1,0,0:0:0:0:
192,192,80585,1,0,0:0:0:0:
448,192,80660,1,8,0:0:0:0:
320,192,80660,1,8,0:0:0:0:
64,192,80734,1,0,0:0:0:0:
320,192,80809,1,0,0:0:0:0:
192,192,80809,1,0,0:0:0:0:
448,192,80883,1,0,0:0:0:0:
64,192,80957,1,0,2:0:0:0:
192,192,80957,1,0,2:0:0:0:
320,192,81031,1,0,2:0:0:0:
448,192,81106,1,0,0:0:0:0:
192,192,81106,1,0,0:0:0:0:
320,192,81180,1,0,0:0:0:0:
192,192,81255,1,8,0:0:0:0:
64,192,81255,1,8,0:0:0:0:
320,192,81330,1,0,0:0:0:0:
64,192,81404,1,0,0:0:0:0:
192,192,81404,1,0,0:0:0:0:
448,192,81404,1,0,0:0:0:0:
320,192,81479,1,0,0:0:0:0:
448,192,81553,1,0,0:0:0:0:
64,192,81553,1,0,0:0:0:0:
192,192,81628,1,0,0:0:0:0:
448,192,81702,1,0,0:0:0:0:
64,192,81702,1,0,0:0:0:0:
320,192,81777,1,0,0:0:0:0:
64,192,81851,1,8,0:0:0:0:
448,192,81851,1,8,0:0:0:0:
192,192,81926,1,0,0:0:0:0:
320,192,82000,1,0,0:0:0:0:
448,192,82000,1,0,0:0:0:0:
64,192,82075,1,0,0:0:0:0:
320,192,82150,1,0,2:0:0:0:
192,192,82150,1,0,2:0:0:0:
448,192,82224,1,0,0:0:0:0:
64,192,82299,1,0,0:0:0:0:
192,192,82299,1,0,0:0:0:0:
320,192,82373,1,0,0:0:0:0:
448,192,82373,1,0,0:0:0:0:
64,192,82448,1,8,0:0:0:0:
192,192,82448,1,8,0:0:0:0:
64,192,82522,1,0,0:0:0:0:
320,192,82597,1,0,0:0:0:0:
448,192,82597,1,0,0:0:0:0:
192,192,82671,1,0,0:0:0:0:
64,192,82671,1,0,0:0:0:0:
320,192,82746,1,4,2:2:0:0:
448,192,82746,1,4,2:2:0:0:
448,192,82820,1,0,0:0:0:0:
192,192,82895,1,0,0:0:0:0:
64,192,82895,1,0,0:0:0:0:
320,192,82970,1,0,0:0:0:0:
448,192,83044,1,12,0:0:0:0:
192,192,83044,1,12,0:0:0:0:
64,192,83119,1,0,0:0:0:0:
320,192,83192,1,0,0:0:0:0:
192,192,83192,1,0,0:0:0:0:
448,192,83267,1,0,0:0:0:0:
64,192,83341,1,4,2:2:0:0:
192,192,83379,1,0,0:0:0:0:
320,192,83416,1,0,2:2:0:0:
448,192,83453,1,0,0:0:0:0:
64,192,83490,1,2,2:2:0:0:
192,192,83528,1,0,0:0:0:0:
320,192,83565,1,0,2:0:0:0:
448,192,83602,1,0,0:0:0:0:
64,192,83640,1,10,2:2:0:0:
192,192,83677,1,0,0:0:0:0:
320,192,83714,1,0,0:0:0:0:
448,192,83751,1,0,0:0:0:0:
64,192,83789,1,8,2:2:0:0:
192,192,83826,1,0,0:0:0:0:
320,192,83863,1,8,2:2:0:0:
448,192,83900,1,0,0:0:0:0:
192,192,83938,1,4,2:2:0:0:
64,192,83988,1,0,0:0:0:0:
320,192,84037,1,0,0:0:0:0:
448,192,84087,1,2,0:0:0:0:
192,192,84137,1,0,0:0:0:0:
320,192,84186,1,0,0:0:0:0:
64,192,84236,1,10,2:2:0:0:
192,192,84286,1,0,0:0:0:0:
320,192,84335,1,0,0:0:0:0:
448,192,84385,1,0,0:0:0:0:
192,192,84435,1,0,0:0:0:0:
64,192,84484,1,0,0:0:0:0:
320,192,84534,1,0,0:0:0:0:
448,192,84584,1,0,0:0:0:0:
64,192,84633,1,0,0:0:0:0:
192,192,84683,1,2,0:0:0:0:
320,192,84732,1,0,0:0:0:0:
448,192,84782,1,0,0:0:0:0:
192,192,84832,1,8,0:0:0:0:
64,192,84881,1,0,0:0:0:0:
320,192,84931,1,0,0:0:0:0:
192,192,84981,1,0,0:0:0:0:
448,192,85030,1,0,0:0:0:0:
320,192,85080,1,0,0:0:0:0:
64,192,85130,1,0,0:0:0:0:
192,192,85180,1,0,0:0:0:0:
320,192,85230,1,0,0:0:0:0:
448,192,85280,1,2,0:0:0:0:
192,192,85329,1,0,0:0:0:0:
320,192,85379,1,0,0:0:0:0:
64,192,85429,1,8,0:0:0:0:
192,192,85478,1,0,0:0:0:0:
448,192,85528,1,0,0:0:0:0:
320,192,85577,1,0,0:0:0:0:
192,192,85627,1,0,0:0:0:0:
64,192,85677,1,0,0:0:0:0:
320,192,85726,1,0,0:0:0:0:
448,192,85776,1,0,0:0:0:0:
192,192,85826,1,0,0:0:0:0:
64,192,85875,1,2,0:0:0:0:
320,192,85925,1,0,0:0:0:0:
192,192,85975,1,0,0:0:0:0:
448,192,86024,1,8,0:0:0:0:
320,192,86074,1,0,0:0:0:0:
192,192,86124,1,0,0:0:0:0:
64,192,86173,1,0,0:0:0:0:
320,192,86223,1,0,0:0:0:0:
448,192,86272,1,0,0:0:0:0:
192,192,86322,1,0,0:0:0:0:
320,192,86372,1,0,0:0:0:0:
64,192,86421,1,0,0:0:0:0:
192,192,86471,1,2,0:0:0:0:
320,192,86521,1,0,0:0:0:0:
448,192,86570,1,0,0:0:0:0:
64,192,86620,1,8,0:0:0:0:
192,192,86670,1,0,0:0:0:0:
320,192,86720,1,0,0:0:0:0:
64,192,86770,1,0,0:0:0:0:
192,192,86820,1,0,0:0:0:0:
448,192,86869,1,0,0:0:0:0:
320,192,86919,1,0,0:0:0:0:
192,192,86969,1,0,0:0:0:0:
64,192,87018,1,0,0:0:0:0:
448,192,87068,1,2,0:0:0:0:
320,192,87117,1,0,0:0:0:0:
192,192,87167,1,0,0:0:0:0:
448,192,87217,1,8,0:0:0:0:
320,192,87266,1,0,0:0:0:0:
64,192,87316,1,0,0:0:0:0:
192,192,87366,1,0,0:0:0:0:
320,192,87415,1,0,0:0:0:0:
448,192,87465,1,0,0:0:0:0:
192,192,87515,1,2,0:0:0:0:
64,192,87564,1,0,0:0:0:0:
320,192,87614,1,0,0:0:0:0:
448,192,87664,1,2,0:0:0:0:
192,192,87713,1,0,0:0:0:0:
64,192,87763,1,0,0:0:0:0:
320,192,87812,1,8,0:0:0:0:
448,192,87862,1,0,0:0:0:0:
64,192,87912,1,0,0:0:0:0:
192,192,87961,1,0,0:0:0:0:
320,192,88011,1,0,0:0:0:0:
448,192,88061,1,0,0:0:0:0:
64,192,88110,1,2,0:0:0:0:
192,192,88148,1,0,0:0:0:0:
320,192,88185,1,0,0:0:0:0:
448,192,88222,1,0,0:0:0:0:
64,192,88260,1,2,0:0:0:0:
192,192,88297,1,0,0:0:0:0:
320,192,88334,1,0,0:0:0:0:
448,192,88371,1,0,0:0:0:0:
64,192,88409,1,8,0:0:0:0:
192,192,88446,1,0,0:0:0:0:
320,192,88483,1,0,0:0:0:0:
448,192,88520,1,0,0:0:0:0:
64,192,88558,1,0,2:0:0:0:
192,192,88595,1,0,0:0:0:0:
320,192,88632,1,0,2:0:0:0:
448,192,88670,1,0,0:0:0:0:
64,192,88707,1,4,0:0:0:0:
192,192,88757,1,0,0:0:0:0:
448,192,88806,1,0,0:0:0:0:
320,192,88856,1,2,0:0:0:0:
192,192,88906,1,0,0:0:0:0:
64,192,88955,1,0,0:0:0:0:
320,192,89005,1,8,2:2:0:0:
448,192,89055,1,0,0:0:0:0:
192,192,89104,1,0,0:0:0:0:
64,192,89154,1,0,0:0:0:0:
448,192,89204,1,0,0:0:0:0:
320,192,89253,1,0,0:0:0:0:
192,192,89303,1,0,0:0:0:0:
64,192,89352,1,0,0:0:0:0:
320,192,89402,1,0,0:0:0:0:
192,192,89452,1,2,0:0:0:0:
448,192,89501,1,0,0:0:0:0:
320,192,89551,1,0,0:0:0:0:
64,192,89601,1,8,0:0:0:0:
192,192,89650,1,0,0:0:0:0:
320,192,89700,1,0,0:0:0:0:
448,192,89750,1,0,0:0:0:0:
192,192,89800,1,0,0:0:0:0:
320,192,89850,1,0,0:0:0:0:
64,192,89900,1,0,0:0:0:0:
192,192,89949,1,0,0:0:0:0:
320,192,89999,1,0,0:0:0:0:
448,192,90048,1,2,0:0:0:0:
64,192,90098,1,0,0:0:0:0:
192,192,90148,1,0,0:0:0:0:
320,192,90197,1,8,0:0:0:0:
64,192,90247,1,0,0:0:0:0:
192,192,90297,1,0,0:0:0:0:
448,192,90346,1,0,0:0:0:0:
320,192,90396,1,0,0:0:0:0:
192,192,90446,1,0,0:0:0:0:
64,192,90495,1,0,0:0:0:0:
448,192,90545,1,0,0:0:0:0:
320,192,90595,1,0,0:0:0:0:
192,192,90644,1,2,0:0:0:0:
448,192,90694,1,0,0:0:0:0:
320,192,90744,1,0,0:0:0:0:
64,192,90793,1,8,0:0:0:0:
192,192,90843,1,0,0:0:0:0:
320,192,90892,1,0,0:0:0:0:
448,192,90942,1,0,0:0:0:0:
192,192,90992,1,0,0:0:0:0:
64,192,91041,1,0,0:0:0:0:
320,192,91091,1,2,0:0:0:0:
192,192,91141,1,0,0:0:0:0:
448,192,91190,1,0,0:0:0:0:
320,192,91240,1,0,0:0:0:0:
64,192,91290,1,0,0:0:0:0:
192,192,91339,1,0,0:0:0:0:
320,192,91389,1,8,0:0:0:0:
448,192,91439,1,0,0:0:0:0:
192,192,91489,1,0,0:0:0:0:
320,192,91539,1,0,0:0:0:0:
64,192,91588,1,0,0:0:0:0:
192,192,91638,1,0,0:0:0:0:
320,192,91688,1,2,0:0:0:0:
448,192,91737,1,0,0:0:0:0:
192,192,91787,1,0,0:0:0:0:
64,192,91837,1,2,0:0:0:0:
320,192,91886,1,0,0:0:0:0:
448,192,91936,1,0,0:0:0:0:
192,192,91986,1,8,0:0:0:0:
64,192,92035,1,0,0:0:0:0:
448,192,92085,1,0,0:0:0:0:
320,192,92135,1,2,0:1:0:0:
192,192,92184,1,0,0:0:0:0:
64,192,92234,1,0,0:0:0:0:
320,192,92283,1,0,0:0:0:0:
192,192,92333,1,0,0:0:0:0:
448,192,92383,1,0,0:0:0:0:
320,192,92432,1,0,0:0:0:0:
64,192,92482,1,0,0:0:0:0:
192,192,92532,1,0,0:0:0:0:
448,192,92581,1,10,0:0:0:0:
320,192,92619,1,0,0:0:0:0:
192,192,92656,1,0,0:0:0:0:
64,192,92693,1,0,0:0:0:0:
448,192,92730,1,2,0:1:0:0:
320,192,92768,1,0,0:0:0:0:
192,192,92805,1,0,0:0:0:0:
64,192,92842,1,0,0:0:0:0:
448,192,92879,1,2,2:2:0:0:
320,192,92917,1,0,0:0:0:0:
192,192,92954,1,0,0:0:0:0:
64,192,92991,1,0,0:0:0:0:
448,192,93029,1,0,2:0:0:0:
320,192,93066,1,0,0:0:0:0:
192,192,93103,1,0,0:0:0:0:
64,192,93140,1,0,0:0:0:0:
448,192,93178,1,10,2:2:0:0:
320,192,93215,1,0,0:0:0:0:
192,192,93252,1,0,0:0:0:0:
64,192,93289,1,0,0:0:0:0:
448,192,93327,1,8,0:0:0:0:
320,192,93364,1,0,0:0:0:0:
192,192,93401,1,8,0:0:0:0:
64,192,93439,1,0,0:0:0:0:
320,192,93476,1,4,0:0:0:0:
448,192,93526,1,0,0:0:0:0:
192,192,93575,1,0,0:0:0:0:
320,192,93625,1,2,0:0:0:0:
64,192,93675,1,0,0:0:0:0:
192,192,93724,1,0,0:0:0:0:
320,192,93774,1,8,2:2:0:0:
448,192,93823,1,0,0:0:0:0:
192,192,93873,1,0,0:0:0:0:
64,192,93923,1,0,0:0:0:0:
320,192,93972,1,0,0:0:0:0:
192,192,94022,1,0,0:0:0:0:
448,192,94072,1,0,0:0:0:0:
320,192,94121,1,0,0:0:0:0:
192,192,94171,1,0,0:0:0:0:
64,192,94221,1,2,0:0:0:0:
320,192,94270,1,0,0:0:0:0:
448,192,94320,1,0,0:0:0:0:
192,192,94370,1,8,0:0:0:0:
64,192,94419,1,0,0:0:0:0:
320,192,94469,1,0,0:0:0:0:
192,192,94519,1,0,0:0:0:0:
448,192,94569,1,0,0:0:0:0:
320,192,94619,1,0,0:0:0:0:
64,192,94668,1,0,0:0:0:0:
192,192,94718,1,0,0:0:0:0:
320,192,94768,1,0,0:0:0:0:
64,192,94817,1,2,0:0:0:0:
192,192,94867,1,0,0:0:0:0:
448,192,94917,1,0,0:0:0:0:
320,192,94966,1,8,0:0:0:0:
192,192,95016,1,0,0:0:0:0:
64,192,95066,1,0,0:0:0:0:
448,192,95115,1,0,0:0:0:0:
320,192,95165,1,0,0:0:0:0:
192,192,95215,1,0,0:0:0:0:
448,192,95264,1,0,0:0:0:0:
320,192,95314,1,0,0:0:0:0:
64,192,95363,1,0,0:0:0:0:
192,192,95413,1,2,0:0:0:0:
320,192,95463,1,0,0:0:0:0:
448,192,95512,1,0,0:0:0:0:
192,192,95562,1,8,0:0:0:0:
320,192,95612,1,0,0:0:0:0:
64,192,95661,1,0,0:0:0:0:
192,192,95711,1,0,0:0:0:0:
320,192,95761,1,0,0:0:0:0:
448,192,95810,1,0,0:0:0:0:
192,192,95860,1,0,0:0:0:0:
64,192,95910,1,0,0:0:0:0:
320,192,95959,1,0,0:0:0:0:
192,192,96009,1,2,0:0:0:0:
64,192,96059,1,0,0:0:0:0:
448,192,96109,1,0,0:0:0:0:
320,192,96159,1,8,0:0:0:0:
192,192,96208,1,0,0:0:0:0:
64,192,96258,1,0,0:0:0:0:
320,192,96308,1,0,0:0:0:0:
448,192,96357,1,0,0:0:0:0:
192,192,96407,1,0,0:0:0:0:
320,192,96457,1,0,0:0:0:0:
448,192,96506,1,0,0:0:0:0:
64,192,96556,1,0,0:0:0:0:
192,192,96606,1,2,0:0:0:0:
320,192,96655,1,0,0:0:0:0:
448,192,96705,1,0,0:0:0:0:
320,192,96755,1,8,0:0:0:0:
192,192,96804,1,0,0:0:0:0:
64,192,96854,1,0,0:0:0:0:
192,192,96903,1,0,0:0:0:0:
320,192,96953,1,0,0:0:0:0:
448,192,97003,1,0,0:0:0:0:
192,192,97052,1,2,0:0:0:0:
64,192,97102,1,0,0:0:0:0:
320,192,97152,1,0,0:0:0:0:
448,192,97201,1,2,0:0:0:0:
192,192,97251,1,0,0:0:0:0:
64,192,97301,1,0,0:0:0:0:
320,192,97350,1,8,0:0:0:0:
448,192,97400,1,0,0:0:0:0:
192,192,97450,1,0,0:0:0:0:
64,192,97499,1,0,0:0:0:0:
448,192,97549,1,0,0:0:0:0:
320,192,97599,1,0,0:0:0:0:
64,192,97649,1,0,0:0:0:0:
192,192,97699,1,0,0:0:0:0:
448,192,97748,1,0,0:0:0:0:
320,192,97798,1,0,2:0:0:0:
64,192,97848,1,0,0:0:0:0:
192,192,97897,1,0,0:0:0:0:
448,192,97947,1,8,0:0:0:0:
320,192,97997,1,0,0:0:0:0:
64,192,98046,1,0,0:0:0:0:
192,192,98096,1,0,0:0:0:0:
320,192,98146,1,0,0:0:0:0:
448,192,98195,1,0,0:0:0:0:
64,192,98245,128,0,98319:0:0:0:0:
192,192,98245,128,0,98319:0:0:0:0:
320,192,98319,128,0,98394:0:0:0:0:
448,192,98394,128,0,98469:0:0:0:0:
192,192,98469,128,0,98543:0:0:0:0:
64,192,98543,128,0,98618:0:0:0:0:
320,192,98543,128,0,98618:0:0:0:0:
448,192,98618,128,0,98692:0:0:0:0:
192,192,98692,128,0,98767:0:0:0:0:
64,192,98767,128,8,98841:0:0:0:0:
320,192,98841,128,0,98916:0:0:0:0:
448,192,98841,128,0,98916:0:0:0:0:
192,192,98916,128,0,98990:0:0:0:0:
64,192,98990,128,0,99065:0:0:0:0:
320,192,99065,128,0,99139:0:0:0:0:
448,192,99139,128,0,99213:0:0:0:0:
192,192,99139,128,0,99213:0:0:0:0:
64,192,99213,128,0,99288:0:0:0:0:
320,192,99288,128,0,99362:0:0:0:0:
448,192,99362,128,2,99437:0:0:0:0:
192,192,99437,128,0,99511:0:0:0:0:
64,192,99437,128,0,99511:0:0:0:0:
320,192,99511,128,0,99586:0:0:0:0:
448,192,99586,128,0,99660:0:0:0:0:
192,192,99660,128,0,99735:0:0:0:0:
64,192,99660,128,0,99735:0:0:0:0:
320,192,99735,128,0,99809:0:0:0:0:
448,192,99809,128,0,99884:0:0:0:0:
192,192,99884,128,0,99959:0:0:0:0:
320,192,99959,128,8,100033:0:0:0:0:
64,192,99959,128,8,100033:0:0:0:0:
448,192,100033,128,0,100108:0:0:0:0:
192,192,100108,128,0,100182:0:0:0:0:
64,192,100182,128,0,100257:0:0:0:0:
448,192,100257,128,0,100331:0:0:0:0:
320,192,100331,128,0,100406:0:0:0:0:
192,192,100331,128,0,100406:0:0:0:0:
64,192,100406,128,0,100480:0:0:0:0:
448,192,100480,128,0,100555:0:0:0:0:
64,192,100629,1,4,2:2:0:0:
192,192,100667,1,0,0:0:0:0:
320,192,100704,1,0,0:0:0:0:
448,192,100741,1,0,0:0:0:0:
64,192,100779,1,0,0:0:0:0:
192,192,100816,1,0,0:0:0:0:
320,192,100853,1,0,0:0:0:0:
448,192,100890,1,0,0:0:0:0:
64,192,100928,1,0,0:0:0:0:
192,192,100965,1,0,0:0:0:0:
320,192,101002,1,0,0:0:0:0:
448,192,101039,1,0,0:0:0:0:
64,192,101077,1,0,0:0:0:0:
192,192,101114,1,0,0:0:0:0:
320,192,101151,1,0,0:0:0:0:
448,192,101189,1,0,0:0:0:0:
64,192,101226,1,0,0:0:0:0:
192,192,101263,1,0,0:0:0:0:
320,192,101300,1,0,0:0:0:0:
448,192,101338,1,0,0:0:0:0:
64,192,101374,1,0,0:0:0:0:
192,192,101411,1,0,0:0:0:0:
320,192,101449,1,0,0:0:0:0:
448,192,101486,1,0,0:0:0:0:
64,192,101523,1,0,0:0:0:0:
192,192,101560,1,0,0:0:0:0:
320,192,101598,1,0,0:0:0:0:
448,192,101635,1,0,0:0:0:0:
64,192,101672,1,0,0:0:0:0:
192,192,101709,1,0,0:0:0:0:
320,192,101747,1,0,0:0:0:0:
448,192,101784,1,0,0:0:0:0:
64,192,101821,1,8,2:2:0:0:
192,192,101896,1,0,0:0:0:0:
448,192,101970,1,0,2:0:0:0:
64,192,101970,1,0,2:0:0:0:
320,192,102045,1,0,2:0:0:0:
64,192,102119,1,0,2:0:0:0:
448,192,102119,1,0,2:0:0:0:
192,192,102194,1,0,0:0:0:0:
448,192,102269,1,8,2:2:0:0:
320,192,102306,1,0,0:0:0:0:
192,192,102343,1,0,0:0:0:0:
64,192,102380,1,0,0:0:0:0:
448,192,102418,1,0,2:0:0:0:
320,192,102455,1,0,0:0:0:0:
192,192,102492,1,0,2:0:0:0:
64,192,102529,1,0,0:0:0:0:
448,192,102567,1,0,2:0:0:0:
320,192,102604,1,0,0:0:0:0:
192,192,102641,1,0,0:0:0:0:
64,192,102679,1,0,0:0:0:0:
448,192,102716,1,8,2:2:0:0:
320,192,102753,1,0,0:0:0:0:
192,192,102790,1,0,0:0:0:0:
64,192,102828,1,0,0:0:0:0:
448,192,102865,1,4,2:2:0:0:
320,192,102902,1,0,0:0:0:0:
192,192,102939,1,0,0:0:0:0:
64,192,102977,1,0,0:0:0:0:
320,192,103014,1,0,0:0:0:0:
448,192,103063,1,0,0:0:0:0:
192,192,103113,1,0,0:0:0:0:
64,192,103163,1,0,2:0:0:0:
448,192,103212,1,0,0:0:0:0:
320,192,103262,1,0,0:0:0:0:
192,192,103312,1,8,0:0:0:0:
64,192,103361,1,0,0:0:0:0:
192,192,103411,1,0,0:0:0:0:
320,192,103461,1,0,0:0:0:0:
448,192,103510,1,0,0:0:0:0:
64,192,103560,1,0,0:0:0:0:
192,192,103610,1,0,2:0:0:0:
320,192,103659,1,0,0:0:0:0:
448,192,103709,1,0,0:0:0:0:
320,192,103759,1,0,2:0:0:0:
192,192,103809,1,0,0:0:0:0:
64,192,103859,1,0,0:0:0:0:
448,192,103908,1,8,0:0:0:0:
320,192,103958,1,0,0:0:0:0:
192,192,104008,1,0,0:0:0:0:
64,192,104057,1,0,2:0:0:0:
320,192,104107,1,0,0:0:0:0:
448,192,104157,1,0,0:0:0:0:
64,192,104206,1,0,2:0:0:0:
192,192,104256,1,0,0:0:0:0:
320,192,104306,1,0,0:0:0:0:
448,192,104355,1,0,2:0:0:0:
64,192,104405,1,0,0:0:0:0:
192,192,104454,1,0,0:0:0:0:
320,192,104504,1,8,0:0:0:0:
64,192,104554,1,0,0:0:0:0:
192,192,104603,1,0,0:0:0:0:
448,192,104653,1,0,2:0:0:0:
320,192,104703,1,0,0:0:0:0:
192,192,104752,1,0,0:0:0:0:
64,192,104802,1,0,2:0:0:0:
448,192,104852,1,0,0:0:0:0:
320,192,104901,1,0,0:0:0:0:
192,192,104951,1,0,2:0:0:0:
448,192,105001,1,0,0:0:0:0:
320,192,105050,1,0,0:0:0:0:
64,192,105100,1,8,0:0:0:0:
192,192,105150,1,0,0:0:0:0:
448,192,105199,1,0,0:0:0:0:
320,192,105249,1,0,2:0:0:0:
192,192,105299,1,0,0:0:0:0:
64,192,105349,1,0,0:0:0:0:
320,192,105399,1,0,0:0:0:0:
448,192,105448,1,0,0:0:0:0:
192,192,105498,1,0,0:0:0:0:
320,192,105548,1,0,2:0:0:0:
448,192,105597,1,0,0:0:0:0:
64,192,105647,1,0,0:0:0:0:
192,192,105697,1,8,0:0:0:0:
320,192,105746,1,0,0:0:0:0:
448,192,105796,1,0,0:0:0:0:
192,192,105846,1,0,2:0:0:0:
64,192,105895,1,0,0:0:0:0:
320,192,105945,1,0,0:0:0:0:
192,192,105994,1,0,2:0:0:0:
64,192,106044,1,0,0:0:0:0:
448,192,106094,1,0,0:0:0:0:
320,192,106143,1,0,2:0:0:0:
192,192,106193,1,0,0:0:0:0:
64,192,106243,1,0,0:0:0:0:
320,192,106292,1,8,0:0:0:0:
448,192,106342,1,0,0:0:0:0:
192,192,106392,1,0,0:0:0:0:
320,192,106441,1,0,2:0:0:0:
64,192,106491,1,0,0:0:0:0:
192,192,106541,1,0,0:0:0:0:
448,192,106590,1,0,2:0:0:0:
320,192,106640,1,0,0:0:0:0:
192,192,106689,1,0,0:0:0:0:
64,192,106739,1,8,2:2:0:0:
320,192,106789,1,0,0:0:0:0:
192,192,106839,1,0,0:0:0:0:
448,192,106889,1,8,0:0:0:0:
320,192,106939,1,0,0:0:0:0:
192,192,106988,1,0,0:0:0:0:
64,192,107038,1,0,2:0:0:0:
320,192,107088,1,0,0:0:0:0:
448,192,107137,1,0,0:0:0:0:
64,192,107187,1,8,0:0:0:0:
192,192,107224,1,0,0:0:0:0:
320,192,107261,1,0,2:0:0:0:
448,192,107299,1,0,0:0:0:0:
64,192,107336,1,0,2:0:0:0:
192,192,107373,1,0,0:0:0:0:
320,192,107410,1,0,0:0:0:0:
448,192,107448,1,0,0:0:0:0:
64,192,107485,1,8,2:2:0:0:
192,192,107522,1,0,0:0:0:0:
320,192,107559,1,0,2:0:0:0:
448,192,107597,1,0,0:0:0:0:
64,192,107634,1,4,2:2:0:0:
192,192,107671,1,0,0:0:0:0:
320,192,107709,1,0,0:0:0:0:
448,192,107746,1,0,0:0:0:0:
192,192,107783,1,0,0:0:0:0:
64,192,107832,1,0,0:0:0:0:
320,192,107882,1,0,0:0:0:0:
192,192,107932,1,0,2:0:0:0:
448,192,107981,1,0,0:0:0:0:
320,192,108031,1,0,0:0:0:0:
192,192,108081,1,8,0:0:0:0:
64,192,108130,1,0,0:0:0:0:
320,192,108180,1,0,0:0:0:0:
448,192,108229,1,0,2:0:0:0:
192,192,108279,1,0,0:0:0:0:
320,192,108329,1,0,0:0:0:0:
64,192,108379,1,0,2:0:0:0:
192,192,108429,1,0,0:0:0:0:
320,192,108479,1,0,0:0:0:0:
448,192,108528,1,0,2:0:0:0:
64,192,108578,1,0,0:0:0:0:
192,192,108628,1,0,0:0:0:0:
320,192,108677,1,8,0:0:0:0:
448,192,108727,1,0,0:0:0:0:
64,192,108777,1,0,0:0:0:0:
192,192,108826,1,0,2:0:0:0:
320,192,108876,1,0,0:0:0:0:
64,192,108926,1,0,0:0:0:0:
192,192,108975,1,0,2:0:0:0:
448,192,109025,1,0,0:0:0:0:
320,192,109074,1,0,0:0:0:0:
192,192,109124,1,0,2:0:0:0:
448,192,109174,1,0,0:0:0:0:
320,192,109223,1,0,0:0:0:0:
64,192,109273,1,8,0:0:0:0:
192,192,109323,1,0,0:0:0:0:
320,192,109372,1,0,0:0:0:0:
448,192,109422,1,0,2:0:0:0:
192,192,109472,1,0,0:0:0:0:
320,192,109521,1,0,0:0:0:0:
64,192,109571,1,0,2:0:0:0:
192,192,109621,1,0,0:0:0:0:
320,192,109670,1,0,0:0:0:0:
448,192,109720,1,0,2:0:0:0:
192,192,109769,1,0,0:0:0:0:
64,192,109819,1,0,0:0:0:0:
320,192,109869,1,8,0:0:0:0:
192,192,109919,1,0,0:0:0:0:
448,192,109969,1,0,0:0:0:0:
320,192,110019,1,0,2:0:0:0:
64,192,110068,1,0,0:0:0:0:
192,192,110118,1,0,0:0:0:0:
320,192,110168,1,0,0:0:0:0:
448,192,110217,1,0,0:0:0:0:
192,192,110267,1,0,0:0:0:0:
64,192,110317,1,0,2:0:0:0:
448,192,110366,1,0,0:0:0:0:
320,192,110416,1,0,0:0:0:0:
192,192,110465,1,8,0:0:0:0:
64,192,110515,1,0,0:0:0:0:
320,192,110565,1,0,0:0:0:0:
192,192,110614,1,0,2:0:0:0:
448,192,110664,1,0,0:0:0:0:
320,192,110714,1,0,0:0:0:0:
192,192,110763,1,0,2:0:0:0:
64,192,110813,1,0,0:0:0:0:
320,192,110863,1,0,0:0:0:0:
448,192,110912,1,0,0:0:0:0:
192,192,110962,1,0,0:0:0:0:
320,192,111012,1,0,0:0:0:0:
64,192,111061,1,0,0:0:0:0:
192,192,111111,1,0,0:0:0:0:
320,192,111161,1,0,0:0:0:0:
448,192,111210,1,0,0:0:0:0:
192,192,111260,1,0,0:0:0:0:
64,192,111309,1,0,0:0:0:0:
448,192,111359,1,0,0:0:0:0:
320,192,111359,1,0,0:0:0:0:
192,192,111434,1,0,0:0:0:0:
320,192,111509,1,0,0:0:0:0:
448,192,111509,1,0,0:0:0:0:
192,192,111583,1,0,0:0:0:0:
64,192,111583,1,0,0:0:0:0:
448,192,111658,1,0,0:0:0:0:
320,192,111658,1,0,0:0:0:0:
192,192,111732,1,0,0:0:0:0:
64,192,111732,1,0,0:0:0:0:
320,192,111807,1,0,0:0:0:0:
448,192,111807,1,0,0:0:0:0:
192,192,111881,1,0,0:0:0:0:
64,192,111881,1,0,0:0:0:0:
320,192,111956,1,0,0:0:0:0:
192,192,112030,1,0,0:0:0:0:
64,192,112030,1,0,0:0:0:0:
448,192,112105,1,0,2:0:0:0:
320,192,112105,1,0,0:0:0:0:
192,192,112179,1,0,0:0:0:0:
448,192,112254,1,0,2:0:0:0:
320,192,112254,1,0,0:0:0:0:
192,192,112329,1,0,0:0:0:0:
64,192,112329,1,0,0:0:0:0:
320,192,112403,1,0,0:0:0:0:
192,192,112478,1,0,0:0:0:0:
64,192,112478,1,0,0:0:0:0:
448,192,112552,1,4,2:2:0:0:
320,192,112552,1,0,0:0:0:0:
192,192,112627,1,0,0:0:0:0:
64,192,112701,1,0,0:0:0:0:
320,192,112701,1,0,0:0:0:0:
448,192,112775,1,0,0:0:0:0:
64,192,112849,1,8,0:0:0:0:
192,192,112887,1,0,0:0:0:0:
320,192,112924,1,0,0:0:0:0:
448,192,112961,1,0,0:0:0:0:
64,192,112999,1,0,0:0:0:0:
320,192,113073,1,0,0:0:0:0:
192,192,113148,1,0,0:0:0:0:
448,192,113148,1,0,0:0:0:0:
320,192,113222,1,0,0:0:0:0:
192,192,113297,1,0,0:0:0:0:
64,192,113371,1,0,0:0:0:0:
448,192,113446,1,8,0:0:0:0:
320,192,113483,1,0,0:0:0:0:
192,192,113520,1,0,0:0:0:0:
64,192,113558,1,0,0:0:0:0:
448,192,113595,1,0,0:0:0:0:
320,192,113669,1,0,0:0:0:0:
64,192,113744,1,2,0:0:0:0:
192,192,113744,1,2,0:0:0:0:
448,192,113819,1,0,0:0:0:0:
320,192,113893,1,0,0:0:0:0:
192,192,113893,1,0,0:0:0:0:
448,192,113968,1,0,0:0:0:0:
64,192,114042,1,10,0:0:0:0:
192,192,114079,1,0,0:0:0:0:
320,192,114117,1,0,0:0:0:0:
448,192,114154,1,0,0:0:0:0:
64,192,114191,1,0,0:0:0:0:
192,192,114266,1,0,0:0:0:0:
64,192,114340,1,2,0:0:0:0:
448,192,114340,1,2,0:0:0:0:
320,192,114415,1,0,0:0:0:0:
192,192,114489,1,0,0:0:0:0:
448,192,114489,1,0,0:0:0:0:
64,192,114564,1,0,0:0:0:0:
448,192,114639,1,10,0:0:0:0:
320,192,114676,1,0,0:0:0:0:
192,192,114713,1,0,0:0:0:0:
64,192,114750,1,0,0:0:0:0:
448,192,114788,1,0,0:0:0:0:
320,192,114862,1,0,0:0:0:0:
448,192,114937,1,2,0:0:0:0:
64,192,114937,1,2,0:0:0:0:
192,192,115010,1,0,0:0:0:0:
320,192,115085,1,0,0:0:0:0:
64,192,115085,1,0,0:0:0:0:
448,192,115159,1,0,0:0:0:0:
64,192,115234,1,8,0:0:0:0:
192,192,115271,1,0,0:0:0:0:
320,192,115309,1,0,0:0:0:0:
448,192,115346,1,0,0:0:0:0:
64,192,115383,1,0,0:0:0:0:
192,192,115458,1,0,0:0:0:0:
320,192,115532,1,2,0:0:0:0:
448,192,115532,1,2,0:0:0:0:
64,192,115607,1,0,0:0:0:0:
320,192,115681,1,0,0:0:0:0:
192,192,115681,1,0,0:0:0:0:
64,192,115756,1,0,0:0:0:0:
448,192,115830,1,8,0:0:0:0:
320,192,115868,1,0,0:0:0:0:
192,192,115905,1,0,0:0:0:0:
64,192,115942,1,0,0:0:0:0:
448,192,115979,1,4,0:0:0:0:
320,192,116054,1,0,2:0:0:0:
64,192,116129,1,2,0:0:0:0:
192,192,116129,1,2,0:0:0:0:
320,192,116203,1,0,0:0:0:0:
448,192,116278,1,0,0:0:0:0:
192,192,116278,1,0,0:0:0:0:
320,192,116352,1,0,0:0:0:0:
64,192,116427,1,8,0:0:0:0:
192,192,116427,1,0,0:0:0:0:
320,192,116501,1,0,0:0:0:0:
448,192,116501,1,0,0:0:0:0:
192,192,116576,1,0,0:0:0:0:
320,192,116650,1,0,0:0:0:0:
448,192,116650,1,0,0:0:0:0:
64,192,116725,1,2,0:0:0:0:
192,192,116725,1,0,0:0:0:0:
320,192,116799,1,0,0:0:0:0:
192,192,116874,1,0,0:0:0:0:
64,192,116874,1,0,0:0:0:0:
320,192,116949,1,0,0:0:0:0:
448,192,116949,1,0,0:0:0:0:
192,192,117023,1,0,0:0:0:0:
320,192,117098,1,0,0:0:0:0:
448,192,117098,1,0,0:0:0:0:
64,192,117172,1,8,0:0:0:0:
192,192,117172,1,0,0:0:0:0:
320,192,117247,1,0,2:0:0:0:
448,192,117247,1,0,0:0:0:0:
64,192,117320,1,4,0:0:0:0:
192,192,117320,1,0,0:0:0:0:
320,192,117395,1,0,0:0:0:0:
192,192,117469,1,0,0:0:0:0:
64,192,117544,1,0,0:0:0:0:
448,192,117619,1,8,0:0:0:0:
320,192,117656,1,0,0:0:0:0:
192,192,117693,1,0,0:0:0:0:
64,192,117730,1,0,0:0:0:0:
448,192,117768,1,0,0:0:0:0:
320,192,117842,1,0,0:0:0:0:
64,192,117917,1,0,0:0:0:0:
192,192,117917,1,0,0:0:0:0:
448,192,117991,1,0,0:0:0:0:
320,192,118066,1,0,0:0:0:0:
192,192,118066,1,0,0:0:0:0:
448,192,118140,1,0,0:0:0:0:
64,192,118215,1,8,0:0:0:0:
192,192,118252,1,0,0:0:0:0:
320,192,118289,1,0,0:0:0:0:
448,192,118327,1,0,0:0:0:0:
64,192,118364,1,0,0:0:0:0:
192,192,118439,1,0,0:0:0:0:
448,192,118513,1,2,0:0:0:0:
64,192,118513,1,2,0:0:0:0:
320,192,118588,1,0,0:0:0:0:
192,192,118662,1,8,0:0:0:0:
448,192,118662,1,8,0:0:0:0:
64,192,118737,1,0,0:0:0:0:
448,192,118811,1,8,0:0:0:0:
320,192,118849,1,0,0:0:0:0:
192,192,118886,1,0,0:0:0:0:
64,192,118923,1,0,0:0:0:0:
448,192,118960,1,0,2:0:0:0:
320,192,118960,1,0,2:0:0:0:
192,192,119035,1,0,0:0:0:0:
64,192,119035,1,0,0:0:0:0:
448,192,119109,1,10,0:0:0:0:
320,192,119147,1,0,0:0:0:0:
192,192,119184,1,0,0:0:0:0:
64,192,119221,1,0,0:0:0:0:
448,192,119259,1,0,0:0:0:0:
320,192,119296,1,0,0:0:0:0:
192,192,119333,1,0,0:0:0:0:
64,192,119370,1,0,0:0:0:0:
448,192,119408,1,0,2:0:0:0:
320,192,119445,1,0,0:0:0:0:
192,192,119482,1,0,0:0:0:0:
64,192,119519,1,0,0:0:0:0:
448,192,119556,1,8,0:0:0:0:
320,192,119593,1,0,0:0:0:0:
192,192,119630,1,0,0:0:0:0:
64,192,119668,1,0,0:0:0:0:
448,192,119705,1,4,0:0:0:0:
320,192,119705,1,4,0:0:0:0:
320,192,119854,1,0,0:0:0:0:
448,192,119854,1,0,0:0:0:0:
192,192,120003,1,0,0:0:0:0:
320,192,120003,1,0,0:0:0:0:
448,192,120003,1,0,0:0:0:0:
64,192,120152,1,0,0:0:0:0:
320,192,120152,1,0,0:0:0:0:
64,192,120301,1,0,0:0:0:0:
192,192,120301,1,0,0:0:0:0:
320,192,120301,1,0,0:0:0:0:
192,192,120450,1,0,0:0:0:0:
448,192,120450,1,0,0:0:0:0:
448,192,120599,1,0,0:0:0:0:
320,192,120599,1,0,0:0:0:0:
192,192,120599,1,0,0:0:0:0:
192,192,120749,1,0,0:0:0:0:
320,192,120749,1,0,0:0:0:0:
64,192,120898,1,0,0:0:0:0:
320,192,120898,1,0,0:0:0:0:
448,192,120898,1,0,0:0:0:0:
192,192,121047,1,0,0:0:0:0:
320,192,121047,1,0,0:0:0:0:
64,192,121196,1,0,0:0:0:0:
192,192,121196,1,0,0:0:0:0:
448,192,121196,1,0,0:0:0:0:
64,192,121345,1,0,0:0:0:0:
192,192,121345,1,0,0:0:0:0:
448,192,121494,1,0,0:0:0:0:
320,192,121494,1,0,0:0:0:0:
192,192,121494,1,0,0:0:0:0:
320,192,121643,1,0,0:0:0:0:
448,192,121643,1,0,0:0:0:0:
64,192,121792,1,0,0:0:0:0:
192,192,121792,1,0,0:0:0:0:
320,192,121792,1,0,0:0:0:0:
64,192,121940,1,0,0:0:0:0:
192,192,121940,1,0,0:0:0:0:
448,192,122089,128,0,122239:0:0:0:0:
64,192,122089,1,0,0:0:0:0:
192,192,122089,1,0,0:0:0:0:
320,192,122239,128,0,122388:0:0:0:0:
448,192,122388,1,0,0:0:0:0:
192,192,122388,128,0,122537:0:0:0:0:
64,192,122537,128,0,122686:0:0:0:0:
448,192,122537,128,0,122686:0:0:0:0:
320,192,122686,128,0,122835:0:0:0:0:
192,192,122686,1,0,0:0:0:0:
192,192,122835,128,0,122984:0:0:0:0:
64,192,122984,128,0,123133:0:0:0:0:
448,192,122984,128,0,123133:0:0:0:0:
320,192,122984,1,0,0:0:0:0:
320,192,123133,128,0,123282:0:0:0:0:
192,192,123282,128,0,123431:0:0:0:0:
448,192,123282,1,0,0:0:0:0:
64,192,123431,128,0,123580:0:0:0:0:
448,192,123431,128,0,123580:0:0:0:0:
320,192,123580,128,0,123729:0:0:0:0:
192,192,123580,1,0,0:0:0:0:
192,192,123729,128,6,123879:0:0:0:0:
64,192,123879,128,0,124028:0:0:0:0:
320,192,123879,1,6,0:1:0:0:
448,192,124028,128,4,124474:0:0:0:0:
192,192,124028,1,0,0:0:0:0:
64,192,124474,128,0,124623:0:0:0:0:
192,192,124474,1,4,2:2:0:0:
320,192,124623,128,0,124772:0:0:0:0:
192,192,124772,128,0,124921:0:0:0:0:
448,192,124772,1,0,0:0:0:0:
320,192,124921,128,0,125219:0:0:0:0:
64,192,124921,1,0,0:0:0:0:
64,192,125219,128,0,125518:0:0:0:0:
192,192,125219,1,0,0:0:0:0:
448,192,125518,128,0,135354:0:0:0:0:
320,192,125518,1,0,0:0:0:0:
192,192,125518,128,0,132075:0:0:0:0:
