osu file format v14

[General]
AudioFilename: audio_0.9_P.mp3
AudioLeadIn: 0
PreviewTime: 101773
Countdown: 0
SampleSet: None
StackLeniency: 0.5
Mode: 3
LetterboxInBreaks: 0
SpecialStyle: 0
WidescreenStoryboard: 1

[Editor]
Bookmarks: 67618,101864,120077,137565
DistanceSpacing: 0.8
BeatDivisor: 4
GridSize: 4
TimelineZoom: 1.999999

[Metadata]
Title:Watashitachi wa Mirai no Hana
TitleUnicode:私たちは未来の花
Artist:Sonoda Umi (CV.Mimori Suzuko)
ArtistUnicode:園田海未(CV.三森すずこ)
Creator:DakkyChan
Version:Dakky's Love Arrow Shoot x0.9
Source:ラブライブ! School idol project
Tags:Love Live 海色少女に魅せられて μ's u's 7odoa
BeatmapID:1864818
BeatmapSetID:803990

[Difficulty]
HPDrainRate:7
CircleSize:4
OverallDifficulty:8
ApproachRate:9.3
SliderMultiplier:1.8
SliderTickRate:1

[Events]
//Background and Video events
0,0,"BG Umi.jpg",0,0
//Break Periods
//Storyboard Layer 0 (Background)
//Storyboard Layer 1 (Fail)
//Storyboard Layer 2 (Pass)
//Storyboard Layer 3 (Foreground)
//Storyboard Sound Samples

[TimingPoints]
4498,1010.10101010101,4,2,10,55,1,0
4498,-36.101083032491,4,2,10,55,0,0
7528,-36.101083032491,4,2,10,55,0,0
16618,364.298724954462,4,2,1,70,1,0
102592,-100,4,2,10,70,0,1
120078,-100,4,2,1,70,0,0
125907,-100,4,2,10,70,0,1
137565,-100,4,2,1,70,0,0

[Colours]
Combo1 : 255,128,128
Combo2 : 128,128,255
Combo3 : 0,128,192
Combo4 : 255,128,255

[HitObjects]
64,192,7528,128,0,8033:0:0:0:0:
192,192,7528,128,0,8538:0:0:0:0:
448,192,7528,1,0,0:0:0:0:
320,192,7528,1,0,0:0:0:0:
448,192,8033,128,0,8538:0:0:0:0:
320,192,8033,1,0,0:0:0:0:
64,192,8538,128,0,9548:0:0:0:0:
320,192,8538,1,0,0:0:0:0:
448,192,8791,1,0,0:0:0:0:
320,192,9043,128,0,10054:0:0:0:0:
448,192,9043,1,0,0:0:0:0:
192,192,9296,1,0,0:0:0:0:
448,192,9548,128,0,10558:0:0:0:0:
192,192,9548,1,0,0:0:0:0:
64,192,9801,1,0,0:0:0:0:
192,192,10054,128,0,11064:0:0:0:0:
64,192,10054,1,0,0:0:0:0:
320,192,10306,1,0,0:0:0:0:
64,192,10558,128,8,11568:0:0:0:0:
320,192,10558,1,0,0:0:0:0:
448,192,10811,1,0,0:0:0:0:
320,192,11064,128,0,12074:0:0:0:0:
448,192,11064,1,0,0:0:0:0:
192,192,11316,1,0,0:0:0:0:
448,192,11568,128,4,12578:0:0:0:0:
192,192,11568,1,8,0:0:0:0:
64,192,11821,1,0,0:0:0:0:
192,192,12074,128,0,13084:0:0:0:0:
64,192,12074,1,0,0:0:0:0:
320,192,12326,1,0,0:0:0:0:
64,192,12578,128,8,13588:0:0:0:0:
320,192,12578,1,4,0:0:0:0:
448,192,12832,1,0,0:0:0:0:
320,192,13084,128,0,16620:0:0:0:0:
448,192,13084,1,0,0:0:0:0:
192,192,13336,1,0,0:0:0:0:
448,192,13588,128,0,16114:0:0:0:0:
192,192,13588,1,8,0:0:0:0:
64,192,13842,1,0,0:0:0:0:
192,192,14094,128,0,16620:0:0:0:0:
64,192,14094,1,8,0:0:0:0:
64,192,14346,1,0,0:0:0:0:
64,192,14598,128,0,16618:0:0:0:0:
448,192,16618,128,0,16982:0:0:0:0:
64,192,16982,128,0,17346:0:0:0:0:
192,192,16982,1,0,0:0:0:0:
320,192,16982,1,0,0:0:0:0:
448,192,17346,128,0,17528:0:0:0:0:
192,192,17346,1,0,3:0:0:0:
320,192,17346,1,0,3:0:0:0:
64,192,17528,128,0,17893:0:0:0:0:
320,192,17528,1,0,3:0:0:0:
192,192,17528,1,0,3:0:0:0:
192,192,17893,1,0,0:0:0:0:
448,192,17893,128,0,18621:0:0:0:0:
320,192,17893,128,0,18621:0:0:0:0:
64,192,18074,1,0,0:0:0:0:
192,192,18256,1,0,0:0:0:0:
64,192,18438,1,0,0:0:0:0:
192,192,18621,128,0,18803:0:0:0:0:
448,192,18803,128,0,18985:0:0:0:0:
64,192,18985,128,0,19167:0:0:0:0:
192,192,18985,128,0,19167:0:0:0:0:
320,192,19167,128,0,19350:0:0:0:0:
64,192,19350,128,0,20078:0:0:0:0:
192,192,19350,128,0,20078:0:0:0:0:
448,192,19532,1,0,0:0:0:0:
320,192,19714,1,0,0:0:0:0:
448,192,19896,1,0,0:0:0:0:
320,192,20078,128,0,20261:0:0:0:0:
64,192,20261,128,0,20443:0:0:0:0:
320,192,20443,128,0,20625:0:0:0:0:
448,192,20443,128,0,20625:0:0:0:0:
192,192,20625,128,0,20806:0:0:0:0:
448,192,20806,1,0,0:0:0:0:
320,192,20897,1,0,0:0:0:0:
192,192,20988,1,0,0:0:0:0:
64,192,20988,1,0,0:0:0:0:
320,192,21080,1,0,0:0:0:0:
64,192,21171,1,0,0:0:0:0:
448,192,21171,1,0,0:0:0:0:
192,192,21262,1,0,0:0:0:0:
448,192,21353,1,0,0:0:0:0:
320,192,21353,1,0,0:0:0:0:
64,192,21444,1,0,0:0:0:0:
192,192,21535,1,0,0:0:0:0:
320,192,21535,1,0,0:0:0:0:
448,192,21626,1,0,0:0:0:0:
192,192,21717,1,0,0:0:0:0:
320,192,21717,1,0,0:0:0:0:
64,192,21808,1,0,0:0:0:0:
448,192,21900,1,0,0:0:0:0:
320,192,21900,1,0,0:0:0:0:
192,192,21991,1,0,0:0:0:0:
64,192,22082,1,0,0:0:0:0:
320,192,22082,1,0,0:0:0:0:
448,192,22173,1,0,0:0:0:0:
192,192,22264,1,0,0:0:0:0:
64,192,22264,1,0,0:0:0:0:
320,192,22355,1,0,0:0:0:0:
64,192,22446,1,0,0:0:0:0:
192,192,22446,1,0,0:0:0:0:
448,192,22537,1,0,0:0:0:0:
320,192,22537,1,0,0:0:0:0:
192,192,22628,1,0,0:0:0:0:
64,192,22628,1,0,0:0:0:0:
448,192,22720,1,0,0:0:0:0:
320,192,22720,1,0,0:0:0:0:
64,192,22811,1,0,0:0:0:0:
192,192,22811,1,0,0:0:0:0:
448,192,22902,1,0,0:0:0:0:
320,192,22902,1,0,0:0:0:0:
192,192,22993,1,0,0:0:0:0:
448,192,23084,1,0,0:0:0:0:
320,192,23084,1,0,0:0:0:0:
192,192,23175,1,0,0:0:0:0:
64,192,23175,1,0,3:0:0:0:
320,192,23266,1,0,0:0:0:0:
192,192,23357,1,0,0:0:0:0:
64,192,23357,1,0,3:0:0:0:
448,192,23447,1,0,0:0:0:0:
320,192,23447,1,0,0:0:0:0:
64,192,23538,1,0,0:0:0:0:
192,192,23538,1,0,0:0:0:0:
448,192,23630,1,0,0:0:0:0:
320,192,23630,1,0,0:0:0:0:
64,192,23721,1,0,0:0:0:0:
192,192,23766,1,0,0:0:0:0:
320,192,23812,1,0,0:0:0:0:
448,192,23857,1,0,0:0:0:0:
64,192,23903,1,0,0:0:0:0:
320,192,23993,1,0,0:0:0:0:
192,192,24084,1,0,0:0:0:0:
448,192,24084,1,0,0:0:0:0:
64,192,24175,1,0,0:0:0:0:
448,192,24266,1,8,0:0:0:0:
320,192,24312,1,0,0:0:0:0:
192,192,24357,1,0,0:0:0:0:
64,192,24403,1,0,0:0:0:0:
448,192,24448,1,0,0:0:0:0:
320,192,24540,1,0,0:0:0:0:
192,192,24631,1,0,0:0:0:0:
64,192,24631,1,0,0:0:0:0:
320,192,24722,1,0,0:0:0:0:
448,192,24813,1,0,0:0:0:0:
192,192,24813,1,0,0:0:0:0:
320,192,24904,1,0,0:0:0:0:
64,192,24995,1,8,0:0:0:0:
192,192,25041,1,0,0:0:0:0:
320,192,25086,1,0,0:0:0:0:
448,192,25132,1,0,0:0:0:0:
64,192,25177,1,0,0:0:0:0:
192,192,25268,1,0,0:0:0:0:
448,192,25360,1,2,0:0:0:0:
320,192,25360,1,2,0:0:0:0:
192,192,25451,1,0,0:0:0:0:
64,192,25542,1,0,0:0:0:0:
320,192,25542,1,0,0:0:0:0:
192,192,25633,1,0,0:0:0:0:
448,192,25724,1,10,0:0:0:0:
320,192,25770,1,0,0:0:0:0:
192,192,25815,1,0,0:0:0:0:
64,192,25861,1,0,0:0:0:0:
448,192,25906,1,0,0:0:0:0:
320,192,25997,1,0,0:0:0:0:
448,192,26088,1,2,0:0:0:0:
64,192,26088,1,2,0:0:0:0:
192,192,26180,1,0,0:0:0:0:
64,192,26271,1,0,0:0:0:0:
320,192,26271,1,0,0:0:0:0:
448,192,26362,1,0,0:0:0:0:
64,192,26453,1,10,0:0:0:0:
192,192,26498,1,0,0:0:0:0:
320,192,26544,1,0,0:0:0:0:
448,192,26590,1,0,0:0:0:0:
64,192,26635,1,0,0:0:0:0:
192,192,26725,1,0,0:0:0:0:
64,192,26816,1,2,0:0:0:0:
448,192,26816,1,2,0:0:0:0:
320,192,26907,1,0,0:0:0:0:
64,192,26998,1,0,0:0:0:0:
448,192,26998,1,0,0:0:0:0:
192,192,27090,1,0,0:0:0:0:
448,192,27181,1,10,0:0:0:0:
320,192,27226,1,0,0:0:0:0:
192,192,27272,1,0,0:0:0:0:
64,192,27317,1,0,0:0:0:0:
448,192,27363,1,0,0:0:0:0:
320,192,27454,1,0,0:0:0:0:
448,192,27545,1,2,0:0:0:0:
64,192,27545,1,2,0:0:0:0:
192,192,27636,1,0,0:0:0:0:
64,192,27727,1,0,0:0:0:0:
448,192,27727,1,0,0:0:0:0:
320,192,27818,1,0,0:0:0:0:
64,192,27910,1,8,0:0:0:0:
192,192,27955,1,0,0:0:0:0:
320,192,28001,1,0,0:0:0:0:
448,192,28046,1,0,0:0:0:0:
64,192,28092,1,4,0:0:0:0:
192,192,28183,1,0,3:0:0:0:
448,192,28274,1,2,0:0:0:0:
320,192,28274,1,2,0:0:0:0:
192,192,28365,1,0,0:0:0:0:
64,192,28456,1,0,0:0:0:0:
320,192,28456,1,0,0:0:0:0:
192,192,28547,1,0,0:0:0:0:
320,192,28638,1,0,0:0:0:0:
192,192,28730,1,0,0:0:0:0:
64,192,28730,1,0,0:0:0:0:
320,192,28821,1,0,0:0:0:0:
448,192,28821,1,0,0:0:0:0:
192,192,28912,1,0,0:0:0:0:
448,192,29003,1,2,0:0:0:0:
320,192,29003,1,0,0:0:0:0:
192,192,29094,1,0,0:0:0:0:
64,192,29094,1,0,0:0:0:0:
320,192,29185,1,0,0:0:0:0:
192,192,29276,1,0,0:0:0:0:
64,192,29276,1,0,0:0:0:0:
448,192,29367,1,8,0:0:0:0:
320,192,29367,1,0,0:0:0:0:
192,192,29457,1,0,0:0:0:0:
448,192,29548,1,8,0:0:0:0:
320,192,29548,1,0,0:0:0:0:
192,192,29640,1,0,3:0:0:0:
64,192,29640,1,0,0:0:0:0:
448,192,29731,1,4,0:0:0:0:
320,192,29731,1,0,0:0:0:0:
192,192,29822,1,0,0:0:0:0:
320,192,29913,1,0,0:0:0:0:
64,192,29913,1,0,0:0:0:0:
448,192,30004,1,0,0:0:0:0:
64,192,30095,1,8,0:0:0:0:
192,192,30141,1,0,0:0:0:0:
320,192,30186,1,0,0:0:0:0:
448,192,30232,1,0,0:0:0:0:
64,192,30277,1,0,0:0:0:0:
192,192,30368,1,0,0:0:0:0:
448,192,30460,1,0,0:0:0:0:
320,192,30460,1,0,0:0:0:0:
192,192,30551,1,0,0:0:0:0:
64,192,30642,1,0,0:0:0:0:
320,192,30642,1,0,0:0:0:0:
192,192,30733,1,0,0:0:0:0:
448,192,30824,1,8,0:0:0:0:
320,192,30870,1,0,0:0:0:0:
192,192,30915,1,0,0:0:0:0:
64,192,30961,1,0,0:0:0:0:
448,192,31006,1,0,0:0:0:0:
320,192,31097,1,0,0:0:0:0:
64,192,31188,1,2,0:0:0:0:
448,192,31188,1,2,0:0:0:0:
192,192,31280,1,0,0:0:0:0:
448,192,31371,1,8,0:0:0:0:
64,192,31371,1,8,0:0:0:0:
320,192,31462,1,0,0:0:0:0:
64,192,31553,1,8,0:0:0:0:
192,192,31598,1,0,0:0:0:0:
320,192,31644,1,0,0:0:0:0:
448,192,31690,1,0,0:0:0:0:
64,192,31735,1,0,3:0:0:0:
192,192,31735,1,0,3:0:0:0:
320,192,31826,1,0,0:0:0:0:
448,192,31826,1,0,0:0:0:0:
64,192,31917,1,10,0:0:0:0:
192,192,31963,1,0,0:0:0:0:
320,192,32008,1,0,0:0:0:0:
448,192,32054,1,0,0:0:0:0:
64,192,32100,1,0,0:0:0:0:
192,192,32145,1,0,0:0:0:0:
320,192,32191,1,0,0:0:0:0:
448,192,32235,1,0,0:0:0:0:
64,192,32281,1,0,3:0:0:0:
192,192,32326,1,0,0:0:0:0:
320,192,32372,1,0,0:0:0:0:
448,192,32417,1,0,0:0:0:0:
64,192,32463,1,8,0:0:0:0:
192,192,32508,1,0,0:0:0:0:
320,192,32554,1,0,0:0:0:0:
448,192,32600,1,0,0:0:0:0:
192,192,32645,1,6,0:0:0:0:
64,192,32645,1,6,0:0:0:0:
64,192,32827,1,0,0:0:0:0:
192,192,32827,1,0,0:0:0:0:
448,192,33010,1,0,3:0:0:0:
320,192,33010,1,0,3:0:0:0:
192,192,33010,1,0,3:0:0:0:
448,192,33192,1,0,0:0:0:0:
320,192,33192,1,0,0:0:0:0:
192,192,33374,1,0,0:0:0:0:
320,192,33374,1,0,0:0:0:0:
448,192,33374,1,0,0:0:0:0:
64,192,33556,1,0,0:0:0:0:
192,192,33556,1,0,0:0:0:0:
192,192,33738,1,0,3:0:0:0:
64,192,33738,1,0,3:0:0:0:
320,192,33738,1,0,3:0:0:0:
64,192,33921,1,0,0:0:0:0:
320,192,33921,1,0,0:0:0:0:
64,192,34103,1,0,0:0:0:0:
192,192,34103,1,0,0:0:0:0:
320,192,34103,1,0,0:0:0:0:
192,192,34285,1,0,0:0:0:0:
448,192,34285,1,0,0:0:0:0:
448,192,34467,1,0,3:0:0:0:
192,192,34467,1,0,3:0:0:0:
320,192,34467,1,0,3:0:0:0:
192,192,34650,1,0,0:0:0:0:
448,192,34650,1,0,0:0:0:0:
64,192,34832,1,0,0:0:0:0:
192,192,34832,1,0,0:0:0:0:
320,192,34832,1,0,0:0:0:0:
64,192,35013,1,0,0:0:0:0:
192,192,35013,1,0,0:0:0:0:
320,192,35195,1,0,3:0:0:0:
64,192,35195,1,0,3:0:0:0:
192,192,35195,1,0,3:0:0:0:
448,192,35377,1,0,0:0:0:0:
192,192,35377,1,0,0:0:0:0:
64,192,35560,128,0,35742:0:0:0:0:
448,192,35560,1,2,0:1:0:0:
320,192,35560,1,2,0:1:0:0:
192,192,35742,128,0,35924:0:0:0:0:
320,192,35924,128,0,36106:0:0:0:0:
64,192,35924,1,0,3:0:0:0:
448,192,36106,128,0,36288:0:0:0:0:
64,192,36106,128,0,36288:0:0:0:0:
192,192,36288,128,0,36471:0:0:0:0:
448,192,36471,1,0,0:0:0:0:
320,192,36471,128,0,36653:0:0:0:0:
448,192,36653,128,0,36835:0:0:0:0:
64,192,36653,128,0,36835:0:0:0:0:
192,192,36835,128,8,37017:0:0:0:0:
320,192,37017,128,0,37200:0:0:0:0:
64,192,37017,1,8,0:0:0:0:
448,192,37200,128,0,37382:0:0:0:0:
64,192,37200,128,0,37382:0:0:0:0:
192,192,37382,128,0,37564:0:0:0:0:
448,192,37564,1,0,3:0:0:0:
320,192,37564,128,2,37746:0:0:0:0:
448,192,37746,128,2,37927:0:0:0:0:
64,192,37746,1,2,3:1:0:0:
64,192,37927,128,4,38474:0:0:0:0:
320,192,37927,1,2,0:1:0:0:
192,192,37927,128,4,38474:0:0:0:0:
448,192,38474,128,0,38838:0:0:0:0:
320,192,38474,1,4,3:2:0:0:
192,192,38656,1,0,0:0:0:0:
64,192,38838,128,0,39203:0:0:0:0:
320,192,38838,1,0,3:0:0:0:
192,192,39021,1,0,3:0:0:0:
320,192,39203,128,0,39567:0:0:0:0:
192,192,39203,1,0,0:0:0:0:
448,192,39385,1,0,3:0:0:0:
192,192,39567,128,0,39932:0:0:0:0:
64,192,39567,1,0,0:0:0:0:
448,192,39750,1,0,3:0:0:0:
320,192,39932,128,0,40114:0:0:0:0:
64,192,39932,1,0,3:0:0:0:
448,192,40114,1,0,3:0:0:0:
192,192,40296,128,0,40478:0:0:0:0:
448,192,40296,1,0,3:0:0:0:
64,192,40296,1,0,3:0:0:0:
448,192,40478,128,0,40660:0:0:0:0:
320,192,40478,1,0,3:0:0:0:
64,192,40660,128,0,40842:0:0:0:0:
192,192,40660,1,0,3:0:0:0:
320,192,40842,1,0,3:0:0:0:
448,192,41024,128,4,41388:0:0:0:0:
192,192,41024,128,0,41206:0:0:0:0:
64,192,41206,128,4,41388:0:0:0:0:
320,192,41388,1,4,3:2:0:0:
192,192,41571,1,0,0:0:0:0:
64,192,41753,1,0,3:0:0:0:
448,192,41753,1,0,3:0:0:0:
320,192,41935,1,0,3:0:0:0:
448,192,42117,1,0,3:0:0:0:
192,192,42117,1,0,3:0:0:0:
64,192,42300,1,0,3:0:0:0:
320,192,42482,1,0,3:0:0:0:
192,192,42482,1,0,3:0:0:0:
448,192,42664,1,0,3:0:0:0:
320,192,42846,1,0,3:0:0:0:
192,192,42846,1,0,3:0:0:0:
64,192,43028,1,0,3:0:0:0:
448,192,43211,1,0,3:0:0:0:
320,192,43392,1,0,3:0:0:0:
192,192,43392,1,0,3:0:0:0:
448,192,43574,1,0,3:0:0:0:
64,192,43574,1,0,3:0:0:0:
192,192,43756,1,0,3:0:0:0:
320,192,43756,1,0,3:0:0:0:
64,192,43938,1,8,3:2:0:0:
320,192,43938,1,8,3:2:0:0:
192,192,43938,1,0,0:0:0:0:
192,192,44121,1,0,3:0:0:0:
320,192,44121,1,0,0:0:0:0:
448,192,44303,1,4,3:2:0:0:
320,192,44303,128,0,44667:0:0:0:0:
192,192,44303,1,0,0:0:0:0:
64,192,44485,1,0,0:0:0:0:
192,192,44667,128,0,45032:0:0:0:0:
448,192,44667,1,0,3:0:0:0:
64,192,44850,1,0,3:0:0:0:
448,192,45032,128,0,45396:0:0:0:0:
320,192,45032,1,0,0:0:0:0:
64,192,45214,1,0,0:0:0:0:
192,192,45396,1,0,0:0:0:0:
320,192,45578,128,0,46124:0:0:0:0:
64,192,45578,1,0,0:0:0:0:
448,192,45761,1,0,3:0:0:0:
192,192,45943,1,0,3:0:0:0:
192,192,46124,1,0,0:0:0:0:
64,192,46124,1,0,0:0:0:0:
448,192,46124,128,0,46488:0:0:0:0:
192,192,46306,1,0,3:0:0:0:
64,192,46306,1,0,0:0:0:0:
320,192,46488,128,8,46853:0:0:0:0:
64,192,46488,1,0,0:0:0:0:
192,192,46488,1,0,0:0:0:0:
64,192,46671,1,0,0:0:0:0:
448,192,46853,1,8,3:2:0:0:
192,192,46853,1,0,0:0:0:0:
64,192,46944,1,0,0:0:0:0:
192,192,47035,1,0,0:0:0:0:
448,192,47035,1,0,0:0:0:0:
320,192,47126,1,0,0:0:0:0:
64,192,47217,1,4,3:2:0:0:
192,192,47217,1,4,3:2:0:0:
320,192,47308,1,0,0:0:0:0:
448,192,47400,1,0,0:0:0:0:
64,192,47491,1,0,0:0:0:0:
192,192,47582,1,0,3:0:0:0:
320,192,47582,1,0,3:0:0:0:
448,192,47673,1,0,0:0:0:0:
64,192,47764,1,0,3:0:0:0:
192,192,47855,1,0,0:0:0:0:
448,192,47946,1,0,3:0:0:0:
320,192,47946,1,0,3:0:0:0:
192,192,48037,1,0,0:0:0:0:
64,192,48128,1,0,3:0:0:0:
448,192,48220,1,0,0:0:0:0:
320,192,48311,1,0,3:0:0:0:
192,192,48311,1,0,3:0:0:0:
64,192,48402,1,0,0:0:0:0:
448,192,48493,1,0,3:0:0:0:
320,192,48584,1,0,0:0:0:0:
64,192,48675,1,0,3:0:0:0:
192,192,48675,1,0,3:0:0:0:
320,192,48766,1,0,0:0:0:0:
448,192,48857,1,0,3:0:0:0:
64,192,48947,1,0,0:0:0:0:
192,192,49038,1,0,3:0:0:0:
320,192,49038,1,0,3:0:0:0:
448,192,49130,1,0,0:0:0:0:
320,192,49221,1,0,0:0:0:0:
192,192,49312,1,0,0:0:0:0:
448,192,49403,1,2,3:1:0:0:
320,192,49403,1,2,3:1:0:0:
64,192,49403,1,2,3:1:0:0:
192,192,49585,1,2,3:1:0:0:
64,192,49585,1,2,3:1:0:0:
448,192,49585,1,2,3:1:0:0:
320,192,49950,1,2,0:1:0:0:
192,192,49950,1,2,0:1:0:0:
448,192,49950,1,2,0:1:0:0:
64,192,50132,1,0,0:0:0:0:
192,192,50223,1,0,0:0:0:0:
320,192,50314,1,0,0:0:0:0:
448,192,50314,1,0,0:0:0:0:
192,192,50405,1,0,0:0:0:0:
448,192,50496,128,0,50861:0:0:0:0:
320,192,50496,1,8,0:0:0:0:
64,192,50678,1,0,0:0:0:0:
192,192,50770,1,0,0:0:0:0:
320,192,50861,128,0,51043:0:0:0:0:
64,192,50861,1,0,3:0:0:0:
448,192,51043,1,0,3:0:0:0:
192,192,51043,128,8,51225:0:0:0:0:
64,192,51225,1,8,0:0:0:0:
320,192,51225,128,0,51407:0:0:0:0:
448,192,51407,128,0,51590:0:0:0:0:
192,192,51407,1,0,0:0:0:0:
320,192,51680,1,0,0:0:0:0:
192,192,51771,1,0,0:0:0:0:
64,192,51771,1,0,0:0:0:0:
320,192,51862,1,0,0:0:0:0:
64,192,51953,128,0,52317:0:0:0:0:
192,192,51953,1,8,0:0:0:0:
448,192,52135,1,0,0:0:0:0:
320,192,52226,1,0,0:0:0:0:
192,192,52317,128,8,52682:0:0:0:0:
448,192,52317,1,0,3:0:0:0:
320,192,52500,1,0,0:0:0:0:
64,192,52682,1,8,0:0:0:0:
320,192,52682,128,0,53046:0:0:0:0:
448,192,52864,1,0,0:0:0:0:
192,192,53046,1,0,0:0:0:0:
448,192,53137,1,0,0:0:0:0:
64,192,53228,1,0,0:0:0:0:
192,192,53228,1,0,0:0:0:0:
320,192,53320,1,0,0:0:0:0:
448,192,53411,1,8,0:0:0:0:
64,192,53411,1,8,0:0:0:0:
192,192,53502,1,0,0:0:0:0:
320,192,53593,1,0,0:0:0:0:
448,192,53593,1,0,0:0:0:0:
192,192,53684,1,0,3:0:0:0:
448,192,53775,1,0,3:0:0:0:
64,192,53775,1,0,3:0:0:0:
320,192,53866,1,0,0:0:0:0:
192,192,53957,1,0,3:0:0:0:
64,192,53957,1,0,3:0:0:0:
320,192,54048,1,0,0:0:0:0:
448,192,54140,1,8,0:0:0:0:
64,192,54140,1,8,0:0:0:0:
192,192,54231,1,0,0:0:0:0:
448,192,54322,1,0,0:0:0:0:
320,192,54322,1,0,0:0:0:0:
192,192,54413,1,0,0:0:0:0:
64,192,54503,1,0,3:0:0:0:
192,192,54594,1,0,0:0:0:0:
320,192,54685,1,0,0:0:0:0:
448,192,54685,1,0,0:0:0:0:
64,192,54776,1,0,3:0:0:0:
192,192,54867,1,8,0:0:0:0:
320,192,54867,1,8,0:0:0:0:
448,192,54958,1,0,0:0:0:0:
64,192,55050,1,0,3:0:0:0:
192,192,55050,1,0,3:0:0:0:
320,192,55141,1,0,0:0:0:0:
192,192,55232,1,0,3:0:0:0:
448,192,55232,1,0,3:0:0:0:
320,192,55323,1,0,0:0:0:0:
192,192,55414,1,0,3:0:0:0:
64,192,55414,1,0,3:0:0:0:
320,192,55596,1,8,0:0:0:0:
192,192,55596,1,8,0:0:0:0:
320,192,55778,1,4,0:0:0:0:
448,192,55778,1,4,0:0:0:0:
64,192,55961,128,0,56143:0:0:0:0:
192,192,55961,1,0,0:0:0:0:
320,192,56143,1,0,3:0:0:0:
448,192,56143,128,8,56325:0:0:0:0:
192,192,56325,128,0,56507:0:0:0:0:
64,192,56325,1,8,0:0:0:0:
320,192,56507,128,0,56690:0:0:0:0:
448,192,56507,1,0,0:0:0:0:
64,192,56690,1,0,3:0:0:0:
192,192,56781,1,0,0:0:0:0:
64,192,56872,1,0,3:0:0:0:
320,192,56872,1,0,3:0:0:0:
192,192,56963,1,0,0:0:0:0:
320,192,57054,1,8,0:0:0:0:
448,192,57054,1,8,0:0:0:0:
64,192,57235,1,4,0:0:0:0:
192,192,57235,1,4,0:0:0:0:
448,192,57417,1,0,0:0:0:0:
320,192,57417,128,0,57600:0:0:0:0:
192,192,57600,128,8,57782:0:0:0:0:
64,192,57600,1,0,0:0:0:0:
448,192,57782,128,0,57964:0:0:0:0:
64,192,57964,128,0,58146:0:0:0:0:
320,192,57964,1,0,0:0:0:0:
192,192,58146,1,0,3:0:0:0:
320,192,58237,1,0,0:0:0:0:
448,192,58328,1,0,3:0:0:0:
192,192,58328,1,0,3:0:0:0:
320,192,58420,1,0,0:0:0:0:
64,192,58511,1,8,0:0:0:0:
192,192,58511,1,8,0:0:0:0:
448,192,58693,1,4,0:0:0:0:
320,192,58693,1,4,0:0:0:0:
64,192,58875,1,0,3:0:0:0:
192,192,58875,1,0,3:0:0:0:
320,192,58966,1,0,0:0:0:0:
448,192,59057,1,0,0:0:0:0:
192,192,59057,1,0,0:0:0:0:
320,192,59148,1,0,0:0:0:0:
64,192,59240,1,8,0:0:0:0:
192,192,59240,1,8,0:0:0:0:
320,192,59331,1,0,0:0:0:0:
64,192,59422,1,0,0:0:0:0:
448,192,59422,1,0,0:0:0:0:
320,192,59513,1,0,0:0:0:0:
192,192,59604,1,0,3:0:0:0:
448,192,59604,1,0,3:0:0:0:
64,192,59695,1,0,0:0:0:0:
320,192,59786,1,0,3:0:0:0:
448,192,59786,1,0,3:0:0:0:
192,192,59877,1,0,0:0:0:0:
64,192,59968,1,8,0:0:0:0:
320,192,59968,1,8,0:0:0:0:
448,192,60058,1,0,0:0:0:0:
192,192,60150,1,0,3:0:0:0:
64,192,60150,1,0,3:0:0:0:
320,192,60241,1,0,0:0:0:0:
64,192,60332,1,0,3:0:0:0:
448,192,60332,1,0,3:0:0:0:
192,192,60423,1,0,0:0:0:0:
448,192,60514,1,8,0:0:0:0:
320,192,60514,1,8,0:0:0:0:
64,192,60514,1,8,0:0:0:0:
64,192,60696,1,8,0:0:0:0:
320,192,60696,1,8,0:0:0:0:
448,192,60696,1,8,0:0:0:0:
192,192,60818,1,0,0:0:0:0:
320,192,60940,1,0,0:0:0:0:
448,192,61061,1,2,3:2:0:0:
192,192,61061,1,2,3:2:0:0:
320,192,61182,1,0,0:0:0:0:
192,192,61304,1,0,3:0:0:0:
64,192,61425,1,2,3:2:0:0:
320,192,61425,1,2,3:2:0:0:
192,192,61546,1,0,0:0:0:0:
448,192,61607,1,0,0:0:0:0:
320,192,61668,1,0,3:0:0:0:
192,192,61728,1,0,0:0:0:0:
64,192,61790,1,4,3:2:0:0:
448,192,61790,1,4,3:2:0:0:
320,192,61972,1,0,3:0:0:0:
192,192,62154,1,0,0:0:0:0:
64,192,62154,1,0,0:0:0:0:
320,192,62275,1,0,0:0:0:0:
448,192,62275,1,0,0:0:0:0:
320,192,62396,1,0,0:0:0:0:
64,192,62396,1,0,0:0:0:0:
192,192,62518,1,8,0:0:0:0:
64,192,62518,1,8,0:0:0:0:
448,192,62518,1,0,0:0:0:0:
320,192,62701,1,0,0:0:0:0:
64,192,62701,1,0,0:0:0:0:
448,192,62882,1,0,3:0:0:0:
192,192,62882,1,0,3:0:0:0:
320,192,62973,1,0,0:0:0:0:
64,192,63064,1,0,0:0:0:0:
192,192,63125,1,0,0:0:0:0:
320,192,63186,1,0,0:0:0:0:
64,192,63246,1,0,3:0:0:0:
448,192,63246,1,0,3:0:0:0:
192,192,63428,1,0,2:0:0:0:
320,192,63611,1,0,3:0:0:0:
448,192,63611,1,0,3:0:0:0:
64,192,63732,1,0,0:0:0:0:
192,192,63732,1,0,0:0:0:0:
192,192,63854,1,0,0:0:0:0:
448,192,63854,1,0,0:0:0:0:
320,192,63975,1,8,0:0:0:0:
448,192,63975,1,8,0:0:0:0:
64,192,63975,1,0,0:0:0:0:
192,192,64157,1,0,0:0:0:0:
448,192,64157,1,0,0:0:0:0:
64,192,64340,1,0,3:0:0:0:
320,192,64340,1,0,3:0:0:0:
192,192,64431,1,0,0:0:0:0:
448,192,64522,1,0,0:0:0:0:
320,192,64583,1,0,0:0:0:0:
192,192,64643,1,0,0:0:0:0:
64,192,64704,1,0,3:0:0:0:
448,192,64704,128,0,65068:0:0:0:0:
320,192,64886,1,0,3:0:0:0:
192,192,65068,128,8,65433:0:0:0:0:
64,192,65068,1,0,3:0:0:0:
320,192,65251,1,0,0:0:0:0:
448,192,65433,128,0,65614:0:0:0:0:
64,192,65433,1,8,0:0:0:0:
320,192,65614,128,0,65796:0:0:0:0:
192,192,65614,1,0,0:0:0:0:
64,192,65796,1,0,3:0:0:0:
192,192,65887,1,0,0:0:0:0:
448,192,65978,1,4,0:0:0:0:
320,192,65978,1,4,0:0:0:0:
64,192,65978,1,4,0:0:0:0:
192,192,66070,1,0,0:0:0:0:
448,192,66161,1,0,0:0:0:0:
320,192,66161,1,0,0:0:0:0:
192,192,66252,1,0,0:0:0:0:
64,192,66343,1,0,0:0:0:0:
320,192,66343,1,0,0:0:0:0:
192,192,66434,1,0,0:0:0:0:
320,192,66525,1,0,0:0:0:0:
448,192,66525,1,0,0:0:0:0:
192,192,66616,1,0,0:0:0:0:
64,192,66707,1,0,0:0:0:0:
448,192,66707,1,0,0:0:0:0:
320,192,66798,1,0,0:0:0:0:
64,192,66890,1,8,0:0:0:0:
192,192,66890,1,8,0:0:0:0:
448,192,66981,1,0,0:0:0:0:
320,192,67072,1,0,3:0:0:0:
192,192,67072,1,0,3:0:0:0:
448,192,67163,1,0,0:0:0:0:
64,192,67254,1,8,0:0:0:0:
192,192,67300,1,0,0:0:0:0:
320,192,67345,1,0,0:0:0:0:
448,192,67391,1,0,0:0:0:0:
64,192,67436,1,8,0:0:0:0:
192,192,67482,1,0,0:0:0:0:
320,192,67527,1,0,0:0:0:0:
448,192,67573,1,0,0:0:0:0:
64,192,67618,1,6,3:2:0:0:
192,192,67618,1,6,3:2:0:0:
448,192,67801,1,0,0:0:0:0:
192,192,67801,1,0,0:0:0:0:
320,192,67892,1,0,0:0:0:0:
64,192,67983,1,8,0:0:0:0:
192,192,67983,1,8,0:0:0:0:
192,192,68165,1,6,3:2:0:0:
320,192,68165,1,6,3:2:0:0:
192,192,68346,1,0,0:0:0:0:
320,192,68346,1,0,0:0:0:0:
64,192,68528,1,0,3:0:0:0:
320,192,68528,1,0,3:0:0:0:
192,192,68620,1,0,0:0:0:0:
448,192,68711,1,10,0:0:0:0:
320,192,68711,1,10,0:0:0:0:
192,192,68802,1,0,0:0:0:0:
320,192,68893,1,0,3:0:0:0:
64,192,68893,1,0,3:0:0:0:
448,192,68984,1,0,0:0:0:0:
320,192,69075,1,6,3:2:0:0:
64,192,69075,1,6,3:2:0:0:
192,192,69075,1,6,3:2:0:0:
320,192,69257,1,0,0:0:0:0:
448,192,69257,1,0,0:0:0:0:
64,192,69348,1,0,0:0:0:0:
320,192,69440,1,8,0:0:0:0:
448,192,69440,1,8,0:0:0:0:
192,192,69622,1,6,3:2:0:0:
448,192,69622,1,6,3:2:0:0:
320,192,69804,1,0,0:0:0:0:
64,192,69804,1,0,0:0:0:0:
320,192,69986,1,0,0:0:0:0:
64,192,69986,1,0,0:0:0:0:
448,192,70077,1,0,3:0:0:0:
192,192,70168,1,10,0:0:0:0:
64,192,70168,1,10,0:0:0:0:
448,192,70260,1,0,0:0:0:0:
320,192,70351,1,0,3:0:0:0:
64,192,70351,1,0,3:0:0:0:
192,192,70442,1,0,0:0:0:0:
64,192,70533,1,4,3:2:0:0:
320,192,70533,1,4,3:2:0:0:
448,192,70624,1,0,0:0:0:0:
192,192,70715,1,0,3:0:0:0:
64,192,70715,1,0,3:0:0:0:
320,192,70806,1,0,0:0:0:0:
448,192,70897,1,10,3:2:0:0:
64,192,70897,1,10,3:2:0:0:
192,192,70988,1,0,0:0:0:0:
320,192,71080,1,0,3:0:0:0:
448,192,71080,1,0,3:0:0:0:
192,192,71170,1,0,3:0:0:0:
64,192,71261,1,0,0:0:0:0:
320,192,71261,1,0,0:0:0:0:
192,192,71352,1,0,3:0:0:0:
448,192,71443,1,0,0:0:0:0:
64,192,71443,1,0,0:0:0:0:
320,192,71534,1,0,0:0:0:0:
192,192,71625,1,10,0:0:0:0:
64,192,71625,1,10,0:0:0:0:
320,192,71716,1,0,0:0:0:0:
448,192,71807,1,0,3:0:0:0:
320,192,71898,1,0,0:0:0:0:
192,192,71990,1,0,3:0:0:0:
64,192,71990,1,0,3:0:0:0:
448,192,71990,1,0,3:0:0:0:
320,192,72081,1,0,0:0:0:0:
448,192,72172,1,0,3:0:0:0:
192,192,72172,1,0,3:0:0:0:
64,192,72263,1,0,0:0:0:0:
192,192,72354,1,10,3:2:0:0:
320,192,72354,1,10,3:2:0:0:
64,192,72445,1,0,0:0:0:0:
192,192,72536,1,0,3:0:0:0:
320,192,72627,1,0,3:0:0:0:
448,192,72718,1,0,0:0:0:0:
192,192,72718,1,0,0:0:0:0:
320,192,72810,1,0,0:0:0:0:
448,192,72901,1,0,3:0:0:0:
64,192,72901,1,0,3:0:0:0:
192,192,72992,1,0,0:0:0:0:
320,192,73083,1,10,0:0:0:0:
64,192,73083,1,10,0:0:0:0:
192,192,73174,1,0,0:0:0:0:
448,192,73265,1,0,3:0:0:0:
320,192,73356,1,0,0:0:0:0:
448,192,73447,1,4,3:2:0:0:
192,192,73447,1,4,3:2:0:0:
64,192,73447,1,4,3:2:0:0:
320,192,73538,1,0,0:0:0:0:
192,192,73630,1,0,3:0:0:0:
448,192,73630,1,0,3:0:0:0:
64,192,73721,1,0,0:0:0:0:
192,192,73812,1,10,3:2:0:0:
320,192,73812,1,10,3:2:0:0:
448,192,73812,1,10,3:2:0:0:
64,192,73902,1,0,0:0:0:0:
448,192,73993,1,0,3:0:0:0:
192,192,73993,1,0,3:0:0:0:
320,192,74084,1,0,3:0:0:0:
192,192,74175,1,0,0:0:0:0:
64,192,74175,1,0,0:0:0:0:
448,192,74175,1,0,0:0:0:0:
320,192,74266,1,0,0:0:0:0:
64,192,74357,1,0,0:0:0:0:
448,192,74357,1,0,0:0:0:0:
192,192,74448,1,0,0:0:0:0:
64,192,74540,1,10,0:0:0:0:
320,192,74540,1,10,0:0:0:0:
448,192,74540,1,10,0:0:0:0:
192,192,74631,1,0,3:0:0:0:
64,192,74722,1,4,3:2:0:0:
320,192,74722,1,4,3:2:0:0:
448,192,74813,1,0,3:0:0:0:
320,192,74904,1,0,3:0:0:0:
192,192,74904,1,0,3:0:0:0:
64,192,74904,1,0,3:0:0:0:
448,192,74995,1,0,0:0:0:0:
320,192,75086,1,0,3:0:0:0:
64,192,75086,1,0,3:0:0:0:
192,192,75177,1,0,0:0:0:0:
64,192,75268,1,10,3:2:0:0:
320,192,75268,1,10,3:2:0:0:
448,192,75268,1,10,3:2:0:0:
192,192,75360,1,0,0:0:0:0:
320,192,75451,1,0,3:0:0:0:
448,192,75451,1,0,3:0:0:0:
192,192,75542,1,0,0:0:0:0:
64,192,75542,1,0,0:0:0:0:
320,192,75633,1,10,0:0:0:0:
448,192,75633,1,10,0:0:0:0:
192,192,75724,1,0,3:0:0:0:
64,192,75724,1,0,3:0:0:0:
320,192,75815,1,0,3:0:0:0:
448,192,75906,1,0,0:0:0:0:
64,192,75997,1,0,3:0:0:0:
192,192,76043,1,0,0:0:0:0:
320,192,76088,1,0,0:0:0:0:
448,192,76134,1,0,0:0:0:0:
64,192,76180,1,0,3:0:0:0:
192,192,76225,1,0,0:0:0:0:
320,192,76271,1,0,0:0:0:0:
448,192,76316,1,0,0:0:0:0:
192,192,76362,1,8,3:2:0:0:
64,192,76362,1,8,3:2:0:0:
64,192,76544,1,0,3:0:0:0:
192,192,76544,1,0,3:0:0:0:
320,192,76544,1,0,3:0:0:0:
448,192,76725,1,0,0:0:0:0:
320,192,76725,1,0,0:0:0:0:
192,192,76725,1,0,0:0:0:0:
64,192,76725,1,0,0:0:0:0:
448,192,76907,1,0,0:0:0:0:
320,192,76907,1,0,0:0:0:0:
192,192,76907,1,0,0:0:0:0:
448,192,77090,1,0,3:0:0:0:
320,192,77090,1,0,3:0:0:0:
192,192,77090,1,0,0:0:0:0:
64,192,77090,1,0,0:0:0:0:
192,192,77272,1,0,3:0:0:0:
64,192,77272,1,0,3:0:0:0:
320,192,77272,1,0,0:0:0:0:
320,192,77454,1,8,3:2:0:0:
64,192,77454,1,8,3:2:0:0:
192,192,77454,1,0,0:0:0:0:
448,192,77454,1,0,0:0:0:0:
192,192,77636,1,0,0:0:0:0:
320,192,77636,1,0,0:0:0:0:
320,192,77818,1,2,3:1:0:0:
448,192,77818,1,2,3:1:0:0:
64,192,77818,1,2,3:1:0:0:
192,192,77818,1,2,3:1:0:0:
448,192,78001,1,2,0:1:0:0:
320,192,78001,1,2,0:1:0:0:
192,192,78001,1,2,0:1:0:0:
64,192,78001,1,2,0:1:0:0:
64,192,78183,1,2,0:1:0:0:
192,192,78183,1,2,0:1:0:0:
320,192,78183,1,2,0:1:0:0:
448,192,78183,1,2,0:1:0:0:
64,192,78365,1,2,0:1:0:0:
192,192,78365,1,2,0:1:0:0:
448,192,78365,1,2,0:1:0:0:
320,192,78365,1,2,0:1:0:0:
192,192,78547,128,0,78730:0:0:0:0:
64,192,78547,128,0,78730:0:0:0:0:
320,192,78730,128,0,78912:0:0:0:0:
448,192,78730,128,0,78912:0:0:0:0:
192,192,78912,1,0,0:0:0:0:
64,192,78912,1,0,0:0:0:0:
448,192,79094,1,4,0:0:0:0:
192,192,79094,1,0,0:0:0:0:
64,192,79094,1,0,0:0:0:0:
320,192,79185,1,0,0:0:0:0:
192,192,79276,1,0,0:0:0:0:
64,192,79276,1,0,0:0:0:0:
448,192,79276,1,0,0:0:0:0:
320,192,79367,1,0,0:0:0:0:
448,192,79457,1,0,0:0:0:0:
192,192,79457,1,0,0:0:0:0:
64,192,79548,1,0,0:0:0:0:
320,192,79640,1,8,0:0:0:0:
448,192,79640,1,8,0:0:0:0:
192,192,79731,1,0,0:0:0:0:
64,192,79822,1,0,0:0:0:0:
320,192,79822,1,0,0:0:0:0:
192,192,79913,1,0,0:0:0:0:
320,192,80004,1,0,3:0:0:0:
448,192,80004,1,0,3:0:0:0:
192,192,80095,1,0,0:0:0:0:
64,192,80186,1,0,0:0:0:0:
320,192,80186,1,0,0:0:0:0:
192,192,80277,1,0,0:0:0:0:
320,192,80368,1,8,0:0:0:0:
448,192,80368,1,8,0:0:0:0:
64,192,80460,1,0,0:0:0:0:
64,192,80551,1,4,0:0:0:0:
320,192,80551,1,4,0:0:0:0:
448,192,80551,1,4,0:0:0:0:
192,192,80642,1,0,0:0:0:0:
448,192,80733,1,0,0:0:0:0:
320,192,80733,1,0,0:0:0:0:
64,192,80824,1,0,0:0:0:0:
448,192,80915,1,0,0:0:0:0:
192,192,80915,1,0,0:0:0:0:
320,192,81006,1,0,0:0:0:0:
192,192,81097,1,8,0:0:0:0:
64,192,81097,1,8,0:0:0:0:
320,192,81188,1,0,0:0:0:0:
448,192,81280,1,0,0:0:0:0:
192,192,81280,1,0,0:0:0:0:
64,192,81371,1,0,0:0:0:0:
320,192,81462,1,0,3:0:0:0:
448,192,81462,1,0,3:0:0:0:
192,192,81553,1,0,0:0:0:0:
64,192,81644,1,0,0:0:0:0:
320,192,81644,1,0,0:0:0:0:
448,192,81735,1,0,0:0:0:0:
192,192,81826,1,8,0:0:0:0:
64,192,81826,1,8,0:0:0:0:
448,192,81917,1,0,0:0:0:0:
192,192,82008,1,4,0:0:0:0:
448,192,82008,1,4,0:0:0:0:
64,192,82008,1,4,0:0:0:0:
320,192,82100,1,0,0:0:0:0:
64,192,82191,1,0,0:0:0:0:
448,192,82191,1,0,0:0:0:0:
192,192,82281,1,0,0:0:0:0:
448,192,82372,1,0,0:0:0:0:
320,192,82372,1,0,0:0:0:0:
64,192,82463,1,0,0:0:0:0:
192,192,82554,1,8,0:0:0:0:
320,192,82554,1,8,0:0:0:0:
448,192,82645,1,0,0:0:0:0:
192,192,82736,1,0,0:0:0:0:
320,192,82736,1,0,0:0:0:0:
64,192,82827,1,0,0:0:0:0:
448,192,82918,1,0,3:0:0:0:
320,192,82918,1,0,3:0:0:0:
192,192,83010,1,0,0:0:0:0:
320,192,83101,1,0,0:0:0:0:
64,192,83101,1,0,0:0:0:0:
448,192,83192,1,0,0:0:0:0:
64,192,83283,1,8,0:0:0:0:
320,192,83283,1,8,0:0:0:0:
192,192,83374,1,0,0:0:0:0:
448,192,83465,1,2,0:0:0:0:
320,192,83556,1,0,0:0:0:0:
192,192,83556,1,0,0:0:0:0:
448,192,83647,1,0,0:0:0:0:
192,192,83738,1,0,0:0:0:0:
320,192,83738,1,0,0:0:0:0:
448,192,83830,1,0,0:0:0:0:
192,192,83921,1,0,0:0:0:0:
64,192,83921,1,0,0:0:0:0:
320,192,84012,1,8,0:0:0:0:
448,192,84012,1,8,0:0:0:0:
192,192,84103,1,0,0:0:0:0:
320,192,84194,1,0,0:0:0:0:
448,192,84194,1,0,0:0:0:0:
192,192,84285,1,0,0:0:0:0:
64,192,84285,1,0,0:0:0:0:
320,192,84376,1,0,3:0:0:0:
64,192,84467,1,0,0:0:0:0:
192,192,84467,1,0,0:0:0:0:
320,192,84558,1,0,3:0:0:0:
448,192,84558,1,0,3:0:0:0:
64,192,84650,1,0,0:0:0:0:
320,192,84741,1,8,0:0:0:0:
448,192,84741,1,8,0:0:0:0:
192,192,84832,1,0,0:0:0:0:
320,192,84923,1,0,0:0:0:0:
448,192,84923,1,0,0:0:0:0:
64,192,85013,1,0,0:0:0:0:
64,192,85104,1,4,0:0:0:0:
320,192,85104,1,4,0:0:0:0:
448,192,85104,1,4,0:0:0:0:
192,192,85195,1,0,0:0:0:0:
448,192,85286,1,0,0:0:0:0:
320,192,85286,1,0,0:0:0:0:
192,192,85377,1,0,0:0:0:0:
64,192,85468,1,8,0:0:0:0:
320,192,85468,1,8,0:0:0:0:
448,192,85560,1,0,0:0:0:0:
192,192,85651,1,0,0:0:0:0:
64,192,85651,1,0,0:0:0:0:
320,192,85742,1,0,0:0:0:0:
448,192,85833,1,0,3:0:0:0:
192,192,85833,1,0,3:0:0:0:
320,192,85924,1,0,0:0:0:0:
64,192,86015,1,0,0:0:0:0:
192,192,86015,1,0,0:0:0:0:
320,192,86106,1,0,0:0:0:0:
64,192,86197,1,8,0:0:0:0:
192,192,86197,1,8,0:0:0:0:
448,192,86288,1,0,0:0:0:0:
192,192,86380,1,4,0:0:0:0:
448,192,86380,1,4,0:0:0:0:
64,192,86380,1,4,0:0:0:0:
320,192,86471,1,0,0:0:0:0:
192,192,86562,1,0,0:0:0:0:
64,192,86562,1,0,0:0:0:0:
320,192,86653,1,0,0:0:0:0:
192,192,86744,1,0,3:0:0:0:
448,192,86744,1,0,3:0:0:0:
320,192,86835,1,0,0:0:0:0:
64,192,86926,1,8,0:0:0:0:
192,192,86926,1,8,0:0:0:0:
320,192,87017,1,0,0:0:0:0:
448,192,87108,1,0,0:0:0:0:
192,192,87108,1,0,0:0:0:0:
64,192,87200,1,0,0:0:0:0:
192,192,87291,1,0,3:0:0:0:
320,192,87291,1,0,3:0:0:0:
448,192,87382,1,0,0:0:0:0:
192,192,87473,1,0,0:0:0:0:
320,192,87473,1,0,0:0:0:0:
64,192,87564,1,0,0:0:0:0:
192,192,87655,1,8,0:0:0:0:
448,192,87746,1,0,0:0:0:0:
320,192,87836,1,0,0:0:0:0:
192,192,87836,1,0,0:0:0:0:
448,192,87927,1,0,0:0:0:0:
192,192,88018,1,4,0:0:0:0:
64,192,88018,1,4,0:0:0:0:
320,192,88110,1,0,0:0:0:0:
192,192,88201,1,0,0:0:0:0:
64,192,88201,1,0,0:0:0:0:
448,192,88292,1,0,0:0:0:0:
320,192,88383,1,8,0:0:0:0:
192,192,88383,1,8,0:0:0:0:
448,192,88474,1,0,0:0:0:0:
192,192,88565,1,0,0:0:0:0:
64,192,88565,1,0,0:0:0:0:
320,192,88656,1,0,0:0:0:0:
448,192,88656,1,0,0:0:0:0:
64,192,88747,1,0,3:0:0:0:
320,192,88838,1,0,0:0:0:0:
192,192,88838,1,0,0:0:0:0:
64,192,88930,1,0,0:0:0:0:
320,192,89021,1,0,0:0:0:0:
448,192,89021,1,0,0:0:0:0:
192,192,89112,1,8,0:0:0:0:
64,192,89112,1,0,0:0:0:0:
448,192,89203,1,0,0:0:0:0:
320,192,89203,1,0,0:0:0:0:
64,192,89294,1,4,0:0:0:0:
192,192,89294,1,4,0:0:0:0:
320,192,89385,1,0,0:0:0:0:
448,192,89385,1,0,0:0:0:0:
64,192,89476,1,0,0:0:0:0:
192,192,89476,1,0,0:0:0:0:
448,192,89567,1,0,0:0:0:0:
320,192,89567,1,0,0:0:0:0:
64,192,89658,1,0,0:0:0:0:
192,192,89658,1,0,0:0:0:0:
320,192,89750,1,0,0:0:0:0:
448,192,89750,1,0,0:0:0:0:
64,192,89841,1,8,0:0:0:0:
192,192,89841,1,8,0:0:0:0:
320,192,89932,1,0,0:0:0:0:
448,192,89932,1,0,0:0:0:0:
192,192,90023,1,0,0:0:0:0:
320,192,90114,1,0,0:0:0:0:
448,192,90114,1,0,0:0:0:0:
64,192,90205,1,0,3:0:0:0:
192,192,90205,1,0,3:0:0:0:
320,192,90296,1,0,0:0:0:0:
192,192,90387,1,0,0:0:0:0:
64,192,90387,1,0,0:0:0:0:
448,192,90478,1,0,0:0:0:0:
320,192,90478,1,0,0:0:0:0:
192,192,90568,1,0,0:0:0:0:
448,192,90660,1,0,0:0:0:0:
320,192,90660,1,0,0:0:0:0:
192,192,90751,1,8,0:0:0:0:
64,192,90751,1,8,0:0:0:0:
448,192,90842,1,0,0:0:0:0:
448,192,90933,1,6,0:0:0:0:
192,192,90933,1,6,0:0:0:0:
64,192,90933,1,6,0:0:0:0:
320,192,91024,1,0,0:0:0:0:
192,192,91115,1,0,0:0:0:0:
448,192,91115,1,0,0:0:0:0:
64,192,91206,1,0,0:0:0:0:
320,192,91297,1,8,0:0:0:0:
192,192,91297,1,8,0:0:0:0:
448,192,91388,1,0,0:0:0:0:
320,192,91480,1,0,0:0:0:0:
192,192,91480,1,0,0:0:0:0:
448,192,91571,1,0,0:0:0:0:
320,192,91662,1,0,3:0:0:0:
64,192,91662,1,0,3:0:0:0:
192,192,91753,1,0,0:0:0:0:
320,192,91844,1,0,0:0:0:0:
64,192,91844,1,0,0:0:0:0:
192,192,91935,1,0,0:0:0:0:
320,192,92026,1,8,0:0:0:0:
448,192,92026,1,8,0:0:0:0:
192,192,92117,1,0,0:0:0:0:
320,192,92208,1,0,0:0:0:0:
448,192,92208,1,0,0:0:0:0:
64,192,92300,1,0,0:0:0:0:
64,192,92391,1,4,0:0:0:0:
320,192,92391,1,4,0:0:0:0:
448,192,92391,1,4,0:0:0:0:
192,192,92482,1,0,0:0:0:0:
320,192,92573,1,0,0:0:0:0:
448,192,92573,1,0,0:0:0:0:
192,192,92664,1,0,0:0:0:0:
448,192,92755,1,8,0:0:0:0:
64,192,92755,1,8,0:0:0:0:
320,192,92846,1,0,0:0:0:0:
448,192,92937,1,0,0:0:0:0:
64,192,92937,1,0,0:0:0:0:
192,192,93028,1,0,0:0:0:0:
64,192,93120,1,0,3:0:0:0:
448,192,93120,1,0,3:0:0:0:
320,192,93211,1,0,0:0:0:0:
192,192,93302,1,0,0:0:0:0:
64,192,93302,1,0,0:0:0:0:
448,192,93392,1,0,0:0:0:0:
320,192,93483,1,8,0:0:0:0:
192,192,93483,1,8,0:0:0:0:
64,192,93574,1,0,0:0:0:0:
320,192,93665,1,0,3:0:0:0:
192,192,93665,1,0,3:0:0:0:
448,192,93756,1,0,0:0:0:0:
192,192,93847,1,14,0:0:0:0:
64,192,93847,1,14,0:0:0:0:
448,192,93847,1,14,0:0:0:0:
64,192,94030,1,0,3:0:0:0:
320,192,94030,1,0,3:0:0:0:
448,192,94030,1,0,3:0:0:0:
320,192,94212,1,0,3:0:0:0:
448,192,94212,1,0,3:0:0:0:
448,192,94394,1,14,0:0:0:0:
320,192,94394,1,14,0:0:0:0:
192,192,94394,1,14,0:0:0:0:
64,192,94394,1,14,0:0:0:0:
192,192,94576,1,0,3:0:0:0:
64,192,94576,1,0,3:0:0:0:
448,192,94758,1,0,3:0:0:0:
192,192,94758,1,0,3:0:0:0:
64,192,94758,1,0,3:0:0:0:
192,192,94941,1,6,0:0:0:0:
320,192,94941,1,6,0:0:0:0:
448,192,94941,1,6,0:0:0:0:
64,192,95032,1,0,0:0:0:0:
192,192,95123,1,0,0:0:0:0:
320,192,95123,1,0,0:0:0:0:
448,192,95214,1,0,0:0:0:0:
64,192,95305,1,0,0:0:0:0:
192,192,95305,1,0,0:0:0:0:
320,192,95396,1,0,0:0:0:0:
448,192,95487,1,0,0:0:0:0:
64,192,95487,1,0,0:0:0:0:
192,192,95578,1,0,0:0:0:0:
320,192,95670,1,8,0:0:0:0:
448,192,95670,1,8,0:0:0:0:
192,192,95761,1,0,0:0:0:0:
320,192,95852,1,0,0:0:0:0:
64,192,95852,1,0,0:0:0:0:
448,192,95943,1,0,0:0:0:0:
64,192,96034,1,0,3:0:0:0:
192,192,96080,1,0,0:0:0:0:
320,192,96124,1,0,3:0:0:0:
448,192,96170,1,0,0:0:0:0:
64,192,96215,1,0,3:0:0:0:
192,192,96261,1,0,0:0:0:0:
320,192,96306,1,0,3:0:0:0:
448,192,96352,1,0,0:0:0:0:
64,192,96397,1,8,0:0:0:0:
192,192,96443,1,0,0:0:0:0:
320,192,96488,1,0,0:0:0:0:
448,192,96534,1,0,0:0:0:0:
64,192,96580,1,0,3:0:0:0:
192,192,96625,1,0,0:0:0:0:
320,192,96671,1,0,0:0:0:0:
448,192,96716,1,0,0:0:0:0:
64,192,96762,1,4,0:0:0:0:
192,192,96853,1,0,0:0:0:0:
320,192,96944,1,0,0:0:0:0:
448,192,96944,1,0,0:0:0:0:
192,192,97035,1,0,0:0:0:0:
64,192,97126,1,8,0:0:0:0:
320,192,97126,1,8,0:0:0:0:
192,192,97217,1,0,0:0:0:0:
320,192,97308,1,0,0:0:0:0:
448,192,97308,1,0,0:0:0:0:
192,192,97400,1,0,0:0:0:0:
448,192,97491,1,0,3:0:0:0:
64,192,97491,1,0,3:0:0:0:
192,192,97582,1,0,0:0:0:0:
64,192,97673,1,0,0:0:0:0:
448,192,97673,1,0,0:0:0:0:
192,192,97764,1,0,0:0:0:0:
448,192,97855,1,8,0:0:0:0:
320,192,97855,1,8,0:0:0:0:
64,192,97946,1,0,0:0:0:0:
64,192,98037,1,4,0:0:0:0:
320,192,98037,1,4,0:0:0:0:
448,192,98037,1,4,0:0:0:0:
192,192,98128,1,0,0:0:0:0:
320,192,98220,1,0,0:0:0:0:
448,192,98220,1,0,0:0:0:0:
192,192,98311,1,0,0:0:0:0:
448,192,98402,1,0,0:0:0:0:
64,192,98402,1,0,0:0:0:0:
192,192,98493,1,0,0:0:0:0:
448,192,98584,1,8,0:0:0:0:
320,192,98584,1,8,0:0:0:0:
64,192,98675,1,0,0:0:0:0:
320,192,98766,1,0,0:0:0:0:
192,192,98766,1,0,0:0:0:0:
448,192,98857,1,0,0:0:0:0:
64,192,98947,1,0,3:0:0:0:
192,192,98947,1,0,3:0:0:0:
320,192,99038,1,0,3:0:0:0:
448,192,99130,1,0,0:0:0:0:
192,192,99130,1,0,0:0:0:0:
320,192,99221,1,0,0:0:0:0:
192,192,99312,1,8,0:0:0:0:
64,192,99312,1,8,0:0:0:0:
320,192,99403,1,0,0:0:0:0:
64,192,99494,1,0,0:0:0:0:
192,192,99494,1,0,0:0:0:0:
448,192,99494,1,0,0:0:0:0:
320,192,99585,1,0,0:0:0:0:
448,192,99676,1,0,0:0:0:0:
64,192,99676,1,0,0:0:0:0:
192,192,99767,1,0,0:0:0:0:
448,192,99858,1,0,0:0:0:0:
64,192,99858,1,0,0:0:0:0:
320,192,99950,1,0,0:0:0:0:
64,192,100041,1,8,0:0:0:0:
448,192,100041,1,8,0:0:0:0:
192,192,100132,1,0,0:0:0:0:
320,192,100223,1,0,0:0:0:0:
448,192,100223,1,0,0:0:0:0:
64,192,100314,1,0,0:0:0:0:
320,192,100405,1,0,3:0:0:0:
192,192,100405,1,0,3:0:0:0:
448,192,100496,1,0,0:0:0:0:
64,192,100587,1,0,0:0:0:0:
192,192,100587,1,0,0:0:0:0:
320,192,100678,1,0,0:0:0:0:
448,192,100678,1,0,0:0:0:0:
64,192,100770,1,8,0:0:0:0:
192,192,100770,1,8,0:0:0:0:
64,192,100861,1,0,0:0:0:0:
320,192,100952,1,0,0:0:0:0:
448,192,100952,1,0,0:0:0:0:
192,192,101043,1,0,0:0:0:0:
64,192,101043,1,0,0:0:0:0:
320,192,101134,1,4,3:2:0:0:
448,192,101134,1,4,3:2:0:0:
448,192,101225,1,0,0:0:0:0:
192,192,101316,1,0,0:0:0:0:
64,192,101316,1,0,0:0:0:0:
320,192,101407,1,0,0:0:0:0:
448,192,101498,1,12,0:0:0:0:
192,192,101498,1,12,0:0:0:0:
64,192,101590,1,0,0:0:0:0:
320,192,101680,1,0,0:0:0:0:
192,192,101680,1,0,0:0:0:0:
448,192,101771,1,0,0:0:0:0:
64,192,101862,1,4,3:2:0:0:
192,192,101907,1,0,0:0:0:0:
320,192,101953,1,0,3:2:0:0:
448,192,101998,1,0,0:0:0:0:
64,192,102044,1,2,3:2:0:0:
192,192,102090,1,0,0:0:0:0:
320,192,102135,1,0,3:0:0:0:
448,192,102181,1,0,0:0:0:0:
64,192,102226,1,10,3:2:0:0:
192,192,102272,1,0,0:0:0:0:
320,192,102317,1,0,0:0:0:0:
448,192,102363,1,0,0:0:0:0:
64,192,102408,1,8,3:2:0:0:
192,192,102454,1,0,0:0:0:0:
320,192,102500,1,8,3:2:0:0:
448,192,102545,1,0,0:0:0:0:
192,192,102591,1,4,3:2:0:0:
64,192,102652,1,0,0:0:0:0:
320,192,102712,1,0,0:0:0:0:
448,192,102773,1,2,0:0:0:0:
192,192,102834,1,0,0:0:0:0:
320,192,102894,1,0,0:0:0:0:
64,192,102955,1,10,3:2:0:0:
192,192,103016,1,0,0:0:0:0:
320,192,103076,1,0,0:0:0:0:
448,192,103137,1,0,0:0:0:0:
192,192,103198,1,0,0:0:0:0:
64,192,103258,1,0,0:0:0:0:
320,192,103320,1,0,0:0:0:0:
448,192,103381,1,0,0:0:0:0:
64,192,103441,1,0,0:0:0:0:
192,192,103502,1,2,0:0:0:0:
320,192,103562,1,0,0:0:0:0:
448,192,103623,1,0,0:0:0:0:
192,192,103684,1,8,0:0:0:0:
64,192,103744,1,0,0:0:0:0:
320,192,103805,1,0,0:0:0:0:
192,192,103866,1,0,0:0:0:0:
448,192,103926,1,0,0:0:0:0:
320,192,103987,1,0,0:0:0:0:
64,192,104048,1,0,0:0:0:0:
192,192,104108,1,0,0:0:0:0:
320,192,104170,1,0,0:0:0:0:
448,192,104231,1,2,0:0:0:0:
192,192,104291,1,0,0:0:0:0:
320,192,104352,1,0,0:0:0:0:
64,192,104413,1,8,0:0:0:0:
192,192,104473,1,0,0:0:0:0:
448,192,104534,1,0,0:0:0:0:
320,192,104594,1,0,0:0:0:0:
192,192,104655,1,0,0:0:0:0:
64,192,104716,1,0,0:0:0:0:
320,192,104776,1,0,0:0:0:0:
448,192,104837,1,0,0:0:0:0:
192,192,104898,1,0,0:0:0:0:
64,192,104958,1,2,0:0:0:0:
320,192,105020,1,0,0:0:0:0:
192,192,105081,1,0,0:0:0:0:
448,192,105141,1,8,0:0:0:0:
320,192,105202,1,0,0:0:0:0:
192,192,105263,1,0,0:0:0:0:
64,192,105323,1,0,0:0:0:0:
320,192,105384,1,0,0:0:0:0:
448,192,105444,1,0,0:0:0:0:
192,192,105505,1,0,0:0:0:0:
320,192,105566,1,0,0:0:0:0:
64,192,105626,1,0,0:0:0:0:
192,192,105687,1,2,0:0:0:0:
320,192,105748,1,0,0:0:0:0:
448,192,105808,1,0,0:0:0:0:
64,192,105870,1,8,0:0:0:0:
192,192,105931,1,0,0:0:0:0:
320,192,105991,1,0,0:0:0:0:
64,192,106052,1,0,0:0:0:0:
192,192,106113,1,0,0:0:0:0:
448,192,106173,1,0,0:0:0:0:
320,192,106234,1,0,0:0:0:0:
192,192,106295,1,0,0:0:0:0:
64,192,106355,1,0,0:0:0:0:
448,192,106416,1,2,0:0:0:0:
320,192,106476,1,0,0:0:0:0:
192,192,106537,1,0,0:0:0:0:
448,192,106598,1,8,0:0:0:0:
320,192,106658,1,0,0:0:0:0:
64,192,106720,1,0,0:0:0:0:
192,192,106781,1,0,0:0:0:0:
320,192,106841,1,0,0:0:0:0:
448,192,106902,1,0,0:0:0:0:
192,192,106963,1,2,0:0:0:0:
64,192,107023,1,0,0:0:0:0:
320,192,107084,1,0,0:0:0:0:
448,192,107145,1,2,0:0:0:0:
192,192,107205,1,0,0:0:0:0:
64,192,107266,1,0,0:0:0:0:
320,192,107326,1,8,0:0:0:0:
448,192,107387,1,0,0:0:0:0:
64,192,107448,1,0,0:0:0:0:
192,192,107508,1,0,0:0:0:0:
320,192,107570,1,0,0:0:0:0:
448,192,107631,1,0,0:0:0:0:
64,192,107691,1,2,0:0:0:0:
192,192,107736,1,0,0:0:0:0:
320,192,107782,1,0,0:0:0:0:
448,192,107827,1,0,0:0:0:0:
64,192,107873,1,2,0:0:0:0:
192,192,107918,1,0,0:0:0:0:
320,192,107964,1,0,0:0:0:0:
448,192,108010,1,0,0:0:0:0:
64,192,108055,1,8,0:0:0:0:
192,192,108101,1,0,0:0:0:0:
320,192,108146,1,0,0:0:0:0:
448,192,108192,1,0,0:0:0:0:
64,192,108237,1,0,3:0:0:0:
192,192,108283,1,0,0:0:0:0:
320,192,108328,1,0,3:0:0:0:
448,192,108374,1,0,0:0:0:0:
64,192,108420,1,4,0:0:0:0:
192,192,108481,1,0,0:0:0:0:
448,192,108541,1,0,0:0:0:0:
320,192,108602,1,2,0:0:0:0:
192,192,108663,1,0,0:0:0:0:
64,192,108723,1,0,0:0:0:0:
320,192,108784,1,8,3:2:0:0:
448,192,108845,1,0,0:0:0:0:
192,192,108905,1,0,0:0:0:0:
64,192,108966,1,0,0:0:0:0:
448,192,109027,1,0,0:0:0:0:
320,192,109087,1,0,0:0:0:0:
192,192,109148,1,0,0:0:0:0:
64,192,109208,1,0,0:0:0:0:
320,192,109270,1,0,0:0:0:0:
192,192,109331,1,2,0:0:0:0:
448,192,109391,1,0,0:0:0:0:
320,192,109452,1,0,0:0:0:0:
64,192,109513,1,8,0:0:0:0:
192,192,109573,1,0,0:0:0:0:
320,192,109634,1,0,0:0:0:0:
448,192,109695,1,0,0:0:0:0:
192,192,109755,1,0,0:0:0:0:
320,192,109816,1,0,0:0:0:0:
64,192,109877,1,0,0:0:0:0:
192,192,109937,1,0,0:0:0:0:
320,192,109998,1,0,0:0:0:0:
448,192,110058,1,2,0:0:0:0:
64,192,110120,1,0,0:0:0:0:
192,192,110181,1,0,0:0:0:0:
320,192,110241,1,8,0:0:0:0:
64,192,110302,1,0,0:0:0:0:
192,192,110363,1,0,0:0:0:0:
448,192,110423,1,0,0:0:0:0:
320,192,110484,1,0,0:0:0:0:
192,192,110545,1,0,0:0:0:0:
64,192,110605,1,0,0:0:0:0:
448,192,110666,1,0,0:0:0:0:
320,192,110727,1,0,0:0:0:0:
192,192,110787,1,2,0:0:0:0:
448,192,110848,1,0,0:0:0:0:
320,192,110910,1,0,0:0:0:0:
64,192,110970,1,8,0:0:0:0:
192,192,111031,1,0,0:0:0:0:
320,192,111091,1,0,0:0:0:0:
448,192,111152,1,0,0:0:0:0:
192,192,111213,1,0,0:0:0:0:
64,192,111273,1,0,0:0:0:0:
320,192,111334,1,2,0:0:0:0:
192,192,111395,1,0,0:0:0:0:
448,192,111455,1,0,0:0:0:0:
320,192,111516,1,0,0:0:0:0:
64,192,111577,1,0,0:0:0:0:
192,192,111637,1,0,0:0:0:0:
320,192,111698,1,8,0:0:0:0:
448,192,111760,1,0,0:0:0:0:
192,192,111820,1,0,0:0:0:0:
320,192,111881,1,0,0:0:0:0:
64,192,111941,1,0,0:0:0:0:
192,192,112002,1,0,0:0:0:0:
320,192,112063,1,2,0:0:0:0:
448,192,112123,1,0,0:0:0:0:
192,192,112184,1,0,0:0:0:0:
64,192,112245,1,2,0:0:0:0:
320,192,112305,1,0,0:0:0:0:
448,192,112366,1,0,0:0:0:0:
192,192,112427,1,8,0:0:0:0:
64,192,112487,1,0,0:0:0:0:
448,192,112548,1,0,0:0:0:0:
320,192,112610,1,2,0:1:0:0:
192,192,112670,1,0,0:0:0:0:
64,192,112731,1,0,0:0:0:0:
320,192,112791,1,0,0:0:0:0:
192,192,112852,1,0,0:0:0:0:
448,192,112913,1,0,0:0:0:0:
320,192,112973,1,0,0:0:0:0:
64,192,113034,1,0,0:0:0:0:
192,192,113095,1,0,0:0:0:0:
448,192,113155,1,10,0:0:0:0:
320,192,113201,1,0,0:0:0:0:
192,192,113246,1,0,0:0:0:0:
64,192,113292,1,0,0:0:0:0:
448,192,113337,1,2,0:1:0:0:
320,192,113383,1,0,0:0:0:0:
192,192,113428,1,0,0:0:0:0:
64,192,113474,1,0,0:0:0:0:
448,192,113520,1,2,3:2:0:0:
320,192,113565,1,0,0:0:0:0:
192,192,113611,1,0,0:0:0:0:
64,192,113656,1,0,0:0:0:0:
448,192,113702,1,0,3:0:0:0:
320,192,113747,1,0,0:0:0:0:
192,192,113793,1,0,0:0:0:0:
64,192,113838,1,0,0:0:0:0:
448,192,113884,1,10,3:2:0:0:
320,192,113930,1,0,0:0:0:0:
192,192,113975,1,0,0:0:0:0:
64,192,114021,1,0,0:0:0:0:
448,192,114066,1,8,0:0:0:0:
320,192,114112,1,0,0:0:0:0:
192,192,114157,1,8,0:0:0:0:
64,192,114203,1,0,0:0:0:0:
320,192,114248,1,4,0:0:0:0:
448,192,114310,1,0,0:0:0:0:
192,192,114370,1,0,0:0:0:0:
320,192,114431,1,2,0:0:0:0:
64,192,114492,1,0,0:0:0:0:
192,192,114552,1,0,0:0:0:0:
320,192,114613,1,8,3:2:0:0:
448,192,114673,1,0,0:0:0:0:
192,192,114734,1,0,0:0:0:0:
64,192,114795,1,0,0:0:0:0:
320,192,114855,1,0,0:0:0:0:
192,192,114916,1,0,0:0:0:0:
448,192,114977,1,0,0:0:0:0:
320,192,115037,1,0,0:0:0:0:
192,192,115098,1,0,0:0:0:0:
64,192,115160,1,2,0:0:0:0:
320,192,115220,1,0,0:0:0:0:
448,192,115281,1,0,0:0:0:0:
192,192,115342,1,8,0:0:0:0:
64,192,115402,1,0,0:0:0:0:
320,192,115463,1,0,0:0:0:0:
192,192,115524,1,0,0:0:0:0:
448,192,115584,1,0,0:0:0:0:
320,192,115645,1,0,0:0:0:0:
64,192,115705,1,0,0:0:0:0:
192,192,115766,1,0,0:0:0:0:
320,192,115827,1,0,0:0:0:0:
64,192,115887,1,2,0:0:0:0:
192,192,115948,1,0,0:0:0:0:
448,192,116010,1,0,0:0:0:0:
320,192,116070,1,8,0:0:0:0:
192,192,116131,1,0,0:0:0:0:
64,192,116192,1,0,0:0:0:0:
448,192,116252,1,0,0:0:0:0:
320,192,116313,1,0,0:0:0:0:
192,192,116374,1,0,0:0:0:0:
448,192,116434,1,0,0:0:0:0:
320,192,116495,1,0,0:0:0:0:
64,192,116555,1,0,0:0:0:0:
192,192,116616,1,2,0:0:0:0:
320,192,116677,1,0,0:0:0:0:
448,192,116737,1,0,0:0:0:0:
192,192,116798,1,8,0:0:0:0:
320,192,116860,1,0,0:0:0:0:
64,192,116920,1,0,0:0:0:0:
192,192,116981,1,0,0:0:0:0:
320,192,117042,1,0,0:0:0:0:
448,192,117102,1,0,0:0:0:0:
192,192,117163,1,0,0:0:0:0:
64,192,117224,1,0,0:0:0:0:
320,192,117284,1,0,0:0:0:0:
192,192,117345,1,2,0:0:0:0:
64,192,117406,1,0,0:0:0:0:
448,192,117466,1,0,0:0:0:0:
320,192,117527,1,8,0:0:0:0:
192,192,117587,1,0,0:0:0:0:
64,192,117648,1,0,0:0:0:0:
320,192,117710,1,0,0:0:0:0:
448,192,117770,1,0,0:0:0:0:
192,192,117831,1,0,0:0:0:0:
320,192,117892,1,0,0:0:0:0:
448,192,117952,1,0,0:0:0:0:
64,192,118013,1,0,0:0:0:0:
192,192,118074,1,2,0:0:0:0:
320,192,118134,1,0,0:0:0:0:
448,192,118195,1,0,0:0:0:0:
320,192,118256,1,8,0:0:0:0:
192,192,118316,1,0,0:0:0:0:
64,192,118377,1,0,0:0:0:0:
192,192,118437,1,0,0:0:0:0:
320,192,118498,1,0,0:0:0:0:
448,192,118560,1,0,0:0:0:0:
192,192,118620,1,2,0:0:0:0:
64,192,118681,1,0,0:0:0:0:
320,192,118742,1,0,0:0:0:0:
448,192,118802,1,2,0:0:0:0:
192,192,118863,1,0,0:0:0:0:
64,192,118924,1,0,0:0:0:0:
320,192,118984,1,8,0:0:0:0:
448,192,119045,1,0,0:0:0:0:
192,192,119106,1,0,0:0:0:0:
64,192,119166,1,0,0:0:0:0:
448,192,119227,1,0,0:0:0:0:
320,192,119287,1,0,0:0:0:0:
64,192,119348,1,0,0:0:0:0:
192,192,119410,1,0,0:0:0:0:
448,192,119470,1,0,0:0:0:0:
320,192,119531,1,0,3:0:0:0:
64,192,119592,1,0,0:0:0:0:
192,192,119652,1,0,0:0:0:0:
448,192,119713,1,8,0:0:0:0:
320,192,119774,1,0,0:0:0:0:
64,192,119834,1,0,0:0:0:0:
192,192,119895,1,0,0:0:0:0:
320,192,119956,1,0,0:0:0:0:
448,192,120016,1,0,0:0:0:0:
64,192,120077,128,0,120168:0:0:0:0:
192,192,120077,128,0,120168:0:0:0:0:
320,192,120168,128,0,120260:0:0:0:0:
448,192,120260,128,0,120351:0:0:0:0:
192,192,120351,128,0,120442:0:0:0:0:
64,192,120442,128,0,120533:0:0:0:0:
320,192,120442,128,0,120533:0:0:0:0:
448,192,120533,128,0,120624:0:0:0:0:
192,192,120624,128,0,120715:0:0:0:0:
64,192,120715,128,8,120806:0:0:0:0:
320,192,120806,128,0,120897:0:0:0:0:
448,192,120806,128,0,120897:0:0:0:0:
192,192,120897,128,0,120988:0:0:0:0:
64,192,120988,128,0,121080:0:0:0:0:
320,192,121080,128,0,121170:0:0:0:0:
448,192,121170,128,0,121261:0:0:0:0:
192,192,121170,128,0,121261:0:0:0:0:
64,192,121261,128,0,121352:0:0:0:0:
320,192,121352,128,0,121443:0:0:0:0:
448,192,121443,128,2,121534:0:0:0:0:
192,192,121534,128,0,121625:0:0:0:0:
64,192,121534,128,0,121625:0:0:0:0:
320,192,121625,128,0,121716:0:0:0:0:
448,192,121716,128,0,121807:0:0:0:0:
192,192,121807,128,0,121898:0:0:0:0:
64,192,121807,128,0,121898:0:0:0:0:
320,192,121898,128,0,121990:0:0:0:0:
448,192,121990,128,0,122081:0:0:0:0:
192,192,122081,128,0,122172:0:0:0:0:
320,192,122172,128,8,122263:0:0:0:0:
64,192,122172,128,8,122263:0:0:0:0:
448,192,122263,128,0,122354:0:0:0:0:
192,192,122354,128,0,122445:0:0:0:0:
64,192,122445,128,0,122536:0:0:0:0:
448,192,122536,128,0,122627:0:0:0:0:
320,192,122627,128,0,122718:0:0:0:0:
192,192,122627,128,0,122718:0:0:0:0:
64,192,122718,128,0,122810:0:0:0:0:
448,192,122810,128,0,122901:0:0:0:0:
64,192,122992,1,4,3:2:0:0:
192,192,123037,1,0,0:0:0:0:
320,192,123083,1,0,0:0:0:0:
448,192,123128,1,0,0:0:0:0:
64,192,123174,1,0,0:0:0:0:
192,192,123220,1,0,0:0:0:0:
320,192,123265,1,0,0:0:0:0:
448,192,123311,1,0,0:0:0:0:
64,192,123356,1,0,0:0:0:0:
192,192,123402,1,0,0:0:0:0:
320,192,123447,1,0,0:0:0:0:
448,192,123493,1,0,0:0:0:0:
64,192,123538,1,0,0:0:0:0:
192,192,123584,1,0,0:0:0:0:
320,192,123630,1,0,0:0:0:0:
448,192,123675,1,0,0:0:0:0:
64,192,123721,1,0,0:0:0:0:
192,192,123766,1,0,0:0:0:0:
320,192,123812,1,0,0:0:0:0:
448,192,123857,1,0,0:0:0:0:
64,192,123902,1,0,0:0:0:0:
192,192,123947,1,0,0:0:0:0:
320,192,123993,1,0,0:0:0:0:
448,192,124038,1,0,0:0:0:0:
64,192,124084,1,0,0:0:0:0:
192,192,124130,1,0,0:0:0:0:
320,192,124175,1,0,0:0:0:0:
448,192,124221,1,0,0:0:0:0:
64,192,124266,1,0,0:0:0:0:
192,192,124312,1,0,0:0:0:0:
320,192,124357,1,0,0:0:0:0:
448,192,124403,1,0,0:0:0:0:
64,192,124448,1,8,3:2:0:0:
192,192,124540,1,0,0:0:0:0:
448,192,124631,1,0,3:0:0:0:
64,192,124631,1,0,3:0:0:0:
320,192,124722,1,0,3:0:0:0:
64,192,124813,1,0,3:0:0:0:
448,192,124813,1,0,3:0:0:0:
192,192,124904,1,0,0:0:0:0:
448,192,124995,1,8,3:2:0:0:
320,192,125041,1,0,0:0:0:0:
192,192,125086,1,0,0:0:0:0:
64,192,125132,1,0,0:0:0:0:
448,192,125177,1,0,3:0:0:0:
320,192,125223,1,0,0:0:0:0:
192,192,125268,1,0,3:0:0:0:
64,192,125314,1,0,0:0:0:0:
448,192,125360,1,0,3:0:0:0:
320,192,125405,1,0,0:0:0:0:
192,192,125451,1,0,0:0:0:0:
64,192,125496,1,0,0:0:0:0:
448,192,125542,1,8,3:2:0:0:
320,192,125587,1,0,0:0:0:0:
192,192,125633,1,0,0:0:0:0:
64,192,125678,1,0,0:0:0:0:
448,192,125724,1,4,3:2:0:0:
320,192,125770,1,0,0:0:0:0:
192,192,125815,1,0,0:0:0:0:
64,192,125861,1,0,0:0:0:0:
320,192,125906,1,0,0:0:0:0:
448,192,125966,1,0,0:0:0:0:
192,192,126027,1,0,0:0:0:0:
64,192,126088,1,0,3:0:0:0:
448,192,126148,1,0,0:0:0:0:
320,192,126210,1,0,0:0:0:0:
192,192,126271,1,8,0:0:0:0:
64,192,126331,1,0,0:0:0:0:
192,192,126392,1,0,0:0:0:0:
320,192,126453,1,0,0:0:0:0:
448,192,126513,1,0,0:0:0:0:
64,192,126574,1,0,0:0:0:0:
192,192,126635,1,0,3:0:0:0:
320,192,126695,1,0,0:0:0:0:
448,192,126756,1,0,0:0:0:0:
320,192,126816,1,0,3:0:0:0:
192,192,126877,1,0,0:0:0:0:
64,192,126938,1,0,0:0:0:0:
448,192,126998,1,8,0:0:0:0:
320,192,127060,1,0,0:0:0:0:
192,192,127121,1,0,0:0:0:0:
64,192,127181,1,0,3:0:0:0:
320,192,127242,1,0,0:0:0:0:
448,192,127303,1,0,0:0:0:0:
64,192,127363,1,0,3:0:0:0:
192,192,127424,1,0,0:0:0:0:
320,192,127485,1,0,0:0:0:0:
448,192,127545,1,0,3:0:0:0:
64,192,127606,1,0,0:0:0:0:
192,192,127666,1,0,0:0:0:0:
320,192,127727,1,8,0:0:0:0:
64,192,127788,1,0,0:0:0:0:
192,192,127848,1,0,0:0:0:0:
448,192,127910,1,0,3:0:0:0:
320,192,127971,1,0,0:0:0:0:
192,192,128031,1,0,0:0:0:0:
64,192,128092,1,0,3:0:0:0:
448,192,128153,1,0,0:0:0:0:
320,192,128213,1,0,0:0:0:0:
192,192,128274,1,0,3:0:0:0:
448,192,128335,1,0,0:0:0:0:
320,192,128395,1,0,0:0:0:0:
64,192,128456,1,8,0:0:0:0:
192,192,128517,1,0,0:0:0:0:
448,192,128577,1,0,0:0:0:0:
320,192,128638,1,0,3:0:0:0:
192,192,128698,1,0,0:0:0:0:
64,192,128760,1,0,0:0:0:0:
320,192,128821,1,0,0:0:0:0:
448,192,128881,1,0,0:0:0:0:
192,192,128942,1,0,0:0:0:0:
320,192,129003,1,0,3:0:0:0:
448,192,129063,1,0,0:0:0:0:
64,192,129124,1,0,0:0:0:0:
192,192,129185,1,8,0:0:0:0:
320,192,129245,1,0,0:0:0:0:
448,192,129306,1,0,0:0:0:0:
192,192,129367,1,0,3:0:0:0:
64,192,129427,1,0,0:0:0:0:
320,192,129488,1,0,0:0:0:0:
192,192,129548,1,0,3:0:0:0:
64,192,129610,1,0,0:0:0:0:
448,192,129671,1,0,0:0:0:0:
320,192,129731,1,0,3:0:0:0:
192,192,129792,1,0,0:0:0:0:
64,192,129853,1,0,0:0:0:0:
320,192,129913,1,8,0:0:0:0:
448,192,129974,1,0,0:0:0:0:
192,192,130035,1,0,0:0:0:0:
320,192,130095,1,0,3:0:0:0:
64,192,130156,1,0,0:0:0:0:
192,192,130217,1,0,0:0:0:0:
448,192,130277,1,0,3:0:0:0:
320,192,130338,1,0,0:0:0:0:
192,192,130398,1,0,0:0:0:0:
64,192,130460,1,8,3:2:0:0:
320,192,130521,1,0,0:0:0:0:
192,192,130581,1,0,0:0:0:0:
448,192,130642,1,8,0:0:0:0:
320,192,130703,1,0,0:0:0:0:
192,192,130763,1,0,0:0:0:0:
64,192,130824,1,0,3:0:0:0:
320,192,130885,1,0,0:0:0:0:
448,192,130945,1,0,0:0:0:0:
64,192,131006,1,8,0:0:0:0:
192,192,131052,1,0,0:0:0:0:
320,192,131097,1,0,3:0:0:0:
448,192,131143,1,0,0:0:0:0:
64,192,131188,1,0,3:0:0:0:
192,192,131234,1,0,0:0:0:0:
320,192,131280,1,0,0:0:0:0:
448,192,131325,1,0,0:0:0:0:
64,192,131371,1,8,3:2:0:0:
192,192,131416,1,0,0:0:0:0:
320,192,131462,1,0,3:0:0:0:
448,192,131507,1,0,0:0:0:0:
64,192,131553,1,4,3:2:0:0:
192,192,131598,1,0,0:0:0:0:
320,192,131644,1,0,0:0:0:0:
448,192,131690,1,0,0:0:0:0:
192,192,131735,1,0,0:0:0:0:
64,192,131795,1,0,0:0:0:0:
320,192,131856,1,0,0:0:0:0:
192,192,131917,1,0,3:0:0:0:
448,192,131977,1,0,0:0:0:0:
320,192,132038,1,0,0:0:0:0:
192,192,132100,1,8,0:0:0:0:
64,192,132160,1,0,0:0:0:0:
320,192,132221,1,0,0:0:0:0:
448,192,132281,1,0,3:0:0:0:
192,192,132342,1,0,0:0:0:0:
320,192,132403,1,0,0:0:0:0:
64,192,132463,1,0,3:0:0:0:
192,192,132524,1,0,0:0:0:0:
320,192,132585,1,0,0:0:0:0:
448,192,132645,1,0,3:0:0:0:
64,192,132706,1,0,0:0:0:0:
192,192,132767,1,0,0:0:0:0:
320,192,132827,1,8,0:0:0:0:
448,192,132888,1,0,0:0:0:0:
64,192,132950,1,0,0:0:0:0:
192,192,133010,1,0,3:0:0:0:
320,192,133071,1,0,0:0:0:0:
64,192,133132,1,0,0:0:0:0:
192,192,133192,1,0,3:0:0:0:
448,192,133253,1,0,0:0:0:0:
320,192,133313,1,0,0:0:0:0:
192,192,133374,1,0,3:0:0:0:
448,192,133435,1,0,0:0:0:0:
320,192,133495,1,0,0:0:0:0:
64,192,133556,1,8,0:0:0:0:
192,192,133617,1,0,0:0:0:0:
320,192,133677,1,0,0:0:0:0:
448,192,133738,1,0,3:0:0:0:
192,192,133800,1,0,0:0:0:0:
320,192,133860,1,0,0:0:0:0:
64,192,133921,1,0,3:0:0:0:
192,192,133982,1,0,0:0:0:0:
320,192,134042,1,0,0:0:0:0:
448,192,134103,1,0,3:0:0:0:
192,192,134163,1,0,0:0:0:0:
64,192,134224,1,0,0:0:0:0:
320,192,134285,1,8,0:0:0:0:
192,192,134345,1,0,0:0:0:0:
448,192,134406,1,0,0:0:0:0:
320,192,134467,1,0,3:0:0:0:
64,192,134527,1,0,0:0:0:0:
192,192,134588,1,0,0:0:0:0:
320,192,134650,1,0,0:0:0:0:
448,192,134710,1,0,0:0:0:0:
192,192,134771,1,0,0:0:0:0:
64,192,134832,1,0,3:0:0:0:
448,192,134892,1,0,0:0:0:0:
320,192,134953,1,0,0:0:0:0:
192,192,135013,1,8,0:0:0:0:
64,192,135074,1,0,0:0:0:0:
320,192,135135,1,0,0:0:0:0:
192,192,135195,1,0,3:0:0:0:
448,192,135256,1,0,0:0:0:0:
320,192,135317,1,0,0:0:0:0:
192,192,135377,1,0,3:0:0:0:
64,192,135438,1,0,0:0:0:0:
320,192,135500,1,0,0:0:0:0:
448,192,135560,1,0,0:0:0:0:
192,192,135621,1,0,0:0:0:0:
320,192,135682,1,0,0:0:0:0:
64,192,135742,1,0,0:0:0:0:
192,192,135803,1,0,0:0:0:0:
320,192,135864,1,0,0:0:0:0:
448,192,135924,1,0,0:0:0:0:
192,192,135985,1,0,0:0:0:0:
64,192,136045,1,0,0:0:0:0:
448,192,136106,1,0,0:0:0:0:
320,192,136106,1,0,0:0:0:0:
192,192,136197,1,0,0:0:0:0:
320,192,136288,1,0,0:0:0:0:
448,192,136288,1,0,0:0:0:0:
192,192,136380,1,0,0:0:0:0:
64,192,136380,1,0,0:0:0:0:
448,192,136471,1,0,0:0:0:0:
320,192,136471,1,0,0:0:0:0:
192,192,136562,1,0,0:0:0:0:
64,192,136562,1,0,0:0:0:0:
320,192,136653,1,0,0:0:0:0:
448,192,136653,1,0,0:0:0:0:
192,192,136744,1,0,0:0:0:0:
64,192,136744,1,0,0:0:0:0:
320,192,136835,1,0,0:0:0:0:
192,192,136926,1,0,0:0:0:0:
64,192,136926,1,0,0:0:0:0:
448,192,137017,1,0,3:0:0:0:
320,192,137017,1,0,0:0:0:0:
192,192,137108,1,0,0:0:0:0:
448,192,137200,1,0,3:0:0:0:
320,192,137200,1,0,0:0:0:0:
192,192,137291,1,0,0:0:0:0:
64,192,137291,1,0,0:0:0:0:
320,192,137382,1,0,0:0:0:0:
192,192,137473,1,0,0:0:0:0:
64,192,137473,1,0,0:0:0:0:
448,192,137564,1,4,3:2:0:0:
320,192,137564,1,0,0:0:0:0:
192,192,137655,1,0,0:0:0:0:
64,192,137746,1,0,0:0:0:0:
320,192,137746,1,0,0:0:0:0:
448,192,137836,1,0,0:0:0:0:
64,192,137927,1,8,0:0:0:0:
192,192,137973,1,0,0:0:0:0:
320,192,138018,1,0,0:0:0:0:
448,192,138064,1,0,0:0:0:0:
64,192,138110,1,0,0:0:0:0:
320,192,138201,1,0,0:0:0:0:
192,192,138292,1,0,0:0:0:0:
448,192,138292,1,0,0:0:0:0:
320,192,138383,1,0,0:0:0:0:
192,192,138474,1,0,0:0:0:0:
64,192,138565,1,0,0:0:0:0:
448,192,138656,1,8,0:0:0:0:
320,192,138702,1,0,0:0:0:0:
192,192,138747,1,0,0:0:0:0:
64,192,138793,1,0,0:0:0:0:
448,192,138838,1,0,0:0:0:0:
320,192,138930,1,0,0:0:0:0:
64,192,139021,1,2,0:0:0:0:
192,192,139021,1,2,0:0:0:0:
448,192,139112,1,0,0:0:0:0:
320,192,139203,1,0,0:0:0:0:
192,192,139203,1,0,0:0:0:0:
448,192,139294,1,0,0:0:0:0:
64,192,139385,1,10,0:0:0:0:
192,192,139431,1,0,0:0:0:0:
320,192,139476,1,0,0:0:0:0:
448,192,139522,1,0,0:0:0:0:
64,192,139567,1,0,0:0:0:0:
192,192,139658,1,0,0:0:0:0:
64,192,139750,1,2,0:0:0:0:
448,192,139750,1,2,0:0:0:0:
320,192,139841,1,0,0:0:0:0:
192,192,139932,1,0,0:0:0:0:
448,192,139932,1,0,0:0:0:0:
64,192,140023,1,0,0:0:0:0:
448,192,140114,1,10,0:0:0:0:
320,192,140160,1,0,0:0:0:0:
192,192,140205,1,0,0:0:0:0:
64,192,140251,1,0,0:0:0:0:
448,192,140296,1,0,0:0:0:0:
320,192,140387,1,0,0:0:0:0:
448,192,140478,1,2,0:0:0:0:
64,192,140478,1,2,0:0:0:0:
192,192,140568,1,0,0:0:0:0:
320,192,140660,1,0,0:0:0:0:
64,192,140660,1,0,0:0:0:0:
448,192,140751,1,0,0:0:0:0:
64,192,140842,1,8,0:0:0:0:
192,192,140887,1,0,0:0:0:0:
320,192,140933,1,0,0:0:0:0:
448,192,140978,1,0,0:0:0:0:
64,192,141024,1,0,0:0:0:0:
192,192,141115,1,0,0:0:0:0:
320,192,141206,1,2,0:0:0:0:
448,192,141206,1,2,0:0:0:0:
64,192,141297,1,0,0:0:0:0:
320,192,141388,1,0,0:0:0:0:
192,192,141388,1,0,0:0:0:0:
64,192,141480,1,0,0:0:0:0:
448,192,141571,1,8,0:0:0:0:
320,192,141616,1,0,0:0:0:0:
192,192,141662,1,0,0:0:0:0:
64,192,141707,1,0,0:0:0:0:
448,192,141753,1,4,0:0:0:0:
320,192,141844,1,0,3:0:0:0:
64,192,141935,1,2,0:0:0:0:
192,192,141935,1,2,0:0:0:0:
320,192,142026,1,0,0:0:0:0:
448,192,142117,1,0,0:0:0:0:
192,192,142117,1,0,0:0:0:0:
320,192,142208,1,0,0:0:0:0:
64,192,142300,1,8,0:0:0:0:
192,192,142300,1,0,0:0:0:0:
320,192,142391,1,0,0:0:0:0:
448,192,142391,1,0,0:0:0:0:
192,192,142482,1,0,0:0:0:0:
320,192,142573,1,0,0:0:0:0:
448,192,142573,1,0,0:0:0:0:
64,192,142664,1,2,0:0:0:0:
192,192,142664,1,0,0:0:0:0:
320,192,142755,1,0,0:0:0:0:
192,192,142846,1,0,0:0:0:0:
64,192,142846,1,0,0:0:0:0:
320,192,142937,1,0,0:0:0:0:
448,192,142937,1,0,0:0:0:0:
192,192,143028,1,0,0:0:0:0:
320,192,143120,1,0,0:0:0:0:
448,192,143120,1,0,0:0:0:0:
64,192,143211,1,8,0:0:0:0:
192,192,143211,1,0,0:0:0:0:
320,192,143302,1,0,3:0:0:0:
448,192,143302,1,0,0:0:0:0:
64,192,143392,1,4,0:0:0:0:
192,192,143392,1,0,0:0:0:0:
320,192,143483,1,0,0:0:0:0:
192,192,143574,1,0,0:0:0:0:
64,192,143665,1,0,0:0:0:0:
448,192,143756,1,8,0:0:0:0:
320,192,143802,1,0,0:0:0:0:
192,192,143847,1,0,0:0:0:0:
64,192,143893,1,0,0:0:0:0:
448,192,143938,1,0,0:0:0:0:
320,192,144030,1,0,0:0:0:0:
64,192,144121,1,0,0:0:0:0:
192,192,144121,1,0,0:0:0:0:
448,192,144212,1,0,0:0:0:0:
320,192,144303,1,0,0:0:0:0:
192,192,144303,1,0,0:0:0:0:
448,192,144394,1,0,0:0:0:0:
64,192,144485,1,8,0:0:0:0:
192,192,144531,1,0,0:0:0:0:
320,192,144576,1,0,0:0:0:0:
448,192,144622,1,0,0:0:0:0:
64,192,144667,1,0,0:0:0:0:
192,192,144758,1,0,0:0:0:0:
448,192,144850,1,2,0:0:0:0:
64,192,144850,1,2,0:0:0:0:
320,192,144941,1,0,0:0:0:0:
192,192,145032,1,8,0:0:0:0:
448,192,145032,1,8,0:0:0:0:
64,192,145123,1,0,0:0:0:0:
448,192,145214,1,8,0:0:0:0:
320,192,145260,1,0,0:0:0:0:
192,192,145305,1,0,0:0:0:0:
64,192,145351,1,0,0:0:0:0:
448,192,145396,1,0,3:0:0:0:
320,192,145396,1,0,3:0:0:0:
192,192,145487,1,0,0:0:0:0:
64,192,145487,1,0,0:0:0:0:
448,192,145578,1,10,0:0:0:0:
320,192,145624,1,0,0:0:0:0:
192,192,145670,1,0,0:0:0:0:
64,192,145715,1,0,0:0:0:0:
448,192,145761,1,0,0:0:0:0:
320,192,145806,1,0,0:0:0:0:
192,192,145852,1,0,0:0:0:0:
64,192,145897,1,0,0:0:0:0:
448,192,145943,1,0,3:0:0:0:
320,192,145988,1,0,0:0:0:0:
192,192,146034,1,0,0:0:0:0:
64,192,146080,1,0,0:0:0:0:
448,192,146124,1,8,0:0:0:0:
320,192,146170,1,0,0:0:0:0:
192,192,146215,1,0,0:0:0:0:
64,192,146261,1,0,0:0:0:0:
448,192,146306,1,4,0:0:0:0:
320,192,146306,1,4,0:0:0:0:
320,192,146488,1,0,0:0:0:0:
448,192,146488,1,0,0:0:0:0:
192,192,146671,1,0,0:0:0:0:
320,192,146671,1,0,0:0:0:0:
448,192,146671,1,0,0:0:0:0:
64,192,146853,1,0,0:0:0:0:
320,192,146853,1,0,0:0:0:0:
64,192,147035,1,0,0:0:0:0:
192,192,147035,1,0,0:0:0:0:
320,192,147035,1,0,0:0:0:0:
192,192,147217,1,0,0:0:0:0:
448,192,147217,1,0,0:0:0:0:
448,192,147400,1,0,0:0:0:0:
320,192,147400,1,0,0:0:0:0:
192,192,147400,1,0,0:0:0:0:
192,192,147582,1,0,0:0:0:0:
320,192,147582,1,0,0:0:0:0:
64,192,147764,1,0,0:0:0:0:
320,192,147764,1,0,0:0:0:0:
448,192,147764,1,0,0:0:0:0:
192,192,147946,1,0,0:0:0:0:
320,192,147946,1,0,0:0:0:0:
64,192,148128,1,0,0:0:0:0:
192,192,148128,1,0,0:0:0:0:
448,192,148128,1,0,0:0:0:0:
64,192,148311,1,0,0:0:0:0:
192,192,148311,1,0,0:0:0:0:
448,192,148493,1,0,0:0:0:0:
320,192,148493,1,0,0:0:0:0:
192,192,148493,1,0,0:0:0:0:
320,192,148675,1,0,0:0:0:0:
448,192,148675,1,0,0:0:0:0:
64,192,148857,1,0,0:0:0:0:
192,192,148857,1,0,0:0:0:0:
320,192,148857,1,0,0:0:0:0:
64,192,149038,1,0,0:0:0:0:
192,192,149038,1,0,0:0:0:0:
448,192,149221,128,0,149403:0:0:0:0:
64,192,149221,1,0,0:0:0:0:
192,192,149221,1,0,0:0:0:0:
320,192,149403,128,0,149585:0:0:0:0:
448,192,149585,1,0,0:0:0:0:
192,192,149585,128,0,149767:0:0:0:0:
64,192,149767,128,0,149950:0:0:0:0:
448,192,149767,128,0,149950:0:0:0:0:
320,192,149950,128,0,150132:0:0:0:0:
192,192,149950,1,0,0:0:0:0:
192,192,150132,128,0,150314:0:0:0:0:
64,192,150314,128,0,150496:0:0:0:0:
448,192,150314,128,0,150496:0:0:0:0:
320,192,150314,1,0,0:0:0:0:
320,192,150496,128,0,150678:0:0:0:0:
192,192,150678,128,0,150861:0:0:0:0:
448,192,150678,1,0,0:0:0:0:
64,192,150861,128,0,151043:0:0:0:0:
448,192,150861,128,0,151043:0:0:0:0:
320,192,151043,128,0,151225:0:0:0:0:
192,192,151043,1,0,0:0:0:0:
192,192,151225,128,6,151407:0:0:0:0:
64,192,151407,128,0,151590:0:0:0:0:
320,192,151407,1,6,0:1:0:0:
448,192,151590,128,4,152135:0:0:0:0:
192,192,151590,1,0,0:0:0:0:
64,192,152135,128,0,152317:0:0:0:0:
192,192,152135,1,4,3:2:0:0:
320,192,152317,128,0,152500:0:0:0:0:
192,192,152500,128,0,152682:0:0:0:0:
448,192,152500,1,0,0:0:0:0:
320,192,152682,128,0,153046:0:0:0:0:
64,192,152682,1,0,0:0:0:0:
64,192,153046,128,0,153411:0:0:0:0:
192,192,153046,1,0,0:0:0:0:
448,192,153411,128,0,165433:0:0:0:0:
320,192,153411,1,0,0:0:0:0:
192,192,153411,128,0,161425:0:0:0:0:
