osu file format v14

[General]
AudioFilename: lune.ogg
AudioLeadIn: 3000
PreviewTime: 47964
Countdown: 0
SampleSet: Soft
StackLeniency: 0.7
Mode: 3
LetterboxInBreaks: 1
SpecialStyle: 0
WidescreenStoryboard: 0

[Editor]
DistanceSpacing: 1.2
BeatDivisor: 2
GridSize: 8
TimelineZoom: 2.7

[Metadata]
Title:Lune Noir
TitleUnicode:Lune Noir
Artist:Sonitus Vir ft. Emily Smith
ArtistUnicode:Sonitus Vir ft. Emily Smith
Creator:Bites
Version:7K MX
Source:
Tags:
BeatmapID:226830
BeatmapSetID:57946

[Difficulty]
HPDrainRate:7
CircleSize:7
OverallDifficulty:7
ApproachRate:9
SliderMultiplier:1
SliderTickRate:1

[Events]
//Background and Video events
0,0,"lunenoir-bg.jpg",0,0
//Break Periods
//Storyboard Layer 0 (Background)
//Storyboard Layer 1 (Fail)
//Storyboard Layer 2 (Pass)
//Storyboard Layer 3 (Foreground)
//Storyboard Sound Samples

[TimingPoints]
-30,272.683891199127,4,2,0,50,1,0
0,-133.333333333333,4,2,0,50,0,0
21512,-100,4,2,0,50,0,0
39236,-133.333333333333,4,2,0,50,0,0
42508,-400,4,2,0,50,0,0
42917,-66.6666666666667,4,2,0,50,0,0
43054,-400,4,2,0,50,0,0
43463,-66.6666666666667,4,2,0,50,0,0
43599,-133.333333333333,4,2,0,50,0,0
47962,-100,4,2,0,50,0,1
49598,-200,4,2,0,50,0,1
49802,-66.6666666666667,4,2,0,50,0,1
49871,-200,4,2,0,50,0,1
50075,-66.6666666666667,4,2,0,50,0,1
50143,-100,4,2,0,50,0,1
51785,-111.111111111111,4,2,0,50,0,1
51921,-125,4,2,0,50,0,1
52057,-142.857142857143,4,2,0,50,0,1
52194,-166.666666666667,4,2,0,50,0,1
52330,-200,4,2,0,50,0,0
58869,-1000,4,2,0,50,0,0
59693,-666.666666666667,4,2,0,50,0,0
59960,-400,4,2,0,50,0,0
60096,-285.714285714286,4,2,0,50,0,0
60233,-222.222222222222,4,2,0,50,0,0
60369,-166.666666666667,4,2,0,50,0,0
60505,-133.333333333333,4,2,0,50,0,0
67050,-142.857142857143,4,2,0,50,0,0
67322,-166.666666666667,4,2,0,50,0,0
67595,-250,4,2,0,50,0,0
69777,-100,4,2,0,50,0,0

[Colours]
Combo1 : 178,178,178
Combo2 : 0,143,155
Combo3 : 50,77,109
Combo4 : 83,125,57
Combo5 : 129,60,138

[HitObjects]
182,192,2151,5,0,0:0:0:0:
256,192,2219,1,0,0:0:0:0:
329,192,2287,1,0,0:0:0:0:
402,192,2355,1,0,0:0:0:0:
475,192,2424,1,0,0:0:0:0:
36,192,2492,1,0,0:0:0:0:
109,192,2560,1,0,0:0:0:0:
182,192,2628,1,0,0:0:0:0:
256,192,2696,1,0,0:0:0:0:
329,192,2765,1,0,0:0:0:0:
402,192,2833,1,0,0:0:0:0:
475,192,2901,1,0,0:0:0:0:
36,192,3242,1,0,0:0:0:0:
475,192,3242,1,0,0:0:0:0:
182,192,3378,1,0,0:0:0:0:
329,192,3378,1,0,0:0:0:0:
109,192,3514,1,0,0:0:0:0:
256,192,3514,1,0,0:0:0:0:
402,192,3514,1,0,0:0:0:0:
109,192,4332,128,0,6514:0:0:0:0:
182,192,6514,1,0,0:0:0:0:
256,192,6582,1,0,0:0:0:0:
329,192,6650,1,0,0:0:0:0:
402,192,6718,1,0,0:0:0:0:
475,192,6787,1,0,0:0:0:0:
36,192,6855,1,0,0:0:0:0:
109,192,6923,1,0,0:0:0:0:
182,192,6991,1,0,0:0:0:0:
256,192,7059,1,0,0:0:0:0:
329,192,7127,1,0,0:0:0:0:
402,192,7196,1,0,0:0:0:0:
475,192,7264,1,0,0:0:0:0:
329,192,7605,1,0,0:0:0:0:
475,192,7605,1,0,0:0:0:0:
402,192,7741,1,0,0:0:0:0:
109,192,7741,1,0,0:0:0:0:
36,192,7877,1,0,0:0:0:0:
182,192,7877,1,0,0:0:0:0:
109,192,8695,1,0,0:0:0:0:
256,192,8695,1,0,0:0:0:0:
36,192,8695,1,0,0:0:0:0:
109,192,9332,1,0,0:0:0:0:
256,192,9423,1,0,0:0:0:0:
475,192,9513,1,0,0:0:0:0:
402,192,9786,1,0,0:0:0:0:
109,192,9922,1,0,0:0:0:0:
182,192,10059,1,0,0:0:0:0:
402,192,10150,1,0,0:0:0:0:
475,192,10241,1,0,0:0:0:0:
402,192,10331,1,0,0:0:0:0:
329,192,10400,1,0,0:0:0:0:
256,192,10468,1,0,0:0:0:0:
109,192,10741,1,0,0:0:0:0:
256,192,10741,1,0,0:0:0:0:
402,192,10741,1,0,0:0:0:0:
256,192,10922,1,0,0:0:0:0:
36,192,10922,1,0,0:0:0:0:
182,192,10922,1,0,0:0:0:0:
475,192,11104,1,0,0:0:0:0:
329,192,11104,1,0,0:0:0:0:
182,192,11104,1,0,0:0:0:0:
182,192,11422,1,0,0:0:0:0:
329,192,11422,1,0,0:0:0:0:
36,192,11422,1,0,0:0:0:0:
402,192,11831,1,0,0:0:0:0:
329,192,11899,1,0,0:0:0:0:
256,192,11968,1,0,0:0:0:0:
36,192,11968,1,0,0:0:0:0:
475,192,11968,1,0,0:0:0:0:
402,192,11968,128,0,12786:0:0:0:0:
109,192,11968,128,0,12786:0:0:0:0:
329,192,13058,1,0,0:0:0:0:
402,192,13126,1,0,0:0:0:0:
256,192,13195,1,0,0:0:0:0:
402,192,13263,1,0,0:0:0:0:
182,192,13331,1,0,0:0:0:0:
402,192,13399,1,0,0:0:0:0:
109,192,13467,1,0,0:0:0:0:
402,192,13536,1,0,0:0:0:0:
36,192,13604,1,0,0:0:0:0:
182,192,13604,1,0,0:0:0:0:
475,192,13604,1,0,0:0:0:0:
256,192,14013,1,0,0:0:0:0:
402,192,14013,1,0,0:0:0:0:
109,192,14013,1,0,0:0:0:0:
475,192,14422,1,0,0:0:0:0:
329,192,14422,1,0,0:0:0:0:
256,192,14422,1,0,0:0:0:0:
36,192,14694,1,0,0:0:0:0:
475,192,14694,1,0,0:0:0:0:
109,192,14694,128,0,16058:0:0:0:0:
256,192,14694,128,0,16058:0:0:0:0:
402,192,14694,128,0,16058:0:0:0:0:
256,192,17421,1,0,0:0:0:0:
402,192,17558,1,0,0:0:0:0:
182,192,17694,1,0,0:0:0:0:
109,192,17785,1,0,0:0:0:0:
256,192,17876,1,0,0:0:0:0:
329,192,17967,1,0,0:0:0:0:
36,192,17967,128,0,18239:0:0:0:0:
182,192,17967,128,0,18239:0:0:0:0:
256,192,18376,1,0,0:0:0:0:
402,192,18444,1,0,0:0:0:0:
475,192,18512,1,0,0:0:0:0:
475,192,18785,1,0,0:0:0:0:
329,192,18876,1,0,0:0:0:0:
256,192,18966,1,0,0:0:0:0:
109,192,19057,1,0,0:0:0:0:
329,192,19057,1,0,0:0:0:0:
36,192,19330,1,0,0:0:0:0:
182,192,19330,1,0,0:0:0:0:
182,192,19603,1,0,0:0:0:0:
36,192,19603,1,0,0:0:0:0:
256,192,19739,1,0,0:0:0:0:
329,192,19875,1,0,0:0:0:0:
109,192,19875,1,0,0:0:0:0:
256,192,20012,1,0,0:0:0:0:
402,192,20148,1,0,0:0:0:0:
182,192,20148,1,0,0:0:0:0:
256,192,20284,1,0,0:0:0:0:
475,192,20421,1,0,0:0:0:0:
109,192,20421,1,0,0:0:0:0:
256,192,20557,1,0,0:0:0:0:
329,192,20693,1,0,0:0:0:0:
475,192,20693,1,0,0:0:0:0:
256,192,20830,1,0,0:0:0:0:
402,192,20830,1,0,0:0:0:0:
182,192,20966,1,0,0:0:0:0:
329,192,20966,1,0,0:0:0:0:
109,192,21103,1,0,0:0:0:0:
256,192,21103,1,0,0:0:0:0:
36,192,21239,1,0,0:0:0:0:
182,192,21239,1,0,0:0:0:0:
182,192,21512,1,0,0:0:0:0:
329,192,21512,1,0,0:0:0:0:
256,192,21512,128,0,21784:0:0:0:0:
36,192,21512,128,0,21648:0:0:0:0:
475,192,21512,128,0,21648:0:0:0:0:
109,192,21784,1,0,0:0:0:0:
182,192,21784,1,0,0:0:0:0:
36,192,21921,1,0,0:0:0:0:
329,192,21921,1,0,0:0:0:0:
109,192,21989,1,0,0:0:0:0:
256,192,22057,1,0,0:0:0:0:
402,192,22057,1,0,0:0:0:0:
182,192,22057,1,0,0:0:0:0:
109,192,22193,1,0,0:0:0:0:
475,192,22193,1,0,0:0:0:0:
36,192,22193,1,0,0:0:0:0:
182,192,22330,1,0,0:0:0:0:
329,192,22330,1,0,0:0:0:0:
402,192,22330,1,0,0:0:0:0:
36,192,22466,1,0,0:0:0:0:
475,192,22466,1,0,0:0:0:0:
256,192,22602,1,0,0:0:0:0:
402,192,22602,1,0,0:0:0:0:
329,192,22602,1,0,0:0:0:0:
182,192,22739,1,0,0:0:0:0:
402,192,22739,1,0,0:0:0:0:
329,192,22875,1,0,0:0:0:0:
475,192,22875,1,0,0:0:0:0:
109,192,22875,1,0,0:0:0:0:
256,192,23011,1,0,0:0:0:0:
475,192,23148,1,0,0:0:0:0:
402,192,23148,1,0,0:0:0:0:
182,192,23148,1,0,0:0:0:0:
36,192,23148,1,0,0:0:0:0:
329,192,23284,1,0,0:0:0:0:
402,192,23420,1,0,0:0:0:0:
182,192,23420,1,0,0:0:0:0:
36,192,23420,1,0,0:0:0:0:
256,192,23420,1,0,0:0:0:0:
329,192,23557,1,0,0:0:0:0:
475,192,23693,1,0,0:0:0:0:
182,192,23693,1,0,0:0:0:0:
256,192,23761,1,0,0:0:0:0:
329,192,23829,1,0,0:0:0:0:
182,192,23829,1,0,0:0:0:0:
109,192,23898,1,0,0:0:0:0:
182,192,23966,1,0,0:0:0:0:
36,192,23966,1,0,0:0:0:0:
256,192,24102,1,0,0:0:0:0:
109,192,24102,1,0,0:0:0:0:
182,192,24170,1,0,0:0:0:0:
475,192,24238,1,0,0:0:0:0:
329,192,24238,1,0,0:0:0:0:
256,192,24238,1,0,0:0:0:0:
36,192,24375,1,0,0:0:0:0:
475,192,24375,1,0,0:0:0:0:
182,192,24375,1,0,0:0:0:0:
329,192,24511,1,0,0:0:0:0:
402,192,24511,1,0,0:0:0:0:
109,192,24511,1,0,0:0:0:0:
36,192,24647,1,0,0:0:0:0:
182,192,24647,1,0,0:0:0:0:
256,192,24784,1,0,0:0:0:0:
402,192,24784,1,0,0:0:0:0:
109,192,24784,1,0,0:0:0:0:
182,192,24920,1,0,0:0:0:0:
36,192,25056,1,0,0:0:0:0:
475,192,25056,1,0,0:0:0:0:
329,192,25056,1,0,0:0:0:0:
256,192,25193,1,0,0:0:0:0:
402,192,25193,1,0,0:0:0:0:
475,192,25329,1,0,0:0:0:0:
109,192,25329,1,0,0:0:0:0:
329,192,25329,1,0,0:0:0:0:
256,192,25465,1,0,0:0:0:0:
402,192,25465,1,0,0:0:0:0:
475,192,25602,1,0,0:0:0:0:
329,192,25602,1,0,0:0:0:0:
109,192,25738,1,0,0:0:0:0:
256,192,25738,1,0,0:0:0:0:
329,192,25874,1,0,0:0:0:0:
36,192,25874,1,0,0:0:0:0:
182,192,25874,1,0,0:0:0:0:
402,192,25943,1,0,0:0:0:0:
109,192,26011,1,0,0:0:0:0:
329,192,26011,1,0,0:0:0:0:
256,192,26079,1,0,0:0:0:0:
182,192,26147,1,0,0:0:0:0:
329,192,26147,1,0,0:0:0:0:
329,192,26283,1,0,0:0:0:0:
109,192,26283,1,0,0:0:0:0:
182,192,26352,1,0,0:0:0:0:
475,192,26420,1,0,0:0:0:0:
256,192,26420,1,0,0:0:0:0:
329,192,26420,1,0,0:0:0:0:
109,192,26556,1,0,0:0:0:0:
402,192,26556,1,0,0:0:0:0:
182,192,26556,1,0,0:0:0:0:
475,192,26693,1,0,0:0:0:0:
256,192,26693,1,0,0:0:0:0:
329,192,26693,1,0,0:0:0:0:
109,192,26829,1,0,0:0:0:0:
402,192,26829,1,0,0:0:0:0:
329,192,26965,1,0,0:0:0:0:
182,192,26965,1,0,0:0:0:0:
256,192,26965,1,0,0:0:0:0:
109,192,27102,1,0,0:0:0:0:
475,192,27102,1,0,0:0:0:0:
256,192,27238,1,0,0:0:0:0:
402,192,27238,1,0,0:0:0:0:
182,192,27238,1,0,0:0:0:0:
36,192,27374,1,0,0:0:0:0:
402,192,27511,1,0,0:0:0:0:
182,192,27511,1,0,0:0:0:0:
109,192,27511,1,0,0:0:0:0:
329,192,27647,1,0,0:0:0:0:
36,192,27783,1,0,0:0:0:0:
182,192,27783,1,0,0:0:0:0:
256,192,27783,1,0,0:0:0:0:
329,192,27920,1,0,0:0:0:0:
402,192,28056,1,0,0:0:0:0:
109,192,28056,1,0,0:0:0:0:
182,192,28056,1,0,0:0:0:0:
256,192,28124,1,0,0:0:0:0:
182,192,28192,1,0,0:0:0:0:
329,192,28192,1,0,0:0:0:0:
109,192,28260,1,0,0:0:0:0:
475,192,28329,1,0,0:0:0:0:
256,192,28329,1,0,0:0:0:0:
36,192,28329,1,0,0:0:0:0:
109,192,28465,1,0,0:0:0:0:
36,192,28465,1,0,0:0:0:0:
182,192,28533,1,0,0:0:0:0:
256,192,28601,1,0,0:0:0:0:
402,192,28601,1,0,0:0:0:0:
329,192,28601,1,0,0:0:0:0:
109,192,28738,1,0,0:0:0:0:
475,192,28738,1,0,0:0:0:0:
182,192,28738,1,0,0:0:0:0:
36,192,28874,1,0,0:0:0:0:
329,192,28874,1,0,0:0:0:0:
256,192,28874,1,0,0:0:0:0:
109,192,29010,1,0,0:0:0:0:
475,192,29010,1,0,0:0:0:0:
402,192,29147,1,0,0:0:0:0:
182,192,29147,1,0,0:0:0:0:
329,192,29147,1,0,0:0:0:0:
256,192,29283,1,0,0:0:0:0:
475,192,29283,1,0,0:0:0:0:
36,192,29419,1,0,0:0:0:0:
109,192,29488,1,0,0:0:0:0:
256,192,29556,1,0,0:0:0:0:
329,192,29624,1,0,0:0:0:0:
475,192,29692,1,0,0:0:0:0:
36,192,29760,1,0,0:0:0:0:
182,192,29828,1,0,0:0:0:0:
256,192,29897,1,0,0:0:0:0:
402,192,29965,1,0,0:0:0:0:
475,192,30033,1,0,0:0:0:0:
109,192,30101,1,0,0:0:0:0:
256,192,30169,1,0,0:0:0:0:
182,192,30237,1,0,0:0:0:0:
36,192,30237,1,0,0:0:0:0:
329,192,30237,1,0,0:0:0:0:
475,192,30237,1,0,0:0:0:0:
109,192,30510,1,0,0:0:0:0:
36,192,30510,1,0,0:0:0:0:
402,192,30646,1,0,0:0:0:0:
182,192,30646,1,0,0:0:0:0:
256,192,30715,1,0,0:0:0:0:
329,192,30783,1,0,0:0:0:0:
36,192,30783,1,0,0:0:0:0:
109,192,30783,1,0,0:0:0:0:
329,192,30919,1,0,0:0:0:0:
475,192,30919,1,0,0:0:0:0:
36,192,31055,1,0,0:0:0:0:
256,192,31055,1,0,0:0:0:0:
182,192,31192,1,0,0:0:0:0:
475,192,31192,1,0,0:0:0:0:
109,192,31328,1,0,0:0:0:0:
36,192,31328,1,0,0:0:0:0:
256,192,31328,1,0,0:0:0:0:
402,192,31328,1,0,0:0:0:0:
329,192,31464,1,0,0:0:0:0:
182,192,31464,1,0,0:0:0:0:
109,192,31601,1,0,0:0:0:0:
36,192,31601,1,0,0:0:0:0:
475,192,31737,1,0,0:0:0:0:
402,192,31737,1,0,0:0:0:0:
329,192,31874,1,0,0:0:0:0:
256,192,31874,1,0,0:0:0:0:
36,192,31874,1,0,0:0:0:0:
109,192,31874,1,0,0:0:0:0:
475,192,32010,1,0,0:0:0:0:
402,192,32010,1,0,0:0:0:0:
109,192,32146,1,0,0:0:0:0:
329,192,32146,1,0,0:0:0:0:
475,192,32283,1,0,0:0:0:0:
36,192,32283,1,0,0:0:0:0:
402,192,32419,1,0,0:0:0:0:
329,192,32419,1,0,0:0:0:0:
182,192,32419,1,0,0:0:0:0:
256,192,32419,1,0,0:0:0:0:
475,192,32555,1,0,0:0:0:0:
109,192,32555,1,0,0:0:0:0:
182,192,32692,1,0,0:0:0:0:
36,192,32692,1,0,0:0:0:0:
329,192,32828,1,0,0:0:0:0:
109,192,32828,1,0,0:0:0:0:
182,192,32896,1,0,0:0:0:0:
256,192,32964,1,0,0:0:0:0:
402,192,32964,1,0,0:0:0:0:
475,192,32964,1,0,0:0:0:0:
182,192,33101,1,0,0:0:0:0:
329,192,33101,1,0,0:0:0:0:
36,192,33237,1,0,0:0:0:0:
256,192,33237,1,0,0:0:0:0:
402,192,33373,1,0,0:0:0:0:
182,192,33373,1,0,0:0:0:0:
109,192,33510,1,0,0:0:0:0:
256,192,33510,1,0,0:0:0:0:
329,192,33510,1,0,0:0:0:0:
475,192,33510,1,0,0:0:0:0:
475,192,33646,1,0,0:0:0:0:
182,192,33646,1,0,0:0:0:0:
256,192,33782,1,0,0:0:0:0:
402,192,33782,1,0,0:0:0:0:
182,192,33919,1,0,0:0:0:0:
475,192,33919,1,0,0:0:0:0:
256,192,34055,1,0,0:0:0:0:
329,192,34055,1,0,0:0:0:0:
109,192,34055,1,0,0:0:0:0:
475,192,34055,1,0,0:0:0:0:
402,192,34191,1,0,0:0:0:0:
182,192,34191,1,0,0:0:0:0:
256,192,34328,1,0,0:0:0:0:
329,192,34328,1,0,0:0:0:0:
182,192,34464,1,0,0:0:0:0:
36,192,34600,1,0,0:0:0:0:
402,192,34600,1,0,0:0:0:0:
475,192,34600,1,0,0:0:0:0:
109,192,34600,1,0,0:0:0:0:
182,192,34737,1,0,0:0:0:0:
256,192,34873,1,0,0:0:0:0:
329,192,34873,1,0,0:0:0:0:
36,192,34873,1,0,0:0:0:0:
36,192,35009,1,0,0:0:0:0:
402,192,35009,1,0,0:0:0:0:
109,192,35009,1,0,0:0:0:0:
182,192,35078,1,0,0:0:0:0:
329,192,35146,1,0,0:0:0:0:
36,192,35146,1,0,0:0:0:0:
256,192,35146,1,0,0:0:0:0:
475,192,35146,1,0,0:0:0:0:
182,192,35282,1,0,0:0:0:0:
402,192,35282,1,0,0:0:0:0:
329,192,35418,1,0,0:0:0:0:
109,192,35418,1,0,0:0:0:0:
402,192,35555,1,0,0:0:0:0:
182,192,35555,1,0,0:0:0:0:
256,192,35691,1,0,0:0:0:0:
329,192,35691,1,0,0:0:0:0:
36,192,35691,1,0,0:0:0:0:
475,192,35691,1,0,0:0:0:0:
402,192,35827,1,0,0:0:0:0:
182,192,35827,1,0,0:0:0:0:
109,192,35964,1,0,0:0:0:0:
329,192,35964,1,0,0:0:0:0:
256,192,36100,1,0,0:0:0:0:
475,192,36100,1,0,0:0:0:0:
36,192,36236,1,0,0:0:0:0:
182,192,36236,1,0,0:0:0:0:
402,192,36236,1,0,0:0:0:0:
329,192,36236,1,0,0:0:0:0:
256,192,36373,1,0,0:0:0:0:
475,192,36373,1,0,0:0:0:0:
109,192,36509,1,0,0:0:0:0:
329,192,36509,1,0,0:0:0:0:
402,192,36645,1,0,0:0:0:0:
36,192,36645,1,0,0:0:0:0:
109,192,36782,1,0,0:0:0:0:
329,192,36782,1,0,0:0:0:0:
182,192,36782,1,0,0:0:0:0:
475,192,36782,1,0,0:0:0:0:
402,192,36918,1,0,0:0:0:0:
256,192,36918,1,0,0:0:0:0:
182,192,37055,1,0,0:0:0:0:
36,192,37055,1,0,0:0:0:0:
475,192,37191,1,0,0:0:0:0:
256,192,37191,1,0,0:0:0:0:
329,192,37259,1,0,0:0:0:0:
109,192,37327,1,0,0:0:0:0:
402,192,37327,1,0,0:0:0:0:
182,192,37327,1,0,0:0:0:0:
256,192,37464,1,0,0:0:0:0:
475,192,37464,1,0,0:0:0:0:
36,192,37600,1,0,0:0:0:0:
182,192,37600,1,0,0:0:0:0:
329,192,37600,1,0,0:0:0:0:
402,192,37736,1,0,0:0:0:0:
256,192,37736,1,0,0:0:0:0:
36,192,37873,1,0,0:0:0:0:
182,192,37873,1,0,0:0:0:0:
329,192,37873,1,0,0:0:0:0:
475,192,37873,1,0,0:0:0:0:
402,192,38009,1,0,0:0:0:0:
256,192,38009,1,0,0:0:0:0:
109,192,38009,1,0,0:0:0:0:
475,192,38145,1,0,0:0:0:0:
182,192,38145,1,0,0:0:0:0:
402,192,38282,1,0,0:0:0:0:
109,192,38282,1,0,0:0:0:0:
256,192,38418,1,0,0:0:0:0:
475,192,38418,1,0,0:0:0:0:
36,192,38418,1,0,0:0:0:0:
109,192,38554,1,0,0:0:0:0:
402,192,38554,1,0,0:0:0:0:
256,192,38691,1,0,0:0:0:0:
36,192,38691,1,0,0:0:0:0:
475,192,38691,1,0,0:0:0:0:
182,192,38691,1,0,0:0:0:0:
329,192,38691,1,0,0:0:0:0:
256,192,38963,1,0,0:0:0:0:
109,192,38963,128,0,39236:0:0:0:0:
36,192,38963,128,0,39236:0:0:0:0:
475,192,38963,128,0,39236:0:0:0:0:
402,192,38963,128,0,39236:0:0:0:0:
182,192,39236,128,0,40054:0:0:0:0:
329,192,39236,1,0,0:0:0:0:
36,192,39509,1,0,0:0:0:0:
256,192,39645,1,0,0:0:0:0:
402,192,39781,1,0,0:0:0:0:
475,192,40054,1,0,0:0:0:0:
256,192,40327,128,0,41145:0:0:0:0:
329,192,40327,1,0,0:0:0:0:
329,192,40599,1,0,0:0:0:0:
402,192,40690,1,0,0:0:0:0:
329,192,40781,1,0,0:0:0:0:
182,192,40872,1,0,0:0:0:0:
182,192,41145,1,0,0:0:0:0:
329,192,41417,128,0,41690:0:0:0:0:
109,192,41417,1,0,0:0:0:0:
182,192,41690,1,0,0:0:0:0:
109,192,41826,1,0,0:0:0:0:
402,192,41963,128,0,42236:0:0:0:0:
36,192,41963,1,0,0:0:0:0:
109,192,42236,1,0,0:0:0:0:
182,192,42372,1,0,0:0:0:0:
475,192,42508,128,0,43054:0:0:0:0:
256,192,42508,1,0,0:0:0:0:
402,192,42508,1,0,0:0:0:0:
402,192,43054,1,0,0:0:0:0:
109,192,43054,1,0,0:0:0:0:
256,192,43054,128,0,43599:0:0:0:0:
109,192,43599,128,0,44417:0:0:0:0:
36,192,43599,1,0,0:0:0:0:
36,192,43872,1,0,0:0:0:0:
182,192,44008,1,0,0:0:0:0:
329,192,44144,1,0,0:0:0:0:
475,192,44417,1,0,0:0:0:0:
256,192,44690,128,0,45508:0:0:0:0:
402,192,44690,1,0,0:0:0:0:
402,192,44962,1,0,0:0:0:0:
475,192,45053,1,0,0:0:0:0:
402,192,45144,1,0,0:0:0:0:
329,192,45235,1,0,0:0:0:0:
329,192,45508,1,0,0:0:0:0:
329,192,45780,128,0,46053:0:0:0:0:
182,192,45780,1,0,0:0:0:0:
256,192,46053,1,0,0:0:0:0:
182,192,46189,1,0,0:0:0:0:
402,192,46326,128,0,46598:0:0:0:0:
109,192,46326,1,0,0:0:0:0:
109,192,46598,1,0,0:0:0:0:
256,192,46735,1,0,0:0:0:0:
475,192,46871,128,0,47689:0:0:0:0:
329,192,46871,1,0,0:0:0:0:
402,192,47007,1,0,0:0:0:0:
329,192,47144,1,0,0:0:0:0:
182,192,47280,1,0,0:0:0:0:
109,192,47416,1,0,0:0:0:0:
36,192,47689,1,0,0:0:0:0:
256,192,47962,1,0,0:0:0:0:
109,192,47962,1,0,0:0:0:0:
402,192,47962,1,0,0:0:0:0:
36,192,48098,1,0,0:0:0:0:
329,192,48098,1,0,0:0:0:0:
402,192,48166,1,0,0:0:0:0:
182,192,48235,1,0,0:0:0:0:
475,192,48235,1,0,0:0:0:0:
402,192,48371,1,0,0:0:0:0:
109,192,48371,1,0,0:0:0:0:
256,192,48507,1,0,0:0:0:0:
329,192,48507,1,0,0:0:0:0:
182,192,48507,1,0,0:0:0:0:
36,192,48575,1,0,0:0:0:0:
402,192,48644,1,0,0:0:0:0:
109,192,48644,1,0,0:0:0:0:
182,192,48712,1,0,0:0:0:0:
329,192,48780,1,0,0:0:0:0:
256,192,48780,1,0,0:0:0:0:
182,192,48916,1,0,0:0:0:0:
256,192,49053,1,0,0:0:0:0:
402,192,49053,1,0,0:0:0:0:
182,192,49189,1,0,0:0:0:0:
36,192,49189,1,0,0:0:0:0:
109,192,49257,1,0,0:0:0:0:
329,192,49325,1,0,0:0:0:0:
182,192,49325,1,0,0:0:0:0:
402,192,49462,1,0,0:0:0:0:
256,192,49598,128,0,49871:0:0:0:0:
329,192,49598,1,0,0:0:0:0:
182,192,49598,1,0,0:0:0:0:
36,192,49598,1,0,0:0:0:0:
475,192,49598,1,0,0:0:0:0:
109,192,49871,1,0,0:0:0:0:
402,192,49871,1,0,0:0:0:0:
256,192,50143,1,0,0:0:0:0:
182,192,50143,1,0,0:0:0:0:
36,192,50143,1,0,0:0:0:0:
109,192,50280,1,0,0:0:0:0:
329,192,50280,1,0,0:0:0:0:
402,192,50348,1,0,0:0:0:0:
256,192,50416,1,0,0:0:0:0:
475,192,50416,1,0,0:0:0:0:
402,192,50552,1,0,0:0:0:0:
182,192,50552,1,0,0:0:0:0:
475,192,50689,1,0,0:0:0:0:
256,192,50689,1,0,0:0:0:0:
109,192,50689,1,0,0:0:0:0:
36,192,50757,1,0,0:0:0:0:
329,192,50825,1,0,0:0:0:0:
109,192,50825,1,0,0:0:0:0:
182,192,50893,1,0,0:0:0:0:
256,192,50961,1,0,0:0:0:0:
402,192,50961,1,0,0:0:0:0:
109,192,51098,1,0,0:0:0:0:
475,192,51098,1,0,0:0:0:0:
256,192,51234,1,0,0:0:0:0:
329,192,51234,1,0,0:0:0:0:
182,192,51234,1,0,0:0:0:0:
36,192,51370,1,0,0:0:0:0:
109,192,51370,1,0,0:0:0:0:
182,192,51439,1,0,0:0:0:0:
256,192,51507,1,0,0:0:0:0:
329,192,51507,1,0,0:0:0:0:
402,192,51643,1,0,0:0:0:0:
109,192,51643,1,0,0:0:0:0:
36,192,51643,1,0,0:0:0:0:
475,192,51643,1,0,0:0:0:0:
329,192,51779,1,0,0:0:0:0:
182,192,51779,1,0,0:0:0:0:
256,192,51779,1,0,0:0:0:0:
109,192,51916,1,0,0:0:0:0:
256,192,52052,1,0,0:0:0:0:
402,192,52188,1,0,0:0:0:0:
329,192,52325,1,0,0:0:0:0:
182,192,52325,1,0,0:0:0:0:
475,192,52325,1,0,0:0:0:0:
109,192,52597,1,0,0:0:0:0:
329,192,52597,1,0,0:0:0:0:
256,192,52870,1,0,0:0:0:0:
475,192,52870,128,0,53143:0:0:0:0:
402,192,53143,1,0,0:0:0:0:
329,192,53143,1,0,0:0:0:0:
182,192,53416,1,0,0:0:0:0:
36,192,53416,1,0,0:0:0:0:
256,192,53416,1,0,0:0:0:0:
109,192,53688,1,0,0:0:0:0:
329,192,53961,1,0,0:0:0:0:
256,192,53961,128,0,54506:0:0:0:0:
475,192,54234,1,0,0:0:0:0:
402,192,54506,1,0,0:0:0:0:
36,192,54506,1,0,0:0:0:0:
109,192,54506,1,0,0:0:0:0:
329,192,54779,1,0,0:0:0:0:
182,192,54779,1,0,0:0:0:0:
109,192,55052,1,0,0:0:0:0:
36,192,55052,1,0,0:0:0:0:
402,192,55052,128,0,55324:0:0:0:0:
256,192,55324,1,0,0:0:0:0:
182,192,55324,1,0,0:0:0:0:
329,192,55461,1,0,0:0:0:0:
256,192,55597,1,0,0:0:0:0:
109,192,55597,1,0,0:0:0:0:
402,192,55597,1,0,0:0:0:0:
36,192,55870,1,0,0:0:0:0:
182,192,56142,128,0,56688:0:0:0:0:
256,192,56551,1,0,0:0:0:0:
329,192,56620,1,0,0:0:0:0:
402,192,56688,1,0,0:0:0:0:
36,192,56688,1,0,0:0:0:0:
109,192,56688,1,0,0:0:0:0:
182,192,56960,1,0,0:0:0:0:
36,192,56960,1,0,0:0:0:0:
402,192,57233,1,0,0:0:0:0:
109,192,57233,128,0,57506:0:0:0:0:
256,192,57506,1,0,0:0:0:0:
182,192,57506,128,0,57778:0:0:0:0:
329,192,57642,1,0,0:0:0:0:
256,192,57778,1,0,0:0:0:0:
402,192,57778,1,0,0:0:0:0:
36,192,57778,1,0,0:0:0:0:
109,192,57778,128,0,58051:0:0:0:0:
182,192,58051,1,0,0:0:0:0:
36,192,58324,128,0,58869:0:0:0:0:
475,192,58324,128,0,58869:0:0:0:0:
256,192,58324,128,0,58869:0:0:0:0:
402,192,58869,128,0,59415:0:0:0:0:
109,192,58869,128,0,59415:0:0:0:0:
109,192,60505,1,0,0:0:0:0:
182,192,60642,1,0,0:0:0:0:
256,192,60778,1,0,0:0:0:0:
329,192,60914,1,0,0:0:0:0:
402,192,61051,1,0,0:0:0:0:
182,192,61051,1,0,0:0:0:0:
256,192,61051,1,0,0:0:0:0:
182,192,61323,1,0,0:0:0:0:
329,192,61323,1,0,0:0:0:0:
256,192,61596,1,0,0:0:0:0:
475,192,61596,1,0,0:0:0:0:
402,192,61596,128,0,61869:0:0:0:0:
182,192,61869,1,0,0:0:0:0:
329,192,61869,1,0,0:0:0:0:
109,192,62141,1,0,0:0:0:0:
402,192,62141,1,0,0:0:0:0:
182,192,62141,1,0,0:0:0:0:
109,192,62414,1,0,0:0:0:0:
256,192,62414,1,0,0:0:0:0:
182,192,62687,1,0,0:0:0:0:
329,192,62687,1,0,0:0:0:0:
256,192,62687,128,0,63232:0:0:0:0:
36,192,63232,1,0,0:0:0:0:
402,192,63232,1,0,0:0:0:0:
182,192,63232,1,0,0:0:0:0:
256,192,63505,1,0,0:0:0:0:
36,192,63505,1,0,0:0:0:0:
329,192,63778,1,0,0:0:0:0:
109,192,63778,1,0,0:0:0:0:
182,192,63778,128,0,64050:0:0:0:0:
256,192,64050,1,0,0:0:0:0:
36,192,64050,1,0,0:0:0:0:
109,192,64187,1,0,0:0:0:0:
182,192,64323,1,0,0:0:0:0:
256,192,64323,1,0,0:0:0:0:
402,192,64323,1,0,0:0:0:0:
36,192,64323,1,0,0:0:0:0:
36,192,64596,1,0,0:0:0:0:
329,192,64596,1,0,0:0:0:0:
182,192,64596,1,0,0:0:0:0:
109,192,64868,1,0,0:0:0:0:
256,192,64868,1,0,0:0:0:0:
402,192,64868,128,0,65414:0:0:0:0:
329,192,65414,1,0,0:0:0:0:
182,192,65414,1,0,0:0:0:0:
109,192,65686,1,0,0:0:0:0:
402,192,65686,1,0,0:0:0:0:
36,192,65686,1,0,0:0:0:0:
256,192,65959,1,0,0:0:0:0:
475,192,65959,1,0,0:0:0:0:
182,192,65959,1,0,0:0:0:0:
329,192,66232,1,0,0:0:0:0:
109,192,66232,1,0,0:0:0:0:
475,192,66232,128,0,66504:0:0:0:0:
256,192,66368,1,0,0:0:0:0:
36,192,66504,1,0,0:0:0:0:
182,192,66504,1,0,0:0:0:0:
402,192,66504,128,0,66777:0:0:0:0:
109,192,66641,1,0,0:0:0:0:
329,192,66641,1,0,0:0:0:0:
329,192,66777,128,0,67050:0:0:0:0:
182,192,66777,128,0,67050:0:0:0:0:
256,192,66845,1,0,0:0:0:0:
109,192,66959,1,0,0:0:0:0:
402,192,66959,1,0,0:0:0:0:
36,192,67050,1,0,0:0:0:0:
475,192,67050,1,0,0:0:0:0:
256,192,67050,1,0,0:0:0:0:
109,192,68140,1,0,0:0:0:0:
256,192,68231,1,0,0:0:0:0:
402,192,68322,1,0,0:0:0:0:
475,192,68413,1,0,0:0:0:0:
182,192,68686,1,0,0:0:0:0:
36,192,68822,1,0,0:0:0:0:
109,192,68959,1,0,0:0:0:0:
182,192,69049,1,0,0:0:0:0:
329,192,69140,1,0,0:0:0:0:
402,192,69231,1,0,0:0:0:0:
475,192,69322,1,0,0:0:0:0:
256,192,69413,1,0,0:0:0:0:
402,192,69413,1,0,0:0:0:0:
109,192,69777,1,0,0:0:0:0:
256,192,69777,1,0,0:0:0:0:
329,192,69777,1,0,0:0:0:0:
36,192,69777,1,0,0:0:0:0:
182,192,69913,1,0,0:0:0:0:
402,192,69913,1,0,0:0:0:0:
256,192,69982,1,0,0:0:0:0:
36,192,70050,1,0,0:0:0:0:
109,192,70050,1,0,0:0:0:0:
329,192,70050,1,0,0:0:0:0:
475,192,70186,1,0,0:0:0:0:
329,192,70186,1,0,0:0:0:0:
36,192,70322,1,0,0:0:0:0:
256,192,70322,1,0,0:0:0:0:
475,192,70459,1,0,0:0:0:0:
182,192,70459,1,0,0:0:0:0:
109,192,70595,1,0,0:0:0:0:
36,192,70595,1,0,0:0:0:0:
402,192,70595,1,0,0:0:0:0:
256,192,70595,1,0,0:0:0:0:
329,192,70731,1,0,0:0:0:0:
182,192,70731,1,0,0:0:0:0:
109,192,70868,1,0,0:0:0:0:
36,192,70868,1,0,0:0:0:0:
402,192,71004,1,0,0:0:0:0:
475,192,71004,1,0,0:0:0:0:
329,192,71141,1,0,0:0:0:0:
256,192,71141,1,0,0:0:0:0:
109,192,71141,1,0,0:0:0:0:
36,192,71141,1,0,0:0:0:0:
402,192,71277,1,0,0:0:0:0:
475,192,71277,1,0,0:0:0:0:
109,192,71413,1,0,0:0:0:0:
329,192,71413,1,0,0:0:0:0:
475,192,71550,1,0,0:0:0:0:
36,192,71550,1,0,0:0:0:0:
182,192,71686,1,0,0:0:0:0:
402,192,71686,1,0,0:0:0:0:
329,192,71686,1,0,0:0:0:0:
256,192,71686,1,0,0:0:0:0:
475,192,71822,1,0,0:0:0:0:
109,192,71822,1,0,0:0:0:0:
36,192,71959,1,0,0:0:0:0:
182,192,71959,1,0,0:0:0:0:
329,192,72095,1,0,0:0:0:0:
109,192,72095,1,0,0:0:0:0:
182,192,72163,1,0,0:0:0:0:
402,192,72231,1,0,0:0:0:0:
475,192,72231,1,0,0:0:0:0:
256,192,72231,1,0,0:0:0:0:
329,192,72368,1,0,0:0:0:0:
182,192,72368,1,0,0:0:0:0:
36,192,72504,1,0,0:0:0:0:
256,192,72504,1,0,0:0:0:0:
182,192,72640,1,0,0:0:0:0:
402,192,72640,1,0,0:0:0:0:
109,192,72777,1,0,0:0:0:0:
329,192,72777,1,0,0:0:0:0:
256,192,72777,1,0,0:0:0:0:
475,192,72777,1,0,0:0:0:0:
182,192,72913,1,0,0:0:0:0:
475,192,72913,1,0,0:0:0:0:
256,192,73049,1,0,0:0:0:0:
402,192,73049,1,0,0:0:0:0:
475,192,73186,1,0,0:0:0:0:
182,192,73186,1,0,0:0:0:0:
329,192,73322,1,0,0:0:0:0:
475,192,73322,1,0,0:0:0:0:
256,192,73322,1,0,0:0:0:0:
109,192,73322,1,0,0:0:0:0:
402,192,73458,1,0,0:0:0:0:
182,192,73458,1,0,0:0:0:0:
329,192,73595,1,0,0:0:0:0:
256,192,73595,1,0,0:0:0:0:
182,192,73731,1,0,0:0:0:0:
402,192,73867,1,0,0:0:0:0:
475,192,73867,1,0,0:0:0:0:
109,192,73867,1,0,0:0:0:0:
36,192,73867,1,0,0:0:0:0:
182,192,74004,1,0,0:0:0:0:
36,192,74140,1,0,0:0:0:0:
329,192,74140,1,0,0:0:0:0:
256,192,74140,1,0,0:0:0:0:
36,192,74276,1,0,0:0:0:0:
402,192,74276,1,0,0:0:0:0:
109,192,74276,1,0,0:0:0:0:
182,192,74345,1,0,0:0:0:0:
36,192,74413,1,0,0:0:0:0:
329,192,74413,1,0,0:0:0:0:
475,192,74413,1,0,0:0:0:0:
256,192,74413,1,0,0:0:0:0:
182,192,74549,1,0,0:0:0:0:
402,192,74549,1,0,0:0:0:0:
329,192,74685,1,0,0:0:0:0:
109,192,74685,1,0,0:0:0:0:
402,192,74822,1,0,0:0:0:0:
182,192,74822,1,0,0:0:0:0:
36,192,74958,1,0,0:0:0:0:
256,192,74958,1,0,0:0:0:0:
329,192,74958,1,0,0:0:0:0:
475,192,74958,1,0,0:0:0:0:
182,192,75094,1,0,0:0:0:0:
402,192,75094,1,0,0:0:0:0:
329,192,75231,1,0,0:0:0:0:
109,192,75231,1,0,0:0:0:0:
475,192,75367,1,0,0:0:0:0:
256,192,75367,1,0,0:0:0:0:
36,192,75503,1,0,0:0:0:0:
402,192,75503,1,0,0:0:0:0:
329,192,75503,1,0,0:0:0:0:
182,192,75503,1,0,0:0:0:0:
256,192,75640,1,0,0:0:0:0:
475,192,75640,1,0,0:0:0:0:
109,192,75776,1,0,0:0:0:0:
329,192,75776,1,0,0:0:0:0:
36,192,75912,1,0,0:0:0:0:
402,192,75912,1,0,0:0:0:0:
109,192,76049,1,0,0:0:0:0:
182,192,76049,1,0,0:0:0:0:
475,192,76049,1,0,0:0:0:0:
329,192,76049,1,0,0:0:0:0:
402,192,76185,1,0,0:0:0:0:
256,192,76185,1,0,0:0:0:0:
182,192,76322,1,0,0:0:0:0:
36,192,76322,1,0,0:0:0:0:
475,192,76458,1,0,0:0:0:0:
256,192,76458,1,0,0:0:0:0:
329,192,76526,1,0,0:0:0:0:
402,192,76594,1,0,0:0:0:0:
182,192,76594,1,0,0:0:0:0:
109,192,76594,1,0,0:0:0:0:
475,192,76731,1,0,0:0:0:0:
256,192,76731,1,0,0:0:0:0:
36,192,76867,1,0,0:0:0:0:
182,192,76867,1,0,0:0:0:0:
329,192,76867,1,0,0:0:0:0:
402,192,77003,1,0,0:0:0:0:
256,192,77003,1,0,0:0:0:0:
329,192,77140,1,0,0:0:0:0:
475,192,77140,1,0,0:0:0:0:
182,192,77140,1,0,0:0:0:0:
36,192,77140,1,0,0:0:0:0:
402,192,77276,1,0,0:0:0:0:
256,192,77276,1,0,0:0:0:0:
109,192,77276,1,0,0:0:0:0:
182,192,77412,1,0,0:0:0:0:
475,192,77412,1,0,0:0:0:0:
402,192,77549,1,0,0:0:0:0:
109,192,77549,1,0,0:0:0:0:
475,192,77685,1,0,0:0:0:0:
36,192,77685,1,0,0:0:0:0:
256,192,77685,1,0,0:0:0:0:
109,192,77821,1,0,0:0:0:0:
402,192,77821,1,0,0:0:0:0:
182,192,77957,1,0,0:0:0:0:
329,192,77957,1,0,0:0:0:0:
475,192,77958,1,0,0:0:0:0:
256,192,77958,1,0,0:0:0:0:
36,192,77958,1,0,0:0:0:0:
256,192,78230,1,0,0:0:0:0:
475,192,78230,128,0,78503:0:0:0:0:
36,192,78230,128,0,78503:0:0:0:0:
109,192,78230,128,0,78503:0:0:0:0:
402,192,78230,128,0,78503:0:0:0:0:
182,192,78502,1,0,0:0:0:0:
256,192,78503,1,0,0:0:0:0:
329,192,78503,1,0,0:0:0:0:
109,192,78639,1,0,0:0:0:0:
329,192,78639,1,0,0:0:0:0:
256,192,78775,1,0,0:0:0:0:
475,192,78775,1,0,0:0:0:0:
36,192,78775,1,0,0:0:0:0:
402,192,78911,1,0,0:0:0:0:
329,192,78911,1,0,0:0:0:0:
182,192,78911,1,0,0:0:0:0:
329,192,79048,1,0,0:0:0:0:
109,192,79048,1,0,0:0:0:0:
402,192,79184,1,0,0:0:0:0:
256,192,79184,1,0,0:0:0:0:
475,192,79321,1,0,0:0:0:0:
182,192,79321,1,0,0:0:0:0:
329,192,79321,1,0,0:0:0:0:
36,192,79457,1,0,0:0:0:0:
402,192,79593,1,0,0:0:0:0:
182,192,79593,1,0,0:0:0:0:
109,192,79593,1,0,0:0:0:0:
256,192,79730,1,0,0:0:0:0:
36,192,79730,1,0,0:0:0:0:
329,192,79866,1,0,0:0:0:0:
182,192,79866,1,0,0:0:0:0:
109,192,79866,1,0,0:0:0:0:
402,192,80002,1,0,0:0:0:0:
475,192,80002,1,0,0:0:0:0:
256,192,80139,1,0,0:0:0:0:
329,192,80139,1,0,0:0:0:0:
475,192,80275,1,0,0:0:0:0:
329,192,80411,1,0,0:0:0:0:
182,192,80411,1,0,0:0:0:0:
36,192,80411,1,0,0:0:0:0:
402,192,80479,1,0,0:0:0:0:
475,192,80548,1,0,0:0:0:0:
109,192,80684,1,0,0:0:0:0:
256,192,80684,1,0,0:0:0:0:
402,192,80820,1,0,0:0:0:0:
182,192,80820,1,0,0:0:0:0:
256,192,80957,1,0,0:0:0:0:
329,192,80957,1,0,0:0:0:0:
109,192,80957,1,0,0:0:0:0:
402,192,81093,1,0,0:0:0:0:
475,192,81093,1,0,0:0:0:0:
182,192,81229,1,0,0:0:0:0:
329,192,81229,1,0,0:0:0:0:
402,192,81366,1,0,0:0:0:0:
475,192,81366,1,0,0:0:0:0:
256,192,81502,1,0,0:0:0:0:
109,192,81502,1,0,0:0:0:0:
329,192,81502,1,0,0:0:0:0:
182,192,81638,1,0,0:0:0:0:
36,192,81638,1,0,0:0:0:0:
329,192,81775,1,0,0:0:0:0:
256,192,81775,1,0,0:0:0:0:
475,192,81911,1,0,0:0:0:0:
182,192,81911,1,0,0:0:0:0:
402,192,82047,1,0,0:0:0:0:
256,192,82047,1,0,0:0:0:0:
109,192,82047,1,0,0:0:0:0:
475,192,82184,1,0,0:0:0:0:
329,192,82184,1,0,0:0:0:0:
256,192,82320,1,0,0:0:0:0:
182,192,82320,1,0,0:0:0:0:
36,192,82456,1,0,0:0:0:0:
329,192,82593,1,0,0:0:0:0:
109,192,82593,1,0,0:0:0:0:
402,192,82593,1,0,0:0:0:0:
475,192,82729,1,0,0:0:0:0:
36,192,82865,1,0,0:0:0:0:
182,192,82865,1,0,0:0:0:0:
329,192,82865,1,0,0:0:0:0:
475,192,82865,1,0,0:0:0:0:
256,192,82934,1,0,0:0:0:0:
402,192,82934,1,0,0:0:0:0:
109,192,83002,1,0,0:0:0:0:
182,192,83002,1,0,0:0:0:0:
36,192,83070,1,0,0:0:0:0:
329,192,83070,1,0,0:0:0:0:
256,192,83138,1,0,0:0:0:0:
475,192,83138,1,0,0:0:0:0:
109,192,83206,1,0,0:0:0:0:
329,192,83206,1,0,0:0:0:0:
402,192,83274,1,0,0:0:0:0:
475,192,83274,1,0,0:0:0:0:
182,192,83343,1,0,0:0:0:0:
256,192,83343,1,0,0:0:0:0:
329,192,83411,1,0,0:0:0:0:
109,192,83411,1,0,0:0:0:0:
182,192,83479,1,0,0:0:0:0:
36,192,83479,1,0,0:0:0:0:
402,192,83547,1,0,0:0:0:0:
109,192,83547,1,0,0:0:0:0:
256,192,83615,1,0,0:0:0:0:
36,192,83615,1,0,0:0:0:0:
182,192,83683,1,0,0:0:0:0:
475,192,83684,1,0,0:0:0:0:
109,192,83752,1,0,0:0:0:0:
402,192,83752,1,0,0:0:0:0:
329,192,83820,1,0,0:0:0:0:
256,192,83820,1,0,0:0:0:0:
36,192,83888,1,0,0:0:0:0:
182,192,83956,1,0,0:0:0:0:
109,192,83956,1,0,0:0:0:0:
256,192,83956,1,0,0:0:0:0:
402,192,84024,1,0,0:0:0:0:
36,192,84024,1,0,0:0:0:0:
329,192,84092,1,0,0:0:0:0:
256,192,84093,1,0,0:0:0:0:
109,192,84161,1,0,0:0:0:0:
475,192,84161,1,0,0:0:0:0:
329,192,84229,1,0,0:0:0:0:
256,192,84229,1,0,0:0:0:0:
182,192,84297,1,0,0:0:0:0:
475,192,84297,1,0,0:0:0:0:
402,192,84365,1,0,0:0:0:0:
329,192,84365,1,0,0:0:0:0:
36,192,84433,1,0,0:0:0:0:
182,192,84433,1,0,0:0:0:0:
256,192,84502,1,0,0:0:0:0:
109,192,84502,1,0,0:0:0:0:
182,192,84570,1,0,0:0:0:0:
36,192,84570,1,0,0:0:0:0:
475,192,84638,1,0,0:0:0:0:
109,192,84638,1,0,0:0:0:0:
256,192,84706,1,0,0:0:0:0:
182,192,84706,1,0,0:0:0:0:
329,192,84774,1,0,0:0:0:0:
109,192,84774,1,0,0:0:0:0:
402,192,84842,1,0,0:0:0:0:
475,192,84911,1,0,0:0:0:0:
36,192,84911,1,0,0:0:0:0:
329,192,84979,1,0,0:0:0:0:
109,192,85047,1,0,0:0:0:0:
182,192,85047,1,0,0:0:0:0:
402,192,85047,1,0,0:0:0:0:
256,192,85115,1,0,0:0:0:0:
36,192,85115,1,0,0:0:0:0:
402,192,85183,1,0,0:0:0:0:
182,192,85183,1,0,0:0:0:0:
329,192,85251,1,0,0:0:0:0:
475,192,85251,1,0,0:0:0:0:
256,192,85320,1,0,0:0:0:0:
182,192,85320,1,0,0:0:0:0:
329,192,85388,1,0,0:0:0:0:
475,192,85388,1,0,0:0:0:0:
402,192,85456,1,0,0:0:0:0:
256,192,85456,1,0,0:0:0:0:
329,192,85524,1,0,0:0:0:0:
182,192,85524,1,0,0:0:0:0:
256,192,85592,1,0,0:0:0:0:
109,192,85592,1,0,0:0:0:0:
402,192,85660,1,0,0:0:0:0:
36,192,85660,1,0,0:0:0:0:
329,192,85729,1,0,0:0:0:0:
256,192,85729,1,0,0:0:0:0:
182,192,85797,1,0,0:0:0:0:
402,192,85797,1,0,0:0:0:0:
256,192,85865,1,0,0:0:0:0:
329,192,85865,1,0,0:0:0:0:
109,192,85933,1,0,0:0:0:0:
182,192,86001,1,0,0:0:0:0:
36,192,86001,1,0,0:0:0:0:
256,192,86069,1,0,0:0:0:0:
475,192,86069,1,0,0:0:0:0:
109,192,86138,1,0,0:0:0:0:
402,192,86138,1,0,0:0:0:0:
182,192,86206,1,0,0:0:0:0:
36,192,86206,1,0,0:0:0:0:
329,192,86206,1,0,0:0:0:0:
475,192,86206,1,0,0:0:0:0:
256,192,86274,1,0,0:0:0:0:
329,192,86342,1,0,0:0:0:0:
182,192,86342,1,0,0:0:0:0:
402,192,86410,1,0,0:0:0:0:
109,192,86410,1,0,0:0:0:0:
256,192,86478,1,0,0:0:0:0:
36,192,86478,1,0,0:0:0:0:
475,192,86478,1,0,0:0:0:0:
402,192,86547,1,0,0:0:0:0:
182,192,86547,1,0,0:0:0:0:
329,192,86547,1,0,0:0:0:0:
109,192,86547,1,0,0:0:0:0:
36,192,86615,1,0,0:0:0:0:
475,192,86615,1,0,0:0:0:0:
329,192,86683,128,0,86819:0:0:0:0:
256,192,86683,1,0,0:0:0:0:
182,192,86683,128,0,86819:0:0:0:0:
402,192,86751,1,0,0:0:0:0:
109,192,86751,1,0,0:0:0:0:
36,192,86819,1,0,0:0:0:0:
475,192,86819,1,0,0:0:0:0:
109,192,86887,1,0,0:0:0:0:
402,192,86887,1,0,0:0:0:0:
182,192,86956,128,0,87228:0:0:0:0:
329,192,86956,128,0,87228:0:0:0:0:
36,192,86956,128,0,87228:0:0:0:0:
475,192,86956,128,0,87228:0:0:0:0:
256,192,86956,128,0,87092:0:0:0:0:
