osu file format v14

[General]
AudioFilename: audio.mp3
AudioLeadIn: 0
PreviewTime: 42060
Countdown: 1
SampleSet: Normal
StackLeniency: 0.2
Mode: 0
LetterboxInBreaks: 0
WidescreenStoryboard: 0

[Editor]
Bookmarks: 10980,52140
DistanceSpacing: 1
BeatDivisor: 4
GridSize: 4
TimelineZoom: 3.599999

[Metadata]
Title:Gotta Go Fast
TitleUnicode:Gotta Go Fast
Artist:Sonic X
ArtistUnicode:Sonic X
Creator:Pituophis
Version:Gotta Go Fast
Source:Sonic X
Tags:
BeatmapID:1433844
BeatmapSetID:678064

[Difficulty]
HPDrainRate:6
CircleSize:2
OverallDifficulty:9
ApproachRate:10
SliderMultiplier:2.8
SliderTickRate:1

[Events]
//Background and Video events
0,0,"sonicxbg.png",0,0
//Break Periods
//Storyboard Layer 0 (Background)
//Storyboard Layer 1 (Fail)
//Storyboard Layer 2 (Pass)
//Storyboard Layer 3 (Foreground)
//Storyboard Layer 4 (Overlay)
//Storyboard Sound Samples

[TimingPoints]
1032,240,5,1,0,50,1,0
2712,240,4,1,0,50,1,0
3192,-83.3333333333333,4,1,0,50,0,0
3432,-100,4,1,0,50,0,0
4152,-83.3333333333333,4,1,0,50,0,0
4392,-100,4,1,0,50,0,0
5112,-83.3333333333333,4,1,0,50,0,0
5352,-100,4,1,0,50,0,0
6072,-83.3333333333333,4,1,0,50,0,0
6312,-100,4,1,0,50,0,0
7032,-83.3333333333333,4,1,0,50,0,0
7272,-100,4,1,0,50,0,0
7512,-71.4285714285714,4,1,0,50,0,0
7752,-83.3333333333333,4,1,0,50,0,0
8472,-62.5,4,1,0,50,0,0
8712,-71.4285714285714,4,1,0,50,0,0
8952,-83.3333333333333,4,1,0,50,0,0
9432,-100,4,1,0,50,0,0
9912,240,4,1,0,50,1,0
10152,-83.3333333333333,4,1,0,50,0,0
10392,-71.4285714285714,4,1,0,50,0,0
10632,-62.5,4,1,0,50,0,0
10872,-166.666666666667,4,1,0,50,0,0
12552,-125,4,1,0,50,0,0
12792,-100,4,1,0,50,0,0
13032,-125,4,1,0,50,0,0
13752,-117.647058823529,4,1,0,50,0,0
14712,-100,4,1,0,50,0,0
15672,-83.3333333333333,4,1,0,50,0,0
16632,-71.4285714285714,4,1,0,50,0,0
17592,-62.5,4,1,0,50,0,0
18552,-125,4,1,0,50,0,0
21192,-375,4,1,0,50,0,0
22152,-125,4,1,0,50,0,0
22392,-100,4,1,0,50,0,0
22632,-83.3333333333333,4,1,0,50,0,0
22872,-71.4285714285714,4,1,0,50,0,0
24312,-83.3333333333333,4,1,0,50,0,0
26472,-100,4,1,0,50,0,0
27192,-83.3333333333333,4,1,0,50,0,0
27432,-100,4,1,0,50,0,0
28152,-83.3333333333333,4,1,0,50,0,0
28392,-71.4285714285714,4,1,0,50,0,0
28632,-62.5,4,1,0,50,0,0
28872,-55.5555555555556,4,1,0,50,0,0
30072,-50,4,1,0,50,0,0
31032,-100,4,1,0,50,0,0
31272,-83.3333333333333,4,1,0,50,0,0
32952,-100,4,1,0,50,0,0
33192,-83.3333333333333,4,1,0,50,0,0
34632,-100,4,1,0,50,0,0
34872,-125,4,1,0,50,0,0
35832,-166.666666666667,4,1,0,50,0,0
36792,-125,4,1,0,50,0,0
38712,-100,4,1,0,50,0,0
39672,-125,4,1,0,50,0,0
42552,-62.5,4,1,0,50,0,0
42792,-71.4285714285714,4,1,0,50,0,0
44472,-62.5,4,1,0,50,0,0
44712,-71.4285714285714,4,1,0,50,0,0
46392,-55.5555555555556,4,1,0,50,0,0
46632,-62.5,4,1,0,50,0,0
46872,-55.5555555555556,4,1,0,50,0,0
47112,-62.5,4,1,0,50,0,0
47352,-50,4,1,0,50,0,0
48072,-55.5555555555556,4,1,0,50,0,0
48312,-71.4285714285714,4,1,0,50,0,0
49272,-58.8235294117647,4,1,0,50,0,0
49512,-55.5555555555556,4,1,0,50,0,0
50232,-62.5,4,1,0,50,0,0
50712,-71.4285714285714,4,1,0,50,0,0
51192,-55.5555555555556,4,1,0,50,0,0
51912,-62.5,4,1,0,50,0,0
52392,-52.6315789473684,4,1,0,50,0,0
53112,-50,4,1,0,50,0,0
54072,-47.2222222222222,4,1,0,50,0,0
55992,-44.4444444444445,4,1,0,50,0,0
56232,-50,4,1,0,50,0,0
56472,-44.4444444444445,4,1,0,50,0,0
56712,-50,4,1,0,50,0,0
56952,-44.4444444444445,4,1,0,50,0,0

[HitObjects]
202,120,1032,5,8,0:0:0:0:
235,111,1092,1,8,0:0:0:0:
270,107,1152,1,8,0:0:0:0:
305,110,1212,1,8,0:0:0:0:
339,117,1272,2,0,P|407:127|476:114,1,140,12|0,0:0|3:0,0:0:0:0:
268,0,1512,1,8,0:0:0:0:
271,210,1632,2,0,P|296:274|341:328,1,140,8|0,0:0|3:0,0:0:0:0:
339,117,1872,1,8,0:0:0:0:
156,197,1992,2,0,P|112:251|89:317,1,140,0|0,3:0|0:0,0:0:0:0:
271,210,2232,6,0,L|283:62,1,140,8|0,0:0|3:3,0:0:0:0:
168,336,2472,2,0,L|155:188,1,140,8|0,0:0|3:3,0:0:0:0:
329,363,2712,5,0,3:0:0:0:
168,336,2832,1,0,3:0:0:0:
385,222,2952,2,0,P|370:154|334:94,2,93.3333333333333,8|0|0,0:0|3:0|3:0,0:0:0:0:
276,278,3192,2,0,L|95:293,1,167.999994873047,4|0,3:0|0:0,0:0:0:0:
373,339,3432,2,0,L|516:351,1,140,8|0,0:0|0:0,0:0:0:0:
277,166,3672,5,0,3:0:0:0:
329,363,3792,1,0,3:0:0:0:
430,197,3912,2,0,L|442:54,1,140,8|0,0:0|0:0,0:0:0:0:
276,278,4152,2,0,P|186:278|131:217,1,167.999994873047,0|0,3:0|0:0,0:0:0:0:
219,42,4392,2,0,L|231:182,1,140,8|0,0:0|0:0,0:0:0:0:
37,268,4632,5,0,3:0:0:0:
193,328,4752,1,0,0:0:0:0:
119,108,4872,2,0,P|56:136|24:197,1,140,8|0,0:0|0:0,0:0:0:0:
115,384,5112,2,0,L|129:216,1,167.999994873047,4|0,3:0|0:0,0:0:0:0:
219,42,5352,2,0,L|231:182,1,140,8|0,0:0|0:0,0:0:0:0:
320,355,5592,5,0,3:0:0:0:
392,177,5712,1,0,3:0:0:0:
215,277,5832,2,0,P|253:333|319:354,1,140,8|0,0:0|0:0,0:0:0:0:
317,99,6072,2,0,P|287:160|335:265,1,167.999994873047,0|0,3:0|0:0,0:0:0:0:
512,126,6312,2,0,P|461:172|392:177,1,140,8|0,0:0|0:0,0:0:0:0:
242,21,6552,5,0,3:0:0:0:
437,48,6672,1,0,3:0:0:0:
215,123,6792,2,0,L|73:135,1,140,8|0,0:0|0:0,0:0:0:0:
392,177,7032,6,0,P|421:238|373:343,1,167.999994873047,4|0,3:0|0:0,0:0:0:0:
291,142,7272,2,0,P|341:77|422:66,1,140,8|0,0:0|0:0,0:0:0:0:
180,150,7512,6,0,P|222:234|315:253,1,195.999994018555,0|0,3:0|0:0,0:0:0:0:
228,56,7752,2,0,P|159:47|81:106,1,167.999994873047,8|0,0:0|0:0,0:0:0:0:
240,242,7992,5,8,0:0:0:0:
342,42,8112,1,0,3:0:0:0:
125,257,8232,5,8,0:0:0:0:
228,56,8352,1,0,3:0:0:0:
10,272,8472,6,0,P|60:351|184:347,1,224,8|0,0:0|3:0,0:0:0:0:
338,188,8712,2,0,P|261:131|170:155,1,195.999994018555,8|0,0:0|3:0,0:0:0:0:
125,257,8952,5,4,3:0:0:0:
288,294,9072,1,0,3:0:0:0:
443,233,9192,1,8,0:0:0:0:
418,210,9432,5,0,3:0:0:0:
287,262,9552,1,0,3:0:0:0:
148,230,9672,1,8,0:0:0:0:
170,205,9912,6,0,L|310:217,1,140,0|0,3:0|0:0,0:0:0:0:
429,54,10152,6,0,L|245:69,1,167.999994873047,8|0,0:0|0:0,0:0:0:0:
114,200,10392,6,0,L|384:223,1,195.999994018555,0|0,3:0|0:0,0:0:0:0:
484,49,10632,6,0,L|229:70,1,224,8|0,0:0|0:0,0:0:0:0:
58,195,10872,5,0,3:0:0:0:
114,200,11112,1,8,0:0:0:0:
170,205,11352,2,0,L|261:213,1,83.9999974365235,0|0,3:0|3:0,0:0:0:0:
163,46,11592,1,8,0:0:0:0:
58,195,11712,1,0,0:0:0:0:
290,109,11832,5,4,3:0:0:0:
317,157,12072,1,8,0:0:0:0:
261,161,12312,2,0,L|167:169,1,83.9999974365235,0|0,3:0|3:0,0:0:0:0:
346,105,12552,6,0,L|476:116,1,112,8|0,0:0|0:0,0:0:0:0:
232,213,12792,6,0,L|36:230,1,140,0|0,3:0|0:0,0:0:0:0:
290,109,13032,5,8,0:0:0:0:
317,157,13272,2,0,L|454:169,1,112,0|0,3:0|0:0,0:0:0:0:
232,213,13512,1,8,0:0:0:0:
232,213,13752,6,0,L|174:318,1,119.000002269745,0|0,3:0|0:0,0:0:0:0:
290,109,13992,2,0,L|231:214,1,119.000002269745,8|0,0:0|0:0,0:0:0:0:
348,5,14232,5,0,3:0:0:0:
290,109,14352,1,0,3:0:0:0:
232,213,14472,2,0,P|197:260|142:281,1,119.000002269745,8|0,0:0|0:0,0:0:0:0:
0,173,14712,6,0,L|179:188,1,140,4|0,3:0|0:0,0:0:0:0:
165,379,14952,2,0,P|106:372|45:309,1,140,8|0,0:0|0:0,0:0:0:0:
136,88,15192,1,0,3:0:0:0:
142,280,15312,1,0,3:0:0:0:
22,66,15432,1,8,0:0:0:0:
22,66,15672,6,0,P|32:136|125:204,1,167.999994873047,4|0,3:0|0:0,0:0:0:0:
377,169,15912,2,0,L|198:184,1,167.999994873047,8|0,0:0|0:0,0:0:0:0:
0,212,16152,1,0,3:0:0:0:
136,88,16272,1,0,3:0:0:0:
182,302,16392,1,8,0:0:0:0:
182,302,16632,6,0,L|416:322,1,195.999994018555,4|0,3:0|0:0,0:0:0:0:
443,52,16872,2,0,P|432:122|332:192,1,195.999994018555,8|0,0:0|0:0,0:0:0:0:
136,88,17112,1,0,3:0:0:0:
325,73,17232,1,0,3:0:0:0:
291,308,17352,1,8,0:0:0:0:
291,308,17592,6,0,P|234:264|244:110,1,224,0|0,3:0|0:0,0:0:0:0:
470,50,17832,2,0,P|459:120|322:188,1,224,8|0,0:0|0:0,0:0:0:0:
11,104,18072,2,0,L|234:123,1,224,0|0,3:0|0:0,0:0:0:0:
280,4,18312,2,0,P|336:48|326:201,1,224,8|0,0:0|0:0,0:0:0:0:
288,309,18552,6,0,P|215:229|234:123,1,224,4|8,3:0|0:0,0:0:0:0:
333,189,18912,2,0,P|406:269|388:376,1,224
139,193,19272,6,0,P|237:239|333:189,1,224,8|0,0:0|3:0,0:0:0:0:
427,118,19632,2,0,P|329:72|233:122,1,224
138,193,19992,6,0,P|211:273|193:380,1,224,0|0,3:0|0:0,0:0:0:0:
93,313,20352,2,0,P|20:233|39:127,1,224
232,131,20712,2,0,P|134:176|38:126,1,224,8|0,0:0|3:0,0:0:0:0:
141,64,21072,1,0,3:0:0:0:
247,18,21192,6,0,P|334:80|339:188,1,224,8|0,0:0|3:0,0:0:0:0:
338,189,22152,6,0,P|300:230|249:251,1,112,8|0,0:0|0:0,0:0:0:0:
111,73,22392,6,0,P|179:85|231:130,1,140,8|0,0:0|3:0,0:0:0:0:
172,344,22632,6,0,P|125:276|129:193,1,167.999994873047,8|0,0:0|3:0,0:0:0:0:
204,10,22872,6,0,P|350:107|249:251,1,391.99998803711,12|0,0:0|0:0,0:0:0:0:
464,178,24312,6,0,P|443:257|378:308,1,167.999994873047,12|0,0:0|3:0,0:0:0:0:
232,334,24552,1,0,0:0:0:0:
232,334,24672,1,0,3:0:0:0:
273,42,24792,6,0,P|331:100|343:182,1,167.999994873047,8|0,0:0|3:0,0:0:0:0:
232,334,25032,1,0,0:0:0:0:
232,334,25152,1,0,3:0:0:0:
70,142,25272,6,0,P|149:119|225:150,1,167.999994873047,8|0,0:0|3:0,0:0:0:0:
232,334,25512,5,8,0:0:0:0:
144,241,25632,1,0,3:0:0:0:
303,90,25752,5,8,0:0:0:0:
267,213,25872,1,0,3:0:0:0:
70,142,25992,6,0,P|125:121|217:142,2,111.999996582031,8|0|0,0:0|3:0|3:0,0:0:0:0:
16,256,26232,6,0,P|63:342|145:363,1,167.999994873047,4|0,3:0|0:0,0:0:0:0:
283,228,26472,2,0,L|125:241,1,140,8|0,0:0|0:0,0:0:0:0:
249,350,26712,1,0,3:0:0:0:
317,106,26832,1,0,3:0:0:0:
502,335,26952,2,0,L|362:322,1,140,8|0,0:0|0:0,0:0:0:0:
200,137,27192,6,0,P|208:55|268:0,1,167.999994873047,4|0,3:0|0:0,0:0:0:0:
456,93,27432,2,0,L|298:106,1,140,8|0,0:0|0:0,0:0:0:0:
78,126,27672,1,0,3:0:0:0:
268,0,27792,1,0,3:0:0:0:
283,228,27912,2,0,P|208:261|129:236,1,140,8|0,0:0|0:0,0:0:0:0:
32,122,28152,6,0,L|205:137,1,167.999994873047,4|0,3:0|0:0,0:0:0:0:
478,210,28392,6,0,L|252:229,1,195.999994018555,8|0,0:0|0:0,0:0:0:0:
0,239,28632,5,0,3:0:0:0:
199,136,28752,1,0,3:0:0:0:
368,326,28872,6,0,L|107:348,1,251.999992309571,8|0,0:0|0:0,0:0:0:0:
32,122,29112,5,8,0:0:0:0:
292,223,29232,1,0,3:0:0:0:
0,239,29352,5,8,0:0:0:0:
312,117,29472,1,0,3:0:0:0:
10,373,29592,6,0,L|33:108,1,251.999992309571,8|0,0:0|3:0,0:0:0:0:
502,11,29832,2,0,L|478:275,1,251.999992309571,8|0,0:0|3:0,0:0:0:0:
479,261,30072,5,4,3:0:0:0:
344,148,30312,1,8,0:0:0:0:
168,236,30552,1,0,3:0:0:0:
36,120,30792,1,8,0:0:0:0:
256,192,31032,6,0,L|411:178,1,140,4|0,3:0|0:0,0:0:0:0:
160,336,31272,2,0,P|84:296|100:164,1,167.999994873047,8|0,0:0|0:0,0:0:0:0:
182,68,31512,2,0,L|167:239,1,167.999994873047,0|0,3:0|3:0,0:0:0:0:
10,373,31752,1,8,0:0:0:0:
10,373,31992,5,0,3:0:0:0:
70,292,32112,1,0,0:0:0:0:
160,336,32232,1,8,0:0:0:0:
220,255,32352,1,0,0:0:0:0:
310,299,32472,1,0,3:0:0:0:
370,218,32592,1,0,3:0:0:0:
460,262,32712,1,8,0:0:0:0:
220,255,32952,6,0,L|206:100,1,140,0|0,3:0|0:0,0:0:0:0:
310,299,33192,2,0,P|246:353|160:336,1,167.999994873047,8|0,0:0|0:0,0:0:0:0:
65,157,33432,2,0,P|129:103|215:120,1,167.999994873047,0|0,3:0|3:0,0:0:0:0:
370,218,33672,1,8,0:0:0:0:
370,218,33912,5,0,3:0:0:0:
310,137,34032,1,0,0:0:0:0:
220,181,34152,1,8,0:0:0:0:
160,100,34272,1,0,0:0:0:0:
25,166,34392,1,0,3:0:0:0:
35,16,34512,1,0,3:0:0:0:
122,192,34632,2,0,L|108:359,1,140,8|0,0:0|0:0,0:0:0:0:
237,274,34872,6,0,L|481:252,1,224,4|8,3:0|0:0,0:0:0:0:
460,254,35352,1,0,3:0:0:0:
341,190,35472,1,0,3:0:0:0:
237,274,35592,1,8,0:0:0:0:
237,274,35832,6,0,P|232:180|194:143,1,125.999996154785,4|0,3:0|0:0,0:0:0:0:
155,164,36072,2,0,L|279:153,1,125.999996154785,8|0,0:0|0:0,0:0:0:0:
339,149,36312,1,0,3:0:0:0:
238,59,36432,1,0,3:0:0:0:
155,164,36552,1,8,0:0:0:0:
155,164,36792,6,0,P|163:218|141:269,1,112,0|0,3:0|3:0,0:0:0:0:
23,332,37032,1,8,0:0:0:0:
23,332,37272,1,0,3:0:0:0:
69,206,37392,1,0,3:0:0:0:
112,78,37512,1,8,0:0:0:0:
112,78,37752,6,0,L|304:94,1,168,0|0,3:0|0:0,0:0:0:0:
339,38,37992,2,0,P|279:93|280:174,1,168,8|0,0:0|0:0,0:0:0:0:
324,259,38232,1,0,3:0:0:0:
368,132,38352,1,0,3:0:0:0:
435,248,38472,1,8,0:0:0:0:
435,248,38712,6,0,P|399:340|239:331,1,280,4|8,3:0|0:0,0:0:0:0:
239,331,39192,1,0,3:0:0:0:
198,197,39312,1,0,3:0:0:0:
324,259,39432,1,8,0:0:0:0:
324,259,39672,6,0,L|307:66,1,168,0|0,3:0|0:0,0:0:0:0:
340,19,39912,2,0,P|307:93|229:118,1,168,8|0,0:0|0:0,0:0:0:0:
151,122,40152,1,0,3:0:0:0:
244,25,40272,1,0,3:0:0:0:
345,113,40392,1,8,0:0:0:0:
256,192,40632,12,0,42072,3:0:0:0:
228,172,42552,6,0,L|492:195,1,224,4|0,3:0|0:0,0:0:0:0:
205,292,42792,2,0,P|108:165|148:79,1,195.999994018555,8|0,0:0|0:0,0:0:0:0:
291,58,43032,1,0,3:0:0:0:
315,252,43152,1,0,3:0:0:0:
180,52,43272,2,0,P|86:32|6:85,1,195.999994018555,8|0,0:0|0:0,0:0:0:0:
86,337,43512,6,0,L|111:139,1,195.999994018555,0|0,3:0|0:0,0:0:0:0:
291,58,43752,2,0,L|315:252,1,195.999994018555,8|0,0:0|0:0,0:0:0:0:
496,336,43992,1,0,3:0:0:0:
478,137,44112,1,0,0:0:0:0:
380,351,44232,2,0,P|285:362|210:303,1,195.999994018555,8|0,0:0|0:0,0:0:0:0:
291,58,44472,6,0,P|347:135|274:280,1,224,4|0,3:0|0:0,0:0:0:0:
39,182,44712,2,0,L|235:165,1,195.999994018555,8|0,0:0|0:0,0:0:0:0:
437,254,44952,1,0,3:0:0:0:
416,59,45072,1,0,3:0:0:0:
235,164,45192,2,0,P|196:252|229:341,1,195.999994018555,8|0,0:0|0:0,0:0:0:0:
511,269,45432,6,0,L|309:251,1,195.999994018555,0|0,3:0|0:0,0:0:0:0:
201,46,45672,2,0,P|295:62|352:140,1,195.999994018555,8|0,0:0|0:0,0:0:0:0:
446,355,45912,1,0,3:0:0:0:
476,121,46032,1,0,3:0:0:0:
235,164,46152,2,0,P|291:241|385:257,1,195.999994018555,8|0,0:0|0:0,0:0:0:0:
394,24,46392,6,0,P|276:49|234:163,1,251.999992309571,4|0,3:0|0:0,0:0:0:0:
371,363,46632,2,0,L|351:135,1,224,8|0,0:0|0:0,0:0:0:0:
118,125,46872,6,0,P|143:243|257:284,1,251.999992309571,0|0,3:0|0:0,0:0:0:0:
458,144,47112,2,0,L|230:163,1,224,8|0,0:0|0:0,0:0:0:0:
61,322,47352,5,8,0:0:0:0:
216,53,47472,1,0,3:0:0:0:
371,363,47592,5,8,0:0:0:0:
215,94,47712,1,0,3:0:0:0:
42,355,47832,6,0,L|334:329,1,280,8|0,0:0|3:0,0:0:0:0:
466,115,48072,2,0,L|173:89,1,251.999992309571,8|0,0:0|3:0,0:0:0:0:
0,179,48312,6,0,P|38:267|127:302,1,195.999994018555,4|0,3:0|3:0,0:0:0:0:
324,180,48552,5,8,0:0:0:0:
160,12,48672,2,0,P|102:88|116:183,1,195.999994018555,0|0,0:0|3:0,0:0:0:0:
321,293,48912,5,0,3:0:0:0:
384,67,49032,2,0,P|288:55|213:115,1,195.999994018555,8|0,0:0|0:0,0:0:0:0:
220,345,49272,6,0,P|321:292|324:179,1,238.00000453949,0|0,3:0|0:0,0:0:0:0:
116,61,49512,6,0,P|112:174|228:232,1,251.999992309571,8|0,0:0|0:0,0:0:0:0:
448,162,49752,5,8,0:0:0:0:
214,115,49872,1,8,0:0:0:0:
461,294,49992,5,8,0:0:0:0:
384,67,50112,1,8,0:0:0:0:
220,345,50232,6,0,P|326:335|376:239,1,224,4|0,3:0|0:0,0:0:0:0:
242,14,50472,1,8,0:0:0:0:
261,238,50592,1,0,0:0:0:0:
447,143,50712,6,0,L|223:122,1,195.999994018555,0|0,3:0|0:0,0:0:0:0:
65,255,50952,2,0,L|288:234,1,195.999994018555,8|0,0:0|0:0,0:0:0:0:
492,36,51192,6,0,L|235:12,1,251.999992309571,4|0,3:0|0:0,0:0:0:0:
9,258,51432,1,8,0:0:0:0:
260,237,51552,1,0,0:0:0:0:
28,39,51672,5,0,3:0:0:0:
129,325,51792,1,0,3:0:0:0:
327,95,51912,2,0,P|199:85|156:157,1,224,8|0,0:0|0:0,0:0:0:0:
348,346,52152,6,0,L|326:94,1,251.999992309571,4|0,3:0|0:0,0:0:0:0:
103,57,52392,2,0,P|39:171|127:268,1,265.999992897034,8|0,0:0|0:0,0:0:0:0:
361,214,52632,5,0,3:0:0:0:
156,156,52752,1,0,3:0:0:0:
348,346,52872,2,0,L|374:44,1,265.999992897034,8|0,0:0|0:0,0:0:0:0:
468,286,53112,6,0,P|348:344|238:268,1,280,0|0,3:0|0:0,0:0:0:0:
141,63,53352,2,0,P|260:4|370:80,1,280,8|0,0:0|0:0,0:0:0:0:
351,344,53592,5,0,3:0:0:0:
252,123,53712,1,0,3:0:0:0:
481,154,53832,2,0,P|471:287|350:343,1,280,8|0,0:0|0:0,0:0:0:0:
65,238,54072,6,0,L|361:213,1,296.470593557391,4|0,3:0|0:0,0:0:0:0:
512,35,54312,2,0,L|216:9,1,296.470593557391,8|0,0:0|0:0,0:0:0:0:
65,238,54552,1,0,3:0:0:0:
345,242,54672,1,0,3:0:0:0:
216,8,54792,2,0,P|139:127|212:247,1,296.470593557391,8|0,0:0|0:0,0:0:0:0:
475,252,55032,6,0,P|410:126|270:130,1,296.470593557391,0|0,3:0|0:0,0:0:0:0:
137,358,55272,2,0,P|277:365|344:241,1,296.470593557391,8|0,0:0|0:0,0:0:0:0:
216,8,55512,5,0,3:0:0:0:
212,247,55632,1,0,0:0:0:0:
7,124,55752,2,0,L|312:97,1,296.470593557391,8|0,0:0|0:0,0:0:0:0:
300,340,55992,6,0,P|152:359|80:229,1,315.000012016297,4|0,3:0|0:0,0:0:0:0:
168,20,56232,2,0,P|256:120|211:246,1,280,8|0,0:0|0:0,0:0:0:0:
1,373,56472,6,0,P|62:238|211:245,1,315.000012016297,0|0,3:0|3:0,0:0:0:0:
510,246,56712,2,0,P|431:354|299:339,1,280,8|0,0:0|0:0,0:0:0:0:
127,138,56952,5,8,0:0:0:0:
379,241,57072,1,0,3:0:0:0:
129,340,57192,5,8,0:0:0:0:
440,139,57312,1,0,3:0:0:0:
31,50,57432,6,0,P|9:181|172:259,1,315.000012016297,8|0,0:0|3:0,0:0:0:0:
440,110,57672,2,0,L|116:138,1,315.000012016297,8|0,0:0|3:3,0:0:0:0:
126,137,57912,1,12,0:0:0:0:
256,192,58032,12,12,59832,3:0:0:0:
