osu file format v14

[General]
AudioFilename: audio.mp3
AudioLeadIn: 0
PreviewTime: -1
Countdown: 1
SampleSet: None
StackLeniency: 0.7
Mode: 0
LetterboxInBreaks: 0
WidescreenStoryboard: 0

[Editor]
Bookmarks: 14046,82617,110046,163189
DistanceSpacing: 1
BeatDivisor: 4
GridSize: 8
TimelineZoom: 1.4

[Metadata]
Title:The ARK
TitleUnicode:The ARK
Artist:Sonic Style Music
ArtistUnicode:Sonic Style Music
Creator:wolfysoulwolf
Version:Easy
Source:
Tags:
BeatmapID:1862627
BeatmapSetID:891038

[Difficulty]
HPDrainRate:4
CircleSize:3.3
OverallDifficulty:5
ApproachRate:4
SliderMultiplier:0.9
SliderTickRate:1

[Events]
//Background and Video events
0,0,"file.jpg",0,0
//Break Periods
2,55389,60726
2,82817,88154
2,110246,122440
//Storyboard Layer 0 (Background)
//Storyboard Layer 1 (Fail)
//Storyboard Layer 2 (Pass)
//Storyboard Layer 3 (Foreground)
//Storyboard Sound Samples

[TimingPoints]
332,428.571428571429,4,1,0,100,1,0
68903,-100,4,1,0,100,0,1
82617,-100,4,1,0,100,0,0
137474,-100,4,1,0,100,0,1
164903,-100,4,1,0,100,0,0

[Colours]
Combo1 : 196,6,6
Combo2 : 176,64,64
Combo3 : 170,0,0
Combo4 : 148,148,148

[HitObjects]
58,62,14046,5,0,0:0:0:0:
130,115,14474,2,0,P|212:139|319:106,1,180
380,161,15760,2,0,P|409:201|398:283,2,135
321,229,17474,5,0,0:0:0:0:
253,288,17903,2,0,B|172:330|172:330|84:288,1,180
71,204,19189,2,0,L|97:108,2,90
202,326,20903,5,0,0:0:0:0:
266,263,21332,2,0,B|315:288|302:344|302:344|395:324,1,180
471,340,22617,1,0,0:0:0:0:
432,258,23046,1,0,0:0:0:0:
459,80,23903,1,0,0:0:0:0:
373,50,24332,6,0,P|281:37|182:51,1,180
148,124,25617,1,0,0:0:0:0:
65,159,26046,2,0,L|36:250,1,90
91,317,26903,1,0,0:0:0:0:
268,288,27760,5,0,0:0:0:0:
352,318,28189,2,0,B|391:299|438:328|438:328|458:227,1,180
386,74,29903,2,0,P|294:47|204:77,1,180
139,117,31189,5,0,0:0:0:0:
72,62,31617,2,0,L|13:250,1,180
81,297,32903,2,0,B|115:329|115:329|167:323,2,90
148,237,34189,1,0,0:0:0:0:
288,124,35046,6,0,B|388:56|388:56|452:56,1,180
498,129,36332,1,0,0:0:0:0:
432,190,36760,2,0,P|383:230|402:338,1,180
467,276,38046,1,0,0:0:0:0:
382,244,38474,2,0,P|310:208|197:229,1,180
181,304,39760,2,0,L|96:337,1,90
35,270,40617,2,0,L|118:237,1,90
206,258,41474,5,0,0:0:0:0:
242,175,41903,1,0,0:0:0:0:
89,78,42760,2,0,P|123:51|184:54,2,90
187,228,44474,2,0,L|259:299,1,90
335,259,45332,1,0,0:0:0:0:
423,102,46189,1,0,0:0:0:0:
342,62,46617,2,0,P|285:48|250:61,3,90
168,78,48332,5,0,0:0:0:0:
100,137,48760,2,0,B|51:193|51:193|106:232|83:297,1,180
163,331,50046,1,0,0:0:0:0:
249,306,50474,2,0,P|288:289|432:312,1,180
493,252,51760,6,0,P|511:186|500:167,2,90
424,193,53046,2,0,P|377:166|357:124,1,90
441,104,53903,2,0,P|416:66|377:47,1,90
293,81,54760,1,0,0:0:0:0:
207,52,55189,5,0,0:0:0:0:
60,288,62046,6,0,P|100:312|238:287,1,180
312,267,63332,1,0,0:0:0:0:
403,321,63760,2,0,B|424:255|490:228|490:228|490:160,1,180
417,126,65046,1,0,0:0:0:0:
352,188,65474,5,0,0:0:0:0:
285,126,65903,2,0,P|195:116|108:62,1,180
39,115,67189,1,0,0:0:0:0:
76,196,67617,2,0,P|92:246|186:333,1,180
272,326,68903,6,0,L|336:315,1,45
392,270,69546,2,0,P|422:205|421:141,1,135
358,78,70617,2,0,L|302:69,1,45
240,122,71260,2,0,P|183:146|107:120,1,135
96,214,72332,6,0,L|63:258,1,45
143,300,72974,2,0,P|175:337|265:322,1,135
334,287,74046,2,0,B|362:287|362:287|384:330|384:330|417:330,3,90
460,265,75760,6,0,L|401:80,1,180
318,118,77046,1,0,0:0:0:0:
229,100,77474,2,0,B|184:56|131:195|54:102,1,180
22,194,78760,1,0,0:0:0:0:
69,270,79189,6,0,B|114:335|114:335|225:335,1,180
292,289,80474,1,0,0:0:0:0:
368,336,80903,2,0,L|438:268,1,90
369,208,81760,1,0,0:0:0:0:
442,155,82189,1,0,0:0:0:0:
378,91,82617,5,0,0:0:0:0:
80,76,89474,5,0,0:0:0:0:
63,164,89903,2,0,B|29:215|29:215|42:245,1,90
128,221,90760,1,0,0:0:0:0:
89,307,91189,2,0,P|132:345|178:336,1,90
161,253,92046,2,0,P|204:215|250:224,1,90
302,275,92903,5,0,0:0:0:0:
373,329,93332,1,0,0:0:0:0:
442,272,93760,2,0,B|477:185|477:185|447:94,1,180
375,53,95046,1,0,0:0:0:0:
295,95,95474,2,0,P|266:114|242:120,2,45
232,30,96332,5,0,0:0:0:0:
148,62,96760,2,0,B|114:82|66:71|66:71|51:131,1,135
64,254,98046,5,0,0:0:0:0:
140,300,98474,2,0,B|175:329|175:329|226:308|266:334,1,135
366,246,99760,5,0,0:0:0:0:
354,335,100189,2,0,P|425:315|448:208,1,180
397,150,101474,1,0,0:0:0:0:
371,63,101903,2,0,B|316:28|252:113|183:55,1,180
123,116,103189,1,0,0:0:0:0:
70,188,103617,2,0,P|95:210|63:345,1,180
25,262,104903,2,0,L|213:252,1,180
275,308,106189,1,0,0:0:0:0:
353,264,106617,5,0,0:0:0:0:
423,319,107046,2,0,P|467:295|472:255,1,90
440,174,107903,1,0,0:0:0:0:
393,96,108332,2,0,L|306:49,3,90
226,74,110046,5,0,0:0:0:0:
336,295,123760,6,0,P|398:319|432:303,1,90
391,226,124617,2,0,P|385:197|403:172,2,45
479,206,125474,5,0,0:0:0:0:
450,120,125903,2,0,P|413:75|280:56,1,180
212,76,127189,6,0,P|165:96|118:79,1,90
60,144,128046,2,0,L|24:174,2,45
101,223,128903,5,0,0:0:0:0:
57,301,129332,2,0,P|149:322|243:299,1,180
290,236,130617,5,0,0:0:0:0:
332,315,131046,2,0,B|380:275|434:317|434:317|459:237,1,180
413,171,132332,1,0,0:0:0:0:
327,144,132760,2,0,L|217:235,2,135
310,55,134474,1,0,0:0:0:0:
235,105,134903,2,0,L|151:174,1,90
256,192,135760,12,0,137474,0:0:0:0:
61,252,138332,6,0,P|68:283|133:314,1,90
147,231,139189,2,0,P|183:211|284:239,2,135
77,173,140903,6,0,B|63:130|46:113|46:113|61:73,1,90
143,86,141760,2,0,L|241:57,1,90
318,72,142617,2,0,P|380:116|398:181,2,135
306,161,144332,5,0,0:0:0:0:
216,163,144760,2,0,P|136:150|83:63,1,180
7,119,146046,1,0,0:0:0:0:
39,202,146474,2,0,B|65:249|42:305|42:305|87:291|134:313,1,180
195,266,147760,5,0,0:0:0:0:
268,318,148189,2,0,B|405:326|405:326|434:286,1,180
390,210,149474,1,0,0:0:0:0:
448,141,149903,2,0,B|423:97|423:97|333:92|333:92|303:49,1,180
221,43,151189,5,0,0:0:0:0:
138,79,151617,2,0,L|49:101,2,90
139,169,152903,1,0,0:0:0:0:
225,144,153332,2,0,P|236:185|200:232,2,90
293,85,154617,5,0,0:0:0:0:
366,32,155046,2,0,P|380:104|301:178,1,180
349,257,156332,1,0,0:0:0:0:
278,313,156760,2,0,B|151:349|151:349|89:325,1,180
56,256,158046,5,0,0:0:0:0:
31,169,158474,2,0,P|58:114|102:107,2,90
119,187,159760,5,0,0:0:0:0:
172,114,160189,2,0,B|207:58|207:58|251:58,2,90
242,170,161474,5,0,0:0:0:0:
331,158,161903,2,0,P|357:84|452:51,1,180
483,132,163189,1,0,0:0:0:0:
476,221,163617,2,0,L|437:305,3,90
