osu file format v14

[General]
AudioFilename: audio.mp3
AudioLeadIn: 0
PreviewTime: 403786
Countdown: 0
SampleSet: Drum
StackLeniency: 0.3
Mode: 0
LetterboxInBreaks: 0
WidescreenStoryboard: 1

[Editor]
Bookmarks: 125,30085,64430,106397,116888,128692,170659,191642,212626,230987,251970,267708,312298,333282,354265,364757,375249,376560,402475,403786,424770,445753,466737,487720,506081
DistanceSpacing: 2
BeatDivisor: 4
GridSize: 4
TimelineZoom: 2.268

[Metadata]
Title:Necro-Fantasia ~ Gone Away to the Fairyland
TitleUnicode:Necro-Fantasia ~ Gone Away to the Fairyland
Artist:Sonic Hispeed Omega
ArtistUnicode:Sonic Hispeed Omega
Creator:Aikyuu-Chan
Version:Mind the Gap
Source:東方 Project
Tags:Yakumo Yukari TH08 ~ Perfect Cherry Blossom SHO The best of Toho Tempest Album CD2
BeatmapID:1983508
BeatmapSetID:949929

[Difficulty]
HPDrainRate:0
CircleSize:2
OverallDifficulty:10
ApproachRate:10
SliderMultiplier:2.9
SliderTickRate:1

[Events]
//Background and Video events
0,0,"BG Yukari.png",0,0
//Break Periods
2,60906,63980
//Storyboard Layer 0 (Background)
//Storyboard Layer 1 (Fail)
//Storyboard Layer 2 (Pass)
//Storyboard Layer 3 (Foreground)
//Storyboard Layer 4 (Overlay)
//Storyboard Sound Samples

[TimingPoints]
125,467.653936087295,4,3,1,75,1,0
125,-111.111111111111,4,2,1,55,0,0
30085,468.01872074883,4,3,1,75,1,0
30085,-103.092783505155,4,1,1,65,0,0
56762,526.315789473684,4,3,1,75,1,0
57810,605.449041372351,4,3,1,75,1,0
59020,658.614418604652,4,3,1,75,1,0
60370,673.400673400673,4,3,1,75,1,0
60730,937.5,4,3,1,75,1,0
64430,327.868458595245,4,3,1,75,1,0
64430,-105.263157894737,4,3,1,75,0,0
74921,-100,4,3,1,75,0,0
106397,-125,4,3,1,55,0,0
111561,-125,4,3,1,5,0,0
111643,-125,4,3,1,55,0,0
116888,-108.695652173913,4,3,1,75,0,0
128692,-83.3333333333333,4,3,1,85,0,1
149347,-181.818181818181,4,3,1,45,0,0
149675,-83.3333333333333,4,3,1,90,0,1
170659,-111.111111111111,4,3,3,75,0,0
191642,-105.263157894737,4,3,4,80,0,0
212626,-153.846153846153,4,3,1,60,0,0
230987,-83.3333333333333,4,3,1,90,0,1
249347,-100,4,3,2,75,0,0
251970,328.407224958949,4,3,2,55,1,0
251970,-133.333333333333,4,3,2,55,0,0
267708,327.868458595245,4,3,2,65,1,0
267708,-117.647058823529,4,3,2,65,0,0
270331,-100,4,3,2,75,0,0
296560,-66.6666666666667,4,3,2,75,0,0
301806,-100,4,3,2,75,0,0
312298,-83.3333333333333,4,3,1,90,0,1
333281,-111.111111111111,4,3,2,75,0,0
354265,-107.52688172043,4,3,2,75,0,0
364757,-103.092783505155,4,3,1,85,0,0
375249,-200,4,3,0,5,0,0
376560,386.809786287593,4,3,1,75,1,0
376560,-200,4,3,1,45,0,0
377913,-111.111111111111,4,3,1,45,0,0
379654,-200,4,3,1,45,0,0
387197,-125,4,3,1,45,0,0
388937,-200,4,3,1,45,0,0
390291,-111.111111111111,4,3,1,45,0,0
392032,-200,4,3,1,45,0,0
398027,-166.666666666667,4,3,1,45,0,0
402475,327.868852459016,4,3,1,75,1,0
402475,-76.9230769230769,4,3,1,65,0,0
402802,-66.6666666666667,4,3,1,75,0,0
403130,-58.8235294117647,4,3,1,85,0,0
403458,-52.6315789473684,4,3,1,100,0,0
403786,-76.9230769230769,4,3,1,95,0,1
424442,-181.818181818181,4,3,1,45,0,0
424770,-76.9230769230769,4,3,1,95,0,1
445425,-181.818181818181,4,3,1,45,0,0
445753,-1000,4,3,1,95,0,1
466409,-181.818181818181,4,3,1,45,0,0
466737,-76.9230769230769,4,3,1,95,0,1
487720,-111.111111111111,4,3,1,75,0,0

[HitObjects]
176,124,125,6,0,B|240:108|296:192|360:140|360:140|308:88,2,260.999992034912
112,232,1527,1,0,0:0:0:0:
112,232,1761,2,0,B|192:312|380:216|380:216|192:312|40:180|96:120|96:120|168:192|156:80|196:96|240:232|288:136|288:136|196:96|328:36,1,1043.99996813965
424,144,3866,6,0,P|332:40|249:97,3,260.999992034912
108,248,5503,2,0,B|82:287|82:287|110:355|134:367|217:313|217:313|254:299,1,260.999992034912
312,188,6204,2,0,P|216:172|212:24,1,260.999992034912
296,88,6905,1,0,0:0:0:0:
296,88,7139,2,0,L|144:184,1,130.499996017456
10,264,7607,6,0,P|150:256|185:156,2,260.999992034912
185,157,8776,1,0,0:0:0:0:
395,188,9010,1,0,0:0:0:0:
344,268,9244,2,0,B|304:152|388:112|388:112|413:140|392:200,1,260.999992034912
232,64,9945,6,0,P|172:88|248:216,2,260.999992034912
440,268,11114,1,0,0:0:0:0:
360,88,11348,2,0,B|420:48|420:48|368:180|428:180|480:132|480:132|492:112,2,260.999992034912
256,272,12751,2,0,L|256:136,1,130.499996017456
256,192,13219,12,0,14856,0:0:0:0:
256,244,15089,6,0,P|324:216|272:64,1,260.999992034912
433,271,16025,2,0,P|332:335|256:244,1,260.999992034912
72,136,16726,2,0,B|148:136|148:136|172:76|172:76|204:216|204:216|228:120|228:120|280:176|280:176|332:36|332:36|332:264|332:264|380:136|380:136|476:136,1,1043.99996813965
260,280,18831,6,0,B|196:220|236:196|236:196|212:136|144:164|144:164|136:224,2,260.999992034912
412,120,20234,1,0,0:0:0:0:
128,284,20467,2,0,B|72:240|64:100|139:149|139:149|179:86|231:173|231:173|272:112,1,391.499988052369
436,264,21637,5,0,0:0:0:0:
436,264,22104,1,0,0:0:0:0:
436,264,22338,2,0,P|328:264|460:136,1,391.499988052369
76,264,23507,1,0,0:0:0:0:
76,264,23974,1,0,0:0:0:0:
76,264,24208,2,0,P|184:264|52:136,1,391.499988052369
256,192,25378,1,0,0:0:0:0:
256,61,25845,2,0,L|256:209,1,130.499996017456
256,192,26313,12,0,29821,0:0:0:0:
360,104,30085,5,0,0:0:0:0:
296,160,30319,1,0,0:0:0:0:
288,244,30553,1,0,0:0:0:0:
356,292,30787,2,0,P|428:260|452:192,1,140.650003326531
412,132,31255,1,0,0:0:0:0:
332,100,31489,1,0,0:0:0:0:
280,164,31723,2,0,P|208:216|140:168,1,140.650003326531
88,164,32191,5,0,0:0:0:0:
144,100,32425,1,0,0:0:0:0:
216,60,32659,2,0,P|276:104|348:88,1,140.650003326531
408,140,33127,1,0,0:0:0:0:
376,220,33361,1,0,0:0:0:0:
292,212,33595,2,0,P|220:180|172:216,1,140.650003326531
100,252,34063,5,0,0:0:0:0:
128,332,34297,1,0,0:0:0:0:
212,340,34531,2,0,P|272:296|344:320,1,140.650003326531
416,312,34999,1,0,0:0:0:0:
416,312,35233,1,0,0:0:0:0:
464,244,35467,2,0,L|340:168,1,140.650003326531
256,28,36169,5,0,0:0:0:0:
256,356,36637,1,0,0:0:0:0:
256,192,37105,1,0,0:0:0:0:
408,112,37573,5,0,0:0:0:0:
108,308,37807,1,0,0:0:0:0:
292,148,38041,1,0,0:0:0:0:
72,176,38275,2,0,B|104:232|104:232|192:248,1,140.650003326531
372,340,38743,1,0,0:0:0:0:
212,156,38977,1,0,0:0:0:0:
240,376,39211,2,0,B|296:344|296:344|312:256,1,140.650003326531
404,76,39679,5,0,0:0:0:0:
220,236,39913,1,0,0:0:0:0:
440,208,40147,2,0,B|408:152|408:152|320:136,1,140.650003326531
202,269,40615,2,0,B|216:344|216:344|272:376,1,140.650003326531
300,156,41083,1,0,0:0:0:0:
140,340,41317,1,0,0:0:0:0:
178,138,41551,2,0,B|104:152|104:152|72:208,1,140.650003326531
292,236,42019,1,0,0:0:0:0:
108,76,42253,1,0,0:0:0:0:
309,114,42487,2,0,B|296:40|296:40|240:8,1,140.650003326531
212,228,42955,1,0,0:0:0:0:
480,192,43189,5,0,0:0:0:0:
32,192,43657,1,0,0:0:0:0:
256,192,44125,1,0,0:0:0:0:
256,192,44593,1,0,0:0:0:0:
428,72,45061,6,0,L|396:228,1,140.650003326531
84,72,45529,1,0,0:0:0:0:
84,72,45763,2,0,L|116:228,1,140.650003326531
180,320,46231,2,0,P|256:340|320:320,1,140.650003326531
256,40,46699,1,0,0:0:0:0:
256,192,46933,1,0,0:0:0:0:
396,52,47167,6,0,P|428:112|420:188,1,140.650003326531
396,52,47635,1,0,0:0:0:0:
422,182,47869,1,0,0:0:0:0:
116,332,48103,2,0,P|84:272|92:196,1,140.650003326531
90,202,48571,1,0,0:0:0:0:
116,332,48805,1,0,0:0:0:0:
256,232,49039,6,0,L|256:88,1,140.650003326531
256,232,49507,1,0,0:0:0:0:
452,192,49741,1,0,0:0:0:0:
164,192,49975,2,0,P|92:148|76:84,1,140.650003326531
164,192,50443,1,0,0:0:0:0:
288,240,50677,6,0,B|360:272|404:192|404:192|356:96|280:136,3,281.300006653061
332,112,52549,5,0,0:0:0:0:
280,284,52783,1,0,0:0:0:0:
464,232,53017,1,0,0:0:0:0:
376,148,53251,2,0,P|400:88|344:44,1,140.650003326531
332,272,53719,1,0,0:0:0:0:
280,100,53953,1,0,0:0:0:0:
160,208,54187,2,0,P|136:268|192:312,1,140.650003326531
344,104,54655,5,0,0:0:0:0:
416,248,54889,1,0,0:0:0:0:
308,204,55124,2,0,L|144:244,1,140.650003326531
184,76,55592,1,0,0:0:0:0:
236,308,55826,1,0,0:0:0:0:
72,196,56060,2,0,P|40:128|64:56,1,140.650003326531
304,104,56528,5,0,0:0:0:0:
320,212,56762,2,0,P|396:228|464:176,2,145
256,280,57551,1,0,0:0:0:0:
132,152,57810,2,0,P|192:108|264:132,2,145
128,272,58718,1,0,0:0:0:0:
364,324,59020,2,0,L|448:144,1,145
148,60,59678,2,0,L|64:240,1,145
256,264,60370,2,0,L|256:112,1,145
352,96,64430,5,4,0:0:0:0:
368,276,64593,1,0,0:0:0:0:
232,172,64757,1,0,0:0:0:0:
88,296,64921,2,0,P|168:320|236:312,1,137.749996321678,4|0,0:0|0:0,0:0:0:0:
424,72,65249,1,0,0:0:0:0:
64,128,65413,1,0,0:0:0:0:
408,176,65577,2,0,L|344:300,2,137.749996321678,0|4|0,0:0|0:0|0:0,0:0:0:0:
272,120,66069,1,0,0:0:0:0:
100,256,66233,1,4,0:0:0:0:
296,300,66397,1,0,0:0:0:0:
108,72,66561,1,0,0:0:0:0:
184,336,66725,2,0,P|224:272|236:204,1,137.749996321678
388,52,67052,5,4,0:0:0:0:
404,88,67134,1,0,0:0:0:0:
416,128,67216,1,0,0:0:0:0:
408,168,67298,1,0,0:0:0:0:
376,192,67380,2,0,P|300:176|264:120,1,137.749996321678,0|4,0:0|0:0,0:0:0:0:
232,104,67626,1,0,0:0:0:0:
196,124,67708,2,0,P|140:176|152:236,1,137.749996321678
184,252,67954,1,0,0:0:0:0:
224,256,68036,2,0,L|280:208,1,68.8749981608391
312,192,68200,1,0,0:0:0:0:
344,216,68282,1,0,0:0:0:0:
384,232,68364,6,0,P|424:184|408:92,2,137.749996321678,4|0|0,0:0|0:0|0:0,0:0:0:0:
96,64,68856,1,4,0:0:0:0:
112,320,69020,2,0,P|172:284|184:216,1,137.749996321678
412,68,69348,1,0,0:0:0:0:
412,68,69429,1,0,0:0:0:0:
412,68,69511,1,0,0:0:0:0:
344,336,69675,6,0,P|284:296|264:216,1,137.749996321678,4|0,0:0|0:0,0:0:0:0:
376,72,70003,1,0,0:0:0:0:
84,276,70167,1,0,0:0:0:0:
84,276,70249,1,0,0:0:0:0:
84,276,70331,1,0,0:0:0:0:
376,92,70495,1,0,0:0:0:0:
328,260,70659,1,0,0:0:0:0:
328,260,70741,1,0,0:0:0:0:
328,260,70823,1,0,0:0:0:0:
56,168,70987,2,0,P|120:132|160:60,1,137.749996321678
456,216,71315,6,0,P|392:252|352:324,1,137.749996321678
148,284,71643,1,0,0:0:0:0:
116,256,71725,1,0,0:0:0:0:
100,220,71807,1,0,0:0:0:0:
104,180,71889,1,0,0:0:0:0:
132,152,71970,1,0,0:0:0:0:
172,156,72052,1,0,0:0:0:0:
208,140,72134,1,0,0:0:0:0:
236,112,72216,1,0,0:0:0:0:
288,104,72298,6,0,P|344:160|428:148,1,137.749996321678
230,215,72626,2,0,P|286:159|274:75,1,137.749996321678
256,52,72872,1,0,0:0:0:0:
224,103,72954,2,0,P|231:170|282:215,1,137.749996321678
256,344,73282,1,4,0:0:0:0:
48,160,73446,1,0,0:0:0:0:
284,248,73610,2,0,L|328:180,3,68.8749981608391
232,104,73938,2,0,L|184:56,3,68.8749981608391
144,244,74266,2,0,L|144:312,3,68.8749981608391
184,328,74593,1,0,0:0:0:0:
224,336,74675,1,0,0:0:0:0:
260,320,74757,1,0,0:0:0:0:
288,288,74839,1,0,0:0:0:0:
324,256,74921,6,0,P|352:176|320:112,1,145,4|0,0:0|0:0,0:0:0:0:
64,244,75167,1,0,0:0:0:0:
64,244,75249,2,0,P|132:296|192:284,1,145
220,260,75495,1,0,0:0:0:0:
240,220,75577,2,0,P|284:152|352:160,1,145
52,72,75823,1,0,0:0:0:0:
52,72,75905,2,0,P|92:152|144:152,1,145
448,108,76151,1,0,0:0:0:0:
448,108,76233,2,0,L|380:248,1,145
384,238,76479,1,0,0:0:0:0:
384,238,76561,1,0,0:0:0:0:
76,296,76725,2,0,P|136:224|208:224,1,145
452,112,77052,1,0,0:0:0:0:
172,84,77216,1,0,0:0:0:0:
312,332,77380,1,0,0:0:0:0:
460,124,77544,6,0,P|388:164|300:132,1,145
80,276,77872,1,0,0:0:0:0:
274,306,78036,2,0,B|278:246|278:246|214:218|214:218|258:122|150:126|238:42,1,290
216,68,78528,1,0,0:0:0:0:
192,252,78692,1,0,0:0:0:0:
192,252,78774,1,0,0:0:0:0:
192,252,78856,1,0,0:0:0:0:
192,252,79020,2,0,P|244:284|320:248,1,145
320,132,79348,2,0,P|268:100|192:136,1,145
168,164,79593,1,0,0:0:0:0:
156,204,79675,1,0,0:0:0:0:
160,248,79757,1,0,0:0:0:0:
192,312,79839,1,0,0:0:0:0:
260,332,79921,1,0,0:0:0:0:
332,328,80003,1,0,0:0:0:0:
384,280,80085,1,0,0:0:0:0:
432,228,80167,6,0,P|452:312|412:380,1,145,4|0,0:0|0:0,0:0:0:0:
404,88,80495,1,0,0:0:0:0:
108,244,80659,1,0,0:0:0:0:
108,244,80741,1,0,0:0:0:0:
108,244,80823,1,0,0:0:0:0:
348,72,80987,1,0,0:0:0:0:
256,296,81151,1,0,0:0:0:0:
100,72,81315,1,0,0:0:0:0:
100,72,81397,1,0,0:0:0:0:
100,72,81479,1,0,0:0:0:0:
240,288,81643,2,0,P|296:244|288:176,1,145
166,134,81888,1,0,0:0:0:0:
166,134,81970,2,0,P|238:186|298:170,1,145
411,133,82216,1,0,0:0:0:0:
410,133,82298,2,0,P|358:180|287:175,1,145
248,112,82544,1,0,0:0:0:0:
276,44,82626,1,0,0:0:0:0:
348,56,82708,1,0,0:0:0:0:
364,128,82790,6,0,L|412:296,1,145
148,128,83036,1,0,0:0:0:0:
148,128,83118,2,0,L|100:296,1,145
256,320,83446,1,0,0:0:0:0:
356,92,83610,2,0,B|428:96|428:96|492:40,2,145
56,188,84102,5,0,0:0:0:0:
72,260,84184,1,0,0:0:0:0:
128,308,84266,1,0,0:0:0:0:
200,312,84348,1,0,0:0:0:0:
252,260,84429,1,0,0:0:0:0:
240,188,84511,1,0,0:0:0:0:
172,164,84593,1,0,0:0:0:0:
128,104,84675,1,0,0:0:0:0:
156,36,84757,1,0,0:0:0:0:
228,20,84839,1,0,0:0:0:0:
288,64,84921,1,0,0:0:0:0:
280,136,85003,1,0,0:0:0:0:
312,200,85085,1,0,0:0:0:0:
372,240,85167,1,0,0:0:0:0:
444,228,85249,1,0,0:0:0:0:
472,160,85331,1,0,0:0:0:0:
440,64,85413,6,0,B|376:92|324:80|324:80|300:128,1,145,4|0,0:0|0:0,0:0:0:0:
272,144,85659,1,0,0:0:0:0:
260,200,85741,1,0,0:0:0:0:
268,256,85823,1,0,0:0:0:0:
312,296,85905,1,4,0:0:0:0:
104,128,86069,1,0,0:0:0:0:
104,128,86151,1,0,0:0:0:0:
104,128,86233,1,0,0:0:0:0:
208,324,86397,1,0,0:0:0:0:
264,340,86479,1,0,0:0:0:0:
320,328,86561,1,0,0:0:0:0:
364,288,86643,1,0,0:0:0:0:
368,232,86725,1,4,0:0:0:0:
168,272,86888,1,0,0:0:0:0:
136,208,86970,1,0,0:0:0:0:
160,140,87052,5,0,0:0:0:0:
472,52,87216,1,4,0:0:0:0:
436,116,87298,1,0,0:0:0:0:
368,144,87380,1,0,0:0:0:0:
296,124,87462,1,0,0:0:0:0:
264,60,87544,1,0,0:0:0:0:
80,240,87708,1,0,0:0:0:0:
120,300,87790,1,0,0:0:0:0:
192,312,87872,1,0,0:0:0:0:
256,280,87954,1,0,0:0:0:0:
276,212,88036,1,0,0:0:0:0:
380,120,88200,6,0,L|452:168,4,72.5,4|0|0|0|4,0:0|0:0|0:0|0:0|0:0,0:0:0:0:
136,184,88692,1,0,0:0:0:0:
136,184,88774,1,0,0:0:0:0:
136,184,88856,1,0,0:0:0:0:
136,184,88938,1,0,0:0:0:0:
136,184,89020,1,0,0:0:0:0:
136,184,89102,1,0,0:0:0:0:
136,184,89184,1,0,0:0:0:0:
408,256,89348,6,0,L|344:316,6,72.5
236,112,89921,2,0,L|172:56,4,72.5
196,292,90331,2,0,L|112:336,3,72.5
160,184,90659,5,0,0:0:0:0:
212,156,90741,1,0,0:0:0:0:
252,196,90823,1,4,0:0:0:0:
296,232,90905,1,0,0:0:0:0:
352,228,90987,1,0,0:0:0:0:
400,196,91069,1,0,0:0:0:0:
404,140,91151,1,0,0:0:0:0:
368,96,91233,1,0,0:0:0:0:
340,128,91315,1,4,0:0:0:0:
316,164,91397,1,0,0:0:0:0:
272,176,91479,1,0,0:0:0:0:
228,176,91561,1,0,0:0:0:0:
188,160,91643,1,0,0:0:0:0:
156,132,91725,1,0,0:0:0:0:
152,68,91807,1,4,0:0:0:0:
204,28,91888,1,0,0:0:0:0:
270,58,91970,6,0,P|294:77|342:86,3,72.5
200,264,92298,2,0,L|136:316,3,72.5,4|0|0|0,0:0|0:0|0:0|0:0,0:0:0:0:
88,68,92626,2,0,B|52:72|52:72|20:108,3,72.5
88,160,92954,1,0,0:0:0:0:
88,160,93036,1,0,0:0:0:0:
88,160,93118,1,0,0:0:0:0:
88,160,93200,1,0,0:0:0:0:
88,160,93282,5,10,0:0:0:0:
124,212,93364,1,10,0:0:0:0:
184,236,93446,1,10,0:0:0:0:
244,216,93528,1,10,0:0:0:0:
268,156,93610,1,10,0:0:0:0:
324,120,93692,1,10,0:0:0:0:
388,132,93774,1,10,0:0:0:0:
424,188,93856,1,10,0:0:0:0:
412,252,93938,1,10,0:0:0:0:
412,252,94020,1,10,0:0:0:0:
412,252,94102,1,10,0:0:0:0:
356,284,94184,1,10,0:0:0:0:
292,284,94266,1,10,0:0:0:0:
244,240,94347,1,10,0:0:0:0:
180,232,94429,1,10,0:0:0:0:
120,256,94511,1,10,0:0:0:0:
60,228,94593,5,10,0:0:0:0:
56,140,94675,1,10,0:0:0:0:
116,80,94757,5,10,0:0:0:0:
200,100,94839,1,10,0:0:0:0:
252,168,94921,5,10,0:0:0:0:
324,216,95003,1,10,0:0:0:0:
412,204,95085,5,10,0:0:0:0:
420,116,95167,1,10,0:0:0:0:
336,88,95249,5,10,0:0:0:0:
292,164,95331,1,10,0:0:0:0:
296,252,95413,5,10,0:0:0:0:
216,284,95495,1,10,0:0:0:0:
136,252,95577,5,10,0:0:0:0:
128,180,95659,1,10,0:0:0:0:
176,128,95741,5,10,0:0:0:0:
248,136,95823,1,10,0:0:0:0:
320,136,95905,5,4,0:0:0:0:
352,156,95987,1,0,0:0:0:0:
368,188,96069,1,0,0:0:0:0:
372,224,96151,1,0,0:0:0:0:
372,260,96233,1,0,0:0:0:0:
344,280,96315,1,0,0:0:0:0:
312,296,96397,1,0,0:0:0:0:
276,308,96479,1,0,0:0:0:0:
216,232,96561,1,0,0:0:0:0:
236,200,96643,1,0,0:0:0:0:
272,192,96725,1,0,0:0:0:0:
308,192,96807,1,0,0:0:0:0:
340,176,96888,1,0,0:0:0:0:
356,144,96970,1,0,0:0:0:0:
348,108,97052,1,0,0:0:0:0:
316,92,97134,1,0,0:0:0:0:
216,64,97216,5,0,0:0:0:0:
168,100,97298,1,0,0:0:0:0:
140,152,97380,1,0,0:0:0:0:
136,208,97462,1,0,0:0:0:0:
232,244,97544,2,0,L|292:304,3,72.5
392,92,97872,2,0,L|456:56,3,72.5
416,216,98200,1,0,0:0:0:0:
388,264,98282,1,0,0:0:0:0:
336,288,98364,1,0,0:0:0:0:
276,288,98446,1,0,0:0:0:0:
228,252,98528,5,0,0:0:0:0:
208,252,98610,1,0,0:0:0:0:
188,256,98692,1,0,0:0:0:0:
168,256,98774,1,0,0:0:0:0:
148,248,98856,1,0,0:0:0:0:
128,236,98938,1,0,0:0:0:0:
112,220,99020,1,0,0:0:0:0:
100,200,99102,1,0,0:0:0:0:
96,180,99184,1,0,0:0:0:0:
112,116,99266,1,0,0:0:0:0:
176,108,99347,1,0,0:0:0:0:
228,148,99429,1,0,0:0:0:0:
252,208,99511,1,0,0:0:0:0:
304,248,99593,1,0,0:0:0:0:
368,256,99675,1,0,0:0:0:0:
420,216,99757,1,0,0:0:0:0:
420,72,99839,6,0,L|348:104,3,72.5
304,204,100167,1,0,0:0:0:0:
284,268,100249,1,0,0:0:0:0:
228,300,100331,1,0,0:0:0:0:
164,300,100413,1,0,0:0:0:0:
92,180,100495,2,0,P|96:140|136:112,3,72.5
100,300,100823,2,0,P|96:340|56:368,3,72.5
216,184,101151,5,0,0:0:0:0:
268,208,101233,1,0,0:0:0:0:
296,256,101315,1,0,0:0:0:0:
308,312,101397,1,0,0:0:0:0:
360,340,101479,1,0,0:0:0:0:
416,336,101561,1,0,0:0:0:0:
460,296,101643,1,0,0:0:0:0:
476,240,101725,1,0,0:0:0:0:
456,184,101807,1,0,0:0:0:0:
404,164,101888,1,0,0:0:0:0:
360,200,101970,1,0,0:0:0:0:
328,248,102052,1,0,0:0:0:0:
272,256,102134,1,0,0:0:0:0:
224,224,102216,1,0,0:0:0:0:
212,168,102298,1,0,0:0:0:0:
244,120,102380,1,0,0:0:0:0:
416,144,102462,6,0,L|404:220,3,72.5
152,128,102790,2,0,L|188:236,3,72.5
236,344,103118,2,0,L|312:288,3,72.5
236,40,103446,2,0,L|312:96,3,72.5
336,216,103774,5,0,0:0:0:0:
312,276,103856,1,0,0:0:0:0:
260,316,103938,1,0,0:0:0:0:
196,324,104020,1,0,0:0:0:0:
132,312,104102,1,0,0:0:0:0:
80,272,104184,1,0,0:0:0:0:
64,208,104266,1,0,0:0:0:0:
72,144,104347,1,0,0:0:0:0:
116,96,104429,1,0,0:0:0:0:
180,112,104511,1,0,0:0:0:0:
212,168,104593,1,0,0:0:0:0:
184,228,104675,1,0,0:0:0:0:
124,248,104757,1,0,0:0:0:0:
64,220,104839,1,0,0:0:0:0:
36,160,104921,1,0,0:0:0:0:
56,96,105003,1,0,0:0:0:0:
116,72,105085,5,0,0:0:0:0:
192,96,105167,1,0,0:0:0:0:
212,172,105249,1,0,0:0:0:0:
176,244,105331,1,0,0:0:0:0:
100,264,105413,1,0,0:0:0:0:
44,208,105495,1,0,0:0:0:0:
40,128,105577,1,0,0:0:0:0:
92,68,105659,1,0,0:0:0:0:
172,84,105741,1,0,0:0:0:0:
220,148,105823,1,0,0:0:0:0:
268,212,105905,1,0,0:0:0:0:
348,208,105987,1,0,0:0:0:0:
400,148,106069,1,0,0:0:0:0:
400,148,106151,1,0,0:0:0:0:
400,148,106233,1,0,0:0:0:0:
400,148,106315,1,0,0:0:0:0:
400,148,106397,6,0,P|388:240|256:276,1,232
312,160,106888,2,0,P|224:108|168:220,1,232
112,316,107380,2,0,B|56:264|56:264|24:172|100:112,2,232
220,244,108200,2,0,P|296:212|308:68,1,232
220,244,108692,2,0,P|280:292|440:248,1,232
88,80,109511,1,0,0:0:0:0:
440,268,110003,1,0,0:0:0:0:
256,192,110085,12,0,111561,0:0:0:0:
256,192,111643,6,0,P|308:160|360:292,1,232
135,241,112134,2,0,B|155:173|235:133|235:133|299:153|243:205,1,232
3,322,112626,2,0,B|95:322|95:322|175:310|163:266|163:266|123:230,1,232
408,96,113282,2,0,L|348:200,1,116
104,96,113774,2,0,L|164:200,1,116
256,192,114266,5,0,0:0:0:0:
104,288,114593,2,0,L|164:184,1,116
408,288,115085,2,0,L|348:184,1,116
152,80,115577,2,0,B|256:112|256:208|256:208|256:112|360:80,2,348
256,208,116725,1,0,0:0:0:0:
256,208,116806,1,0,0:0:0:0:
256,208,116888,5,0,0:0:0:0:
408,308,118036,1,0,0:0:0:0:
408,308,118118,1,0,0:0:0:0:
408,308,118200,5,0,0:0:0:0:
40,240,119347,1,0,0:0:0:0:
48,236,119429,1,0,0:0:0:0:
52,232,119511,5,0,0:0:0:0:
416,80,120003,1,0,0:0:0:0:
40,344,120495,1,0,0:0:0:0:
340,208,121315,2,0,L|308:268,2,66.6999977609254
168,88,121725,1,0,0:0:0:0:
272,280,121970,1,0,0:0:0:0:
68,156,122134,6,0,B|148:80|168:232|208:116|208:116|348:104,1,266.799991043701
404,72,122626,1,0,0:0:0:0:
384,264,122790,1,0,0:0:0:0:
264,228,122954,1,0,0:0:0:0:
124,324,123118,1,0,0:0:0:0:
244,92,123282,1,0,0:0:0:0:
128,108,123446,5,0,0:0:0:0:
380,132,123774,1,0,0:0:0:0:
384,264,123938,1,0,0:0:0:0:
208,272,124102,1,0,0:0:0:0:
180,92,124265,1,0,0:0:0:0:
112,144,124429,1,0,0:0:0:0:
56,240,124593,1,0,0:0:0:0:
336,92,124757,5,0,0:0:0:0:
372,236,125085,1,0,0:0:0:0:
260,124,125249,1,0,0:0:0:0:
160,300,125413,1,0,0:0:0:0:
404,96,125577,1,0,0:0:0:0:
144,120,125741,1,0,0:0:0:0:
80,244,126069,5,4,0:0:0:0:
80,244,126151,1,2,0:0:0:0:
84,248,126233,1,2,0:0:0:0:
84,248,126315,1,2,0:0:0:0:
84,248,126397,1,2,0:0:0:0:
404,252,126561,5,4,0:0:0:0:
404,252,126643,1,2,0:0:0:0:
404,252,126725,1,2,0:0:0:0:
404,252,126806,1,2,0:0:0:0:
404,252,126888,1,2,0:0:0:0:
256,192,127052,5,4,0:0:0:0:
88,192,128036,6,10,L|112:124,3,66.6999977609254
208,196,128364,2,10,L|256:248,3,66.6999977609254
348,252,128692,5,4,0:0:0:0:
408,220,128774,1,0,0:0:0:0:
424,152,128856,1,2,0:0:0:0:
400,84,128938,1,0,0:0:0:0:
332,68,129020,1,8,0:0:0:0:
268,96,129102,1,0,0:0:0:0:
244,160,129184,1,2,0:0:0:0:
204,216,129265,1,0,0:0:0:0:
136,232,129347,1,8,0:0:0:0:
68,216,129429,1,0,0:0:0:0:
52,148,129511,1,2,0:0:0:0:
72,80,129593,1,0,0:0:0:0:
140,68,129675,1,8,0:0:0:0:
192,112,129757,1,0,0:0:0:0:
244,156,129839,1,2,0:0:0:0:
312,144,129921,1,0,0:0:0:0:
408,232,130003,6,0,L|400:320,3,86.9999973449708,8|0|2|0,0:0|0:0|0:0|0:0,0:0:0:0:
100,80,130331,2,0,L|212:48,3,86.9999973449708,8|0|2|0,0:0|0:0|0:0|0:0,0:0:0:0:
232,344,130659,2,0,B|284:360|284:360|348:332,3,86.9999973449708,8|0|2|0,0:0|0:0|0:0|0:0,0:0:0:0:
84,68,130987,2,0,L|112:176,1,86.9999973449708,8|0,0:0|0:0,0:0:0:0:
160,196,131151,1,2,0:0:0:0:
228,216,131233,1,0,0:0:0:0:
448,292,131315,2,0,L|344:336,1,86.9999973449708,8|0,0:0|0:0,0:0:0:0:
296,324,131479,1,2,0:0:0:0:
232,300,131561,1,0,0:0:0:0:
196,240,131643,5,8,0:0:0:0:
228,180,131725,1,0,0:0:0:0:
292,156,131806,1,2,0:0:0:0:
360,148,131888,1,0,0:0:0:0:
408,196,131970,1,8,0:0:0:0:
408,264,132052,1,0,0:0:0:0:
352,304,132134,1,2,0:0:0:0:
284,288,132216,1,0,0:0:0:0:
244,232,132298,1,8,0:0:0:0:
264,164,132380,1,0,0:0:0:0:
320,124,132462,1,2,0:0:0:0:
328,56,132544,1,0,0:0:0:0:
392,32,132626,5,8,0:0:0:0:
444,76,132708,1,0,0:0:0:0:
420,140,132790,1,2,0:0:0:0:
352,160,132872,1,0,0:0:0:0:
284,140,132954,1,8,0:0:0:0:
236,92,133036,1,0,0:0:0:0:
168,80,133118,1,2,0:0:0:0:
104,108,133200,1,0,0:0:0:0:
60,160,133282,1,8,0:0:0:0:
48,228,133364,1,0,0:0:0:0:
68,296,133446,1,2,0:0:0:0:
136,316,133528,1,0,0:0:0:0:
204,300,133610,1,8,0:0:0:0:
240,240,133692,1,0,0:0:0:0:
264,176,133774,1,2,0:0:0:0:
332,160,133856,1,0,0:0:0:0:
384,208,133938,5,4,0:0:0:0:
380,252,134020,1,0,0:0:0:0:
360,292,134102,1,2,0:0:0:0:
320,312,134184,1,0,0:0:0:0:
276,320,134265,1,8,0:0:0:0:
232,316,134347,1,0,0:0:0:0:
196,288,134429,1,2,0:0:0:0:
176,248,134511,1,0,0:0:0:0:
188,172,134593,1,8,0:0:0:0:
236,108,134675,1,0,0:0:0:0:
312,100,134757,1,2,0:0:0:0:
380,136,134839,1,0,0:0:0:0:
416,204,134921,1,8,0:0:0:0:
384,276,135003,1,0,0:0:0:0:
316,312,135085,1,2,0:0:0:0:
240,288,135167,1,0,0:0:0:0:
208,216,135249,6,0,L|256:132,1,86.9999973449708,8|0,0:0|0:0,0:0:0:0:
328,116,135413,1,2,0:0:0:0:
388,164,135495,1,0,0:0:0:0:
404,240,135577,1,8,0:0:0:0:
340,284,135659,1,0,0:0:0:0:
260,288,135741,1,2,0:0:0:0:
224,260,135823,1,0,0:0:0:0:
200,224,135905,1,8,0:0:0:0:
188,184,135987,1,0,0:0:0:0:
216,148,136069,1,2,0:0:0:0:
252,124,136151,1,0,0:0:0:0:
288,192,136233,1,8,0:0:0:0:
260,264,136315,1,0,0:0:0:0:
184,276,136397,1,2,0:0:0:0:
116,240,136479,1,0,0:0:0:0:
80,240,136561,5,8,0:0:0:0:
76,276,136643,1,0,0:0:0:0:
80,312,136724,1,2,0:0:0:0:
108,332,136806,1,0,0:0:0:0:
144,328,136888,1,8,0:0:0:0:
168,304,136970,1,0,0:0:0:0:
184,272,137052,1,2,0:0:0:0:
184,236,137134,1,0,0:0:0:0:
168,204,137216,1,8,0:0:0:0:
132,164,137298,1,0,0:0:0:0:
108,116,137380,1,2,0:0:0:0:
144,76,137462,1,0,0:0:0:0:
196,68,137544,1,8,0:0:0:0:
244,84,137626,1,0,0:0:0:0:
324,156,137708,1,2,0:0:0:0:
324,156,137790,1,0,0:0:0:0:
324,156,137872,5,8,0:0:0:0:
324,156,137954,1,0,0:0:0:0:
324,156,138036,1,2,0:0:0:0:
324,156,138118,1,0,0:0:0:0:
324,156,138200,1,8,0:0:0:0:
324,156,138282,1,0,0:0:0:0:
324,156,138364,1,2,0:0:0:0:
324,156,138446,1,0,0:0:0:0:
324,156,138528,1,8,0:0:0:0:
324,156,138610,1,0,0:0:0:0:
324,156,138692,1,2,0:0:0:0:
324,156,138774,1,2,0:0:0:0:
324,156,138856,1,10,0:0:0:0:
324,156,138938,1,2,0:0:0:0:
324,156,139020,1,2,0:0:0:0:
324,156,139102,1,2,0:0:0:0:
84,92,139184,6,0,P|83:135|116:192,1,86.9999973449708,4|0,0:0|0:0,0:0:0:0:
144,204,139347,1,2,0:0:0:0:
188,232,139429,1,0,0:0:0:0:
364,208,139511,2,0,L|292:288,1,86.9999973449708,8|0,0:0|0:0,0:0:0:0:
256,292,139675,1,2,0:0:0:0:
204,284,139757,1,0,0:0:0:0:
108,356,139839,2,0,P|156:333|192:296,1,86.9999973449708,8|0,0:0|0:0,0:0:0:0:
220,272,140003,1,2,0:0:0:0:
228,220,140085,1,0,0:0:0:0:
296,40,140167,2,0,P|336:76|392:88,1,86.9999973449708,8|0,0:0|0:0,0:0:0:0:
456,280,140331,2,0,P|415:286|372:336,1,86.9999973449708,2|0,0:0|0:0,0:0:0:0:
336,340,140495,5,8,0:0:0:0:
284,336,140577,1,0,0:0:0:0:
240,308,140659,1,2,0:0:0:0:
216,264,140741,1,0,0:0:0:0:
208,212,140823,1,8,0:0:0:0:
252,184,140905,1,0,0:0:0:0:
300,160,140987,1,2,0:0:0:0:
328,116,141069,1,0,0:0:0:0:
304,68,141151,1,8,0:0:0:0:
272,28,141233,1,0,0:0:0:0:
240,68,141315,1,2,0:0:0:0:
232,120,141397,1,0,0:0:0:0:
80,96,141479,6,0,B|127:100|127:100|172:92,1,86.9999973449708,8|0,0:0|0:0,0:0:0:0:
166,93,141643,1,2,0:0:0:0:
166,93,141724,1,0,0:0:0:0:
388,212,141806,2,0,B|342:222|342:222|308:264,1,86.9999973449708,8|0,0:0|0:0,0:0:0:0:
316,253,141970,1,2,0:0:0:0:
316,253,142052,1,0,0:0:0:0:
44,300,142134,2,0,B|40:248|65:234|60:196,1,86.9999973449708,8|0,0:0|0:0,0:0:0:0:
84,168,142298,1,2,0:0:0:0:
132,148,142380,1,0,0:0:0:0:
448,72,142462,2,0,B|410:98|424:139|424:139|400:156,1,86.9999973449708,8|0,0:0|0:0,0:0:0:0:
404,196,142626,1,2,0:0:0:0:
360,224,142708,1,0,0:0:0:0:
244,360,142790,2,0,P|226:308|232:272,1,86.9999973449708,8|0,0:0|0:0,0:0:0:0:
268,24,142954,2,0,P|295:60|280:112,1,86.9999973449708,2|0,0:0|0:0,0:0:0:0:
264,144,143118,5,8,0:0:0:0:
236,188,143200,1,0,0:0:0:0:
240,240,143282,1,2,0:0:0:0:
276,280,143364,1,0,0:0:0:0:
80,248,143446,2,0,P|130:243|180:228,1,86.9999973449708,8|0,0:0|0:0,0:0:0:0:
216,220,143610,1,2,0:0:0:0:
252,180,143692,1,0,0:0:0:0:
484,180,143774,2,0,P|451:167|412:132,1,86.9999973449708,8|0,0:0|0:0,0:0:0:0:
364,112,143938,1,2,0:0:0:0:
316,132,144020,1,0,0:0:0:0:
52,96,144102,2,0,B|96:116|96:148|96:148|124:168,1,86.9999973449708,8|0,0:0|0:0,0:0:0:0:
460,288,144265,2,0,B|437:251|404:256|404:256|388:216,1,86.9999973449708,2|0,0:0|0:0,0:0:0:0:
360,200,144429,5,4,0:0:0:0:
364,148,144511,1,0,0:0:0:0:
400,112,144593,1,2,0:0:0:0:
452,108,144675,1,0,0:0:0:0:
228,84,144757,2,0,P|214:141|232:184,1,86.9999973449708,8|0,0:0|0:0,0:0:0:0:
260,204,144921,1,2,0:0:0:0:
312,216,145003,1,0,0:0:0:0:
360,340,145085,2,0,B|403:309|356:212|416:264,1,86.9999973449708,8|0,0:0|0:0,0:0:0:0:
416,220,145249,1,2,0:0:0:0:
380,184,145331,1,0,0:0:0:0:
48,200,145413,2,0,P|93:211|132:240,1,86.9999973449708,8|0,0:0|0:0,0:0:0:0:
464,60,145577,2,0,B|440:108|440:108|376:136,1,86.9999973449708,2|0,0:0|0:0,0:0:0:0:
380,164,145741,5,8,0:0:0:0:
380,164,145823,1,0,0:0:0:0:
380,164,145905,1,2,0:0:0:0:
380,164,145987,1,0,0:0:0:0:
164,336,146069,2,0,P|195:293|236:268,1,86.9999973449708,8|0,0:0|0:0,0:0:0:0:
268,248,146233,1,2,0:0:0:0:
320,256,146315,1,0,0:0:0:0:
316,68,146397,2,0,P|273:62|236:40,1,86.9999973449708,8|0,0:0|0:0,0:0:0:0:
184,40,146561,1,2,0:0:0:0:
152,80,146643,1,0,0:0:0:0:
56,228,146724,2,0,L|88:136,1,86.9999973449708,8|0,0:0|0:0,0:0:0:0:
56,228,146888,2,0,L|132:288,1,86.9999973449708,2|0,0:0|0:0,0:0:0:0:
172,304,147052,5,8,0:0:0:0:
224,300,147134,1,0,0:0:0:0:
252,256,147216,1,2,0:0:0:0:
252,204,147298,1,0,0:0:0:0:
272,156,147380,1,8,0:0:0:0:
320,132,147462,1,0,0:0:0:0:
368,156,147544,1,2,0:0:0:0:
400,196,147626,1,0,0:0:0:0:
392,248,147708,1,8,0:0:0:0:
380,260,147790,1,0,0:0:0:0:
368,272,147872,1,2,0:0:0:0:
352,280,147954,1,0,0:0:0:0:
336,288,148036,1,8,0:0:0:0:
320,292,148118,1,0,0:0:0:0:
304,292,148200,1,2,0:0:0:0:
288,292,148282,1,0,0:0:0:0:
272,292,148364,5,8,0:0:0:0:
256,296,148446,1,0,0:0:0:0:
240,300,148528,1,2,0:0:0:0:
224,304,148610,1,0,0:0:0:0:
208,312,148692,1,8,0:0:0:0:
192,312,148774,1,0,0:0:0:0:
176,308,148856,1,2,0:0:0:0:
160,300,148938,1,2,0:0:0:0:
144,288,149020,1,10,0:0:0:0:
136,272,149102,1,2,0:0:0:0:
140,256,149183,1,2,0:0:0:0:
152,244,149265,1,2,0:0:0:0:
156,240,149347,1,2,0:0:0:0:
164,236,149429,1,2,0:0:0:0:
172,232,149511,1,2,0:0:0:0:
180,228,149593,1,2,0:0:0:0:
192,216,149675,5,0,0:0:0:0:
252,164,149757,1,0,0:0:0:0:
256,84,149839,1,0,0:0:0:0:
188,44,149921,1,0,0:0:0:0:
116,76,150003,1,0,0:0:0:0:
80,144,150085,1,0,0:0:0:0:
76,224,150167,1,0,0:0:0:0:
128,284,150249,1,0,0:0:0:0:
200,260,150331,1,0,0:0:0:0:
244,196,150413,1,0,0:0:0:0:
260,120,150495,1,0,0:0:0:0:
332,92,150577,1,0,0:0:0:0:
404,120,150659,1,0,0:0:0:0:
444,188,150741,1,0,0:0:0:0:
436,268,150823,1,0,0:0:0:0:
368,308,150905,1,0,0:0:0:0:
288,300,150987,5,0,0:0:0:0:
244,236,151069,1,0,0:0:0:0:
256,160,151151,1,0,0:0:0:0:
312,104,151233,1,0,0:0:0:0:
388,116,151315,1,0,0:0:0:0:
428,184,151397,1,0,0:0:0:0:
408,260,151479,1,0,0:0:0:0:
336,288,151561,1,0,0:0:0:0:
256,288,151643,1,0,0:0:0:0:
200,236,151724,1,0,0:0:0:0:
196,156,151806,1,0,0:0:0:0:
268,128,151888,1,0,0:0:0:0:
344,152,151970,1,0,0:0:0:0:
340,232,152052,1,0,0:0:0:0:
284,288,152134,1,0,0:0:0:0:
212,260,152216,1,0,0:0:0:0:
176,192,152298,5,0,0:0:0:0:
100,176,152380,1,0,0:0:0:0:
44,232,152462,1,0,0:0:0:0:
60,308,152544,1,0,0:0:0:0:
124,352,152626,1,0,0:0:0:0:
196,320,152708,1,0,0:0:0:0:
252,264,152790,1,0,0:0:0:0:
248,184,152872,1,0,0:0:0:0:
200,120,152954,1,0,0:0:0:0:
228,48,153036,1,0,0:0:0:0:
308,44,153118,1,0,0:0:0:0:
384,60,153200,1,0,0:0:0:0:
440,116,153282,1,0,0:0:0:0:
384,168,153364,1,0,0:0:0:0:
348,240,153446,1,0,0:0:0:0:
392,304,153528,1,0,0:0:0:0:
472,308,153610,5,0,0:0:0:0:
488,232,153692,1,0,0:0:0:0:
472,156,153774,1,0,0:0:0:0:
396,148,153856,1,0,0:0:0:0:
328,188,153938,1,0,0:0:0:0:
308,264,154020,1,0,0:0:0:0:
236,296,154102,1,0,0:0:0:0:
160,296,154183,1,0,0:0:0:0:
84,272,154265,1,0,0:0:0:0:
52,200,154347,1,0,0:0:0:0:
40,124,154429,1,0,0:0:0:0:
76,52,154511,1,0,0:0:0:0:
152,60,154593,1,0,0:0:0:0:
224,96,154675,1,0,0:0:0:0:
244,172,154757,1,0,0:0:0:0:
288,236,154839,1,0,0:0:0:0:
328,304,154921,5,0,0:0:0:0:
376,280,155003,1,0,0:0:0:0:
396,232,155085,1,0,0:0:0:0:
408,180,155167,1,0,0:0:0:0:
412,128,155249,1,0,0:0:0:0:
400,76,155331,1,0,0:0:0:0:
360,40,155413,1,0,0:0:0:0:
372,92,155495,1,0,0:0:0:0:
388,144,155577,1,0,0:0:0:0:
364,192,155659,1,0,0:0:0:0:
332,236,155741,1,0,0:0:0:0:
284,256,155823,1,0,0:0:0:0:
232,260,155905,1,0,0:0:0:0:
276,232,155987,1,0,0:0:0:0:
300,184,156069,1,0,0:0:0:0:
300,132,156151,1,0,0:0:0:0:
336,96,156233,5,0,0:0:0:0:
332,148,156315,1,0,0:0:0:0:
292,184,156397,1,0,0:0:0:0:
240,188,156479,1,0,0:0:0:0:
200,156,156561,1,0,0:0:0:0:
252,152,156643,1,0,0:0:0:0:
296,176,156724,1,0,0:0:0:0:
300,228,156806,1,0,0:0:0:0:
324,272,156888,1,0,0:0:0:0:
364,236,156970,1,0,0:0:0:0:
344,188,157052,1,0,0:0:0:0:
324,140,157134,1,0,0:0:0:0:
320,88,157216,1,0,0:0:0:0:
352,48,157298,1,0,0:0:0:0:
380,92,157380,1,0,0:0:0:0:
368,144,157462,1,0,0:0:0:0:
336,184,157544,5,0,0:0:0:0:
288,200,157626,1,0,0:0:0:0:
236,208,157708,1,0,0:0:0:0:
184,212,157790,1,0,0:0:0:0:
132,204,157872,1,0,0:0:0:0:
180,180,157954,1,0,0:0:0:0:
232,168,158036,1,0,0:0:0:0:
276,144,158118,1,0,0:0:0:0:
296,96,158200,1,0,0:0:0:0:
304,44,158282,1,0,0:0:0:0:
264,76,158364,1,0,0:0:0:0:
292,120,158446,1,0,0:0:0:0:
332,152,158528,1,0,0:0:0:0:
380,176,158610,1,0,0:0:0:0:
360,224,158692,1,0,0:0:0:0:
336,180,158774,1,0,0:0:0:0:
332,128,158856,5,0,0:0:0:0:
328,76,158938,1,0,0:0:0:0:
308,28,159020,1,0,0:0:0:0:
272,68,159102,1,0,0:0:0:0:
272,120,159183,1,0,0:0:0:0:
288,172,159265,1,0,0:0:0:0:
304,220,159347,1,0,0:0:0:0:
296,272,159429,1,0,0:0:0:0:
264,312,159511,1,0,0:0:0:0:
212,324,159593,1,0,0:0:0:0:
164,300,159675,1,0,0:0:0:0:
128,264,159757,1,0,0:0:0:0:
180,268,159839,1,0,0:0:0:0:
228,288,159921,1,0,0:0:0:0:
280,292,160003,1,0,0:0:0:0:
332,288,160085,1,0,0:0:0:0:
380,264,160167,5,0,0:0:0:0:
408,220,160249,1,0,0:0:0:0:
432,172,160331,1,0,0:0:0:0:
452,124,160413,1,0,0:0:0:0:
464,72,160495,1,0,0:0:0:0:
424,108,160577,1,0,0:0:0:0:
416,160,160659,1,0,0:0:0:0:
444,204,160741,1,0,0:0:0:0:
488,232,160823,1,0,0:0:0:0:
480,180,160905,1,0,0:0:0:0:
468,128,160987,1,0,0:0:0:0:
436,88,161069,1,0,0:0:0:0:
388,68,161151,1,0,0:0:0:0:
388,120,161233,1,0,0:0:0:0:
424,160,161315,1,0,0:0:0:0:
476,176,161397,1,0,0:0:0:0:
428,200,161479,5,0,0:0:0:0:
376,212,161561,1,0,0:0:0:0:
324,216,161642,1,0,0:0:0:0:
276,196,161724,1,0,0:0:0:0:
228,172,161806,1,0,0:0:0:0:
188,140,161888,1,0,0:0:0:0:
208,92,161970,1,0,0:0:0:0:
232,136,162052,1,0,0:0:0:0:
268,176,162134,1,0,0:0:0:0:
320,184,162216,1,0,0:0:0:0:
372,184,162298,1,0,0:0:0:0:
416,156,162380,1,0,0:0:0:0:
440,112,162462,1,0,0:0:0:0:
440,112,162544,1,0,0:0:0:0:
452,60,162626,1,0,0:0:0:0:
416,100,162708,1,0,0:0:0:0:
432,148,162790,5,0,0:0:0:0:
448,196,162872,1,0,0:0:0:0:
444,248,162954,1,0,0:0:0:0:
408,288,163036,1,0,0:0:0:0:
356,292,163118,1,0,0:0:0:0:
308,272,163200,1,0,0:0:0:0:
268,236,163282,1,0,0:0:0:0:
240,192,163364,1,0,0:0:0:0:
224,144,163446,1,0,0:0:0:0:
228,92,163528,1,0,0:0:0:0:
264,128,163610,1,0,0:0:0:0:
300,164,163692,1,0,0:0:0:0:
352,152,163774,1,0,0:0:0:0:
404,140,163856,1,0,0:0:0:0:
452,160,163938,1,0,0:0:0:0:
456,212,164020,1,0,0:0:0:0:
440,264,164102,5,0,0:0:0:0:
420,292,164183,1,0,0:0:0:0:
392,312,164265,1,0,0:0:0:0:
356,320,164347,1,0,0:0:0:0:
320,320,164429,1,0,0:0:0:0:
284,316,164511,1,0,0:0:0:0:
248,308,164593,1,0,0:0:0:0:
220,288,164675,1,0,0:0:0:0:
256,288,164757,1,0,0:0:0:0:
292,292,164839,1,0,0:0:0:0:
324,280,164921,1,0,0:0:0:0:
352,256,165003,1,0,0:0:0:0:
372,228,165085,1,0,0:0:0:0:
384,196,165167,1,0,0:0:0:0:
392,164,165249,1,0,0:0:0:0:
396,128,165331,1,0,0:0:0:0:
368,148,165413,5,0,0:0:0:0:
344,172,165495,1,0,0:0:0:0:
316,192,165577,1,0,0:0:0:0:
284,204,165659,1,0,0:0:0:0:
252,212,165741,1,0,0:0:0:0:
216,216,165823,1,0,0:0:0:0:
180,216,165905,1,0,0:0:0:0:
148,208,165987,1,0,0:0:0:0:
152,172,166069,1,0,0:0:0:0:
172,144,166151,1,0,0:0:0:0:
204,160,166233,1,0,0:0:0:0:
204,196,166315,1,0,0:0:0:0:
200,232,166397,1,0,0:0:0:0:
204,268,166479,1,0,0:0:0:0:
228,292,166561,1,0,0:0:0:0:
260,308,166642,1,0,0:0:0:0:
288,288,166724,5,0,0:0:0:0:
336,216,166806,1,0,0:0:0:0:
324,128,166888,1,0,0:0:0:0:
260,68,166970,1,0,0:0:0:0:
180,100,167052,1,0,0:0:0:0:
128,172,167134,1,0,0:0:0:0:
152,256,167216,1,0,0:0:0:0:
212,316,167298,1,0,0:0:0:0:
200,232,167380,1,0,0:0:0:0:
120,196,167462,1,0,0:0:0:0:
108,112,167544,1,0,0:0:0:0:
156,40,167626,1,0,0:0:0:0:
160,128,167708,1,0,0:0:0:0:
196,208,167790,1,0,0:0:0:0:
280,228,167872,1,0,0:0:0:0:
332,160,167954,1,0,0:0:0:0:
348,156,168036,5,0,0:0:0:0:
360,168,168118,1,0,0:0:0:0:
372,180,168200,1,0,0:0:0:0:
376,196,168282,1,0,0:0:0:0:
376,212,168364,1,0,0:0:0:0:
364,224,168446,1,0,0:0:0:0:
352,236,168528,1,0,0:0:0:0:
336,244,168610,1,0,0:0:0:0:
320,248,168692,1,0,0:0:0:0:
304,248,168774,1,0,0:0:0:0:
288,248,168856,1,0,0:0:0:0:
272,244,168938,1,0,0:0:0:0:
256,240,169020,1,0,0:0:0:0:
240,236,169102,1,0,0:0:0:0:
224,236,169183,1,0,0:0:0:0:
208,236,169265,1,0,0:0:0:0:
192,240,169347,5,0,0:0:0:0:
176,232,169429,5,0,0:0:0:0:
156,184,169511,1,0,0:0:0:0:
160,132,169593,1,0,0:0:0:0:
192,92,169675,1,0,0:0:0:0:
208,140,169757,1,0,0:0:0:0:
220,192,169839,1,0,0:0:0:0:
272,204,169921,1,0,0:0:0:0:
276,152,170003,1,0,0:0:0:0:
260,104,170085,1,0,0:0:0:0:
312,112,170167,1,0,0:0:0:0:
352,144,170249,1,0,0:0:0:0:
368,192,170331,1,0,0:0:0:0:
376,244,170413,1,0,0:0:0:0:
360,292,170495,1,0,0:0:0:0:
312,312,170577,1,0,0:0:0:0:
276,292,170659,5,8,0:0:0:0:
352,120,170987,1,4,0:0:0:0:
104,204,171315,1,8,0:0:0:0:
384,228,171642,1,4,0:0:0:0:
120,300,171970,1,8,0:0:0:0:
360,144,172298,1,4,0:0:0:0:
184,288,172626,1,8,0:0:0:0:
408,144,172954,1,4,0:0:0:0:
84,304,173282,1,8,0:0:0:0:
368,276,173610,1,4,0:0:0:0:
192,24,173938,1,8,0:0:0:0:
88,288,174265,1,4,0:0:0:0:
428,92,174593,1,8,0:0:0:0:
428,92,174921,1,4,0:0:0:0:
428,92,175249,1,8,0:0:0:0:
428,92,175577,1,4,0:0:0:0:
440,64,175905,5,8,0:0:0:0:
52,248,176233,1,4,0:0:0:0:
432,268,176561,1,8,0:0:0:0:
72,100,176888,1,4,0:0:0:0:
432,300,177216,1,8,0:0:0:0:
80,52,177544,1,4,0:0:0:0:
376,276,177872,1,8,0:0:0:0:
468,36,178200,1,4,0:0:0:0:
64,288,178528,1,8,0:0:0:0:
372,48,178856,1,4,0:0:0:0:
248,328,179183,1,8,0:0:0:0:
72,72,179511,1,4,0:0:0:0:
72,316,179839,1,8,0:0:0:0:
72,316,180167,1,4,0:0:0:0:
72,316,180495,1,8,0:0:0:0:
72,316,180823,1,4,0:0:0:0:
444,164,181151,5,8,0:0:0:0:
176,36,181479,1,4,0:0:0:0:
320,320,181806,1,8,0:0:0:0:
64,44,182134,1,4,0:0:0:0:
72,312,182462,1,8,0:0:0:0:
404,96,182790,1,4,0:0:0:0:
92,252,183118,1,8,0:0:0:0:
272,20,183446,1,4,0:0:0:0:
324,320,183774,1,8,0:0:0:0:
116,188,184101,1,4,0:0:0:0:
428,80,184429,1,8,0:0:0:0:
72,152,184757,1,4,0:0:0:0:
416,184,185085,1,8,0:0:0:0:
416,184,185413,1,4,0:0:0:0:
416,184,185741,1,8,0:0:0:0:
416,184,186069,1,4,0:0:0:0:
72,84,186397,5,8,0:0:0:0:
392,300,186724,1,4,0:0:0:0:
184,40,187052,1,8,0:0:0:0:
184,304,187380,1,4,0:0:0:0:
380,48,187708,1,8,0:0:0:0:
92,280,188036,1,4,0:0:0:0:
460,104,188364,1,8,0:0:0:0:
72,188,188692,1,4,0:0:0:0:
444,268,189020,1,8,0:0:0:0:
444,268,189347,1,4,0:0:0:0:
112,280,189675,1,8,0:0:0:0:
112,280,190003,1,4,0:0:0:0:
68,116,190331,1,8,0:0:0:0:
400,104,190659,1,4,0:0:0:0:
68,116,190987,1,8,0:0:0:0:
400,104,191314,1,4,0:0:0:0:
64,256,191642,5,8,0:0:0:0:
108,312,191724,1,0,0:0:0:0:
172,336,191806,1,0,0:0:0:0:
240,324,191888,1,0,0:0:0:0:
300,288,191970,1,8,0:0:0:0:
332,228,192052,1,0,0:0:0:0:
360,164,192134,1,0,0:0:0:0:
304,204,192216,1,0,0:0:0:0:
296,272,192298,1,8,0:0:0:0:
324,336,192380,1,0,0:0:0:0:
356,276,192462,1,0,0:0:0:0:
300,236,192544,1,0,0:0:0:0:
236,212,192626,1,8,0:0:0:0:
232,144,192708,1,0,0:0:0:0:
236,76,192790,1,0,0:0:0:0:
296,112,192872,1,0,0:0:0:0:
288,180,192954,5,0,0:0:0:0:
236,228,193036,1,0,0:0:0:0:
204,288,193118,1,0,0:0:0:0:
220,356,193200,1,0,0:0:0:0:
276,316,193282,1,0,0:0:0:0:
296,252,193364,1,0,0:0:0:0:
280,184,193446,1,0,0:0:0:0:
236,128,193528,1,0,0:0:0:0:
180,88,193610,1,0,0:0:0:0:
120,120,193692,1,0,0:0:0:0:
112,188,193774,1,0,0:0:0:0:
120,256,193856,1,0,0:0:0:0:
180,220,193938,1,0,0:0:0:0:
212,160,194020,1,0,0:0:0:0:
216,92,194101,1,0,0:0:0:0:
276,56,194183,1,0,0:0:0:0:
344,68,194265,5,0,0:0:0:0:
368,132,194347,1,0,0:0:0:0:
364,200,194429,1,0,0:0:0:0:
312,248,194511,1,0,0:0:0:0:
244,264,194593,1,0,0:0:0:0:
176,252,194675,1,0,0:0:0:0:
136,196,194757,1,0,0:0:0:0:
140,128,194839,1,0,0:0:0:0:
192,84,194921,1,0,0:0:0:0:
256,104,195003,1,0,0:0:0:0:
292,164,195085,1,0,0:0:0:0:
260,224,195167,1,0,0:0:0:0:
192,236,195249,1,0,0:0:0:0:
152,180,195331,1,0,0:0:0:0:
176,116,195413,1,0,0:0:0:0:
240,140,195495,1,0,0:0:0:0:
236,208,195577,5,0,0:0:0:0:
172,228,195659,1,0,0:0:0:0:
104,216,195741,1,0,0:0:0:0:
56,264,195823,1,0,0:0:0:0:
44,332,195905,1,0,0:0:0:0:
112,352,195987,1,0,0:0:0:0:
180,336,196069,1,0,0:0:0:0:
220,280,196151,1,0,0:0:0:0:
244,216,196233,1,0,0:0:0:0:
288,160,196315,1,0,0:0:0:0:
352,136,196397,1,0,0:0:0:0:
420,144,196479,1,0,0:0:0:0:
460,196,196560,1,0,0:0:0:0:
468,264,196642,1,0,0:0:0:0:
424,316,196724,1,0,0:0:0:0:
356,320,196806,1,0,0:0:0:0:
296,284,196888,5,0,0:0:0:0:
232,260,196970,1,0,0:0:0:0:
168,284,197052,1,0,0:0:0:0:
108,320,197134,1,0,0:0:0:0:
52,360,197216,1,0,0:0:0:0:
20,300,197298,1,0,0:0:0:0:
48,236,197380,1,0,0:0:0:0:
96,184,197462,1,0,0:0:0:0:
164,192,197544,1,0,0:0:0:0:
228,216,197626,1,0,0:0:0:0:
296,200,197708,1,0,0:0:0:0:
336,144,197790,1,0,0:0:0:0:
352,76,197872,1,0,0:0:0:0:
296,32,197954,1,0,0:0:0:0:
260,88,198036,1,0,0:0:0:0:
284,152,198118,1,0,0:0:0:0:
348,176,198200,5,0,0:0:0:0:
376,240,198282,1,0,0:0:0:0:
324,288,198364,1,0,0:0:0:0:
256,288,198446,1,0,0:0:0:0:
208,240,198528,1,0,0:0:0:0:
180,176,198610,1,0,0:0:0:0:
200,112,198692,1,0,0:0:0:0:
264,88,198774,1,0,0:0:0:0:
332,80,198856,1,0,0:0:0:0:
380,28,198938,1,0,0:0:0:0:
396,96,199020,1,0,0:0:0:0:
344,140,199101,1,0,0:0:0:0:
276,148,199183,1,0,0:0:0:0:
324,100,199265,1,0,0:0:0:0:
360,44,199347,1,0,0:0:0:0:
304,4,199429,1,0,0:0:0:0:
244,36,199511,5,0,0:0:0:0:
208,96,199593,1,0,0:0:0:0:
208,164,199675,1,0,0:0:0:0:
244,224,199757,1,0,0:0:0:0:
304,256,199839,1,0,0:0:0:0:
368,232,199921,1,0,0:0:0:0:
416,184,200003,1,0,0:0:0:0:
424,116,200085,1,0,0:0:0:0:
448,180,200167,1,0,0:0:0:0:
408,236,200249,1,0,0:0:0:0:
340,248,200331,1,0,0:0:0:0:
272,240,200413,1,0,0:0:0:0:
204,244,200495,1,0,0:0:0:0:
140,272,200577,1,0,0:0:0:0:
100,328,200659,1,0,0:0:0:0:
152,372,200741,1,0,0:0:0:0:
220,364,200823,5,0,0:0:0:0:
268,316,200905,1,0,0:0:0:0:
288,248,200987,1,0,0:0:0:0:
252,188,201069,1,0,0:0:0:0:
208,132,201151,1,0,0:0:0:0:
216,64,201233,1,0,0:0:0:0:
272,24,201315,1,0,0:0:0:0:
316,76,201397,1,0,0:0:0:0:
312,144,201479,1,0,0:0:0:0:
280,204,201560,1,0,0:0:0:0:
216,232,201642,1,0,0:0:0:0:
148,236,201724,1,0,0:0:0:0:
84,212,201806,1,0,0:0:0:0:
56,148,201888,1,0,0:0:0:0:
60,80,201970,1,0,0:0:0:0:
112,32,202052,1,0,0:0:0:0:
100,100,202134,5,0,0:0:0:0:
104,168,202216,1,0,0:0:0:0:
148,220,202298,1,0,0:0:0:0:
204,260,202380,1,0,0:0:0:0:
264,228,202462,1,0,0:0:0:0:
316,184,202544,1,0,0:0:0:0:
368,140,202626,1,0,0:0:0:0:
436,132,202708,1,0,0:0:0:0:
456,196,202790,1,0,0:0:0:0:
416,252,202872,1,0,0:0:0:0:
348,268,202954,1,0,0:0:0:0:
280,248,203036,1,0,0:0:0:0:
212,252,203118,1,0,0:0:0:0:
160,300,203200,1,0,0:0:0:0:
148,368,203282,1,0,0:0:0:0:
80,368,203364,1,0,0:0:0:0:
48,308,203446,5,0,0:0:0:0:
56,240,203528,1,0,0:0:0:0:
104,188,203610,1,0,0:0:0:0:
168,164,203692,1,0,0:0:0:0:
228,132,203774,1,0,0:0:0:0:
272,80,203856,1,0,0:0:0:0:
292,16,203938,1,0,0:0:0:0:
304,84,204019,1,0,0:0:0:0:
252,132,204101,1,0,0:0:0:0:
184,148,204183,1,0,0:0:0:0:
116,168,204265,1,0,0:0:0:0:
88,232,204347,1,0,0:0:0:0:
104,300,204429,1,0,0:0:0:0:
104,232,204511,1,0,0:0:0:0:
144,176,204593,1,0,0:0:0:0:
212,160,204675,1,0,0:0:0:0:
280,168,204757,5,0,0:0:0:0:
216,192,204839,1,0,0:0:0:0:
148,208,204921,1,0,0:0:0:0:
108,264,205003,1,0,0:0:0:0:
96,332,205085,1,0,0:0:0:0:
152,372,205167,1,0,0:0:0:0:
212,336,205249,1,0,0:0:0:0:
256,280,205331,1,0,0:0:0:0:
256,212,205413,1,0,0:0:0:0:
292,152,205495,1,0,0:0:0:0:
360,132,205577,1,0,0:0:0:0:
428,144,205659,1,0,0:0:0:0:
472,196,205741,1,0,0:0:0:0:
444,260,205823,1,0,0:0:0:0:
384,296,205905,1,0,0:0:0:0:
316,292,205987,1,0,0:0:0:0:
280,224,206069,5,0,0:0:0:0:
220,176,206151,1,0,0:0:0:0:
144,180,206233,1,0,0:0:0:0:
84,224,206315,1,0,0:0:0:0:
68,300,206397,1,0,0:0:0:0:
128,348,206479,1,0,0:0:0:0:
204,344,206560,1,0,0:0:0:0:
272,312,206642,1,0,0:0:0:0:
300,240,206724,1,0,0:0:0:0:
260,176,206806,1,0,0:0:0:0:
212,116,206888,1,0,0:0:0:0:
276,156,206970,1,0,0:0:0:0:
348,184,207052,1,0,0:0:0:0:
424,188,207134,1,0,0:0:0:0:
360,144,207216,1,0,0:0:0:0:
292,176,207298,1,0,0:0:0:0:
248,236,207380,5,0,0:0:0:0:
200,304,207462,1,0,0:0:0:0:
116,304,207544,1,0,0:0:0:0:
56,248,207626,1,0,0:0:0:0:
56,164,207708,1,0,0:0:0:0:
76,84,207790,1,0,0:0:0:0:
152,52,207872,1,0,0:0:0:0:
236,48,207954,1,0,0:0:0:0:
300,96,208036,1,0,0:0:0:0:
316,176,208118,1,0,0:0:0:0:
248,224,208200,1,0,0:0:0:0:
272,144,208282,1,0,0:0:0:0:
248,64,208364,1,0,0:0:0:0:
164,56,208446,1,0,0:0:0:0:
196,132,208528,1,0,0:0:0:0:
268,176,208610,1,0,0:0:0:0:
340,136,208692,5,0,0:0:0:0:
392,104,208774,1,0,0:0:0:0:
444,136,208856,1,0,0:0:0:0:
480,188,208938,1,0,0:0:0:0:
456,244,209019,1,0,0:0:0:0:
420,296,209101,1,0,0:0:0:0:
456,244,209183,1,0,0:0:0:0:
452,184,209265,1,0,0:0:0:0:
420,132,209347,1,0,0:0:0:0:
364,156,209429,1,0,0:0:0:0:
308,184,209511,1,0,0:0:0:0:
264,228,209593,1,0,0:0:0:0:
252,288,209675,1,0,0:0:0:0:
300,328,209757,1,0,0:0:0:0:
364,328,209839,1,0,0:0:0:0:
412,288,209921,1,0,0:0:0:0:
432,228,210003,5,0,0:0:0:0:
372,236,210085,1,0,0:0:0:0:
316,264,210167,1,0,0:0:0:0:
256,264,210249,1,0,0:0:0:0:
204,228,210331,1,0,0:0:0:0:
172,176,210413,1,0,0:0:0:0:
156,116,210495,1,0,0:0:0:0:
192,168,210577,1,0,0:0:0:0:
236,212,210659,1,0,0:0:0:0:
296,232,210741,1,0,0:0:0:0:
356,224,210823,1,0,0:0:0:0:
408,192,210905,1,0,0:0:0:0:
448,144,210987,1,0,0:0:0:0:
460,84,211069,1,0,0:0:0:0:
448,24,211151,1,0,0:0:0:0:
432,84,211233,1,0,0:0:0:0:
396,136,211315,5,0,0:0:0:0:
336,156,211397,1,0,0:0:0:0:
276,164,211479,1,0,0:0:0:0:
216,168,211560,1,0,0:0:0:0:
156,152,211642,1,0,0:0:0:0:
104,116,211724,1,0,0:0:0:0:
68,64,211806,1,0,0:0:0:0:
24,20,211888,1,0,0:0:0:0:
32,80,211970,1,0,0:0:0:0:
80,120,212052,1,0,0:0:0:0:
136,148,212134,1,0,0:0:0:0:
196,156,212216,1,0,0:0:0:0:
256,144,212298,1,0,0:0:0:0:
304,104,212380,1,0,0:0:0:0:
360,80,212462,1,0,0:0:0:0:
420,76,212544,1,0,0:0:0:0:
456,100,212626,5,4,0:0:0:0:
48,324,212954,2,0,P|100:280|96:156,1,188.499991371155
256,128,213610,1,0,0:0:0:0:
464,324,213938,2,0,P|412:280|416:156,1,188.499991371155
256,192,214593,1,0,0:0:0:0:
256,192,214921,1,0,0:0:0:0:
64,68,215249,6,0,B|116:104|116:104|192:72|208:184,1,188.499991371155
168,240,215741,1,0,0:0:0:0:
203,161,215905,2,0,P|263:117|367:189,1,188.499991371155
384,192,216560,5,0,0:0:0:0:
120,320,216724,1,0,0:0:0:0:
212,96,216888,1,0,0:0:0:0:
360,312,217052,1,0,0:0:0:0:
360,312,217134,1,0,0:0:0:0:
360,312,217216,1,0,0:0:0:0:
76,188,217380,2,0,P|116:156|132:96,1,94.2499956855776
296,264,217708,2,0,P|340:308|404:296,1,94.2499956855776
412,64,218200,6,0,L|264:208,2,188.499991371155
112,256,219183,1,0,0:0:0:0:
340,168,219511,1,0,0:0:0:0:
340,168,219839,1,0,0:0:0:0:
112,256,220167,1,0,0:0:0:0:
64,148,220495,6,0,P|132:136|76:60,1,188.499991371155
64,148,220987,1,0,0:0:0:0:
192,224,221151,1,0,0:0:0:0:
376,316,221315,2,0,P|408:260|416:200,1,94.2499956855776
340,64,221642,2,0,P|304:112|308:176,1,94.2499956855776
168,280,221970,1,0,0:0:0:0:
76,84,222134,1,0,0:0:0:0:
456,124,222298,1,0,0:0:0:0:
456,124,222380,1,0,0:0:0:0:
456,124,222462,2,0,L|384:168,5,62.8333304570517
60,280,223118,5,4,0:0:0:0:
276,56,223446,1,0,0:0:0:0:
280,304,223774,1,0,0:0:0:0:
88,116,224101,1,0,0:0:0:0:
448,176,224429,1,0,0:0:0:0:
152,240,224757,1,0,0:0:0:0:
456,52,225085,1,0,0:0:0:0:
40,352,225413,1,0,0:0:0:0:
368,296,225741,6,0,P|408:204|364:128,1,188.499991371155
256,196,226233,1,0,0:0:0:0:
142,132,226397,2,0,P|103:214|144:296,1,188.499991371155
132,348,227052,5,0,0:0:0:0:
280,184,227216,1,0,0:0:0:0:
380,308,227380,1,0,0:0:0:0:
104,212,227544,1,0,0:0:0:0:
104,212,227626,1,0,0:0:0:0:
104,212,227708,1,0,0:0:0:0:
228,84,227872,1,0,0:0:0:0:
332,324,228036,1,0,0:0:0:0:
236,76,228200,1,0,0:0:0:0:
96,320,228364,6,0,P|136:284|88:168,1,188.499991371155
364,48,228856,1,0,0:0:0:0:
340,272,229019,1,0,0:0:0:0:
76,116,229183,2,0,B|124:128|124:128|192:100,1,94.2499956855776
260,308,229511,2,0,B|212:320|212:320|144:292,1,94.2499956855776
144,268,229757,5,0,0:0:0:0:
128,228,229839,1,0,0:0:0:0:
128,184,229921,1,0,0:0:0:0:
152,148,230003,1,0,0:0:0:0:
192,128,230085,1,0,0:0:0:0:
228,152,230167,1,0,0:0:0:0:
256,184,230249,1,0,0:0:0:0:
296,192,230331,1,0,0:0:0:0:
336,184,230413,1,0,0:0:0:0:
372,164,230495,1,0,0:0:0:0:
388,124,230577,1,0,0:0:0:0:
360,92,230659,2,0,L|288:52,1,47.1249978427888
168,52,230823,2,0,L|200:112,1,47.1249978427888
164,132,230987,5,4,0:0:0:0:
104,164,231069,1,0,0:0:0:0:
88,232,231151,1,0,0:0:0:0:
112,300,231233,1,0,0:0:0:0:
180,316,231315,1,0,0:0:0:0:
244,288,231397,1,0,0:0:0:0:
268,224,231479,1,0,0:0:0:0:
308,168,231560,1,0,0:0:0:0:
376,152,231642,1,0,0:0:0:0:
444,168,231724,1,0,0:0:0:0:
460,236,231806,1,0,0:0:0:0:
440,304,231888,1,0,0:0:0:0:
372,316,231970,1,0,0:0:0:0:
320,272,232052,1,0,0:0:0:0:
268,228,232134,1,0,0:0:0:0:
200,240,232216,1,0,0:0:0:0:
151,276,232298,6,0,L|144:363,3,86.9999973449708
412,304,232626,2,0,L|300:336,3,86.9999973449708
280,40,232954,2,0,B|228:24|228:24|164:52,3,86.9999973449708
428,316,233282,2,0,L|400:208,1,86.9999973449708
352,188,233446,1,0,0:0:0:0:
284,168,233528,1,0,0:0:0:0:
64,92,233610,2,0,L|168:48,1,86.9999973449708
216,60,233774,1,0,0:0:0:0:
280,84,233856,1,0,0:0:0:0:
316,144,233938,5,0,0:0:0:0:
284,204,234020,1,0,0:0:0:0:
220,228,234101,1,0,0:0:0:0:
152,236,234183,1,0,0:0:0:0:
104,188,234265,1,0,0:0:0:0:
104,120,234347,1,0,0:0:0:0:
160,80,234429,1,0,0:0:0:0:
228,96,234511,1,0,0:0:0:0:
268,152,234593,1,0,0:0:0:0:
248,220,234675,1,0,0:0:0:0:
192,260,234757,1,0,0:0:0:0:
184,328,234839,1,0,0:0:0:0:
120,352,234921,5,0,0:0:0:0:
68,308,235003,1,0,0:0:0:0:
92,244,235085,1,0,0:0:0:0:
160,224,235167,1,0,0:0:0:0:
228,244,235249,1,0,0:0:0:0:
276,292,235331,1,0,0:0:0:0:
344,304,235413,1,0,0:0:0:0:
408,276,235495,1,0,0:0:0:0:
452,224,235577,1,0,0:0:0:0:
464,156,235659,1,0,0:0:0:0:
444,88,235741,1,0,0:0:0:0:
376,68,235823,1,0,0:0:0:0:
308,84,235905,1,0,0:0:0:0:
272,144,235987,1,0,0:0:0:0:
248,208,236069,1,0,0:0:0:0:
180,224,236151,1,0,0:0:0:0:
128,176,236233,5,0,0:0:0:0:
132,132,236315,1,0,0:0:0:0:
152,92,236397,1,0,0:0:0:0:
192,72,236479,1,0,0:0:0:0:
236,64,236560,1,0,0:0:0:0:
280,68,236642,1,0,0:0:0:0:
316,96,236724,1,0,0:0:0:0:
336,136,236806,1,0,0:0:0:0:
324,212,236888,1,0,0:0:0:0:
276,276,236970,1,0,0:0:0:0:
200,284,237052,1,0,0:0:0:0:
132,248,237134,1,0,0:0:0:0:
96,180,237216,1,0,0:0:0:0:
128,108,237298,1,0,0:0:0:0:
196,72,237380,1,0,0:0:0:0:
272,96,237462,1,0,0:0:0:0:
304,168,237544,6,0,L|256:252,1,86.9999973449708
184,268,237708,1,0,0:0:0:0:
124,220,237790,1,0,0:0:0:0:
108,144,237872,1,0,0:0:0:0:
172,100,237954,1,0,0:0:0:0:
252,96,238036,1,0,0:0:0:0:
288,124,238118,1,0,0:0:0:0:
312,160,238200,1,0,0:0:0:0:
324,200,238282,1,0,0:0:0:0:
296,236,238364,1,0,0:0:0:0:
260,260,238446,1,0,0:0:0:0:
224,192,238528,1,0,0:0:0:0:
252,120,238610,1,0,0:0:0:0:
328,108,238692,1,0,0:0:0:0:
396,144,238774,1,0,0:0:0:0:
432,144,238856,5,0,0:0:0:0:
436,108,238938,1,0,0:0:0:0:
432,72,239019,1,0,0:0:0:0:
404,52,239101,1,0,0:0:0:0:
368,56,239183,1,0,0:0:0:0:
344,80,239265,1,0,0:0:0:0:
328,112,239347,1,0,0:0:0:0:
328,148,239429,1,0,0:0:0:0:
344,180,239511,1,0,0:0:0:0:
380,220,239593,1,0,0:0:0:0:
404,268,239675,1,0,0:0:0:0:
368,308,239757,1,0,0:0:0:0:
320,328,239839,2,0,L|224:276,1,86.9999973449708
88,292,240003,2,0,L|120:208,1,86.9999973449708
188,228,240167,5,0,0:0:0:0:
188,228,240249,1,0,0:0:0:0:
188,228,240331,1,0,0:0:0:0:
188,228,240413,1,0,0:0:0:0:
188,228,240495,1,0,0:0:0:0:
188,228,240577,1,0,0:0:0:0:
188,228,240659,1,0,0:0:0:0:
188,228,240741,1,0,0:0:0:0:
188,228,240823,1,0,0:0:0:0:
188,228,240905,1,0,0:0:0:0:
188,228,240987,1,0,0:0:0:0:
188,228,241069,1,0,0:0:0:0:
188,228,241151,1,0,0:0:0:0:
188,228,241233,1,0,0:0:0:0:
188,228,241315,1,0,0:0:0:0:
188,228,241397,1,0,0:0:0:0:
156,364,241479,6,0,P|199:365|256:332,1,86.9999973449708
268,304,241642,1,0,0:0:0:0:
296,260,241724,1,0,0:0:0:0:
148,176,241806,2,0,L|220:96,1,86.9999973449708
272,68,241970,1,0,0:0:0:0:
332,120,242052,1,0,0:0:0:0:
472,36,242134,2,0,P|424:59|388:96,1,86.9999973449708
360,152,242298,1,0,0:0:0:0:
380,228,242380,1,0,0:0:0:0:
216,344,242462,2,0,P|176:308|120:296,1,86.9999973449708
56,104,242626,2,0,P|97:98|140:48,1,86.9999973449708
176,44,242790,5,0,0:0:0:0:
228,48,242872,1,0,0:0:0:0:
272,76,242954,1,0,0:0:0:0:
296,120,243036,1,0,0:0:0:0:
304,172,243118,1,0,0:0:0:0:
260,200,243200,1,0,0:0:0:0:
212,224,243282,1,0,0:0:0:0:
184,268,243364,1,0,0:0:0:0:
208,316,243446,1,0,0:0:0:0:
240,356,243528,1,0,0:0:0:0:
272,316,243610,1,0,0:0:0:0:
280,264,243692,1,0,0:0:0:0:
432,288,243774,6,0,B|385:284|385:284|340:292,1,86.9999973449708
346,291,243938,1,0,0:0:0:0:
346,291,244019,1,0,0:0:0:0:
124,172,244101,2,0,B|170:162|170:162|204:120,1,86.9999973449708
196,131,244265,1,0,0:0:0:0:
196,131,244347,1,0,0:0:0:0:
468,84,244429,2,0,B|472:136|447:150|452:188,1,86.9999973449708
420,240,244593,1,0,0:0:0:0:
352,276,244675,1,0,0:0:0:0:
64,312,244757,2,0,B|102:286|88:245|88:245|112:228,1,86.9999973449708
168,208,244921,1,0,0:0:0:0:
216,148,245003,1,0,0:0:0:0:
268,24,245085,2,0,P|286:76|280:112,1,86.9999973449708
244,360,245249,2,0,P|217:324|232:272,1,86.9999973449708
248,240,245413,5,0,0:0:0:0:
276,196,245495,1,0,0:0:0:0:
272,144,245577,1,0,0:0:0:0:
236,104,245659,1,0,0:0:0:0:
432,136,245741,2,0,P|382:141|332:156,1,86.9999973449708
268,152,245905,1,0,0:0:0:0:
228,220,245987,1,0,0:0:0:0:
28,204,246069,2,0,P|61:217|100:252,1,86.9999973449708
172,280,246233,1,0,0:0:0:0:
228,220,246315,1,0,0:0:0:0:
460,288,246397,2,0,B|416:268|416:236|416:236|388:216,1,86.9999973449708
52,96,246560,2,0,B|75:133|108:128|108:128|124:168,1,86.9999973449708
152,184,246724,5,0,0:0:0:0:
148,236,246806,1,0,0:0:0:0:
112,272,246888,1,0,0:0:0:0:
60,276,246970,1,0,0:0:0:0:
284,300,247052,2,0,P|298:243|280:200,1,86.9999973449708
252,180,247216,1,0,0:0:0:0:
200,168,247298,1,0,0:0:0:0:
152,44,247380,2,0,B|109:75|156:172|96:120,1,86.9999973449708
96,164,247544,1,0,0:0:0:0:
132,200,247626,1,0,0:0:0:0:
464,184,247708,2,0,P|419:173|380:144,1,86.9999973449708
48,324,247872,2,0,B|72:276|72:276|136:248,1,86.9999973449708
132,220,248036,5,0,0:0:0:0:
132,220,248118,1,0,0:0:0:0:
132,220,248200,1,0,0:0:0:0:
132,220,248282,1,0,0:0:0:0:
348,48,248364,2,0,P|317:91|276:116,1,86.9999973449708
244,136,248528,1,0,0:0:0:0:
192,128,248610,1,0,0:0:0:0:
196,316,248692,2,0,P|239:322|276:344,1,86.9999973449708
328,344,248856,1,0,0:0:0:0:
360,304,248938,1,0,0:0:0:0:
456,156,249019,2,0,L|424:248,1,86.9999973449708
456,156,249183,2,0,L|380:96,1,86.9999973449708
340,80,249347,5,0,0:0:0:0:
288,84,249429,1,0,0:0:0:0:
260,128,249511,1,0,0:0:0:0:
260,180,249593,1,0,0:0:0:0:
240,228,249675,1,0,0:0:0:0:
192,252,249757,1,0,0:0:0:0:
144,228,249839,1,0,0:0:0:0:
112,188,249921,1,0,0:0:0:0:
120,136,250003,1,0,0:0:0:0:
132,124,250085,1,0,0:0:0:0:
144,112,250167,1,0,0:0:0:0:
160,104,250249,1,0,0:0:0:0:
176,96,250331,1,0,0:0:0:0:
192,92,250413,1,0,0:0:0:0:
208,92,250495,1,0,0:0:0:0:
224,92,250577,1,0,0:0:0:0:
240,92,250659,5,0,0:0:0:0:
256,88,250741,1,0,0:0:0:0:
272,84,250823,1,0,0:0:0:0:
288,80,250905,1,0,0:0:0:0:
304,72,250987,1,0,0:0:0:0:
320,72,251069,1,0,0:0:0:0:
336,76,251151,1,0,0:0:0:0:
352,84,251233,1,0,0:0:0:0:
368,96,251315,1,0,0:0:0:0:
376,112,251397,1,0,0:0:0:0:
372,128,251478,1,0,0:0:0:0:
360,140,251560,1,0,0:0:0:0:
356,144,251642,1,0,0:0:0:0:
348,148,251724,1,0,0:0:0:0:
340,152,251806,1,0,0:0:0:0:
332,156,251888,1,0,0:0:0:0:
312,192,251970,6,0,B|260:264|151:281|151:281|180:80|16:104,1,435.000016593934
152,280,252955,2,0,P|260:304|376:252,3,217.500008296967
424,48,254268,1,0,0:0:0:0:
152,280,254597,6,0,P|56:216|256:128,1,435.000016593934
376,344,255582,2,0,B|432:252|432:252|436:136,1,217.500008296967
136,40,256239,2,0,B|80:132|80:132|76:248,1,217.500008296967
440,268,256896,1,0,0:0:0:0:
248,324,257224,6,0,P|256:56|256:324,1,815.625031113626
274,322,258538,2,0,P|256:188|244:320,1,380.625014519692
231,314,259194,2,0,B|180:184|280:56|280:56|316:124|288:156,1,380.625014519692
289,153,259851,2,0,B|156:104|156:248|156:248|264:284|324:296|400:232|408:144|408:144|280:152,1,652.500024890901
92,332,261165,6,0,P|168:272|144:160,1,217.500008296967
420,52,261822,2,0,P|344:112|368:224,1,217.500008296967
232,336,262479,2,0,P|112:260|292:120,1,435.000016593934
436,264,263464,1,0,0:0:0:0:
76,72,263792,1,0,0:0:0:0:
168,316,264121,1,0,0:0:0:0:
168,316,264449,1,0,0:0:0:0:
436,28,264777,1,0,0:0:0:0:
100,320,265106,6,0,B|172:176|228:292|228:292|336:244|300:124|200:84,1,435.000016593934
424,328,266091,2,0,L|456:108,1,217.500008296967
88,328,266748,2,0,L|56:108,1,217.500008296967
56,112,267240,5,0,0:0:0:0:
384,296,267405,1,0,0:0:0:0:
360,44,267708,5,0,0:0:0:0:
280,336,267871,1,0,0:0:0:0:
92,104,268035,1,0,0:0:0:0:
436,128,268199,1,0,0:0:0:0:
180,296,268363,5,0,0:0:0:0:
248,16,268527,1,0,0:0:0:0:
456,328,268691,1,0,0:0:0:0:
72,292,268855,1,0,0:0:0:0:
280,24,269019,5,0,0:0:0:0:
184,356,269183,1,0,0:0:0:0:
468,176,269347,1,0,0:0:0:0:
144,12,269511,1,0,0:0:0:0:
476,336,269675,5,0,0:0:0:0:
64,312,269839,1,0,0:0:0:0:
464,28,270003,1,0,0:0:0:0:
216,368,270167,1,0,0:0:0:0:
45,77,270330,5,0,0:0:0:0:
68,104,270412,1,0,0:0:0:0:
98,123,270494,1,0,0:0:0:0:
133,131,270576,1,0,0:0:0:0:
169,132,270658,1,0,0:0:0:0:
204,126,270740,1,0,0:0:0:0:
237,112,270822,1,0,0:0:0:0:
268,93,270904,1,0,0:0:0:0:
300,76,270986,1,0,0:0:0:0:
334,64,271068,1,0,0:0:0:0:
369,58,271150,1,0,0:0:0:0:
405,56,271232,1,0,0:0:0:0:
441,57,271314,1,0,0:0:0:0:
474,69,271396,1,0,0:0:0:0:
492,100,271478,1,0,0:0:0:0:
501,135,271560,1,0,0:0:0:0:
475,109,271642,5,0,0:0:0:0:
420,89,271724,1,0,0:0:0:0:
361,88,271806,1,0,0:0:0:0:
304,100,271888,1,0,0:0:0:0:
253,128,271970,1,0,0:0:0:0:
231,181,272052,1,0,0:0:0:0:
235,238,272134,1,0,0:0:0:0:
266,286,272216,1,0,0:0:0:0:
216,255,272298,5,0,0:0:0:0:
168,222,272380,1,0,0:0:0:0:
109,222,272462,1,0,0:0:0:0:
53,240,272544,1,0,0:0:0:0:
36,295,272626,1,0,0:0:0:0:
58,347,272707,1,0,0:0:0:0:
111,370,272789,1,0,0:0:0:0:
168,375,272871,1,0,0:0:0:0:
117,347,272953,5,0,0:0:0:0:
99,315,273035,1,0,0:0:0:0:
90,279,273117,1,0,0:0:0:0:
88,242,273199,1,0,0:0:0:0:
92,206,273281,1,0,0:0:0:0:
109,174,273363,1,0,0:0:0:0:
136,149,273445,1,0,0:0:0:0:
171,144,273527,1,0,0:0:0:0:
205,156,273609,1,0,0:0:0:0:
232,179,273691,1,0,0:0:0:0:
253,207,273773,1,0,0:0:0:0:
282,227,273855,1,0,0:0:0:0:
317,232,273937,1,0,0:0:0:0:
352,225,274019,1,0,0:0:0:0:
379,201,274101,1,0,0:0:0:0:
396,169,274183,1,0,0:0:0:0:
397,132,274265,5,0,0:0:0:0:
432,177,274347,1,0,0:0:0:0:
430,234,274429,1,0,0:0:0:0:
405,286,274511,1,0,0:0:0:0:
360,322,274593,1,0,0:0:0:0:
304,340,274675,1,0,0:0:0:0:
249,319,274757,1,0,0:0:0:0:
203,282,274839,1,0,0:0:0:0:
145,280,274921,6,0,P|114:300|59:303,7,72.5
35,268,275576,5,0,0:0:0:0:
34,253,275658,1,0,0:0:0:0:
33,238,275740,1,0,0:0:0:0:
32,223,275822,1,0,0:0:0:0:
31,208,275904,1,0,0:0:0:0:
30,193,275986,1,0,0:0:0:0:
30,178,276068,1,0,0:0:0:0:
30,163,276150,1,0,0:0:0:0:
30,148,276232,1,0,0:0:0:0:
30,133,276314,1,0,0:0:0:0:
30,118,276396,1,0,0:0:0:0:
30,103,276478,1,0,0:0:0:0:
30,88,276560,1,0,0:0:0:0:
30,73,276642,1,0,0:0:0:0:
30,58,276724,1,0,0:0:0:0:
30,43,276806,1,0,0:0:0:0:
32,57,276888,5,0,0:0:0:0:
55,74,276970,1,0,0:0:0:0:
81,85,277052,1,0,0:0:0:0:
109,91,277134,1,0,0:0:0:0:
138,91,277216,1,0,0:0:0:0:
166,87,277298,1,0,0:0:0:0:
193,76,277380,1,0,0:0:0:0:
220,65,277462,1,0,0:0:0:0:
248,59,277544,1,0,0:0:0:0:
277,59,277626,1,0,0:0:0:0:
305,63,277707,1,0,0:0:0:0:
330,76,277789,1,0,0:0:0:0:
352,94,277871,1,0,0:0:0:0:
368,118,277953,1,0,0:0:0:0:
380,144,278035,1,0,0:0:0:0:
386,172,278117,1,0,0:0:0:0:
370,230,278199,6,0,P|410:241|448:233,5,72.5
275,100,278691,2,0,P|235:91|195:99,5,72.5
87,269,279183,2,0,P|81:308|95:357,3,72.5
143,354,279511,5,0,0:0:0:0:
170,362,279593,1,0,0:0:0:0:
198,365,279675,1,0,0:0:0:0:
227,364,279757,1,0,0:0:0:0:
255,356,279839,1,0,0:0:0:0:
274,334,279921,1,0,0:0:0:0:
288,308,280003,1,0,0:0:0:0:
302,282,280085,1,0,0:0:0:0:
320,259,280167,1,0,0:0:0:0:
341,240,280248,1,0,0:0:0:0:
366,225,280330,1,0,0:0:0:0:
394,220,280412,1,0,0:0:0:0:
420,230,280494,1,0,0:0:0:0:
438,252,280576,1,0,0:0:0:0:
451,277,280658,1,0,0:0:0:0:
460,304,280740,1,0,0:0:0:0:
413,357,280822,6,0,L|328:364,1,72.5
80,49,280986,2,0,L|128:118,1,72.5
452,279,281150,2,0,L|468:189,1,72.5
37,270,281314,2,0,L|91:319,1,72.5
423,45,281478,6,0,L|346:61,1,72.5
108,215,281642,2,0,L|185:235,1,72.5
483,313,281806,2,0,L|425:367,1,72.5
57,131,281970,2,0,L|50:53,1,72.5
358,327,282134,6,0,P|390:308|414:279,15,72.5
343,149,283445,2,0,L|332:73,15,72.5
116,42,284757,6,0,L|27:42,3,72.5
342,149,285085,2,0,L|415:149,3,72.5
118,228,285412,2,0,L|29:228,3,72.5
344,335,285740,2,0,L|417:335,3,72.5
440,294,286068,5,0,0:0:0:0:
429,266,286150,1,0,0:0:0:0:
409,244,286232,1,0,0:0:0:0:
384,228,286314,1,0,0:0:0:0:
357,216,286396,1,0,0:0:0:0:
328,210,286478,1,0,0:0:0:0:
299,212,286560,1,0,0:0:0:0:
277,231,286642,1,0,0:0:0:0:
259,253,286724,1,0,0:0:0:0:
238,273,286806,1,0,0:0:0:0:
213,288,286888,1,0,0:0:0:0:
185,296,286970,1,0,0:0:0:0:
155,296,287052,1,0,0:0:0:0:
127,286,287134,1,0,0:0:0:0:
103,269,287216,1,0,0:0:0:0:
83,247,287298,1,0,0:0:0:0:
61,190,287380,5,0,0:0:0:0:
84,226,287462,1,0,0:0:0:0:
111,259,287544,1,0,0:0:0:0:
149,279,287626,1,0,0:0:0:0:
191,284,287707,1,0,0:0:0:0:
234,279,287789,1,0,0:0:0:0:
273,260,287871,1,0,0:0:0:0:
299,225,287953,1,0,0:0:0:0:
313,184,288035,1,0,0:0:0:0:
305,141,288117,1,0,0:0:0:0:
288,100,288199,1,0,0:0:0:0:
303,59,288281,1,0,0:0:0:0:
341,38,288363,1,0,0:0:0:0:
384,39,288445,1,0,0:0:0:0:
419,64,288527,1,0,0:0:0:0:
441,101,288609,1,0,0:0:0:0:
410,166,288691,5,0,0:0:0:0:
374,119,288773,1,0,0:0:0:0:
319,99,288855,1,0,0:0:0:0:
260,97,288937,1,0,0:0:0:0:
202,107,289019,1,0,0:0:0:0:
150,133,289101,1,0,0:0:0:0:
134,188,289183,1,0,0:0:0:0:
143,245,289265,1,0,0:0:0:0:
180,289,289347,1,0,0:0:0:0:
237,299,289429,1,0,0:0:0:0:
283,264,289511,1,0,0:0:0:0:
293,206,289593,1,0,0:0:0:0:
340,173,289675,1,0,0:0:0:0:
397,171,289757,1,0,0:0:0:0:
451,190,289839,1,0,0:0:0:0:
472,243,289921,1,0,0:0:0:0:
426,305,290003,5,0,0:0:0:0:
444,242,290085,1,0,0:0:0:0:
447,177,290166,1,0,0:0:0:0:
419,117,290248,1,0,0:0:0:0:
356,98,290330,1,0,0:0:0:0:
291,108,290412,1,0,0:0:0:0:
260,165,290494,1,0,0:0:0:0:
276,228,290576,1,0,0:0:0:0:
308,284,290658,1,0,0:0:0:0:
292,347,290740,1,0,0:0:0:0:
230,369,290822,1,0,0:0:0:0:
164,363,290904,1,0,0:0:0:0:
124,310,290986,1,0,0:0:0:0:
142,247,291068,1,0,0:0:0:0:
176,191,291150,1,0,0:0:0:0:
158,128,291232,1,0,0:0:0:0:
82,107,291314,6,0,L|35:176,7,72.5
244,100,291970,2,0,L|291:31,7,72.5
237,313,292626,6,0,P|197:318|148:304,5,72.5
75,247,293117,2,0,P|73:204|91:164,5,72.5
26,44,293609,2,0,P|62:42|97:50,3,72.5
33,88,293937,5,0,0:0:0:0:
36,109,294019,1,0,0:0:0:0:
40,130,294101,1,0,0:0:0:0:
46,150,294183,1,0,0:0:0:0:
56,168,294265,1,0,0:0:0:0:
70,184,294347,1,0,0:0:0:0:
86,197,294429,1,0,0:0:0:0:
105,205,294511,1,0,0:0:0:0:
126,209,294593,1,0,0:0:0:0:
147,207,294675,1,0,0:0:0:0:
167,200,294757,1,0,0:0:0:0:
185,188,294839,1,0,0:0:0:0:
203,176,294921,1,0,0:0:0:0:
222,166,295003,1,0,0:0:0:0:
242,159,295085,1,0,0:0:0:0:
262,153,295166,1,0,0:0:0:0:
316,225,295248,6,0,P|322:262|311:305,3,72.5
236,123,295576,2,0,P|230:86|241:43,3,72.5
55,341,295904,2,0,P|92:347|135:336,3,72.5
228,248,296232,2,0,P|192:241|157:247,3,72.5
136,36,296560,6,0,L|136:156,1,108.750004148483
216,36,296724,2,0,L|216:144,1,108.750004148483
296,36,296888,2,0,L|296:144,1,108.750004148483
372,36,297052,2,0,L|372:144,1,108.750004148483
376,348,297216,2,0,L|376:239,1,108.750004148483
296,348,297380,2,0,L|296:240,1,108.750004148483
216,348,297544,2,0,L|216:240,1,108.750004148483
140,348,297708,2,0,L|140:239,1,108.750004148483
412,72,297872,6,0,L|292:72,1,108.750004148483
100,232,298036,2,0,L|208:232,1,108.750004148483
412,308,298200,2,0,L|303:308,1,108.750004148483
100,76,298364,2,0,L|208:76,1,108.750004148483
100,312,298528,2,0,L|208:312,1,108.750004148483
412,152,298692,2,0,L|304:152,1,108.750004148483
100,152,298856,2,0,L|208:152,1,108.750004148483
412,232,299019,2,0,L|304:232,1,108.750004148483
80,240,299183,6,0,P|112:300|172:320,1,108.750004148483
304,368,299347,2,0,P|364:336|384:276,1,108.750004148483
432,144,299511,2,0,P|400:84|340:64,1,108.750004148483
208,16,299675,2,0,P|148:48|128:108,1,108.750004148483
80,144,299839,2,0,P|112:84|172:64,1,108.750004148483
304,16,300003,2,0,P|364:48|384:108,1,108.750004148483
432,240,300167,2,0,P|400:300|340:320,1,108.750004148483
208,368,300331,2,0,P|148:336|128:276,1,108.750004148483
432,144,300495,6,0,P|400:84|340:64,1,108.750004148483
80,240,300659,2,0,P|112:300|172:320,1,108.750004148483
304,368,300823,2,0,P|364:336|384:276,1,108.750004148483
208,16,300987,2,0,P|148:48|128:108,1,108.750004148483
432,240,301151,2,0,P|400:300|340:320,1,108.750004148483
80,144,301314,2,0,P|112:84|172:64,1,108.750004148483
208,368,301478,2,0,P|148:336|128:276,1,108.750004148483
304,16,301643,2,0,P|364:48|384:108,1,108.750004148483
105,297,301806,6,0,P|92:258|97:212,9,72.5
169,116,302625,2,0,L|246:113,1,72.5
450,291,302789,2,0,L|370:293,1,72.5
261,53,302953,2,0,L|342:62,1,72.5
293,287,303117,6,0,P|292:323|300:359,1,72.5
217,235,303281,2,0,L|137:215,1,72.5
285,156,303445,2,0,L|285:69,1,72.5
401,200,303609,2,0,L|486:183,1,72.5
380,294,303773,6,0,L|436:352,2,72.5
329,242,304019,1,0,0:0:0:0:
274,186,304101,2,0,L|222:129,3,72.5
121,340,304429,5,0,0:0:0:0:
403,56,304593,1,0,0:0:0:0:
311,358,304757,1,0,0:0:0:0:
72,77,304921,1,0,0:0:0:0:
465,173,305085,1,0,0:0:0:0:
202,382,305248,1,0,0:0:0:0:
321,37,305412,1,0,0:0:0:0:
470,349,305576,1,0,0:0:0:0:
119,203,305740,6,0,P|114:160|126:100,2,96.6666666666667
197,257,306068,2,0,P|202:300|190:360,2,96.6666666666667
275,200,306396,2,0,P|318:195|378:207,2,96.6666666666667
493,297,306724,2,0,P|450:302|390:290,2,96.6666666666667
337,221,307052,6,0,P|332:179|317:144,3,72.5
289,320,307380,2,0,P|252:331|203:326,3,72.5
117,268,307707,2,0,P|105:231|110:191,3,72.5
168,98,308035,2,0,P|205:86|255:90,3,72.5
252,225,308363,6,0,P|256:266|272:302,3,72.5
300,126,308691,2,0,P|336:114|386:120,3,72.5
472,178,309019,2,0,P|483:214|479:255,3,72.5
421,348,309347,2,0,P|383:359|334:356,3,72.5
93,278,309675,6,0,L|85:178,7,72.5
419,106,310330,2,0,L|427:206,7,72.5
390,231,310986,5,0,0:0:0:0:
368,231,311068,1,0,0:0:0:0:
346,231,311150,1,0,0:0:0:0:
324,231,311232,1,0,0:0:0:0:
302,231,311314,1,0,0:0:0:0:
280,231,311396,1,0,0:0:0:0:
258,231,311478,1,0,0:0:0:0:
236,231,311560,1,0,0:0:0:0:
214,231,311642,1,0,0:0:0:0:
192,231,311724,1,0,0:0:0:0:
170,231,311806,1,0,0:0:0:0:
148,231,311888,1,0,0:0:0:0:
126,231,311970,1,0,0:0:0:0:
104,231,312052,1,0,0:0:0:0:
82,231,312134,1,0,0:0:0:0:
60,232,312216,1,0,0:0:0:0:
19,303,312298,5,0,0:0:0:0:
27,303,312379,1,0,0:0:0:0:
36,303,312461,1,12,3:0:0:0:
45,303,312543,1,0,0:0:0:0:
53,303,312625,1,0,0:0:0:0:
62,303,312707,1,0,0:0:0:0:
71,303,312789,1,12,3:0:0:0:
79,303,312871,1,0,0:0:0:0:
88,303,312953,1,0,0:0:0:0:
97,303,313035,1,0,0:0:0:0:
106,303,313117,1,12,3:0:0:0:
114,303,313199,1,0,0:0:0:0:
123,303,313281,1,0,0:0:0:0:
132,303,313363,1,0,0:0:0:0:
140,303,313445,1,12,3:0:0:0:
149,303,313527,1,0,0:0:0:0:
158,303,313609,5,0,0:0:0:0:
166,303,313691,1,0,0:0:0:0:
175,303,313773,1,12,3:0:0:0:
184,303,313855,1,0,0:0:0:0:
193,303,313937,1,0,0:0:0:0:
201,303,314019,1,0,0:0:0:0:
210,303,314101,1,12,3:0:0:0:
219,303,314183,1,0,0:0:0:0:
227,303,314265,1,0,0:0:0:0:
236,303,314347,1,0,0:0:0:0:
245,303,314429,1,12,3:0:0:0:
253,303,314511,1,0,0:0:0:0:
262,303,314593,1,0,0:0:0:0:
271,303,314675,1,0,0:0:0:0:
280,303,314757,1,12,3:0:0:0:
288,303,314838,1,0,0:0:0:0:
297,303,314920,5,0,0:0:0:0:
306,303,315002,1,0,0:0:0:0:
314,303,315084,1,12,3:0:0:0:
323,303,315166,1,0,0:0:0:0:
332,303,315248,1,0,0:0:0:0:
340,303,315330,1,0,0:0:0:0:
349,303,315412,1,12,3:0:0:0:
358,303,315494,1,0,0:0:0:0:
367,303,315576,1,0,0:0:0:0:
375,303,315658,1,0,0:0:0:0:
384,303,315740,1,12,3:0:0:0:
393,303,315822,1,0,0:0:0:0:
401,303,315904,1,0,0:0:0:0:
410,303,315986,1,0,0:0:0:0:
419,303,316068,1,12,3:0:0:0:
427,303,316150,1,0,0:0:0:0:
460,298,316232,5,0,0:0:0:0:
462,289,316313,1,0,0:0:0:0:
464,281,316395,1,12,3:0:0:0:
466,272,316477,1,0,0:0:0:0:
467,264,316559,1,0,0:0:0:0:
468,255,316641,1,0,0:0:0:0:
468,246,316723,1,12,3:0:0:0:
468,238,316805,1,0,0:0:0:0:
467,229,316887,1,0,0:0:0:0:
466,220,316969,1,0,0:0:0:0:
465,212,317051,1,12,3:0:0:0:
463,203,317133,1,0,0:0:0:0:
461,195,317215,1,0,0:0:0:0:
458,187,317297,1,0,0:0:0:0:
455,178,317379,1,12,3:0:0:0:
451,171,317461,1,0,0:0:0:0:
447,163,317544,5,6,3:0:0:0:
443,155,317625,1,0,0:0:0:0:
438,148,317707,1,12,3:0:0:0:
433,141,317789,1,0,0:0:0:0:
427,134,317871,1,0,0:0:0:0:
421,128,317953,1,0,0:0:0:0:
415,122,318035,1,12,3:0:0:0:
409,116,318117,1,0,0:0:0:0:
402,111,318199,1,0,0:0:0:0:
395,106,318281,1,0,0:0:0:0:
387,101,318363,1,12,3:0:0:0:
380,97,318445,1,0,0:0:0:0:
372,93,318527,1,0,0:0:0:0:
364,89,318609,1,0,0:0:0:0:
356,86,318691,1,12,3:0:0:0:
348,83,318772,1,0,0:0:0:0:
339,81,318854,5,0,0:0:0:0:
331,79,318936,1,0,0:0:0:0:
322,78,319018,1,12,3:0:0:0:
314,77,319100,1,0,0:0:0:0:
305,77,319182,1,0,0:0:0:0:
296,77,319264,1,0,0:0:0:0:
287,77,319346,1,12,3:0:0:0:
279,78,319428,1,0,0:0:0:0:
270,79,319510,1,0,0:0:0:0:
262,81,319592,1,0,0:0:0:0:
253,83,319674,1,12,3:0:0:0:
245,86,319756,1,0,0:0:0:0:
237,89,319838,1,0,0:0:0:0:
229,93,319920,1,0,0:0:0:0:
221,96,320002,1,12,3:0:0:0:
214,101,320084,1,0,0:0:0:0:
206,105,320166,5,0,0:0:0:0:
199,110,320248,1,0,0:0:0:0:
192,116,320330,1,12,3:0:0:0:
186,122,320412,1,0,0:0:0:0:
180,128,320494,1,0,0:0:0:0:
174,134,320576,1,0,0:0:0:0:
168,141,320658,1,12,3:0:0:0:
163,148,320740,1,0,0:0:0:0:
158,155,320822,1,0,0:0:0:0:
154,163,320904,1,0,0:0:0:0:
150,170,320986,1,12,3:0:0:0:
146,178,321068,1,0,0:0:0:0:
143,186,321150,1,0,0:0:0:0:
142,195,321232,1,0,0:0:0:0:
141,203,321314,1,12,3:0:0:0:
142,211,321396,1,0,0:0:0:0:
141,264,321478,6,0,L|141:365,11,86.9999973449708
455,50,322462,6,0,L|455:161,1,86.9999973449708
57,334,322625,2,0,L|57:223,1,86.9999973449708
74,193,322789,5,0,0:0:0:0:
74,184,322870,1,0,0:0:0:0:
74,175,322952,1,0,0:0:0:0:
74,166,323034,1,0,0:0:0:0:
74,158,323116,1,0,0:0:0:0:
74,149,323198,1,0,0:0:0:0:
74,140,323280,1,0,0:0:0:0:
74,132,323362,1,0,0:0:0:0:
74,123,323444,1,0,0:0:0:0:
74,114,323526,1,0,0:0:0:0:
74,106,323608,1,0,0:0:0:0:
74,97,323690,1,0,0:0:0:0:
83,94,323772,1,0,0:0:0:0:
91,93,323854,1,0,0:0:0:0:
100,92,323936,1,0,0:0:0:0:
108,91,324018,1,0,0:0:0:0:
117,92,324100,5,0,0:0:0:0:
126,93,324182,1,0,0:0:0:0:
134,95,324264,1,0,0:0:0:0:
142,98,324346,1,0,0:0:0:0:
150,101,324428,1,0,0:0:0:0:
158,105,324510,1,0,0:0:0:0:
165,110,324592,1,0,0:0:0:0:
173,115,324674,1,0,0:0:0:0:
179,120,324756,1,0,0:0:0:0:
186,126,324838,1,0,0:0:0:0:
192,132,324920,1,0,0:0:0:0:
199,138,325002,1,0,0:0:0:0:
205,144,325084,1,0,0:0:0:0:
211,151,325166,1,0,0:0:0:0:
217,157,325248,1,0,0:0:0:0:
223,163,325329,1,0,0:0:0:0:
229,169,325411,5,0,0:0:0:0:
235,175,325493,1,0,0:0:0:0:
242,181,325575,1,0,0:0:0:0:
248,187,325657,1,0,0:0:0:0:
255,192,325739,1,0,0:0:0:0:
262,197,325821,1,0,0:0:0:0:
270,202,325903,1,0,0:0:0:0:
277,206,325985,1,0,0:0:0:0:
285,210,326067,1,0,0:0:0:0:
293,213,326149,1,0,0:0:0:0:
302,215,326231,1,0,0:0:0:0:
310,217,326313,1,0,0:0:0:0:
319,218,326395,1,0,0:0:0:0:
327,219,326477,1,0,0:0:0:0:
335,217,326559,1,0,0:0:0:0:
341,210,326641,1,0,0:0:0:0:
346,203,326723,5,0,0:0:0:0:
352,196,326805,1,0,0:0:0:0:
356,189,326887,1,0,0:0:0:0:
361,181,326969,1,0,0:0:0:0:
365,174,327051,1,0,0:0:0:0:
368,166,327133,1,0,0:0:0:0:
370,157,327215,1,0,0:0:0:0:
372,149,327297,1,0,0:0:0:0:
373,140,327379,1,0,0:0:0:0:
373,131,327461,1,0,0:0:0:0:
371,123,327543,1,0,0:0:0:0:
369,115,327625,1,0,0:0:0:0:
365,107,327707,1,0,0:0:0:0:
361,99,327788,1,0,0:0:0:0:
356,92,327870,1,0,0:0:0:0:
350,85,327952,1,0,0:0:0:0:
344,79,328034,5,0,0:0:0:0:
338,73,328116,1,0,0:0:0:0:
331,68,328198,1,0,0:0:0:0:
324,62,328280,1,0,0:0:0:0:
317,58,328362,1,0,0:0:0:0:
322,57,328444,1,0,0:0:0:0:
331,57,328526,1,0,0:0:0:0:
340,58,328608,1,0,0:0:0:0:
348,59,328690,1,0,0:0:0:0:
357,60,328772,1,0,0:0:0:0:
366,61,328854,1,0,0:0:0:0:
374,63,328936,1,0,0:0:0:0:
382,66,329018,1,0,0:0:0:0:
391,68,329100,1,0,0:0:0:0:
399,72,329182,1,0,0:0:0:0:
407,75,329264,1,0,0:0:0:0:
414,79,329346,5,0,0:0:0:0:
422,83,329428,1,0,0:0:0:0:
429,88,329510,1,0,0:0:0:0:
436,93,329592,1,0,0:0:0:0:
443,98,329674,1,0,0:0:0:0:
450,104,329756,1,0,0:0:0:0:
456,110,329838,1,0,0:0:0:0:
462,117,329920,1,0,0:0:0:0:
468,123,330002,1,0,0:0:0:0:
473,130,330084,1,0,0:0:0:0:
478,137,330166,1,0,0:0:0:0:
483,145,330248,1,0,0:0:0:0:
487,152,330329,1,0,0:0:0:0:
488,160,330411,1,0,0:0:0:0:
484,167,330493,1,0,0:0:0:0:
479,175,330575,1,0,0:0:0:0:
475,183,330657,5,0,0:0:0:0:
471,190,330739,1,0,0:0:0:0:
467,198,330821,1,0,0:0:0:0:
463,206,330903,1,0,0:0:0:0:
459,213,330985,1,0,0:0:0:0:
454,221,331067,1,0,0:0:0:0:
450,228,331149,1,0,0:0:0:0:
446,236,331231,1,0,0:0:0:0:
442,244,331313,1,0,0:0:0:0:
438,251,331395,1,0,0:0:0:0:
434,259,331477,1,0,0:0:0:0:
430,267,331559,1,0,0:0:0:0:
425,274,331641,1,0,0:0:0:0:
421,282,331723,1,0,0:0:0:0:
417,290,331805,1,0,0:0:0:0:
413,297,331888,1,0,0:0:0:0:
362,322,331970,6,0,L|270:320,15,86.9999973449708
101,231,333281,6,0,P|95:160|108:93,2,130.499996017456
105,102,333773,2,0,B|179:89|269:128|269:128|400:110,1,260.999992034912
360,115,334265,1,0,0:0:0:0:
360,115,334429,1,0,0:0:0:0:
270,360,334593,5,0,0:0:0:0:
110,222,334757,1,0,0:0:0:0:
279,67,334921,1,0,0:0:0:0:
343,304,335084,2,0,P|276:324|194:292,1,130.499996017456
88,217,335412,1,0,0:0:0:0:
81,178,335494,1,0,0:0:0:0:
75,139,335576,1,0,0:0:0:0:
69,100,335658,1,0,0:0:0:0:
63,61,335740,1,0,0:0:0:0:
322,311,335904,6,0,P|339:243|332:169,2,130.499996017456
113,293,336396,2,0,L|50:333,4,65.2499980087281
128,242,336806,1,0,0:0:0:0:
112,189,336888,2,0,P|106:118|119:49,1,130.499996017456
115,59,337216,5,0,0:0:0:0:
298,186,337380,2,0,P|355:195|433:180,2,130.499996017456
128,343,337789,1,0,0:0:0:0:
128,343,337871,2,0,L|45:356,4,65.2499980087281
177,332,338281,1,0,0:0:0:0:
221,322,338363,1,0,0:0:0:0:
79,168,338527,6,0,P|75:100|88:26,2,130.499996017456
22,262,339019,2,0,P|90:276|165:252,1,130.499996017456
279,147,339347,2,0,L|299:82,1,65.2499980087281
355,197,339511,2,0,L|374:277,1,65.2499980087281
414,109,339675,2,0,L|440:42,1,65.2499980087281
248,337,339839,6,0,B|165:349|165:349|95:330,2,130.499996017456
63,130,340330,2,0,B|52:228|52:228|63:275,2,130.499996017456
462,57,340822,2,0,P|401:49|327:60,1,130.499996017456
386,330,341150,5,0,0:0:0:0:
45,64,341314,1,0,0:0:0:0:
451,144,341478,1,0,0:0:0:0:
112,247,341642,2,0,L|130:382,1,130.499996017456
103,208,341888,1,0,0:0:0:0:
96,169,341970,1,0,0:0:0:0:
89,130,342052,1,0,0:0:0:0:
82,91,342134,1,0,0:0:0:0:
421,274,342298,1,0,0:0:0:0:
266,69,342462,6,0,L|249:134,15,65.2499980087281
188,113,343773,5,0,0:0:0:0:
173,121,343854,1,0,0:0:0:0:
161,131,343936,1,0,0:0:0:0:
149,142,344018,1,0,0:0:0:0:
139,155,344100,1,0,0:0:0:0:
131,170,344182,1,0,0:0:0:0:
125,185,344264,1,0,0:0:0:0:
121,201,344346,1,0,0:0:0:0:
120,217,344428,1,0,0:0:0:0:
120,233,344510,1,0,0:0:0:0:
123,249,344592,1,0,0:0:0:0:
127,265,344674,1,0,0:0:0:0:
134,280,344756,1,0,0:0:0:0:
142,294,344838,1,0,0:0:0:0:
153,306,344920,1,0,0:0:0:0:
165,317,345002,1,0,0:0:0:0:
155,352,345084,5,0,0:0:0:0:
183,337,345165,1,0,0:0:0:0:
210,322,345247,1,0,0:0:0:0:
238,307,345329,1,0,0:0:0:0:
265,292,345411,1,0,0:0:0:0:
293,277,345493,1,0,0:0:0:0:
320,262,345575,1,0,0:0:0:0:
348,247,345657,1,0,0:0:0:0:
375,232,345739,1,0,0:0:0:0:
403,217,345821,1,0,0:0:0:0:
430,202,345903,1,0,0:0:0:0:
457,187,345985,1,0,0:0:0:0:
426,186,346067,1,0,0:0:0:0:
395,186,346149,1,0,0:0:0:0:
364,186,346231,1,0,0:0:0:0:
332,186,346313,1,0,0:0:0:0:
363,160,346396,5,0,0:0:0:0:
336,143,346477,1,0,0:0:0:0:
306,133,346559,1,0,0:0:0:0:
275,131,346641,1,0,0:0:0:0:
244,135,346723,1,0,0:0:0:0:
214,143,346805,1,0,0:0:0:0:
185,156,346887,1,0,0:0:0:0:
158,171,346969,1,0,0:0:0:0:
156,188,347051,1,0,0:0:0:0:
184,202,347133,1,0,0:0:0:0:
214,206,347215,1,0,0:0:0:0:
241,190,347297,1,0,0:0:0:0:
249,161,347379,1,0,0:0:0:0:
249,130,347461,1,0,0:0:0:0:
249,99,347543,1,0,0:0:0:0:
249,67,347625,1,0,0:0:0:0:
202,33,347707,5,0,0:0:0:0:
167,28,347788,1,0,0:0:0:0:
132,28,347870,1,0,0:0:0:0:
98,33,347952,1,0,0:0:0:0:
64,42,348034,1,0,0:0:0:0:
45,55,348116,1,0,0:0:0:0:
75,72,348198,1,0,0:0:0:0:
108,84,348280,1,0,0:0:0:0:
142,90,348362,1,0,0:0:0:0:
177,89,348444,1,0,0:0:0:0:
211,83,348526,1,0,0:0:0:0:
244,71,348608,1,0,0:0:0:0:
240,89,348690,1,0,0:0:0:0:
230,122,348772,1,0,0:0:0:0:
228,157,348854,1,0,0:0:0:0:
233,191,348936,1,0,0:0:0:0:
206,236,349019,5,0,0:0:0:0:
172,230,349100,1,0,0:0:0:0:
146,207,349182,1,0,0:0:0:0:
132,175,349264,1,0,0:0:0:0:
124,141,349346,1,0,0:0:0:0:
120,107,349428,1,0,0:0:0:0:
115,84,349510,1,0,0:0:0:0:
97,114,349592,1,0,0:0:0:0:
83,146,349674,1,0,0:0:0:0:
78,180,349756,1,0,0:0:0:0:
84,214,349838,1,0,0:0:0:0:
100,245,349920,1,0,0:0:0:0:
122,271,350002,1,0,0:0:0:0:
149,293,350084,1,0,0:0:0:0:
180,309,350166,1,0,0:0:0:0:
214,314,350248,1,0,0:0:0:0:
256,309,350330,5,0,0:0:0:0:
228,288,350411,1,0,0:0:0:0:
206,261,350493,1,0,0:0:0:0:
189,231,350575,1,0,0:0:0:0:
176,198,350657,1,0,0:0:0:0:
166,165,350739,1,0,0:0:0:0:
159,131,350821,1,0,0:0:0:0:
157,105,350903,1,0,0:0:0:0:
186,124,350985,1,0,0:0:0:0:
218,138,351067,1,0,0:0:0:0:
251,147,351149,1,0,0:0:0:0:
286,151,351231,1,0,0:0:0:0:
321,150,351313,1,0,0:0:0:0:
355,147,351395,1,0,0:0:0:0:
385,141,351477,1,0,0:0:0:0:
351,137,351559,1,0,0:0:0:0:
342,94,351642,5,0,0:0:0:0:
309,81,351723,1,0,0:0:0:0:
275,78,351805,1,0,0:0:0:0:
240,83,351887,1,0,0:0:0:0:
209,97,351969,1,0,0:0:0:0:
182,119,352051,1,0,0:0:0:0:
161,147,352133,1,0,0:0:0:0:
149,179,352215,1,0,0:0:0:0:
145,214,352297,1,0,0:0:0:0:
151,248,352379,1,0,0:0:0:0:
165,280,352461,1,0,0:0:0:0:
186,307,352543,1,0,0:0:0:0:
214,327,352625,1,0,0:0:0:0:
247,340,352707,1,0,0:0:0:0:
281,344,352789,1,0,0:0:0:0:
316,338,352871,1,0,0:0:0:0:
337,309,352953,5,0,0:0:0:0:
343,274,353035,1,0,0:0:0:0:
339,240,353117,1,0,0:0:0:0:
326,207,353199,1,0,0:0:0:0:
306,179,353281,1,0,0:0:0:0:
279,158,353363,1,0,0:0:0:0:
247,144,353445,1,0,0:0:0:0:
213,138,353527,1,0,0:0:0:0:
178,142,353609,1,0,0:0:0:0:
146,154,353691,1,0,0:0:0:0:
118,175,353773,1,0,0:0:0:0:
96,202,353855,1,0,0:0:0:0:
82,233,353937,1,0,0:0:0:0:
77,268,354019,1,0,0:0:0:0:
80,302,354101,1,0,0:0:0:0:
93,335,354182,1,0,0:0:0:0:
149,350,354265,5,0,0:0:0:0:
426,228,354593,2,0,P|432:297|415:364,1,134.850004218178
86,156,355084,2,0,P|80:87|97:20,1,134.850004218178
408,67,355413,1,0,0:0:0:0:
408,67,355495,1,0,0:0:0:0:
408,67,355577,5,0,0:0:0:0:
292,362,355904,2,0,P|361:368|428:351,1,134.850004218178
220,22,356396,2,0,P|151:16|84:33,1,134.850004218178
40,240,356724,1,0,0:0:0:0:
48,236,356806,1,0,0:0:0:0:
52,232,356888,5,0,0:0:0:0:
233,63,357380,1,0,0:0:0:0:
416,332,357872,1,0,0:0:0:0:
340,208,358692,6,0,L|308:268,2,66.6999977609254
168,88,359102,1,0,0:0:0:0:
272,280,359347,1,0,0:0:0:0:
77,304,359511,6,0,B|67:229|106:131|106:131|93:64|47:137,1,269.700008436356
49,133,360003,1,0,0:0:0:0:
425,298,360167,1,0,0:0:0:0:
296,36,360331,1,0,0:0:0:0:
122,330,360495,1,0,0:0:0:0:
489,181,360659,1,0,0:0:0:0:
52,60,360822,6,0,L|196:45,1,134.850004218178
67,130,361151,1,0,0:0:0:0:
139,124,361315,1,0,0:0:0:0:
210,115,361479,1,0,0:0:0:0:
139,124,361642,1,0,0:0:0:0:
67,130,361806,1,0,0:0:0:0:
210,115,361970,1,0,0:0:0:0:
187,325,362134,5,0,0:0:0:0:
340,194,362462,1,0,0:0:0:0:
204,84,362626,1,0,0:0:0:0:
221,339,362790,1,0,0:0:0:0:
383,164,362954,1,0,0:0:0:0:
177,41,363118,5,0,0:0:0:0:
164,78,363199,1,0,0:0:0:0:
151,116,363281,1,0,0:0:0:0:
138,154,363363,1,0,0:0:0:0:
84,121,363445,6,0,P|72:194|106:262,2,134.850004218178
300,50,363855,1,0,0:0:0:0:
300,50,363937,2,0,P|378:38|445:57,2,134.850004218178
374,327,364347,1,0,0:0:0:0:
374,327,364429,2,0,L|374:182,1,134.850004218178
371,129,364675,1,0,0:0:0:0:
328,76,364757,6,0,L|254:80,1,70.3250016632653
121,351,364920,1,0,0:0:0:0:
121,351,365002,1,0,0:0:0:0:
121,351,365084,2,0,L|95:268,1,70.3250016632653
422,113,365248,2,0,L|410:195,1,70.3250016632653
217,384,365412,1,0,0:0:0:0:
217,384,365494,1,0,0:0:0:0:
217,384,365576,2,0,L|152:325,1,70.3250016632653
360,40,365740,2,0,L|390:117,1,70.3250016632653
341,337,365904,1,0,0:0:0:0:
341,337,365986,1,0,0:0:0:0:
341,337,366068,6,0,L|372:249,1,70.3250016632653
185,67,366232,1,0,0:0:0:0:
185,67,366314,1,0,0:0:0:0:
185,67,366396,2,0,L|93:85,1,70.3250016632653
248,127,366560,2,0,L|329:140,1,70.3250016632653
121,316,366724,1,0,0:0:0:0:
121,316,366806,1,0,0:0:0:0:
121,316,366888,2,0,L|203:309,1,70.3250016632653
74,253,367052,2,0,L|6:230,1,70.3250016632653
194,43,367216,1,0,0:0:0:0:
194,43,367298,1,0,0:0:0:0:
194,43,367380,6,0,P|199:86|186:124,1,70.3250016632653
129,144,367543,1,0,0:0:0:0:
106,210,367625,1,0,0:0:0:0:
126,277,367707,1,0,0:0:0:0:
179,322,367789,1,0,0:0:0:0:
245,344,367871,2,0,P|279:341|313:329,1,70.3250016632653
273,270,368035,1,0,0:0:0:0:
240,207,368117,1,0,0:0:0:0:
238,136,368199,1,0,0:0:0:0:
272,74,368281,1,0,0:0:0:0:
341,64,368363,2,0,L|384:159,1,70.3250016632653
396,194,368527,1,0,0:0:0:0:
396,194,368609,1,0,0:0:0:0:
408,273,368691,6,0,P|370:280|326:268,3,70.3250016632653
288,208,369019,2,0,P|250:200|206:213,3,70.3250016632653
191,280,369347,2,0,P|153:287|109:275,3,70.3250016632653
78,199,369675,2,0,P|40:191|-4:204,3,70.3250016632653
184,308,370002,6,0,L|258:304,1,70.3250016632653
391,33,370166,1,0,0:0:0:0:
391,33,370248,1,0,0:0:0:0:
391,33,370330,2,0,L|417:116,1,70.3250016632653
90,271,370494,2,0,L|102:189,1,70.3250016632653
295,0,370658,1,0,0:0:0:0:
295,0,370740,1,0,0:0:0:0:
295,0,370822,2,0,L|359:58,1,70.3250016632653
151,343,370986,2,0,L|121:266,1,70.3250016632653
171,47,371150,1,0,0:0:0:0:
171,47,371232,1,0,0:0:0:0:
171,47,371314,6,0,L|140:135,1,70.3250016632653
327,317,371478,1,0,0:0:0:0:
327,317,371560,1,0,0:0:0:0:
327,317,371642,2,0,L|419:299,1,70.3250016632653
264,257,371806,2,0,L|183:244,1,70.3250016632653
391,68,371970,1,0,0:0:0:0:
391,68,372052,1,0,0:0:0:0:
391,68,372134,2,0,L|309:75,1,70.3250016632653
438,131,372298,2,0,L|506:154,1,70.3250016632653
318,341,372461,1,0,0:0:0:0:
318,341,372543,1,0,0:0:0:0:
318,341,372625,6,0,P|313:298|326:260,1,70.3250016632653
383,240,372788,1,0,0:0:0:0:
406,174,372870,1,0,0:0:0:0:
386,107,372952,1,0,0:0:0:0:
333,62,373034,1,0,0:0:0:0:
267,40,373117,2,0,P|232:42|198:54,1,70.3250016632653
239,114,373281,1,0,0:0:0:0:
272,177,373363,1,0,0:0:0:0:
274,248,373445,1,0,0:0:0:0:
240,310,373527,1,0,0:0:0:0:
171,320,373609,2,0,L|128:225,1,70.3250016632653
116,190,373772,1,0,0:0:0:0:
116,190,373854,1,0,0:0:0:0:
104,111,373937,6,0,P|141:103|186:116,2,70.3250016632653
325,303,374183,1,0,0:0:0:0:
325,303,374265,1,0,0:0:0:0:
325,303,374347,1,0,0:0:0:0:
325,303,374429,2,0,P|332:265|320:221,2,70.3250016632653
461,110,374675,1,0,0:0:0:0:
461,110,374757,1,0,0:0:0:0:
461,110,374839,1,0,0:0:0:0:
461,110,374920,2,0,P|423:102|379:115,2,70.3250016632653
255,336,375248,5,0,0:0:0:0:
256,192,375330,12,0,376478,0:0:0:0:
117,295,376560,6,0,P|179:312|270:285,1,145
390,348,377333,2,0,P|403:274|388:189,1,145
292,162,377913,6,0,B|259:144|170:164|170:164|111:226|28:188|25:113|62:61|128:37|155:89|155:89|226:91|306:31|306:31|410:56|395:255|312:318|312:318|292:257|224:242|224:242|181:298|218:363,1,1174.49996415711
214,356,380041,6,0,P|129:364|54:328,1,145
142,240,380814,2,0,L|138:164,1,72.5
55,52,381588,2,0,P|125:36|195:51,2,145
81,180,382555,6,0,B|188:157|188:157|317:186,1,217.5
422,121,383522,2,0,B|439:191|439:191|418:262,1,145
198,337,384102,6,0,B|280:364|368:327|368:327|356:312|327:321,1,217.5
228,235,385069,2,0,L|223:80,1,145
87,238,385650,6,0,B|46:287|46:287|80:364|184:352,1,217.5
256,192,386617,1,0,0:0:0:0:
256,192,387003,1,0,0:0:0:0:
252,188,387197,6,0,B|196:208|196:128|196:128|132:148|100:116|100:116|64:172|124:276|220:276|220:276|256:344|256:344|292:276|292:276|388:276|448:172|412:116|412:116|380:148|316:128|316:128|316:208|252:188,1,1044
60,312,389324,6,0,B|116:328|116:328|212:308,2,145
256,192,390291,6,0,B|240:240|256:340|256:340|272:240|256:192|256:192|304:208|400:192|400:192|304:176|256:192|256:192|272:144|256:44|256:44|240:144|256:192|256:192|208:176|112:192|112:192|208:208|256:192|256:192,1,1174.49996415711
298,28,392419,6,0,P|383:20|458:56,1,145
370,144,393192,2,0,L|374:220,1,72.5
457,332,393966,2,0,P|386:347|316:332,2,145
431,204,394933,6,0,B|324:227|324:227|195:198,1,217.5
90,263,395900,2,0,B|73:193|73:193|94:122,1,145
314,47,396480,6,0,B|232:20|144:57|144:57|156:72|185:63,1,217.5
284,149,397447,2,0,L|289:304,1,145
43,107,398027,6,0,B|202:65|316:161|279:182|279:182|146:256|32:376|39:182|39:182|32:376|36:363|36:363|161:230|343:369|343:369|486:184|381:23|381:23|254:151|405:373|405:373|454:377|474:334,1,2000.99993893433
471,289,402556,1,0,0:0:0:0:
473,241,402638,1,0,0:0:0:0:
473,193,402720,1,0,0:0:0:0:
432,145,402802,6,0,P|376:131|324:144,3,108.750004148483
241,245,403130,6,0,P|296:258|370:235,3,123.250002350807
197,141,403458,6,0,P|136:126|63:150,3,137.749996321678
135,41,403786,5,0,0:0:0:0:
134,50,403867,1,0,0:0:0:0:
134,59,403949,1,0,0:0:0:0:
134,69,404031,1,0,0:0:0:0:
134,78,404113,1,0,0:0:0:0:
134,88,404195,1,0,0:0:0:0:
134,97,404277,1,0,0:0:0:0:
134,106,404359,1,0,0:0:0:0:
134,116,404441,1,0,0:0:0:0:
134,125,404523,1,0,0:0:0:0:
134,135,404605,1,0,0:0:0:0:
134,144,404687,1,0,0:0:0:0:
134,154,404769,1,0,0:0:0:0:
134,163,404851,1,0,0:0:0:0:
134,172,404933,1,0,0:0:0:0:
134,182,405015,1,0,0:0:0:0:
134,191,405097,5,0,0:0:0:0:
134,201,405179,1,0,0:0:0:0:
134,210,405261,1,0,0:0:0:0:
134,220,405343,1,0,0:0:0:0:
134,229,405425,1,0,0:0:0:0:
134,238,405507,1,0,0:0:0:0:
134,248,405589,1,0,0:0:0:0:
134,257,405671,1,0,0:0:0:0:
134,267,405753,1,0,0:0:0:0:
134,276,405835,1,0,0:0:0:0:
134,286,405917,1,0,0:0:0:0:
134,295,405999,1,0,0:0:0:0:
134,304,406081,1,0,0:0:0:0:
134,314,406163,1,0,0:0:0:0:
141,318,406245,1,0,0:0:0:0:
150,321,406326,1,0,0:0:0:0:
159,323,406408,5,0,0:0:0:0:
168,324,406490,1,0,0:0:0:0:
178,324,406572,1,0,0:0:0:0:
187,322,406654,1,0,0:0:0:0:
196,320,406736,1,0,0:0:0:0:
205,317,406818,1,0,0:0:0:0:
214,313,406900,1,0,0:0:0:0:
221,307,406982,1,0,0:0:0:0:
228,301,407064,1,0,0:0:0:0:
234,293,407146,1,0,0:0:0:0:
239,285,407228,1,0,0:0:0:0:
242,277,407310,1,0,0:0:0:0:
244,267,407392,1,0,0:0:0:0:
245,258,407474,1,0,0:0:0:0:
245,249,407556,1,0,0:0:0:0:
244,239,407638,1,0,0:0:0:0:
241,230,407720,5,0,0:0:0:0:
238,221,407802,1,0,0:0:0:0:
234,213,407884,1,0,0:0:0:0:
229,205,407966,1,0,0:0:0:0:
224,197,408048,1,0,0:0:0:0:
218,190,408130,1,0,0:0:0:0:
218,183,408212,1,0,0:0:0:0:
225,177,408294,1,0,0:0:0:0:
232,171,408376,1,0,0:0:0:0:
240,166,408458,1,0,0:0:0:0:
248,161,408540,1,0,0:0:0:0:
256,156,408622,1,0,0:0:0:0:
264,152,408704,1,0,0:0:0:0:
273,148,408786,1,0,0:0:0:0:
282,145,408867,1,0,0:0:0:0:
291,142,408949,1,0,0:0:0:0:
300,140,409031,5,0,0:0:0:0:
310,139,409113,1,0,0:0:0:0:
319,139,409195,1,0,0:0:0:0:
329,139,409277,1,0,0:0:0:0:
338,140,409359,1,0,0:0:0:0:
347,142,409441,1,0,0:0:0:0:
356,144,409523,1,0,0:0:0:0:
365,148,409605,1,0,0:0:0:0:
374,151,409687,1,0,0:0:0:0:
382,155,409769,1,0,0:0:0:0:
390,160,409851,1,0,0:0:0:0:
398,165,409933,1,0,0:0:0:0:
406,170,410015,1,0,0:0:0:0:
414,176,410097,1,0,0:0:0:0:
421,182,410179,1,0,0:0:0:0:
428,188,410261,1,0,0:0:0:0:
440,213,410343,5,0,0:0:0:0:
442,231,410424,1,0,0:0:0:0:
439,250,410506,1,0,0:0:0:0:
430,266,410588,1,0,0:0:0:0:
417,279,410670,1,0,0:0:0:0:
400,288,410752,1,0,0:0:0:0:
381,290,410834,1,0,0:0:0:0:
363,287,410916,1,0,0:0:0:0:
346,279,410998,1,0,0:0:0:0:
333,266,411080,1,0,0:0:0:0:
324,249,411162,1,0,0:0:0:0:
321,230,411244,1,0,0:0:0:0:
324,212,411326,1,0,0:0:0:0:
333,195,411408,1,0,0:0:0:0:
346,182,411490,1,0,0:0:0:0:
362,173,411572,1,0,0:0:0:0:
384,166,411655,5,0,0:0:0:0:
402,164,411736,1,0,0:0:0:0:
421,167,411818,1,0,0:0:0:0:
437,176,411900,1,0,0:0:0:0:
450,189,411982,1,0,0:0:0:0:
459,206,412064,1,0,0:0:0:0:
461,225,412146,1,0,0:0:0:0:
458,243,412228,1,0,0:0:0:0:
450,260,412310,1,0,0:0:0:0:
437,273,412392,1,0,0:0:0:0:
420,282,412474,1,0,0:0:0:0:
401,285,412556,1,0,0:0:0:0:
383,282,412638,1,0,0:0:0:0:
366,273,412720,1,0,0:0:0:0:
353,260,412802,1,0,0:0:0:0:
344,244,412884,1,0,0:0:0:0:
301,220,412966,5,0,0:0:0:0:
324,189,413048,1,0,0:0:0:0:
301,220,413130,1,0,0:0:0:0:
324,189,413212,1,0,0:0:0:0:
301,220,413294,1,0,0:0:0:0:
324,189,413376,1,0,0:0:0:0:
301,220,413458,1,0,0:0:0:0:
324,189,413540,1,0,0:0:0:0:
301,220,413622,1,0,0:0:0:0:
324,189,413704,1,0,0:0:0:0:
301,220,413786,1,0,0:0:0:0:
324,189,413868,1,0,0:0:0:0:
301,220,413950,1,0,0:0:0:0:
324,189,414032,1,0,0:0:0:0:
301,220,414114,1,0,0:0:0:0:
324,189,414196,1,0,0:0:0:0:
265,177,414278,5,0,0:0:0:0:
249,166,414360,1,0,0:0:0:0:
230,162,414442,1,0,0:0:0:0:
211,163,414524,1,0,0:0:0:0:
193,168,414606,1,0,0:0:0:0:
176,177,414688,1,0,0:0:0:0:
162,190,414770,1,0,0:0:0:0:
154,207,414852,1,0,0:0:0:0:
151,225,414934,1,0,0:0:0:0:
152,206,415015,1,0,0:0:0:0:
152,187,415097,1,0,0:0:0:0:
152,168,415179,1,0,0:0:0:0:
152,149,415261,1,0,0:0:0:0:
153,130,415343,1,0,0:0:0:0:
154,111,415425,1,0,0:0:0:0:
155,92,415507,1,0,0:0:0:0:
127,46,415589,5,0,0:0:0:0:
179,47,415671,1,0,0:0:0:0:
127,46,415753,1,0,0:0:0:0:
179,47,415835,1,0,0:0:0:0:
127,46,415917,1,0,0:0:0:0:
179,47,415999,1,0,0:0:0:0:
127,46,416081,1,0,0:0:0:0:
179,47,416163,1,0,0:0:0:0:
127,46,416245,1,0,0:0:0:0:
179,47,416327,1,0,0:0:0:0:
127,46,416409,1,0,0:0:0:0:
179,47,416491,1,0,0:0:0:0:
127,46,416573,1,0,0:0:0:0:
179,47,416655,1,0,0:0:0:0:
127,46,416737,1,0,0:0:0:0:
179,47,416819,1,0,0:0:0:0:
145,95,416901,5,0,0:0:0:0:
127,128,416983,1,0,0:0:0:0:
116,164,417065,1,0,0:0:0:0:
118,201,417147,1,0,0:0:0:0:
132,235,417229,1,0,0:0:0:0:
158,261,417311,1,0,0:0:0:0:
192,277,417393,1,0,0:0:0:0:
229,282,417475,1,0,0:0:0:0:
264,270,417556,1,0,0:0:0:0:
290,243,417638,1,0,0:0:0:0:
305,208,417720,1,0,0:0:0:0:
318,172,417802,1,0,0:0:0:0:
337,139,417884,1,0,0:0:0:0:
371,122,417966,1,0,0:0:0:0:
408,118,418048,1,0,0:0:0:0:
444,125,418130,1,0,0:0:0:0:
423,117,418212,5,0,0:0:0:0:
413,117,418294,1,0,0:0:0:0:
403,117,418376,1,0,0:0:0:0:
393,117,418458,1,0,0:0:0:0:
383,117,418540,1,0,0:0:0:0:
373,117,418622,1,0,0:0:0:0:
363,117,418704,1,0,0:0:0:0:
353,117,418786,1,0,0:0:0:0:
343,117,418868,1,0,0:0:0:0:
333,117,418950,1,0,0:0:0:0:
323,117,419032,1,0,0:0:0:0:
313,117,419114,1,0,0:0:0:0:
303,117,419196,1,0,0:0:0:0:
293,117,419278,1,0,0:0:0:0:
283,117,419360,1,0,0:0:0:0:
273,117,419442,1,0,0:0:0:0:
290,148,419524,5,0,0:0:0:0:
317,109,419606,1,0,0:0:0:0:
360,91,419688,1,0,0:0:0:0:
407,93,419770,1,0,0:0:0:0:
448,115,419852,1,0,0:0:0:0:
481,147,419934,1,0,0:0:0:0:
448,115,420015,1,0,0:0:0:0:
407,93,420097,1,0,0:0:0:0:
360,91,420179,1,0,0:0:0:0:
317,109,420261,1,0,0:0:0:0:
290,148,420343,1,0,0:0:0:0:
284,194,420425,1,0,0:0:0:0:
303,236,420507,1,0,0:0:0:0:
336,269,420589,1,0,0:0:0:0:
381,281,420671,1,0,0:0:0:0:
424,263,420753,1,0,0:0:0:0:
402,263,420835,5,0,0:0:0:0:
393,259,420917,1,0,0:0:0:0:
383,258,420999,1,0,0:0:0:0:
375,263,421081,1,0,0:0:0:0:
369,270,421163,1,0,0:0:0:0:
362,276,421245,1,0,0:0:0:0:
355,282,421327,1,0,0:0:0:0:
348,289,421409,1,0,0:0:0:0:
340,294,421491,1,0,0:0:0:0:
331,297,421573,1,0,0:0:0:0:
321,297,421655,1,0,0:0:0:0:
311,294,421737,1,0,0:0:0:0:
302,289,421819,1,0,0:0:0:0:
293,284,421901,1,0,0:0:0:0:
284,279,421983,1,0,0:0:0:0:
275,274,422065,1,0,0:0:0:0:
218,247,422147,6,0,L|147:333,1,94.2499956855776
243,219,422311,2,0,L|314:133,1,94.2499956855776
218,247,422475,2,0,L|147:333,1,94.2499956855776
243,219,422639,2,0,L|314:133,1,94.2499956855776
218,247,422802,2,0,L|147:333,1,94.2499956855776
243,219,422966,2,0,L|314:133,1,94.2499956855776
218,247,423130,2,0,L|147:333,1,94.2499956855776
243,219,423294,2,0,L|314:133,1,94.2499956855776
178,194,423458,5,0,0:0:0:0:
123,156,423540,1,0,0:0:0:0:
178,194,423622,1,0,0:0:0:0:
123,156,423704,1,0,0:0:0:0:
178,194,423786,1,0,0:0:0:0:
123,156,423868,1,0,0:0:0:0:
178,194,423950,1,0,0:0:0:0:
123,156,424032,1,0,0:0:0:0:
178,194,424114,1,0,0:0:0:0:
123,156,424196,1,0,0:0:0:0:
178,194,424278,1,0,0:0:0:0:
123,156,424360,1,0,0:0:0:0:
135,218,424442,6,0,L|147:257,1,39.8750012168885
376,165,424606,2,0,L|365:127,1,39.8750012168885
92,293,424770,6,0,P|70:249|74:188,3,94.2499956855776
454,334,425097,2,0,P|410:351|346:346,3,94.2499956855776
126,58,425425,2,0,P|172:40|226:50,3,94.2499956855776
462,282,425753,6,0,P|460:231|443:177,1,94.2499956855776
34,333,425917,6,0,P|73:364|145:361,13,94.2499956855776
370,42,427065,6,0,P|361:90|373:144,3,94.2499956855776
55,308,427393,2,0,P|56:257|28:205,3,94.2499956855776
480,330,427720,6,0,B|435:340|435:340|384:336,3,94.2499956855776
28,44,428048,2,0,B|58:31|58:31|125:37,3,94.2499956855776
443,293,428376,6,0,P|474:249|483:175,1,94.2499956855776
268,333,428540,2,0,P|317:350|371:342,5,94.2499956855776
65,99,429032,6,0,B|41:137|41:137|36:207,3,94.2499956855776
476,48,429360,2,0,B|426:45|426:45|354:69,3,94.2499956855776
176,357,429688,6,0,P|175:310|162:258,1,94.2499956855776
66,116,429852,2,0,P|70:169|97:218,5,94.2499956855776
477,72,430343,6,0,P|428:65|374:79,3,94.2499956855776
242,169,430671,2,0,P|293:174|357:153,3,94.2499956855776
439,330,430999,6,0,B|394:346|394:346|339:331,1,94.2499956855776
197,258,431163,2,0,B|247:253|247:253|297:273,5,94.2499956855776
78,93,431655,6,0,B|81:128|67:151|67:151|71:198,3,94.2499956855776
189,347,431983,2,0,B|177:316|188:277|188:277|172:242,3,94.2499956855776
342,54,432311,6,0,B|323:77|326:97|326:97|306:106|297:142,1,94.2499956855776
457,268,432474,2,0,B|428:249|426:224|426:224|401:224|384:194,5,94.2499956855776
34,345,432966,6,0,B|68:346|68:346|83:330|107:342|107:342|135:335,3,94.2499956855776
452,55,433294,2,0,B|425:55|425:55|403:37|386:50|386:50|354:47,3,94.2499956855776
145,133,433622,6,0,P|137:183|149:238,1,94.2499956855776
214,353,433786,2,0,P|238:313|237:257,17,94.2499956855776
420,91,435261,6,0,P|442:135|438:196,3,94.2499956855776
58,50,435589,2,0,P|101:32|166:38,3,94.2499956855776
386,326,435917,2,0,P|339:343|286:334,3,94.2499956855776
50,102,436245,6,0,P|51:152|69:207,1,94.2499956855776
478,51,436409,6,0,P|438:19|367:23,13,94.2499956855776
142,342,437556,6,0,P|150:293|139:240,3,94.2499956855776
457,76,437884,2,0,P|456:127|484:179,3,94.2499956855776
32,54,438212,6,0,B|76:43|76:43|128:48,3,94.2499956855776
484,340,438540,2,0,B|453:352|453:352|387:347,3,94.2499956855776
69,91,438868,6,0,P|37:134|29:209,1,94.2499956855776
244,51,439032,2,0,P|195:34|141:42,5,94.2499956855776
447,285,439524,6,0,B|470:246|470:246|476:177,3,94.2499956855776
36,336,439852,2,0,B|85:338|85:338|158:315,3,94.2499956855776
336,27,440179,6,0,P|336:73|350:126,1,94.2499956855776
446,268,440343,2,0,P|441:214|415:166,5,94.2499956855776
35,312,440835,6,0,P|84:319|138:305,3,94.2499956855776
270,215,441163,2,0,P|218:209|155:231,3,94.2499956855776
73,54,441491,6,0,B|118:38|118:38|173:53,1,94.2499956855776
315,126,441655,2,0,B|265:131|265:131|215:111,5,94.2499956855776
434,291,442147,6,0,B|430:256|444:232|444:232|441:186,3,94.2499956855776
323,37,442474,2,0,B|334:67|323:106|323:106|340:142,3,94.2499956855776
170,330,442802,6,0,B|188:306|186:287|186:287|206:278|215:242,1,94.2499956855776
55,116,442966,2,0,B|84:135|86:160|86:160|111:160|128:190,29,94.2499956855776
131,224,445425,6,0,L|130:276,3,39.8750012168885
83,313,445753,5,0,0:0:0:0:
90,313,445834,1,0,0:0:0:0:
97,313,445916,1,0,0:0:0:0:
104,313,445998,1,0,0:0:0:0:
112,313,446080,1,0,0:0:0:0:
119,313,446162,1,0,0:0:0:0:
126,313,446244,1,0,0:0:0:0:
133,313,446326,1,0,0:0:0:0:
141,313,446408,1,0,0:0:0:0:
148,313,446490,1,0,0:0:0:0:
155,313,446572,1,0,0:0:0:0:
162,313,446654,1,0,0:0:0:0:
170,313,446736,1,0,0:0:0:0:
177,313,446818,1,0,0:0:0:0:
184,313,446900,5,0,0:0:0:0:
191,313,446982,1,0,0:0:0:0:
199,313,447064,1,0,0:0:0:0:
206,313,447146,1,0,0:0:0:0:
213,313,447228,1,0,0:0:0:0:
220,313,447310,1,0,0:0:0:0:
223,306,447392,5,0,0:0:0:0:
226,299,447474,1,0,0:0:0:0:
228,292,447556,1,0,0:0:0:0:
229,285,447638,1,0,0:0:0:0:
231,278,447720,5,0,0:0:0:0:
232,271,447802,1,0,0:0:0:0:
234,264,447884,1,0,0:0:0:0:
235,257,447966,1,0,0:0:0:0:
236,250,448048,5,0,0:0:0:0:
236,242,448130,1,0,0:0:0:0:
237,235,448212,5,0,0:0:0:0:
238,228,448293,1,0,0:0:0:0:
238,221,448375,1,0,0:0:0:0:
239,213,448457,1,0,0:0:0:0:
240,206,448539,1,0,0:0:0:0:
240,199,448621,1,0,0:0:0:0:
240,192,448703,1,0,0:0:0:0:
241,184,448785,1,0,0:0:0:0:
241,177,448867,1,0,0:0:0:0:
241,170,448949,1,0,0:0:0:0:
242,163,449031,1,0,0:0:0:0:
242,156,449113,1,0,0:0:0:0:
242,148,449195,1,0,0:0:0:0:
242,141,449277,1,0,0:0:0:0:
242,134,449359,1,0,0:0:0:0:
242,127,449441,1,0,0:0:0:0:
242,119,449523,5,0,0:0:0:0:
243,112,449605,1,0,0:0:0:0:
243,105,449687,1,0,0:0:0:0:
243,98,449769,1,0,0:0:0:0:
243,90,449851,1,0,0:0:0:0:
243,88,449933,1,0,0:0:0:0:
243,95,450015,5,0,0:0:0:0:
243,102,450097,1,0,0:0:0:0:
243,110,450179,1,0,0:0:0:0:
243,117,450261,1,0,0:0:0:0:
243,124,450343,5,0,0:0:0:0:
243,131,450425,1,0,0:0:0:0:
243,139,450507,1,0,0:0:0:0:
243,146,450589,1,0,0:0:0:0:
243,153,450671,5,0,0:0:0:0:
243,160,450753,1,0,0:0:0:0:
243,168,450834,5,0,0:0:0:0:
243,175,450916,1,0,0:0:0:0:
243,182,450998,1,0,0:0:0:0:
243,189,451080,1,0,0:0:0:0:
243,197,451162,1,0,0:0:0:0:
243,204,451244,1,0,0:0:0:0:
243,211,451327,5,0,0:0:0:0:
244,218,451408,1,0,0:0:0:0:
244,226,451490,1,0,0:0:0:0:
244,233,451572,1,0,0:0:0:0:
244,240,451654,5,0,0:0:0:0:
244,247,451736,1,0,0:0:0:0:
244,255,451818,1,0,0:0:0:0:
244,262,451900,1,0,0:0:0:0:
244,269,451982,5,0,0:0:0:0:
244,276,452064,1,0,0:0:0:0:
244,284,452146,5,0,0:0:0:0:
244,291,452228,1,0,0:0:0:0:
244,298,452310,1,0,0:0:0:0:
244,305,452392,1,0,0:0:0:0:
244,313,452474,1,0,0:0:0:0:
244,320,452556,1,0,0:0:0:0:
244,327,452638,5,0,0:0:0:0:
244,334,452720,1,0,0:0:0:0:
244,342,452802,1,0,0:0:0:0:
247,347,452884,1,0,0:0:0:0:
254,349,452966,5,0,0:0:0:0:
261,350,453048,1,0,0:0:0:0:
268,351,453130,1,0,0:0:0:0:
275,352,453212,1,0,0:0:0:0:
283,353,453293,5,0,0:0:0:0:
290,353,453375,1,0,0:0:0:0:
297,353,453458,5,0,0:0:0:0:
304,353,453539,1,0,0:0:0:0:
312,353,453621,1,0,0:0:0:0:
319,353,453703,1,0,0:0:0:0:
326,352,453785,1,0,0:0:0:0:
333,351,453867,1,0,0:0:0:0:
341,350,453949,5,0,0:0:0:0:
348,349,454031,1,0,0:0:0:0:
355,348,454113,1,0,0:0:0:0:
362,347,454195,1,0,0:0:0:0:
369,345,454277,5,0,0:0:0:0:
376,343,454360,1,0,0:0:0:0:
383,342,454441,1,0,0:0:0:0:
386,338,454523,1,0,0:0:0:0:
383,332,454605,5,0,0:0:0:0:
380,325,454687,1,0,0:0:0:0:
376,319,454769,5,0,0:0:0:0:
374,312,454851,1,0,0:0:0:0:
371,305,454933,1,0,0:0:0:0:
369,298,455015,1,0,0:0:0:0:
366,291,455097,1,0,0:0:0:0:
364,285,455179,1,0,0:0:0:0:
363,277,455261,1,0,0:0:0:0:
361,270,455343,1,0,0:0:0:0:
359,263,455425,1,0,0:0:0:0:
358,256,455507,1,0,0:0:0:0:
357,249,455589,1,0,0:0:0:0:
356,242,455671,1,0,0:0:0:0:
356,235,455753,1,0,0:0:0:0:
355,227,455834,1,0,0:0:0:0:
355,220,455916,1,0,0:0:0:0:
355,213,455998,1,0,0:0:0:0:
355,206,456080,1,0,0:0:0:0:
355,198,456162,1,0,0:0:0:0:
356,191,456244,5,0,0:0:0:0:
356,184,456326,1,0,0:0:0:0:
357,177,456408,1,0,0:0:0:0:
358,169,456490,1,0,0:0:0:0:
359,162,456572,1,0,0:0:0:0:
360,155,456654,1,0,0:0:0:0:
361,148,456736,1,0,0:0:0:0:
363,141,456818,1,0,0:0:0:0:
364,134,456900,1,0,0:0:0:0:
366,127,456982,1,0,0:0:0:0:
368,120,457064,1,0,0:0:0:0:
370,113,457146,1,0,0:0:0:0:
372,106,457228,1,0,0:0:0:0:
374,99,457310,1,0,0:0:0:0:
376,92,457392,1,0,0:0:0:0:
378,85,457474,1,0,0:0:0:0:
381,78,457556,5,0,0:0:0:0:
383,71,457638,1,0,0:0:0:0:
386,66,457720,1,0,0:0:0:0:
391,71,457802,1,0,0:0:0:0:
396,77,457884,5,0,0:0:0:0:
401,82,457966,1,0,0:0:0:0:
405,88,458048,1,0,0:0:0:0:
409,94,458130,1,0,0:0:0:0:
414,100,458212,5,0,0:0:0:0:
417,106,458293,1,0,0:0:0:0:
421,112,458375,1,0,0:0:0:0:
424,119,458457,1,0,0:0:0:0:
427,125,458539,5,0,0:0:0:0:
430,132,458621,1,0,0:0:0:0:
433,139,458703,5,0,0:0:0:0:
435,146,458785,1,0,0:0:0:0:
436,153,458867,1,0,0:0:0:0:
437,160,458949,1,0,0:0:0:0:
438,167,459031,1,0,0:0:0:0:
439,175,459113,1,0,0:0:0:0:
439,182,459195,5,0,0:0:0:0:
438,189,459277,1,0,0:0:0:0:
437,196,459359,1,0,0:0:0:0:
436,203,459441,1,0,0:0:0:0:
435,210,459523,5,0,0:0:0:0:
433,217,459605,1,0,0:0:0:0:
431,224,459687,1,0,0:0:0:0:
428,231,459769,1,0,0:0:0:0:
425,238,459851,5,0,0:0:0:0:
422,244,459933,1,0,0:0:0:0:
419,251,460015,5,0,0:0:0:0:
412,252,460097,1,0,0:0:0:0:
405,252,460179,1,0,0:0:0:0:
398,252,460261,1,0,0:0:0:0:
390,252,460343,1,0,0:0:0:0:
383,252,460425,1,0,0:0:0:0:
376,252,460507,1,0,0:0:0:0:
369,252,460589,1,0,0:0:0:0:
361,252,460671,1,0,0:0:0:0:
354,252,460753,1,0,0:0:0:0:
347,252,460834,1,0,0:0:0:0:
340,252,460916,1,0,0:0:0:0:
332,252,460998,1,0,0:0:0:0:
325,252,461080,1,0,0:0:0:0:
318,252,461162,1,0,0:0:0:0:
311,252,461244,1,0,0:0:0:0:
303,252,461326,5,0,0:0:0:0:
296,252,461408,1,0,0:0:0:0:
289,252,461490,1,0,0:0:0:0:
282,252,461572,1,0,0:0:0:0:
274,252,461654,1,0,0:0:0:0:
267,252,461736,1,0,0:0:0:0:
260,252,461818,5,0,0:0:0:0:
253,252,461900,1,0,0:0:0:0:
245,252,461982,1,0,0:0:0:0:
238,252,462064,1,0,0:0:0:0:
231,252,462146,5,0,0:0:0:0:
224,252,462228,1,0,0:0:0:0:
216,252,462310,1,0,0:0:0:0:
209,252,462392,1,0,0:0:0:0:
202,252,462474,5,0,0:0:0:0:
195,252,462556,1,0,0:0:0:0:
187,252,462638,5,0,0:0:0:0:
180,252,462720,1,0,0:0:0:0:
173,252,462802,1,0,0:0:0:0:
166,252,462884,1,0,0:0:0:0:
158,252,462966,1,0,0:0:0:0:
151,252,463048,1,0,0:0:0:0:
144,252,463130,5,0,0:0:0:0:
137,252,463212,1,0,0:0:0:0:
129,252,463293,1,0,0:0:0:0:
122,252,463375,1,0,0:0:0:0:
115,252,463457,5,0,0:0:0:0:
108,252,463539,1,0,0:0:0:0:
100,252,463621,1,0,0:0:0:0:
93,252,463703,1,0,0:0:0:0:
86,252,463785,5,0,0:0:0:0:
79,252,463867,1,0,0:0:0:0:
71,252,463949,5,0,0:0:0:0:
64,252,464031,1,0,0:0:0:0:
57,252,464113,1,0,0:0:0:0:
52,248,464195,1,0,0:0:0:0:
49,241,464277,1,0,0:0:0:0:
46,235,464359,1,0,0:0:0:0:
43,228,464441,1,0,0:0:0:0:
40,221,464523,1,0,0:0:0:0:
38,215,464605,1,0,0:0:0:0:
35,208,464687,1,0,0:0:0:0:
33,201,464769,1,0,0:0:0:0:
31,194,464851,1,0,0:0:0:0:
30,187,464933,1,0,0:0:0:0:
29,180,465015,1,0,0:0:0:0:
28,172,465097,1,0,0:0:0:0:
27,165,465179,1,0,0:0:0:0:
26,158,465261,1,0,0:0:0:0:
26,151,465343,1,0,0:0:0:0:
26,143,465425,1,0,0:0:0:0:
27,136,465507,1,0,0:0:0:0:
27,129,465589,1,0,0:0:0:0:
28,122,465671,1,0,0:0:0:0:
29,115,465753,1,0,0:0:0:0:
31,108,465834,1,0,0:0:0:0:
33,100,465916,1,0,0:0:0:0:
35,94,465998,1,0,0:0:0:0:
37,87,466080,1,0,0:0:0:0:
39,80,466162,1,0,0:0:0:0:
42,73,466244,1,0,0:0:0:0:
44,66,466326,1,0,0:0:0:0:
81,45,466409,6,0,P|102:39|124:45,3,39.8750012168885
131,81,466737,5,0,0:0:0:0:
138,81,466818,1,0,0:0:0:0:
145,81,466900,1,0,0:0:0:0:
152,81,466982,1,0,0:0:0:0:
160,81,467064,1,0,0:0:0:0:
167,81,467146,1,0,0:0:0:0:
174,81,467228,1,0,0:0:0:0:
181,81,467310,1,0,0:0:0:0:
189,81,467392,1,0,0:0:0:0:
196,81,467474,1,0,0:0:0:0:
203,81,467556,1,0,0:0:0:0:
210,81,467638,1,0,0:0:0:0:
218,81,467720,1,0,0:0:0:0:
225,81,467802,1,0,0:0:0:0:
232,81,467884,5,0,0:0:0:0:
239,81,467966,1,0,0:0:0:0:
247,81,468048,1,0,0:0:0:0:
254,81,468130,1,0,0:0:0:0:
261,81,468212,1,0,0:0:0:0:
268,81,468294,1,0,0:0:0:0:
271,88,468376,5,0,0:0:0:0:
274,95,468458,1,0,0:0:0:0:
276,102,468540,1,0,0:0:0:0:
277,109,468622,1,0,0:0:0:0:
279,116,468704,5,0,0:0:0:0:
280,123,468786,1,0,0:0:0:0:
282,130,468868,1,0,0:0:0:0:
283,137,468950,1,0,0:0:0:0:
284,144,469032,5,0,0:0:0:0:
284,152,469114,1,0,0:0:0:0:
285,159,469196,5,0,0:0:0:0:
286,166,469277,1,0,0:0:0:0:
286,173,469359,1,0,0:0:0:0:
287,181,469441,1,0,0:0:0:0:
288,188,469523,1,0,0:0:0:0:
288,195,469605,1,0,0:0:0:0:
288,202,469687,1,0,0:0:0:0:
289,210,469769,1,0,0:0:0:0:
289,217,469851,1,0,0:0:0:0:
289,224,469933,1,0,0:0:0:0:
290,231,470015,1,0,0:0:0:0:
290,238,470097,1,0,0:0:0:0:
290,246,470179,1,0,0:0:0:0:
290,253,470261,1,0,0:0:0:0:
290,260,470343,1,0,0:0:0:0:
290,267,470425,1,0,0:0:0:0:
290,275,470507,5,0,0:0:0:0:
291,282,470589,1,0,0:0:0:0:
291,289,470671,1,0,0:0:0:0:
291,296,470753,1,0,0:0:0:0:
291,304,470835,1,0,0:0:0:0:
291,306,470917,1,0,0:0:0:0:
291,299,470999,5,0,0:0:0:0:
291,292,471081,1,0,0:0:0:0:
291,284,471163,1,0,0:0:0:0:
291,277,471245,1,0,0:0:0:0:
291,270,471327,5,0,0:0:0:0:
291,263,471409,1,0,0:0:0:0:
291,255,471491,1,0,0:0:0:0:
291,248,471573,1,0,0:0:0:0:
291,241,471655,5,0,0:0:0:0:
291,234,471737,1,0,0:0:0:0:
291,226,471818,5,0,0:0:0:0:
291,219,471900,1,0,0:0:0:0:
291,212,471982,1,0,0:0:0:0:
291,205,472064,1,0,0:0:0:0:
291,197,472146,1,0,0:0:0:0:
291,190,472228,1,0,0:0:0:0:
291,183,472311,5,0,0:0:0:0:
292,176,472392,1,0,0:0:0:0:
292,168,472474,1,0,0:0:0:0:
292,161,472556,1,0,0:0:0:0:
292,154,472638,5,0,0:0:0:0:
292,147,472720,1,0,0:0:0:0:
292,139,472802,1,0,0:0:0:0:
292,132,472884,1,0,0:0:0:0:
292,125,472966,5,0,0:0:0:0:
292,118,473048,1,0,0:0:0:0:
292,110,473130,5,0,0:0:0:0:
292,103,473212,1,0,0:0:0:0:
292,96,473294,1,0,0:0:0:0:
292,89,473376,1,0,0:0:0:0:
292,81,473458,1,0,0:0:0:0:
292,74,473540,1,0,0:0:0:0:
292,67,473622,5,0,0:0:0:0:
292,60,473704,1,0,0:0:0:0:
292,52,473786,1,0,0:0:0:0:
295,47,473868,1,0,0:0:0:0:
302,45,473950,5,0,0:0:0:0:
309,44,474032,1,0,0:0:0:0:
316,43,474114,1,0,0:0:0:0:
323,42,474196,1,0,0:0:0:0:
331,41,474277,5,0,0:0:0:0:
338,41,474359,1,0,0:0:0:0:
345,41,474442,5,0,0:0:0:0:
352,41,474523,1,0,0:0:0:0:
360,41,474605,1,0,0:0:0:0:
367,41,474687,1,0,0:0:0:0:
374,42,474769,1,0,0:0:0:0:
381,43,474851,1,0,0:0:0:0:
389,44,474933,5,0,0:0:0:0:
396,45,475015,1,0,0:0:0:0:
403,46,475097,1,0,0:0:0:0:
410,47,475179,1,0,0:0:0:0:
417,49,475261,5,0,0:0:0:0:
424,51,475344,1,0,0:0:0:0:
431,52,475425,1,0,0:0:0:0:
434,56,475507,1,0,0:0:0:0:
431,62,475589,5,0,0:0:0:0:
428,69,475671,1,0,0:0:0:0:
424,75,475753,5,0,0:0:0:0:
422,82,475835,1,0,0:0:0:0:
419,89,475917,1,0,0:0:0:0:
417,96,475999,1,0,0:0:0:0:
414,103,476081,1,0,0:0:0:0:
412,109,476163,1,0,0:0:0:0:
411,117,476245,1,0,0:0:0:0:
409,124,476327,1,0,0:0:0:0:
407,131,476409,1,0,0:0:0:0:
406,138,476491,1,0,0:0:0:0:
405,145,476573,1,0,0:0:0:0:
404,152,476655,1,0,0:0:0:0:
404,159,476737,1,0,0:0:0:0:
403,167,476818,1,0,0:0:0:0:
403,174,476900,1,0,0:0:0:0:
403,181,476982,1,0,0:0:0:0:
403,188,477064,1,0,0:0:0:0:
403,196,477146,1,0,0:0:0:0:
404,203,477228,5,0,0:0:0:0:
404,210,477310,1,0,0:0:0:0:
405,217,477392,1,0,0:0:0:0:
406,225,477474,1,0,0:0:0:0:
407,232,477556,1,0,0:0:0:0:
408,239,477638,1,0,0:0:0:0:
409,246,477720,1,0,0:0:0:0:
411,253,477802,1,0,0:0:0:0:
412,260,477884,1,0,0:0:0:0:
414,267,477966,1,0,0:0:0:0:
416,274,478048,1,0,0:0:0:0:
418,281,478130,1,0,0:0:0:0:
420,288,478212,1,0,0:0:0:0:
422,295,478294,1,0,0:0:0:0:
424,302,478376,1,0,0:0:0:0:
426,309,478458,1,0,0:0:0:0:
429,316,478540,5,0,0:0:0:0:
431,323,478622,1,0,0:0:0:0:
434,328,478704,1,0,0:0:0:0:
439,323,478786,1,0,0:0:0:0:
444,317,478868,5,0,0:0:0:0:
449,312,478950,1,0,0:0:0:0:
453,306,479032,1,0,0:0:0:0:
457,300,479114,1,0,0:0:0:0:
462,294,479196,5,0,0:0:0:0:
465,288,479277,1,0,0:0:0:0:
469,282,479359,1,0,0:0:0:0:
472,275,479441,1,0,0:0:0:0:
475,269,479523,5,0,0:0:0:0:
478,262,479605,1,0,0:0:0:0:
481,255,479687,5,0,0:0:0:0:
483,248,479769,1,0,0:0:0:0:
484,241,479851,1,0,0:0:0:0:
485,234,479933,1,0,0:0:0:0:
486,227,480015,1,0,0:0:0:0:
487,219,480097,1,0,0:0:0:0:
487,212,480179,5,0,0:0:0:0:
486,205,480261,1,0,0:0:0:0:
485,198,480343,1,0,0:0:0:0:
484,191,480425,1,0,0:0:0:0:
483,184,480507,5,0,0:0:0:0:
481,177,480589,1,0,0:0:0:0:
479,170,480671,1,0,0:0:0:0:
476,163,480753,1,0,0:0:0:0:
473,156,480835,5,0,0:0:0:0:
470,150,480917,1,0,0:0:0:0:
467,143,480999,5,0,0:0:0:0:
460,142,481081,1,0,0:0:0:0:
453,142,481163,1,0,0:0:0:0:
446,142,481245,1,0,0:0:0:0:
438,142,481327,1,0,0:0:0:0:
431,142,481409,1,0,0:0:0:0:
424,142,481491,1,0,0:0:0:0:
417,142,481573,1,0,0:0:0:0:
409,142,481655,1,0,0:0:0:0:
402,142,481737,1,0,0:0:0:0:
395,142,481818,1,0,0:0:0:0:
388,142,481900,1,0,0:0:0:0:
380,142,481982,1,0,0:0:0:0:
373,142,482064,1,0,0:0:0:0:
366,142,482146,1,0,0:0:0:0:
359,142,482228,1,0,0:0:0:0:
351,142,482310,5,0,0:0:0:0:
344,142,482392,1,0,0:0:0:0:
337,142,482474,1,0,0:0:0:0:
330,142,482556,1,0,0:0:0:0:
322,142,482638,1,0,0:0:0:0:
315,142,482720,1,0,0:0:0:0:
308,142,482802,5,0,0:0:0:0:
301,142,482884,1,0,0:0:0:0:
293,142,482966,1,0,0:0:0:0:
286,142,483048,1,0,0:0:0:0:
279,142,483130,5,0,0:0:0:0:
272,142,483212,1,0,0:0:0:0:
264,142,483294,1,0,0:0:0:0:
257,142,483376,1,0,0:0:0:0:
250,142,483458,5,0,0:0:0:0:
243,142,483540,1,0,0:0:0:0:
235,142,483622,5,0,0:0:0:0:
228,142,483704,1,0,0:0:0:0:
221,142,483786,1,0,0:0:0:0:
214,142,483868,1,0,0:0:0:0:
206,142,483950,1,0,0:0:0:0:
199,142,484032,1,0,0:0:0:0:
192,142,484114,5,0,0:0:0:0:
185,142,484196,1,0,0:0:0:0:
177,142,484277,1,0,0:0:0:0:
170,142,484359,1,0,0:0:0:0:
163,142,484441,5,0,0:0:0:0:
156,142,484523,1,0,0:0:0:0:
148,142,484605,1,0,0:0:0:0:
141,142,484687,1,0,0:0:0:0:
134,142,484769,5,0,0:0:0:0:
127,142,484851,1,0,0:0:0:0:
119,142,484933,5,0,0:0:0:0:
112,142,485015,1,0,0:0:0:0:
105,142,485097,1,0,0:0:0:0:
100,146,485179,1,0,0:0:0:0:
97,153,485261,1,0,0:0:0:0:
94,159,485343,1,0,0:0:0:0:
91,166,485425,1,0,0:0:0:0:
88,173,485507,1,0,0:0:0:0:
86,179,485589,1,0,0:0:0:0:
83,186,485671,1,0,0:0:0:0:
81,193,485753,1,0,0:0:0:0:
79,200,485835,1,0,0:0:0:0:
78,207,485917,1,0,0:0:0:0:
77,214,485999,1,0,0:0:0:0:
76,222,486081,1,0,0:0:0:0:
75,229,486163,1,0,0:0:0:0:
74,236,486245,1,0,0:0:0:0:
74,243,486327,1,0,0:0:0:0:
74,251,486409,5,0,0:0:0:0:
75,258,486491,1,0,0:0:0:0:
75,265,486573,1,0,0:0:0:0:
76,272,486655,1,0,0:0:0:0:
77,279,486737,1,0,0:0:0:0:
79,286,486818,1,0,0:0:0:0:
81,294,486900,1,0,0:0:0:0:
83,300,486982,1,0,0:0:0:0:
85,307,487064,1,0,0:0:0:0:
87,314,487146,1,0,0:0:0:0:
90,321,487228,1,0,0:0:0:0:
92,328,487310,1,0,0:0:0:0:
130,353,487393,6,0,P|182:360|229:350,3,94.2499956855776
411,153,487720,6,0,P|417:224|404:291,2,130.499996017456
407,282,488212,2,0,B|333:295|243:256|243:256|112:274,1,260.999992034912
152,269,488704,1,0,0:0:0:0:
152,269,488868,1,0,0:0:0:0:
242,24,489032,5,0,0:0:0:0:
402,162,489196,1,0,0:0:0:0:
233,317,489360,1,0,0:0:0:0:
169,80,489524,2,0,P|236:60|318:92,1,130.499996017456
424,167,489852,1,0,0:0:0:0:
431,206,489934,1,0,0:0:0:0:
437,245,490015,1,0,0:0:0:0:
443,284,490097,1,0,0:0:0:0:
449,323,490179,1,0,0:0:0:0:
190,73,490343,6,0,P|173:141|180:215,2,130.499996017456
399,91,490835,2,0,L|462:51,4,65.2499980087281
384,142,491245,1,0,0:0:0:0:
400,195,491327,2,0,P|406:266|393:335,1,130.499996017456
397,325,491655,5,0,0:0:0:0:
214,198,491819,2,0,P|157:189|79:204,2,130.499996017456
384,41,492229,1,0,0:0:0:0:
384,41,492311,2,0,L|467:28,4,65.2499980087281
335,52,492720,1,0,0:0:0:0:
291,62,492802,1,0,0:0:0:0:
433,216,492966,6,0,P|437:284|424:358,2,130.499996017456
490,122,493458,2,0,P|422:108|347:132,1,130.499996017456
233,237,493786,2,0,L|213:302,1,65.2499980087281
157,187,493950,2,0,L|138:107,1,65.2499980087281
98,275,494114,2,0,L|72:342,1,65.2499980087281
264,47,494278,6,0,B|347:35|347:35|417:54,2,130.499996017456
449,254,494770,2,0,B|460:156|460:156|449:109,2,130.499996017456
50,327,495261,2,0,P|111:335|185:324,1,130.499996017456
126,54,495589,5,0,0:0:0:0:
467,320,495753,1,0,0:0:0:0:
61,240,495917,1,0,0:0:0:0:
400,137,496081,2,0,L|382:2,1,130.499996017456
409,176,496327,1,0,0:0:0:0:
416,215,496409,1,0,0:0:0:0:
423,254,496491,1,0,0:0:0:0:
430,293,496573,1,0,0:0:0:0:
91,110,496737,1,0,0:0:0:0:
386,330,496901,5,0,0:0:0:0:
45,64,497065,1,0,0:0:0:0:
451,144,497229,1,0,0:0:0:0:
112,247,497393,2,0,L|130:382,1,130.499996017456
103,208,497639,1,0,0:0:0:0:
96,169,497721,1,0,0:0:0:0:
89,130,497803,1,0,0:0:0:0:
82,91,497885,1,0,0:0:0:0:
421,274,498049,1,0,0:0:0:0:
128,164,498212,6,0,L|112:61,1,65.2499980087281
381,324,498376,2,0,L|307:371,1,65.2499980087281
174,89,498540,2,0,L|197:18,1,65.2499980087281
265,363,498704,2,0,L|182:370,1,65.2499980087281
239,43,498868,2,0,L|312:28,1,65.2499980087281
154,348,499032,2,0,L|123:253,1,65.2499980087281
397,29,499196,2,0,L|317:37,1,65.2499980087281
233,361,499360,2,0,L|326:340,1,65.2499980087281
498,17,499524,5,0,0:0:0:0:
256,192,499606,12,0,506081,0:0:0:0:
