osu file format v14

[General]
AudioFilename: audio.mp3
AudioLeadIn: 500
PreviewTime: 47659
Countdown: 0
SampleSet: Soft
StackLeniency: 0.4
Mode: 0
LetterboxInBreaks: 0
WidescreenStoryboard: 0

[Editor]
Bookmarks: 37935
DistanceSpacing: 1.3
BeatDivisor: 4
GridSize: 4
TimelineZoom: 1.7

[Metadata]
Title:Distant Stars
TitleUnicode:Distant Stars
Artist:Sonic
ArtistUnicode:Sonic
Creator:Hiicantpk
Version:Distant
Source:Soundodger+
Tags:dnb drum and bass
BeatmapID:1072126
BeatmapSetID:503846

[Difficulty]
HPDrainRate:6
CircleSize:5
OverallDifficulty:8
ApproachRate:9.2
SliderMultiplier:1.4
SliderTickRate:2

[Events]
//Background and Video events
0,0,"BG.jpg",0,0
//Break Periods
2,30374,33590
2,99130,105140
//Storyboard Layer 0 (Background)
//Storyboard Layer 1 (Fail)
//Storyboard Layer 2 (Pass)
//Storyboard Layer 3 (Foreground)
//Storyboard Sound Samples

[TimingPoints]
105,344.827586206897,4,2,1,20,1,0
105,-133.333333333333,4,2,1,20,0,0
11139,-200,4,2,1,20,0,0
11484,-200,4,2,2,20,0,0
11570,-200,4,2,1,20,0,0
12173,-200,4,2,2,20,0,0
12260,-200,4,2,1,20,0,0
12863,-200,4,2,2,20,0,0
12949,-200,4,2,1,20,0,0
14242,-200,4,2,2,20,0,0
14329,-200,4,2,1,20,0,0
15622,-200,4,2,2,20,0,0
15708,-200,4,2,1,20,0,0
17001,-200,4,2,2,20,0,0
17087,-200,4,2,1,20,0,0
17691,-200,4,2,2,20,0,0
17777,-200,4,2,1,20,0,0
18380,-200,4,2,2,20,0,0
18467,-200,4,2,1,20,0,0
22175,500,4,2,0,20,1,0
22175,-200,4,2,0,20,0,0
34160,480,4,2,0,20,1,0
36105,461.538461538462,4,2,0,20,1,0
37935,444.444444444444,4,2,0,30,1,0
39702,431.654676258993,4,2,1,30,1,0
41424,413.793103448276,4,2,0,35,1,0
43075,400,4,2,1,35,1,0
44664,392.156862745098,4,2,0,40,1,0
46210,375,4,2,0,50,1,0
47710,365.853658536585,4,2,1,55,1,0
49173,350.877192982456,4,2,1,55,1,0
50568,344.827586206897,4,2,0,60,1,1
50568,-62.5,4,2,0,60,0,1
72636,-86.9565217391304,4,2,0,60,0,0
94705,-200,4,2,0,15,0,0
97119,-200,4,2,0,5,0,0
114619,-153.846153846154,4,2,0,10,0,0
115309,-125,4,2,0,20,0,0
116430,-66.6666666666667,4,2,0,60,0,0
138843,-62.5,4,2,0,60,0,1
160912,-133.333333333333,4,2,0,20,0,0
177464,-192.307692307692,4,2,0,20,0,0
180136,-192.307692307692,4,2,33,20,0,0
180223,-192.307692307692,4,2,0,20,0,0

[Colours]
Combo1 : 235,154,228
Combo2 : 242,87,115
Combo3 : 186,37,156

[HitObjects]
29,69,105,6,0,L|60:121,1,52.5000020027161
123,116,449,1,2,0:0:0:0:
123,116,622,1,0,0:0:0:0:
184,87,794,2,0,L|236:61,1,52.5000020027161
298,53,1139,1,2,0:0:0:0:
298,53,1311,1,0,0:0:0:0:
393,87,1484,6,0,L|369:138,1,52.5000020027161
323,184,1829,1,2,0:0:0:0:
323,184,2001,1,0,0:0:0:0:
258,207,2173,2,0,L|197:213,1,52.5000020027161
137,221,2518,1,2,0:0:0:0:
137,221,2691,1,0,0:0:0:0:
59,287,2863,6,0,L|104:328,1,52.5000020027161
165,329,3208,1,2,0:0:0:0:
165,329,3380,1,0,0:0:0:0:
231,312,3553,2,0,L|300:292,1,52.5000020027161
346,274,3898,1,2,0:0:0:0:
346,274,4070,1,0,0:0:0:0:
385,180,4242,6,0,L|329:121,1,52.5000020027161
300,93,4587,1,2,0:0:0:0:
300,93,4760,1,0,0:0:0:0:
237,64,4932,2,0,B|150:69,1,52.5000020027161
118,83,5277,1,2,0:0:0:0:
118,83,5449,1,0,0:0:0:0:
43,153,5622,6,0,L|54:231,1,52.5000020027161
117,217,5967,2,0,L|109:165,1,52.5000020027161,2|0,0:0|0:0,0:0:0:0:
177,171,6311,2,0,L|188:249,1,52.5000020027161
251,235,6656,2,0,L|243:183,1,52.5000020027161,2|0,0:0|0:0,0:0:0:0:
319,113,7001,6,0,L|397:124,1,52.5000020027161
383,187,7345,2,0,L|331:179,1,52.5000020027161,2|0,0:0|0:0,0:0:0:0:
337,247,7690,2,0,L|415:258,1,52.5000020027161
401,321,8035,2,0,L|349:313,1,52.5000020027161,2|0,0:0|0:0,0:0:0:0:
247,303,8380,6,0,L|183:321,2,52.5000020027161,0|0|2,0:0|0:0|0:0,0:0:0:0:
247,234,8898,1,0,0:0:0:0:
249,165,9070,2,0,L|313:147,2,52.5000020027161,0|0|2,0:0|0:0|0:0,0:0:0:0:
247,234,9587,1,0,0:0:0:0:
178,234,9760,6,0,L|160:170,2,52.5000020027161,0|0|2,0:0|0:0|0:0,0:0:0:0:
247,234,10278,1,0,0:0:0:0:
316,236,10450,2,0,L|334:300,2,52.5000020027161,0|0|2,0:0|0:0|0:0,0:0:0:0:
247,234,10967,1,0,0:0:0:0:
247,234,11139,6,0,P|371:44|448:204,1,490,0|2,0:0|0:0,0:0:0:0:
344,165,13898,2,0,L|376:306,1,140
374,301,14932,1,2,0:0:0:0:
374,301,15277,6,0,L|223:301,1,140
234,301,16311,1,2,0:0:0:0:
234,301,16656,6,0,P|82:132|257:99,1,490,0|2,0:0|0:0,0:0:0:0:
256,192,19415,12,2,21829,0:0:0:0:
220,39,22175,6,0,P|244:243|314:52,2,560,4|2|0,0:0|0:0|0:0,0:0:0:0:
256,192,34160,12,0,37720,0:0:0:0:
183,140,37935,6,0,P|228:89|298:93,1,140
258,160,38823,2,0,P|213:211|143:207,1,140
67,198,39702,6,0,P|77:250|131:288,2,105
131,122,40565,2,0,P|176:123|234:167,2,105
119,284,41424,6,0,P|164:335|254:321,1,140
310,314,42251,2,0,P|265:263|175:277,1,140
120,208,43075,6,0,P|164:174|238:174,2,105
269,309,43875,2,0,P|225:343|163:343,2,105
362,182,44664,6,0,L|388:94,1,70
330,45,45056,2,0,L|304:133,1,70
216,175,45448,2,0,L|235:107,1,70
287,177,45840,2,0,L|267:244,1,70
159,297,46210,6,0,P|118:316|84:313,1,70
40,236,46585,2,0,P|81:217|115:220,1,70
204,108,46960,2,0,P|169:109|138:126,1,70
192,205,47335,2,0,P|226:203|257:186,1,70
351,103,47710,5,0,0:0:0:0:
415,207,47892,1,0,0:0:0:0:
298,260,48075,1,0,0:0:0:0:
309,152,48258,1,0,0:0:0:0:
410,308,48441,5,0,0:0:0:0:
218,246,48624,1,0,0:0:0:0:
351,103,48807,1,0,0:0:0:0:
298,260,48990,1,0,0:0:0:0:
256,72,49173,5,0,0:0:0:0:
225,54,49260,1,0,0:0:0:0:
191,46,49348,1,0,0:0:0:0:
156,46,49436,1,0,0:0:0:0:
123,56,49523,1,0,0:0:0:0:
94,75,49611,1,0,0:0:0:0:
70,102,49699,1,0,0:0:0:0:
55,133,49787,1,0,0:0:0:0:
45,166,49874,2,0,L|33:210,4,35
206,227,50401,1,0,0:0:0:0:
387,252,50568,6,0,P|327:308|190:308,1,224
103,208,51085,1,0,0:0:0:0:
145,88,51257,2,0,P|190:42|250:37,1,112
367,97,51602,2,0,P|330:138|276:150,1,112
54,141,51947,6,0,P|99:95|159:90,1,112
276,150,52292,1,0,0:0:0:0:
170,288,52464,1,0,0:0:0:0:
204,272,52550,1,0,0:0:0:0:
235,255,52636,1,0,0:0:0:0:
144,87,52809,1,0,0:0:0:0:
331,49,52981,2,0,L|361:48,4,28
199,171,53326,6,0,P|221:220|204:272,1,112
65,223,53671,2,0,P|43:174|60:122,1,112
203,80,54016,1,0,0:0:0:0:
296,192,54188,1,0,0:0:0:0:
290,46,54361,1,0,0:0:0:0:
383,158,54533,1,0,0:0:0:0:
281,263,54705,6,0,P|183:216|181:205,1,112
288,119,55050,1,0,0:0:0:0:
281,263,55223,1,0,0:0:0:0:
246,269,55309,1,0,0:0:0:0:
212,258,55395,1,0,0:0:0:0:
107,98,55568,1,0,0:0:0:0:
35,151,55740,2,0,L|34:181,4,28
91,286,56085,6,0,P|191:324|235:322,1,112
337,293,56430,1,0,0:0:0:0:
429,180,56602,1,0,0:0:0:0:
329,75,56774,2,0,P|229:37|185:39,1,112
130,148,57119,1,0,0:0:0:0:
38,261,57291,1,0,0:0:0:0:
185,254,57464,6,0,P|265:202|262:175,1,112
216,62,57809,1,0,0:0:0:0:
265,198,57981,1,0,0:0:0:0:
298,183,58068,1,0,0:0:0:0:
331,171,58154,1,0,0:0:0:0:
436,247,58326,1,0,0:0:0:0:
276,302,58499,2,0,L|249:302,4,28
331,171,58843,6,0,L|311:55,1,112
167,77,59188,2,0,L|184:187,1,112
276,302,59533,2,0,L|256:186,1,112
112,208,59878,2,0,L|129:318,1,112
161,153,60223,5,0,0:0:0:0:
294,108,60395,1,0,0:0:0:0:
275,138,60481,1,0,0:0:0:0:
247,160,60567,1,0,0:0:0:0:
348,177,60740,1,0,0:0:0:0:
367,207,60826,1,0,0:0:0:0:
395,229,60912,1,0,0:0:0:0:
480,126,61085,1,0,0:0:0:0:
435,55,61257,2,0,L|408:55,4,28
293,88,61602,6,0,P|199:88|182:91,1,112
53,160,61947,2,0,P|147:160|164:163,1,112
293,233,62292,2,0,P|199:233|182:236,1,112
53,305,62637,2,0,P|147:305|164:308,1,112
309,324,62981,5,0,0:0:0:0:
421,231,63154,1,0,0:0:0:0:
408,85,63326,1,0,0:0:0:0:
266,42,63499,1,0,0:0:0:0:
231,44,63585,1,0,0:0:0:0:
200,62,63671,1,0,0:0:0:0:
273,189,63843,1,0,0:0:0:0:
135,270,64016,2,0,L|97:298,4,28
276,279,64361,5,0,0:0:0:0:
215,147,64533,1,0,0:0:0:0:
334,230,64705,1,0,0:0:0:0:
273,98,64877,1,0,0:0:0:0:
157,98,65050,5,0,0:0:0:0:
96,230,65222,1,0,0:0:0:0:
215,147,65394,1,0,0:0:0:0:
154,279,65568,1,0,0:0:0:0:
273,98,65740,6,0,L|372:177,1,112
224,210,66085,1,0,0:0:0:0:
154,279,66257,1,0,0:0:0:0:
113,268,66343,1,0,0:0:0:0:
79,245,66430,2,0,P|81:180|99:132,1,112
145,61,66774,2,0,L|167:40,4,28
266,58,67119,6,0,P|367:88|397:115,1,112
237,149,67464,2,0,P|338:179|368:206,1,112
209,242,67809,1,0,0:0:0:0:
346,290,67981,1,0,0:0:0:0:
202,316,68154,1,0,0:0:0:0:
339,364,68326,1,0,0:0:0:0:
461,284,68499,6,0,P|465:208|441:130,1,112
385,48,68843,1,0,0:0:0:0:
241,71,69016,1,0,0:0:0:0:
215,100,69102,1,0,0:0:0:0:
191,131,69188,1,0,0:0:0:0:
306,195,69361,1,0,0:0:0:0:
117,246,69533,2,0,L|73:260,4,28
277,277,69878,5,0,0:0:0:0:
415,232,70050,1,0,0:0:0:0:
415,86,70223,1,0,0:0:0:0:
277,41,70395,1,0,0:0:0:0:
191,159,70568,5,0,0:0:0:0:
277,277,70740,1,0,0:0:0:0:
415,232,70912,1,0,0:0:0:0:
415,86,71085,1,0,0:0:0:0:
277,41,71257,5,0,0:0:0:0:
232,41,71343,1,0,0:0:0:0:
189,53,71429,1,0,0:0:0:0:
149,74,71515,1,0,0:0:0:0:
116,104,71601,1,0,0:0:0:0:
92,141,71688,1,0,0:0:0:0:
77,184,71774,1,0,0:0:0:0:
72,228,71860,1,0,0:0:0:0:
69,261,71947,2,0,L|66:294,8,28
214,320,72464,1,0,0:0:0:0:
336,260,72636,6,0,L|375:178,1,80.5000015354157
267,209,72981,2,0,L|306:127,1,80.5000015354157
198,158,73326,2,0,L|163:230,1,80.5000015354157
267,209,73671,2,0,L|232:281,1,80.5000015354157
348,316,74016,5,0,0:0:0:0:
392,204,74188,1,0,0:0:0:0:
280,160,74361,1,0,0:0:0:0:
236,272,74533,1,0,0:0:0:0:
210,305,74619,1,0,0:0:0:0:
177,331,74705,2,0,P|117:330|85:302,1,80.5000015354157
161,206,75050,2,0,B|161:182|161:182|142:182|142:182|142:166|142:166|131:166|131:166|131:109,1,120.750002303124
131,115,75395,5,0,0:0:0:0:
251,104,75568,1,0,0:0:0:0:
142,50,75740,1,0,0:0:0:0:
261,39,75912,1,0,0:0:0:0:
381,47,76085,2,0,P|428:95|431:111,1,80.5000015354157
372,212,76430,2,0,P|325:164|322:148,1,80.5000015354157
222,87,76774,5,0,0:0:0:0:
127,162,76947,1,0,0:0:0:0:
243,192,77119,1,0,0:0:0:0:
127,228,77292,2,0,P|138:279|168:298,1,80.5000015354157
279,298,77636,1,0,0:0:0:0:
384,237,77809,2,0,B|400:220|400:220|414:233|414:233|425:222|425:222|433:229|433:229|473:189,1,120.750002303124
469,194,78154,5,0,0:0:0:0:
412,87,78326,1,0,0:0:0:0:
301,137,78499,2,0,P|232:130|216:111,1,80.5000015354157
121,183,78843,2,0,P|190:190|206:209,1,80.5000015354157
311,237,79188,1,0,0:0:0:0:
195,194,79361,1,0,0:0:0:0:
93,103,79533,6,0,L|148:34,1,80.5000015354157
292,41,79878,1,0,0:0:0:0:
436,97,80050,1,0,0:0:0:0:
400,99,80136,1,0,0:0:0:0:
367,116,80223,2,0,P|371:178|409:200,1,80.5000015354157
471,268,80568,2,0,B|454:284|454:284|440:271|440:271|429:282|429:282|421:275|421:275|381:315,1,120.750002303124
385,310,80912,5,0,0:0:0:0:
264,302,81085,1,0,0:0:0:0:
175,219,81257,2,0,L|278:200,1,80.5000015354157
342,121,81602,2,0,L|239:140,1,80.5000015354157
147,97,81947,2,0,L|250:78,1,80.5000015354157
343,53,82292,6,0,P|400:87|391:167,1,120.750002303124
407,136,82636,1,0,0:0:0:0:
327,227,82809,1,0,0:0:0:0:
212,265,82981,2,0,P|141:299|119:282,1,80.5000015354157
121,183,83326,2,0,B|104:166|104:166|90:179|90:179|79:168|79:168|71:175|71:175|31:135,1,120.750002303124
35,140,83671,5,0,0:0:0:0:
135,73,83843,1,0,0:0:0:0:
234,141,84016,2,0,P|283:188|284:215,1,80.5000015354157
355,295,84361,1,0,0:0:0:0:
403,184,84533,1,0,0:0:0:0:
308,108,84705,2,0,P|259:61|258:34,1,80.5000015354157
153,113,85050,5,0,0:0:0:0:
56,39,85223,1,0,0:0:0:0:
31,156,85395,1,0,0:0:0:0:
129,225,85568,1,0,0:0:0:0:
171,232,85654,1,0,0:0:0:0:
214,230,85740,2,0,P|271:186|279:159,1,80.5000015354157
388,78,86085,2,0,B|405:61|405:61|419:74|419:74|430:63|430:63|438:70|438:70|478:30,1,120.750002303124
474,33,86430,5,0,0:0:0:0:
415,138,86602,1,0,0:0:0:0:
397,257,86774,1,0,0:0:0:0:
476,347,86947,1,0,0:0:0:0:
397,257,87119,2,0,B|350:271|350:271|301:258,1,80.5000015354157
201,242,87464,2,0,B|170:233|170:233|123:247,1,80.5000015354157
78,136,87809,6,0,L|127:48,1,80.5000015354157
235,41,88154,2,0,L|186:129,1,80.5000015354157
145,221,88499,2,0,P|140:283|175:313,1,80.5000015354157
262,333,88843,2,0,B|285:326|285:326|290:345|290:345|305:341|305:341|309:351|309:351|363:336,1,120.750002303124
357,337,89188,5,0,0:0:0:0:
418,232,89361,1,0,0:0:0:0:
303,270,89533,2,0,L|234:221,1,80.5000015354157
353,190,89878,1,0,0:0:0:0:
413,85,90051,1,0,0:0:0:0:
298,123,90223,2,0,L|229:74,1,80.5000015354157
111,63,90568,5,0,0:0:0:0:
59,171,90740,1,0,0:0:0:0:
178,153,90912,1,0,0:0:0:0:
244,258,91085,1,0,0:0:0:0:
275,234,91171,1,0,0:0:0:0:
300,203,91257,2,0,P|322:142|308:118,1,80.5000015354157
250,51,91602,2,0,B|227:58|227:58|222:39|222:39|207:43|207:43|203:33|203:33|149:48,1,120.750002303124
154,46,91947,5,0,0:0:0:0:
68,152,92119,1,0,0:0:0:0:
165,248,92292,1,0,0:0:0:0:
253,144,92464,1,0,0:0:0:0:
372,77,92636,2,0,P|417:128|408:174,1,80.5000015354157
483,257,92981,2,0,P|432:302|386:293,1,80.5000015354157
286,315,93326,5,0,0:0:0:0:
246,308,93412,1,0,0:0:0:0:
210,290,93498,1,0,0:0:0:0:
182,262,93584,1,0,0:0:0:0:
164,226,93670,1,0,0:0:0:0:
158,186,93757,1,0,0:0:0:0:
165,147,93843,1,0,0:0:0:0:
184,111,93929,1,0,0:0:0:0:
206,82,94016,2,0,L|228:59,8,20.1250003838539
341,58,94533,1,0,0:0:0:0:
256,192,94705,5,0,0:0:0:0:
256,192,94749,12,0,98930,0:0:0:0:
315,53,105740,6,0,P|238:242|220:39,1,560
256,192,108542,12,0,113671,0:0:0:0:
150,65,114016,6,0,P|133:95|122:132,1,70
236,90,114619,6,0,P|219:132|210:183,1,90.9999958343508
329,116,115309,6,0,P|301:165|293:252,1,140
324,325,116085,1,0,0:0:0:0:
324,325,116171,1,0,0:0:0:0:
324,325,116257,1,0,0:0:0:0:
465,273,116430,6,0,P|481:230|437:166,1,105.000004005432
431,38,116774,6,0,L|318:97,1,105.000004005432
172,154,117119,1,0,0:0:0:0:
288,249,117292,1,0,0:0:0:0:
289,56,117464,6,0,L|283:183,1,105.000004005432
260,338,117809,1,0,0:0:0:0:
406,235,117982,1,0,0:0:0:0:
234,185,118154,6,0,L|341:253,1,105.000004005432
464,351,118499,1,0,0:0:0:0:
447,173,118672,1,0,0:0:0:0:
288,95,118843,2,0,L|232:188,1,105.000004005432
29,181,119188,2,0,B|123:257|123:257,1,105.000004005432
322,241,119533,6,0,L|391:116,1,105.000004005432
188,51,119878,1,0,0:0:0:0:
29,181,120050,1,0,0:0:0:0:
77,308,120223,2,0,L|201:371,1,105.000004005432
272,207,120568,1,0,0:0:0:0:
136,118,120740,1,0,0:0:0:0:
121,165,120826,1,0,0:0:0:0:
116,214,120912,6,0,L|159:346,1,105.000004005432
325,281,121257,1,0,0:0:0:0:
377,110,121429,1,0,0:0:0:0:
188,51,121602,2,0,L|188:194,1,105.000004005432
369,228,121947,2,0,P|311:216|262:254,1,105.000004005432
238,294,122205,1,0,0:0:0:0:
207,354,122292,6,0,L|86:351,1,105.000004005432
29,188,122636,1,0,0:0:0:0:
197,127,122809,1,0,0:0:0:0:
359,54,122981,6,0,L|442:141,1,105.000004005432
367,297,123325,1,0,0:0:0:0:
205,222,123498,1,0,0:0:0:0:
278,58,123671,1,0,0:0:0:0:
116,131,123844,1,0,0:0:0:0:
280,219,124016,1,0,0:0:0:0:
185,33,124189,1,0,0:0:0:0:
32,124,124361,2,0,L|45:232,1,105.000004005432
185,33,124705,2,0,L|172:141,1,105.000004005432
192,208,124964,1,0,0:0:0:0:
215,274,125050,5,0,0:0:0:0:
364,162,125223,1,0,0:0:0:0:
192,208,125395,1,0,0:0:0:0:
323,86,125568,1,0,0:0:0:0:
296,208,125740,2,0,L|189:207,1,105.000004005432
305,345,126085,2,0,L|442:345,1,105.000004005432
455,301,126343,1,0,0:0:0:0:
482,245,126430,6,0,L|414:115,1,105.000004005432
276,66,126774,2,0,L|343:195,1,105.000004005432
255,262,127119,1,0,0:0:0:0:
92,185,127292,1,0,0:0:0:0:
205,321,127464,1,0,0:0:0:0:
44,244,127636,1,0,0:0:0:0:
97,73,127809,6,0,L|221:39,1,105.000004005432
376,61,128154,2,0,L|252:95,1,105.000004005432
111,161,128499,1,0,0:0:0:0:
41,324,128671,1,0,0:0:0:0:
216,296,128843,2,0,L|263:192,1,105.000004005432
376,61,129188,6,0,L|482:142,1,105.000004005432
486,274,129533,2,0,L|394:376,1,105.000004005432
321,226,129878,1,0,0:0:0:0:
139,277,130050,1,0,0:0:0:0:
34,86,130223,2,0,L|114:153,1,105.000004005432
299,100,130568,6,0,L|379:32,1,105.000004005432
473,100,130912,2,0,L|364:192,1,105.000004005432
360,197,131171,1,0,0:0:0:0:
321,226,131257,1,0,0:0:0:0:
351,344,131430,1,0,0:0:0:0:
146,348,131602,2,0,L|25:290,1,105.000004005432
33,124,131947,5,0,0:0:0:0:
156,252,132119,1,0,0:0:0:0:
190,76,132292,1,0,0:0:0:0:
365,44,132464,1,0,0:0:0:0:
397,88,132550,1,0,0:0:0:0:
426,135,132636,2,0,L|339:228,1,105.000004005432
239,321,132981,1,0,0:0:0:0:
62,350,133154,1,0,0:0:0:0:
32,174,133326,6,0,L|143:241,1,105.000004005432
297,193,133671,1,0,0:0:0:0:
178,60,133843,1,0,0:0:0:0:
220,233,134016,2,0,L|331:300,1,105.000004005432
485,252,134361,1,0,0:0:0:0:
366,119,134533,1,0,0:0:0:0:
188,110,134705,6,0,L|93:213,1,105.000004005432
211,338,135050,1,0,0:0:0:0:
344,222,135223,1,0,0:0:0:0:
363,35,135395,2,0,L|268:138,1,105.000004005432
390,261,135740,1,0,0:0:0:0:
488,115,135913,1,0,0:0:0:0:
344,222,136085,6,0,P|244:256|143:193,1,210.000008010865
34,342,136602,1,0,0:0:0:0:
156,210,136774,1,0,0:0:0:0:
30,81,136947,1,0,0:0:0:0:
156,210,137119,2,0,P|268:256|369:193,1,210.000008010865
387,143,137550,5,0,0:0:0:0:
416,115,137636,1,0,0:0:0:0:
452,131,137722,1,0,0:0:0:0:
458,171,137808,1,0,0:0:0:0:
448,212,137894,1,0,0:0:0:0:
430,250,137981,1,0,0:0:0:0:
404,282,138067,1,0,0:0:0:0:
370,308,138153,1,0,0:0:0:0:
333,325,138239,5,0,0:0:0:0:
292,336,138325,1,0,0:0:0:0:
250,339,138412,1,0,0:0:0:0:
217,339,138499,2,0,P|139:311|81:251,1,157.500006008148
72,226,138843,6,0,P|48:169|58:94,1,112
222,35,139188,1,0,0:0:0:0:
371,171,139361,1,0,0:0:0:0:
170,187,139533,2,0,L|267:291,1,112
446,239,139878,1,0,0:0:0:0:
334,71,140050,1,0,0:0:0:0:
131,72,140223,6,0,L|51:178,1,112
144,346,140568,2,0,L|224:240,1,112
243,217,140826,1,0,0:0:0:0:
275,176,140912,1,0,0:0:0:0:
452,262,141085,1,0,0:0:0:0:
306,135,141257,2,0,L|329:105,4,28
428,194,141602,6,0,P|464:170|486:94,1,112
294,46,141947,1,0,0:0:0:0:
112,133,142119,1,0,0:0:0:0:
31,318,142292,2,0,P|73:326|142:288,1,112
250,135,142636,1,0,0:0:0:0:
428,194,142809,1,0,0:0:0:0:
277,309,142981,6,0,P|271:232|223:199,1,112
89,129,143326,1,0,0:0:0:0:
239,51,143499,2,0,L|308:46,1,56
348,75,143671,2,0,P|354:152|402:185,1,112
368,268,144016,2,0,L|340:291,4,28
180,348,144361,6,0,L|84:272,1,112
30,130,144705,2,0,L|117:199,1,112
254,308,145050,2,0,L|158:232,1,112
104,90,145395,2,0,L|191:159,1,112
391,131,145740,5,0,0:0:0:0:
191,159,145912,1,0,0:0:0:0:
370,208,146085,1,0,0:0:0:0:
255,250,146257,1,0,0:0:0:0:
302,270,146343,1,0,0:0:0:0:
352,282,146430,2,0,P|416:270|444:224,1,112
332,40,146774,2,0,L|304:63,4,28
137,96,147119,6,0,P|56:148|41:185,1,112
122,348,147464,1,0,0:0:0:0:
49,159,147636,1,0,0:0:0:0:
207,33,147809,2,0,P|288:85|303:122,1,112
370,283,148154,1,0,0:0:0:0:
294,96,148326,1,0,0:0:0:0:
100,38,148499,6,0,P|33:82|37:130,1,112
41,307,148843,1,0,0:0:0:0:
240,342,149016,2,0,L|308:312,1,56
354,321,149188,2,0,P|381:264|381:201,1,112
244,231,149533,2,0,L|216:254,4,28
120,279,149878,6,0,L|24:202,1,112
138,36,150223,1,0,0:0:0:0:
177,233,150395,1,0,0:0:0:0:
338,354,150568,2,0,L|423:270,1,112
366,80,150912,1,0,0:0:0:0:
245,242,151085,1,0,0:0:0:0:
116,87,151257,6,0,L|246:37,1,112
356,196,151602,1,0,0:0:0:0:
197,319,151774,1,0,0:0:0:0:
150,293,151861,1,0,0:0:0:0:
109,260,151947,2,0,P|74:215|79:151,1,112
265,42,152292,2,0,L|293:65,4,28
449,136,152636,6,0,P|480:234|459:281,1,112
325,106,152981,2,0,P|356:204|335:251,1,112
228,181,153326,2,0,P|227:126|199:79,1,112
102,154,153671,2,0,P|101:99|73:52,1,112
36,250,154016,5,0,0:0:0:0:
237,245,154188,1,0,0:0:0:0:
65,351,154361,1,0,0:0:0:0:
266,349,154533,2,0,L|330:331,1,56
384,348,154705,2,0,P|419:289|420:237,1,112
289,163,155050,2,0,L|267:145,4,28
189,196,155395,5,0,0:0:0:0:
248,84,155568,1,0,0:0:0:0:
378,134,155740,1,0,0:0:0:0:
374,283,155912,1,0,0:0:0:0:
314,98,156085,1,0,0:0:0:0:
189,196,156257,1,0,0:0:0:0:
177,37,156430,1,0,0:0:0:0:
378,134,156602,1,0,0:0:0:0:
282,251,156774,6,0,P|203:215|176:162,1,112
390,218,157119,2,0,P|469:254|496:307,1,112
463,329,157378,1,0,0:0:0:0:
405,354,157464,2,0,P|348:287|346:228,1,112
320,127,157809,2,0,L|297:94,4,28
156,292,158154,5,0,0:0:0:0:
48,122,158326,1,0,0:0:0:0:
233,203,158499,1,0,0:0:0:0:
41,265,158671,1,0,0:0:0:0:
226,343,158843,2,0,P|335:323|351:304,1,112
476,185,159188,1,0,0:0:0:0:
316,60,159361,1,0,0:0:0:0:
115,45,159533,5,0,0:0:0:0:
78,78,159619,1,0,0:0:0:0:
57,124,159705,1,0,0:0:0:0:
54,174,159791,1,0,0:0:0:0:
72,221,159877,1,0,0:0:0:0:
106,258,159964,1,0,0:0:0:0:
151,279,160050,1,0,0:0:0:0:
201,281,160136,5,0,0:0:0:0:
248,263,160222,1,0,0:0:0:0:
285,229,160308,1,0,0:0:0:0:
306,184,160395,6,0,L|319:137,8,28
474,304,160912,6,0,L|409:343,1,52.5000020027161
378,284,161257,1,0,0:0:0:0:
378,284,161430,1,0,0:0:0:0:
326,239,161602,2,0,L|261:278,1,52.5000020027161
230,219,161947,1,0,0:0:0:0:
230,219,162120,1,0,0:0:0:0:
163,205,162292,6,0,L|133:147,1,52.5000020027161
179,103,162636,2,0,L|209:161,1,52.5000020027161
271,148,162981,2,0,L|241:90,1,52.5000020027161
287,46,163325,2,0,L|320:104,1,52.5000020027161
369,129,163671,5,0,0:0:0:0:
369,129,163843,1,0,0:0:0:0:
425,168,164016,2,0,P|423:196|407:223,1,52.5000020027161
364,266,164361,1,0,0:0:0:0:
364,266,164533,1,0,0:0:0:0:
310,307,164705,2,0,P|288:325|258:333,1,52.5000020027161
198,319,165050,5,0,0:0:0:0:
148,271,165223,1,0,0:0:0:0:
213,253,165395,1,0,0:0:0:0:
163,205,165568,1,0,0:0:0:0:
228,188,165740,2,0,L|196:136,1,52.5000020027161
268,133,166085,2,0,L|236:81,1,52.5000020027161
187,45,166430,5,0,0:0:0:0:
187,45,166602,1,0,0:0:0:0:
119,39,166774,2,0,P|86:46|70:65,1,52.5000020027161
118,110,167119,2,0,P|98:126|72:129,1,52.5000020027161
72,129,167464,1,0,0:0:0:0:
72,129,167636,1,0,0:0:0:0:
69,197,167809,6,0,L|68:267,3,52.5000020027161
132,271,168499,2,0,L|132:218,3,52.5000020027161
188,181,169188,5,0,0:0:0:0:
188,181,169361,1,0,0:0:0:0:
248,149,169533,1,0,0:0:0:0:
248,149,169705,1,0,0:0:0:0:
306,114,169878,2,0,P|315:158|313:169,1,52.5000020027161
291,229,170223,2,0,P|282:273|284:284,1,52.5000020027161
235,328,170568,5,0,0:0:0:0:
235,328,170740,1,0,0:0:0:0:
168,341,170912,1,0,0:0:0:0:
168,341,171085,1,0,0:0:0:0:
101,326,171257,2,0,P|92:282|94:271,1,52.5000020027161
116,211,171602,2,0,P|125:167|123:156,1,52.5000020027161
256,192,171947,12,0,177119,0:0:0:0:
225,37,177464,6,0,P|245:243|315:52,2,564.199996556396
