osu file format v14

[General]
AudioFilename: audio.mp3
AudioLeadIn: 0
PreviewTime: 82442
Countdown: 0
SampleSet: None
StackLeniency: 0.6
Mode: 0
LetterboxInBreaks: 0
WidescreenStoryboard: 1

[Editor]
Bookmarks: 18529,30454,42380,63995,82628,90827,106479,118404,130330,170578,178777,191075,197411
DistanceSpacing: 0.7
BeatDivisor: 4
GridSize: 8
TimelineZoom: 1.4

[Metadata]
Title:Princess Romance
TitleUnicode:プリンセス・ロマンス
Artist:Sonia (CV: Seto Asami)
ArtistUnicode:ソニア(CV:瀬戸麻沙美)
Creator:Yumikoi
Version:Is This Love?
Source:シャイニング・レゾナンス
Tags:shining resonance シャイニング・レゾナンス song edna yumiko anniversary this is love pso2
BeatmapID:1568697
BeatmapSetID:743926

[Difficulty]
HPDrainRate:5.5
CircleSize:4
OverallDifficulty:7
ApproachRate:9
SliderMultiplier:2
SliderTickRate:1

[Events]
//Background and Video events
0,0,"bg.jpg",0,0
//Break Periods
2,93263,105879
//Storyboard Layer 0 (Background)
//Storyboard Layer 1 (Fail)
//Storyboard Layer 2 (Pass)
//Storyboard Layer 3 (Foreground)
//Storyboard Sound Samples

[TimingPoints]
641,372.670807453416,4,1,0,100,1,0
641,-100,4,1,0,5,0,0
18529,-100,4,1,0,35,0,0
54305,-100,4,1,0,40,0,0
63995,-90.9090909090909,4,1,0,50,0,1
91572,-100,4,1,0,5,0,0
106479,-100,4,1,0,35,0,0
142255,-100,4,1,0,40,0,0
151945,-90.9090909090909,4,1,0,50,0,1
179522,-200,4,1,0,25,0,0
191075,-100,4,1,0,30,0,0
206355,-100,4,1,0,40,0,0
207100,-90.9090909090909,4,1,0,50,0,1
234678,-100,4,1,0,5,0,0
236355,-100,4,1,0,35,0,0
239895,-181.818181818182,4,1,0,40,0,0
240268,-181.818181818182,4,1,0,5,0,0

[HitObjects]
196,88,18529,6,0,P|249:79|309:89,2,100,0|0|0,0:0|0:0|0:0,0:0:0:0:
155,212,19088,1,0,0:0:0:0:
155,212,19460,2,0,P|197:244|271:258,2,100,0|0|0,0:0|0:0|0:0,0:0:0:0:
104,90,20019,5,0,0:0:0:0:
66,208,20206,1,0,0:0:0:0:
217,89,20392,1,0,0:0:0:0:
175,215,20578,1,0,0:0:0:0:
217,89,20765,6,0,P|215:126|241:202,1,100,0|0,0:0|0:0,0:0:0:0:
254,204,21044,1,0,0:0:0:0:
281,216,21137,1,0,0:0:0:0:
231,306,21324,2,0,P|194:294|166:273,1,50,0|0,0:0|0:0,0:0:0:0:
170,221,21510,6,0,P|118:227|70:218,1,100,0|0,0:0|0:0,0:0:0:0:
152,108,21883,1,0,0:0:0:0:
282,69,22069,1,0,0:0:0:0:
282,69,22442,2,0,P|345:67|404:84,2,100,0|0|0,0:0|0:0|0:0,0:0:0:0:
125,146,23001,5,0,0:0:0:0:
350,216,23373,5,0,0:0:0:0:
106,282,23746,5,0,0:0:0:0:
309,273,23932,1,0,0:0:0:0:
309,273,24026,1,0,0:0:0:0:
309,273,24119,1,0,0:0:0:0:
256,338,24305,1,0,0:0:0:0:
256,338,24398,1,0,0:0:0:0:
256,338,24491,6,0,P|198:304|169:271,1,100,0|0,0:0|0:0,0:0:0:0:
252,192,24864,1,0,0:0:0:0:
110,123,25050,2,0,B|181:126|181:126|254:79|333:118,1,200,0|0,0:0|0:0,0:0:0:0:
108,226,25609,1,0,0:0:0:0:
212,199,25796,2,0,P|235:209|262:210,1,50,0|0,0:0|0:0,0:0:0:0:
331,209,25982,6,0,P|384:214|436:242,1,100,0|0,0:0|0:0,0:0:0:0:
290,306,26355,1,0,0:0:0:0:
104,133,26541,2,0,B|162:108|162:108|228:160|338:116,1,200,0|0,0:0|0:0,0:0:0:0:
98,205,27100,1,0,0:0:0:0:
310,280,27286,1,0,0:0:0:0:
188,178,27473,6,0,P|239:173|306:175,1,100,0|0,0:0|0:0,0:0:0:0:
110,266,27845,1,0,0:0:0:0:
310,280,28032,1,0,0:0:0:0:
174,354,28218,2,0,P|226:362|303:359,1,100,0|0,0:0|0:0,0:0:0:0:
110,266,28591,1,0,0:0:0:0:
310,280,28777,6,0,P|357:253|411:190,1,100,0|0,0:0|0:0,0:0:0:0:
390,222,29150,2,0,P|428:179|455:99,1,100,0|0,0:0|0:0,0:0:0:0:
446,140,29522,2,0,P|471:75|482:17,1,100,0|0,0:0|0:0,0:0:0:0:
355,62,29895,1,0,0:0:0:0:
355,62,29988,1,0,0:0:0:0:
355,62,30081,1,0,0:0:0:0:
355,62,30454,6,0,P|293:82|233:116,1,100,0|0,0:0|0:0,0:0:0:0:
324,159,30827,2,0,P|266:185|214:215,1,100,0|0,0:0|0:0,0:0:0:0:
324,159,31386,6,0,P|266:185|214:215,1,100,0|0,0:0|0:0,0:0:0:0:
325,263,31759,1,0,0:0:0:0:
160,275,31945,2,0,P|122:231|90:159,1,100,0|0,0:0|0:0,0:0:0:0:
194,89,32318,1,0,0:0:0:0:
302,194,32504,1,0,0:0:0:0:
329,81,32690,5,0,0:0:0:0:
224,208,32877,2,0,P|186:164|154:92,1,100,0|0,0:0|0:0,0:0:0:0:
371,165,33249,1,0,0:0:0:0:
371,165,33342,1,0,0:0:0:0:
371,165,33436,2,0,B|380:210|380:210|437:264,2,100,0|0|0,0:0|0:0|0:0,0:0:0:0:
367,58,33995,1,0,0:0:0:0:
367,58,34367,2,0,P|301:35|241:46,2,100,0|0|0,0:0|0:0|0:0,0:0:0:0:
410,200,34926,5,0,0:0:0:0:
228,296,35299,5,0,0:0:0:0:
45,202,35672,6,0,P|84:166|163:121,1,100,0|0,0:0|0:0,0:0:0:0:
123,141,36044,2,0,P|180:123|250:120,1,100,0|0,0:0|0:0,0:0:0:0:
350,128,36417,1,0,0:0:0:0:
124,223,36790,5,0,0:0:0:0:
350,223,36976,1,0,0:0:0:0:
105,296,37349,5,0,0:0:0:0:
405,301,37721,5,0,0:0:0:0:
219,198,38094,5,0,0:0:0:0:
219,198,38187,1,0,0:0:0:0:
219,198,38280,1,0,0:0:0:0:
336,192,38467,1,0,0:0:0:0:
458,167,38653,2,0,P|419:131|340:86,1,100,0|0,0:0|0:0,0:0:0:0:
381,105,39026,2,0,P|324:87|253:84,1,100,0|0,0:0|0:0,0:0:0:0:
116,83,39398,1,0,0:0:0:0:
351,205,39771,5,0,0:0:0:0:
169,173,39957,1,0,0:0:0:0:
379,307,40330,5,0,0:0:0:0:
73,261,40703,5,0,0:0:0:0:
151,189,41075,5,0,0:0:0:0:
170,184,41168,1,0,0:0:0:0:
188,175,41262,1,0,0:0:0:0:
173,98,41448,2,0,P|147:92|99:99,2,50,0|0|0,0:0|0:0|0:0,0:0:0:0:
326,100,41821,2,0,P|302:106|283:123,1,50,0|0,0:0|0:0,0:0:0:0:
264,151,42007,1,0,0:0:0:0:
254,184,42100,1,0,0:0:0:0:
253,218,42193,1,0,0:0:0:0:
257,252,42286,1,0,0:0:0:0:
272,283,42380,6,0,P|293:323|421:213,1,300,0|0,0:0|0:0,0:0:0:0:
483,151,43125,2,0,P|461:110|334:221,1,300,0|0,0:0|0:0,0:0:0:0:
405,174,43870,1,0,0:0:0:0:
268,86,44057,1,0,0:0:0:0:
325,243,44243,1,0,0:0:0:0:
231,109,44429,1,0,0:0:0:0:
235,285,44616,1,0,0:0:0:0:
194,120,44802,1,0,0:0:0:0:
109,291,44988,1,0,0:0:0:0:
146,114,45175,1,0,0:0:0:0:
26,297,45361,6,0,P|47:338|174:226,1,300,0|0,0:0|0:0,0:0:0:0:
96,234,46106,2,0,P|131:107|248:167,1,300,0|0,0:0|0:0,0:0:0:0:
165,181,46852,2,0,P|111:147|75:103,1,100,0|0,0:0|0:0,0:0:0:0:
228,153,47224,2,0,P|213:90|219:34,1,100,0|0,0:0|0:0,0:0:0:0:
297,144,47597,2,0,P|331:90|375:53,1,100,0|0,0:0|0:0,0:0:0:0:
359,169,47970,2,0,P|421:154|477:160,1,100,0|0,0:0|0:0,0:0:0:0:
399,235,48342,6,0,B|467:210|462:260|447:327|344:322|302:166|212:220,1,300,0|0,0:0|0:0,0:0:0:0:
128,211,49088,2,0,B|97:145|65:184|29:242|105:311|245:230|270:332,1,300,0|0,0:0|0:0,0:0:0:0:
130,343,49833,5,0,0:0:0:0:
46,229,50019,1,0,0:0:0:0:
118,103,50206,2,0,P|170:71|243:68,1,100,0|0,0:0|0:0,0:0:0:0:
186,205,50578,5,0,0:0:0:0:
207,64,50765,1,0,0:0:0:0:
347,26,50951,2,0,P|406:40|460:89,1,100,0|0,0:0|0:0,0:0:0:0:
377,135,51324,2,0,P|304:152|289:210,1,100,0|0,0:0|0:0,0:0:0:0:
343,248,51696,2,0,P|270:268|229:225,1,100,0|0,0:0|0:0,0:0:0:0:
206,187,52069,2,0,P|149:236|163:294,1,100,0|0,0:0|0:0,0:0:0:0:
258,258,52442,2,0,P|297:228|304:180,1,100,0|0,0:0|0:0,0:0:0:0:
244,83,52814,6,0,B|205:45|205:45|213:163|151:302,1,300,0|0,0:0|0:0,0:0:0:0:
96,301,53560,2,0,B|73:348|61:351|36:352|13:273|35:180|113:104,1,300,0|0,0:0|0:0,0:0:0:0:
102,52,54305,5,0,0:0:0:0:
179,187,54491,1,0,0:0:0:0:
107,103,54678,1,0,0:0:0:0:
288,136,54864,1,0,0:0:0:0:
198,106,55050,2,0,P|239:64|319:34,1,100,0|0,0:0|0:0,0:0:0:0:
421,78,55423,5,0,0:0:0:0:
349,202,55609,1,0,0:0:0:0:
349,202,55703,1,0,0:0:0:0:
349,202,55796,1,0,0:0:0:0:
230,103,55982,1,0,0:0:0:0:
368,152,56168,1,0,0:0:0:0:
176,136,56355,1,0,0:0:0:0:
304,248,56541,6,0,P|246:263|176:248,1,100,0|0,0:0|0:0,0:0:0:0:
252,62,56914,2,0,P|299:84|348:135,1,100,0|0,0:0|0:0,0:0:0:0:
323,294,57286,2,0,B|233:295|188:274|109:222,1,200,0|0,0:0|0:0,0:0:0:0:
341,210,57845,1,0,0:0:0:0:
128,168,58218,5,0,0:0:0:0:
288,320,58591,5,0,0:0:0:0:
271,202,58963,5,0,0:0:0:0:
271,202,59057,1,0,0:0:0:0:
271,202,59150,1,0,0:0:0:0:
132,248,59336,1,0,0:0:0:0:
98,144,59522,6,0,P|151:105|216:84,1,100,0|0,0:0|0:0,0:0:0:0:
346,248,59895,2,0,P|300:277|223:292,1,100,0|0,0:0|0:0,0:0:0:0:
208,84,60268,2,0,P|305:78|424:113,1,200,0|0,0:0|0:0,0:0:0:0:
170,171,60827,1,0,0:0:0:0:
360,280,61200,5,0,0:0:0:0:
256,192,61572,5,0,0:0:0:0:
256,192,61759,12,0,63249,0:0:0:0:
158,179,63995,6,0,P|204:203|266:217,2,110.000003356934,0|0|0,0:0|0:0|0:0,0:0:0:0:
259,95,64554,1,0,0:0:0:0:
390,148,64740,1,0,0:0:0:0:
339,261,64926,1,0,0:0:0:0:
339,261,65019,1,0,0:0:0:0:
339,261,65113,1,0,0:0:0:0:
185,252,65299,5,0,0:0:0:0:
185,252,65392,1,0,0:0:0:0:
185,252,65485,1,0,0:0:0:0:
288,144,65672,2,0,P|216:136|152:152,1,110.000003356934,0|0,0:0|0:0,0:0:0:0:
251,256,66044,1,0,0:0:0:0:
376,104,66231,2,0,P|272:72|128:88,1,220.000006713867,0|0,0:0|0:0,0:0:0:0:
120,200,66790,5,0,0:0:0:0:
304,208,67162,5,0,0:0:0:0:
216,88,67535,5,0,0:0:0:0:
144,48,67721,2,0,P|96:80|48:120,1,110.000003356934,0|0,0:0|0:0,0:0:0:0:
168,152,68094,2,0,P|128:192|88:240,1,110.000003356934,0|0,0:0|0:0,0:0:0:0:
192,272,68467,1,0,0:0:0:0:
344,232,68653,2,0,P|376:200|368:104,2,110.000003356934,0|0|0,0:0|0:0|0:0,0:0:0:0:
287,128,69212,6,0,P|191:64|127:64,1,165.000005035401,0|0,0:0|0:0,0:0:0:0:
89,143,69585,2,0,P|170:138|243:176,1,165.000005035401,0|0,0:0|0:0,0:0:0:0:
193,234,69957,2,0,P|79:212|20:237,1,165.000005035401,0|0,0:0|0:0,0:0:0:0:
104,288,70330,5,0,0:0:0:0:
312,312,70516,1,0,0:0:0:0:
128,208,70703,1,0,0:0:0:0:
240,352,70889,1,0,0:0:0:0:
240,352,70982,1,0,0:0:0:0:
240,352,71075,1,0,0:0:0:0:
224,192,71262,5,0,0:0:0:0:
224,192,71355,1,0,0:0:0:0:
224,192,71448,1,0,0:0:0:0:
356,268,71634,1,0,0:0:0:0:
429,158,71821,2,0,P|386:117|321:91,1,110.000003356934,0|0,0:0|0:0,0:0:0:0:
112,76,72193,6,0,B|112:105|151:151|201:24|285:131,1,165.000005035401,0|0,0:0|0:0,0:0:0:0:
309,169,72566,2,0,B|310:188|271:234|234:117|168:184,1,165.000005035401,0|0,0:0|0:0,0:0:0:0:
99,222,72939,2,0,B|70:284|165:220|248:296,1,165.000005035401,0|0,0:0|0:0,0:0:0:0:
152,330,73311,1,0,0:0:0:0:
26,230,73498,1,0,0:0:0:0:
291,242,73684,6,0,P|269:209|245:185,1,55.0000016784668,0|0,0:0|0:0,0:0:0:0:
81,141,73870,2,0,P|107:117|140:103,1,55.0000016784668,0|0,0:0|0:0,0:0:0:0:
349,139,74057,2,0,P|339:107|317:73,1,55.0000016784668,0|0,0:0|0:0,0:0:0:0:
177,62,74243,2,0,P|157:114|155:199,1,110.000003356934,0|0,0:0|0:0,0:0:0:0:
227,148,74616,1,0,0:0:0:0:
308,165,74802,2,0,P|289:189|263:273,1,110.000003356934,0|0,0:0|0:0,0:0:0:0:
80,248,75175,5,0,0:0:0:0:
184,336,75361,1,0,0:0:0:0:
312,224,75547,1,0,0:0:0:0:
184,280,75734,1,0,0:0:0:0:
80,152,75920,1,0,0:0:0:0:
184,224,76106,1,0,0:0:0:0:
312,128,76293,1,0,0:0:0:0:
184,168,76479,1,0,0:0:0:0:
79,57,76665,1,0,0:0:0:0:
189,121,76852,6,0,P|152:135|121:165,2,55.0000016784668,0|0|0,0:0|0:0|0:0,0:0:0:0:
291,64,77224,2,0,P|323:48|355:42,2,55.0000016784668,0|0|0,0:0|0:0|0:0,0:0:0:0:
151,151,77597,2,0,P|103:185|62:247,1,110.000003356934,0|0,0:0|0:0,0:0:0:0:
216,217,77970,1,0,0:0:0:0:
70,98,78156,1,0,0:0:0:0:
327,165,78529,5,0,0:0:0:0:
219,87,78715,1,0,0:0:0:0:
414,131,79088,5,0,0:0:0:0:
180,199,79460,5,0,0:0:0:0:
69,215,79647,2,0,P|101:157|158:113,1,110.000003356934,0|0,0:0|0:0,0:0:0:0:
139,267,80019,2,0,P|171:209|228:165,1,110.000003356934,0|0,0:0|0:0,0:0:0:0:
368,118,80392,2,0,P|336:176|279:220,1,110.000003356934,0|0,0:0|0:0,0:0:0:0:
438,170,80765,2,0,P|406:228|349:272,1,110.000003356934,0|0,0:0|0:0,0:0:0:0:
234,294,81137,5,0,0:0:0:0:
84,143,81324,1,0,0:0:0:0:
274,147,81510,1,0,0:0:0:0:
123,266,81696,1,0,0:0:0:0:
176,80,81883,6,0,P|233:87|297:106,1,110.000003356934,0|0,0:0|0:0,0:0:0:0:
56,174,82255,1,0,0:0:0:0:
307,211,82442,1,0,0:0:0:0:
172,301,82628,6,0,B|220:325|220:325|264:306|303:320,1,110.000003356934,0|0,0:0|0:0,0:0:0:0:
355,277,83001,2,0,P|305:248|209:236,1,110.000003356934,0|0,0:0|0:0,0:0:0:0:
168,211,83373,2,0,B|193:177|193:177|242:172|298:152,1,110.000003356934,0|0,0:0|0:0,0:0:0:0:
230,78,83746,1,0,0:0:0:0:
136,77,83932,6,0,B|90:57|23:153|233:229|162:272,1,220.000006713867,0|0,0:0|0:0,0:0:0:0:
102,274,84491,2,0,B|97:309|139:367|215:338,1,110.000003356934,0|0,0:0|0:0,0:0:0:0:
262,350,84864,2,0,B|278:274|231:210,1,110.000003356934,0|0,0:0|0:0,0:0:0:0:
345,232,85237,2,0,P|349:154|314:93,1,110.000003356934,0|0,0:0|0:0,0:0:0:0:
231,102,85609,5,0,0:0:0:0:
104,152,85796,1,0,0:0:0:0:
268,137,85982,1,0,0:0:0:0:
250,273,86168,1,0,0:0:0:0:
316,154,86355,1,0,0:0:0:0:
250,273,86541,1,0,0:0:0:0:
370,150,86727,1,0,0:0:0:0:
448,260,86914,1,0,0:0:0:0:
372,106,87100,6,0,B|321:73|321:73|266:56,2,110.000003356934,0|0|0,0:0|0:0|0:0,0:0:0:0:
186,114,87659,1,0,0:0:0:0:
379,204,87845,1,0,0:0:0:0:
379,204,88218,2,0,P|341:239|262:272,1,110.000003356934,0|0,0:0|0:0,0:0:0:0:
182,283,88591,1,0,0:0:0:0:
270,167,88963,6,0,P|208:194|153:234,1,110.000003356934,0|0,0:0|0:0,0:0:0:0:
232,80,89522,5,0,0:0:0:0:
131,255,89895,5,0,0:0:0:0:
130,133,90268,5,0,0:0:0:0:
130,133,90361,1,0,0:0:0:0:
130,133,90454,1,0,0:0:0:0:
232,80,90827,6,0,B|296:40|336:112|288:144|288:144|248:168|256:184|256:208|256:208|256:256,1,220.000006713867,0|0,0:0|0:0,0:0:0:0:
256,280,91386,1,0,0:0:0:0:
256,192,91572,12,0,93063,0:0:0:0:
294,84,106479,6,0,P|245:79|196:88,2,100,0|0|0,0:0|0:0|0:0,0:0:0:0:
313,203,107038,1,0,0:0:0:0:
313,203,107411,2,0,P|368:210|429:249,2,100,0|0|0,0:0|0:0|0:0,0:0:0:0:
192,192,107970,5,0,0:0:0:0:
176,312,108156,1,0,0:0:0:0:
296,328,108342,1,0,0:0:0:0:
313,203,108529,1,0,0:0:0:0:
151,119,108715,1,0,0:0:0:0:
57,245,108901,1,0,0:0:0:0:
57,245,108995,1,0,0:0:0:0:
57,245,109088,1,0,0:0:0:0:
267,225,109274,2,0,P|226:213|202:192,1,50,0|0,0:0|0:0,0:0:0:0:
258,168,109460,6,0,B|233:158|234:123|165:84,1,100,0|0,0:0|0:0,0:0:0:0:
135,175,109833,1,0,0:0:0:0:
256,43,110019,1,0,0:0:0:0:
256,43,110392,2,0,P|319:38|378:58,2,100,0|0|0,0:0|0:0|0:0,0:0:0:0:
350,155,110951,5,0,0:0:0:0:
179,159,111324,5,0,0:0:0:0:
277,307,111696,5,0,0:0:0:0:
104,242,111883,1,0,0:0:0:0:
104,242,111976,1,0,0:0:0:0:
104,242,112069,1,0,0:0:0:0:
208,107,112255,1,0,0:0:0:0:
208,107,112349,1,0,0:0:0:0:
208,107,112442,6,0,P|150:73|90:74,1,100,0|0,0:0|0:0,0:0:0:0:
26,169,112814,1,0,0:0:0:0:
63,294,113001,2,0,B|113:321|186:274|186:274|257:277,1,200,0|0,0:0|0:0,0:0:0:0:
319,229,113560,1,0,0:0:0:0:
301,156,113746,2,0,P|278:166|251:167,1,50,0|0,0:0|0:0,0:0:0:0:
254,94,113932,6,0,P|201:99|149:127,1,100,0|0,0:0|0:0,0:0:0:0:
280,205,114305,1,0,0:0:0:0:
370,308,114491,2,0,B|312:333|312:333|246:281|136:325,1,200,0|0,0:0|0:0,0:0:0:0:
110,236,115050,2,0,P|170:241|223:232,1,100,0|0,0:0|0:0,0:0:0:0:
158,78,115423,5,0,0:0:0:0:
154,210,115609,1,0,0:0:0:0:
212,40,115796,1,0,0:0:0:0:
211,242,115982,1,0,0:0:0:0:
94,40,116168,1,0,0:0:0:0:
95,242,116355,1,0,0:0:0:0:
159,78,116541,1,0,0:0:0:0:
319,108,116727,6,0,P|292:155|229:209,1,100,0|0,0:0|0:0,0:0:0:0:
261,188,117100,2,0,P|218:226|138:253,1,100,0|0,0:0|0:0,0:0:0:0:
179,244,117473,2,0,P|113:269|56:280,1,100,0|0,0:0|0:0,0:0:0:0:
101,153,117845,1,0,0:0:0:0:
101,153,117939,1,0,0:0:0:0:
101,153,118032,1,0,0:0:0:0:
101,153,118404,6,0,P|163:173|223:207,1,100,0|0,0:0|0:0,0:0:0:0:
132,250,118777,2,0,P|190:276|242:306,1,100,0|0,0:0|0:0,0:0:0:0:
221,293,119336,6,0,P|168:329|111:349,2,100,0|0|0,0:0|0:0|0:0,0:0:0:0:
285,179,119895,2,0,P|261:129|215:63,1,100,0|0,0:0|0:0,0:0:0:0:
225,205,120268,1,0,0:0:0:0:
351,183,120454,1,0,0:0:0:0:
280,80,120640,5,0,0:0:0:0:
225,205,120827,2,0,P|187:161|155:89,1,100,0|0,0:0|0:0,0:0:0:0:
356,184,121200,1,0,0:0:0:0:
356,184,121293,1,0,0:0:0:0:
356,184,121386,2,0,B|349:231|290:283,2,100,0|0|0,0:0|0:0|0:0,0:0:0:0:
367,58,121945,1,0,0:0:0:0:
367,58,122318,2,0,P|301:35|241:46,2,100,0|0|0,0:0|0:0|0:0,0:0:0:0:
420,188,122877,5,0,0:0:0:0:
197,140,123249,5,0,0:0:0:0:
269,309,123622,6,0,P|217:296|135:256,1,100,0|0,0:0|0:0,0:0:0:0:
174,278,123995,2,0,P|127:240|85:184,1,100,0|0,0:0|0:0,0:0:0:0:
37,97,124367,1,0,0:0:0:0:
321,237,124740,5,0,0:0:0:0:
172,114,124926,1,0,0:0:0:0:
312,304,125299,5,0,0:0:0:0:
216,56,125672,5,0,0:0:0:0:
208,192,126044,5,0,0:0:0:0:
208,192,126137,1,0,0:0:0:0:
208,192,126231,1,0,0:0:0:0:
336,192,126417,1,0,0:0:0:0:
87,305,126603,2,0,P|138:320|229:324,1,100,0|0,0:0|0:0,0:0:0:0:
184,326,126976,2,0,P|243:316|307:286,1,100,0|0,0:0|0:0,0:0:0:0:
430,225,127349,1,0,0:0:0:0:
169,173,127721,5,0,0:0:0:0:
351,205,127908,1,0,0:0:0:0:
73,261,128280,5,0,0:0:0:0:
363,294,128653,5,0,0:0:0:0:
136,216,129026,5,0,0:0:0:0:
152,206,129119,1,0,0:0:0:0:
172,199,129212,1,0,0:0:0:0:
368,168,129398,2,0,P|392:156|425:121,2,50,0|0|0,0:0|0:0|0:0,0:0:0:0:
246,260,129771,2,0,P|261:240|265:215,1,50,0|0,0:0|0:0,0:0:0:0:
263,182,129957,1,0,0:0:0:0:
251,150,130050,1,0,0:0:0:0:
231,122,130144,1,0,0:0:0:0:
206,98,130237,1,0,0:0:0:0:
175,85,130330,6,0,B|109:61|20:207|252:233|235:331,1,300,0|0,0:0|0:0,0:0:0:0:
284,85,131075,2,0,B|350:61|439:207|207:233|224:331,1,300,0|0,0:0|0:0,0:0:0:0:
148,218,131821,2,0,P|138:165|147:111,1,100,0|0,0:0|0:0,0:0:0:0:
257,78,132193,1,0,0:0:0:0:
361,182,132380,1,0,0:0:0:0:
319,59,132566,1,0,0:0:0:0:
296,176,132752,1,0,0:0:0:0:
396,55,132939,1,0,0:0:0:0:
263,115,133125,1,0,0:0:0:0:
432,120,133311,6,0,B|472:184|384:224|384:224|296:264|331:352|403:352,1,300,0|0,0:0|0:0,0:0:0:0:
448,288,134057,2,0,B|416:248|416:208|416:208|384:232|360:208|360:208|328:232|304:208|304:208|232:248|248:168|200:112,1,350,0|0,0:0|0:0,0:0:0:0:
60,133,134802,2,0,P|104:156|153:165,1,100,0|0,0:0|0:0,0:0:0:0:
108,258,135175,2,0,P|155:243|197:216,1,100,0|0,0:0|0:0,0:0:0:0:
230,332,135547,2,0,P|253:288|263:239,1,100,0|0,0:0|0:0,0:0:0:0:
374,332,135920,2,0,P|359:284|332:243,1,100,0|0,0:0|0:0,0:0:0:0:
232,152,136293,6,0,B|201:86|169:125|133:183|209:252|349:171|374:273,1,300,0|0,0:0|0:0,0:0:0:0:
416,312,137038,6,0,B|484:287|479:337|464:404|361:399|319:243|229:297,1,300,0|0,0:0|0:0,0:0:0:0:
143,270,137783,5,0,0:0:0:0:
296,216,137970,1,0,0:0:0:0:
136,168,138156,2,0,P|188:136|261:133,1,100,0|0,0:0|0:0,0:0:0:0:
56,136,138529,5,0,0:0:0:0:
199,53,138715,1,0,0:0:0:0:
168,224,138901,2,0,P|224:200|264:168,1,100,0|0,0:0|0:0,0:0:0:0:
199,53,139274,6,0,P|126:70|111:128,1,100,0|0,0:0|0:0,0:0:0:0:
208,144,139647,2,0,P|256:135|285:96,1,100,0|0,0:0|0:0,0:0:0:0:
120,152,140019,2,0,P|124:227|179:250,1,100,0|0,0:0|0:0,0:0:0:0:
232,200,140392,2,0,P|244:274|197:310,1,100,0|0,0:0|0:0,0:0:0:0:
151,271,140765,6,0,B|121:244|103:191|103:191|63:215|109:164|109:164|47:151|79:143|79:143|55:95|103:39|103:39,1,300,0|0,0:0|0:0,0:0:0:0:
168,112,141510,2,0,B|200:112|216:144|216:144|232:184|268:182|268:182|256:216|256:216|308:192|308:192|314:226|314:226|328:200|328:200|368:208,1,300,0|0,0:0|0:0,0:0:0:0:
184,239,142255,5,0,0:0:0:0:
261,104,142442,1,0,0:0:0:0:
189,188,142628,1,0,0:0:0:0:
350,171,142814,1,0,0:0:0:0:
198,121,143001,2,0,P|239:79|319:49,2,100,0|0|0,0:0|0:0|0:0,0:0:0:0:
125,253,143560,1,0,0:0:0:0:
125,253,143653,1,0,0:0:0:0:
125,253,143746,1,0,0:0:0:0:
128,91,143932,1,0,0:0:0:0:
186,219,144119,1,0,0:0:0:0:
53,113,144305,1,0,0:0:0:0:
284,208,144491,6,0,P|226:223|156:208,1,100,0|0,0:0|0:0,0:0:0:0:
79,168,144864,1,0,0:0:0:0:
239,127,145050,1,0,0:0:0:0:
258,293,145237,2,0,B|348:294|352:261|352:261|472:221,1,200,0|0,0:0|0:0,0:0:0:0:
299,192,145796,1,0,0:0:0:0:
135,176,146168,5,0,0:0:0:0:
51,319,146541,5,0,0:0:0:0:
261,174,146914,5,0,0:0:0:0:
261,174,147007,1,0,0:0:0:0:
261,174,147100,1,0,0:0:0:0:
125,228,147286,1,0,0:0:0:0:
160,109,147473,6,0,P|206:90|256:84,1,100,0|0,0:0|0:0,0:0:0:0:
358,279,147845,2,0,P|309:292|260:293,1,100,0|0,0:0|0:0,0:0:0:0:
147,289,148218,2,0,B|55:247|55:247|74:219|37:174|44:117,1,200,0|0,0:0|0:0,0:0:0:0:
147,48,148777,1,0,0:0:0:0:
339,101,149150,5,0,0:0:0:0:
323,264,149522,5,0,0:0:0:0:
256,192,149709,12,0,151199,0:0:0:0:
200,176,151945,6,0,P|256:154|314:210,2,110.000003356934
249,228,152504,1,0,0:0:0:0:
262,85,152690,1,0,0:0:0:0:
163,237,152877,1,0,0:0:0:0:
163,237,152970,1,0,0:0:0:0:
163,237,153063,1,0,0:0:0:0:
329,257,153249,5,0,0:0:0:0:
329,257,153342,1,0,0:0:0:0:
329,257,153436,1,0,0:0:0:0:
179,150,153622,2,0,P|224:170|322:177,1,110.000003356934,0|0,0:0|0:0,0:0:0:0:
405,186,153995,1,0,0:0:0:0:
144,49,154181,2,0,P|225:81|366:101,1,220.000006713867,0|0,0:0|0:0,0:0:0:0:
446,105,154740,5,0,0:0:0:0:
115,147,155113,5,0,0:0:0:0:
452,202,155485,5,0,0:0:0:0:
320,248,155672,2,0,L|202:225,1,110.000003356934,0|0,0:0|0:0,0:0:0:0:
364,323,156044,1,0,0:0:0:0:
220,303,156231,1,0,0:0:0:0:
99,239,156417,1,0,0:0:0:0:
42,122,156603,2,0,P|61:69|110:22,2,110.000003356934,0|0|0,0:0|0:0|0:0,0:0:0:0:
112,138,157162,6,0,B|160:138|160:138|187:110|187:110|216:138|216:138|288:138,1,165.000005035401,0|0,0:0|0:0,0:0:0:0:
252,204,157535,6,0,B|204:204|204:204|177:232|177:232|148:204|148:204|76:204,1,165.000005035401,0|0,0:0|0:0,0:0:0:0:
114,274,157908,2,0,P|195:321|243:245,1,165.000005035401,0|0,0:0|0:0,0:0:0:0:
179,233,158280,1,0,0:0:0:0:
91,140,158467,1,0,0:0:0:0:
114,274,158653,1,0,0:0:0:0:
204,112,158839,1,0,0:0:0:0:
204,112,158932,1,0,0:0:0:0:
204,112,159026,1,0,0:0:0:0:
256,238,159212,5,0,0:0:0:0:
256,238,159305,1,0,0:0:0:0:
256,238,159398,1,0,0:0:0:0:
326,78,159585,1,0,0:0:0:0:
373,195,159771,2,0,P|311:177|243:179,1,110.000003356934,0|0,0:0|0:0,0:0:0:0:
127,250,160144,6,0,B|166:276|166:276|186:328|300:305,1,165.000005035401,0|0,0:0|0:0,0:0:0:0:
246,240,160516,2,0,B|291:230|291:230|342:253|407:156,1,165.000005035401,0|0,0:0|0:0,0:0:0:0:
312,161,160889,2,0,B|338:122|338:122|390:101|367:-11,1,165.000005035401,0|0,0:0|0:0,0:0:0:0:
284,37,161262,2,0,P|256:82|201:117,1,110.000003356934,0|0,0:0|0:0,0:0:0:0:
88,92,161634,6,0,P|64:112|43:146,1,55.0000016784668,0|0,0:0|0:0,0:0:0:0:
221,178,161821,2,0,P|201:200|176:219,1,55.0000016784668,0|0,0:0|0:0,0:0:0:0:
74,198,162007,2,0,P|63:227|63:267,1,55.0000016784668,0|0,0:0|0:0,0:0:0:0:
216,272,162193,2,0,P|210:301|139:349,1,110.000003356934,0|0,0:0|0:0,0:0:0:0:
100,246,162566,1,0,0:0:0:0:
100,246,162752,2,0,P|133:202|178:171,1,110.000003356934,0|0,0:0|0:0,0:0:0:0:
277,143,163125,5,0,0:0:0:0:
102,129,163311,1,0,0:0:0:0:
327,214,163498,1,0,0:0:0:0:
180,97,163684,1,0,0:0:0:0:
268,281,163870,1,0,0:0:0:0:
272,78,164057,1,0,0:0:0:0:
190,240,164243,1,0,0:0:0:0:
351,123,164429,1,0,0:0:0:0:
203,153,164616,1,0,0:0:0:0:
83,124,164802,6,0,P|63:95|44:74,2,55.0000016784668,0|0|0,0:0|0:0|0:0,0:0:0:0:
103,242,165175,1,0,0:0:0:0:
103,242,165268,1,0,0:0:0:0:
103,242,165361,1,0,0:0:0:0:
221,210,165547,2,0,P|222:144|207:84,2,110.000003356934,0|0|0,0:0|0:0|0:0,0:0:0:0:
131,293,166106,2,0,B|186:329|186:329|207:312|207:312|220:335|220:335|307:328,1,165.000005035401,0|0,0:0|0:0,0:0:0:0:
323,308,166479,2,0,P|309:276|326:177,1,110.000003356934,0|0,0:0|0:0,0:0:0:0:
368,128,167038,5,0,0:0:0:0:
106,191,167411,5,0,0:0:0:0:
196,135,167597,2,0,L|256:242,1,110.000003356934,0|0,0:0|0:0,0:0:0:0:
450,244,167970,2,0,L|386:134,1,110.000003356934,0|0,0:0|0:0,0:0:0:0:
221,177,168342,1,0,0:0:0:0:
275,271,168529,1,0,0:0:0:0:
347,166,168715,1,0,0:0:0:0:
171,291,169088,6,0,B|122:275|122:275|113:224|113:224|70:244|109:197|109:197|54:180|86:172|86:172|60:122|60:122|118:64|118:64,1,330.000010070801,0|0,0:0|0:0,0:0:0:0:
177,108,169833,1,0,0:0:0:0:
218,230,170019,1,0,0:0:0:0:
300,133,170206,1,0,0:0:0:0:
89,205,170392,1,0,0:0:0:0:
177,108,170578,6,0,B|166:116|122:97|122:97|74:121,1,110.000003356934,0|0,0:0|0:0,0:0:0:0:
163,224,170951,2,0,P|113:195|17:183,1,110.000003356934,0|0,0:0|0:0,0:0:0:0:
128,311,171324,2,0,B|103:277|103:277|54:272|-2:252,1,110.000003356934,0|0,0:0|0:0,0:0:0:0:
32,359,171696,1,0,0:0:0:0:
88,225,171883,6,0,B|99:185|176:221|176:221|192:152|306:207,1,220.000006713867,0|0,0:0|0:0,0:0:0:0:
345,323,172442,2,0,B|361:247|314:183,1,110.000003356934,0|0,0:0|0:0,0:0:0:0:
198,199,172814,2,0,B|193:234|235:292|311:263,1,110.000003356934,0|0,0:0|0:0,0:0:0:0:
288,165,173187,2,0,P|292:87|257:26,1,110.000003356934,0|0,0:0|0:0,0:0:0:0:
120,72,173560,5,0,0:0:0:0:
120,240,173746,1,0,0:0:0:0:
272,112,173932,1,0,0:0:0:0:
272,216,174119,1,0,0:0:0:0:
152,112,174305,1,0,0:0:0:0:
152,216,174491,1,0,0:0:0:0:
312,72,174678,1,0,0:0:0:0:
312,256,174864,1,0,0:0:0:0:
224,112,175050,6,0,B|152:88|118:62,2,110.000003356934,0|0|0,0:0|0:0|0:0,0:0:0:0:
392,144,175609,1,0,0:0:0:0:
184,216,175796,1,0,0:0:0:0:
183,215,176168,2,0,P|224:176|273:154,1,110.000003356934,0|0,0:0|0:0,0:0:0:0:
264,288,176541,1,0,0:0:0:0:
208,112,176914,6,0,P|262:102|317:103,1,110.000003356934,0|0,0:0|0:0,0:0:0:0:
192,288,177473,5,0,0:0:0:0:
64,168,177845,5,0,0:0:0:0:
208,48,178218,5,0,0:0:0:0:
208,48,178311,1,0,0:0:0:0:
208,48,178404,1,0,0:0:0:0:
248,192,178777,2,0,B|216:264|152:184|192:144|264:136|328:216,1,220.000006713867,0|0,0:0|0:0,0:0:0:0:
228,289,179336,1,0,0:0:0:0:
160,256,179522,6,0,P|142:243|139:222,6,25
264,224,180268,1,0,0:0:0:0:
144,176,180640,1,0,0:0:0:0:
248,80,180827,6,0,P|257:75|296:72,2,50
140,121,181386,1,0,0:0:0:0:
373,171,181759,1,0,0:0:0:0:
256,272,182504,5,0,0:0:0:0:
256,104,183249,5,0,0:0:0:0:
352,192,183995,5,0,0:0:0:0:
144,192,184367,1,0,0:0:0:0:
200,88,184740,2,0,P|254:89|315:105,1,100,0|0,0:0|0:0,0:0:0:0:
232,224,185485,1,0,0:0:0:0:
232,224,186044,6,0,P|202:200|184:172,1,50,0|0,0:0|0:0,0:0:0:0:
296,152,186603,6,0,P|316:118|319:90,1,50,0|0,0:0|0:0,0:0:0:0:
208,74,186976,1,0,0:0:0:0:
87,187,187349,1,0,0:0:0:0:
256,272,187721,1,0,0:0:0:0:
345,116,188280,6,0,L|307:98,2,25,0|0|0,0:0|0:0|0:0,0:0:0:0:
280,176,188653,1,0,0:0:0:0:
224,232,188839,2,0,P|192:240|167:240,1,50,0|0,0:0|0:0,0:0:0:0:
144,144,189212,5,0,0:0:0:0:
384,208,189585,1,0,0:0:0:0:
152,224,189957,1,0,0:0:0:0:
376,128,190330,1,0,0:0:0:0:
192,288,190703,1,0,0:0:0:0:
192,136,191075,6,0,P|200:80|219:37,1,100,0|0,0:0|0:0,0:0:0:0:
303,39,191448,1,0,0:0:0:0:
313,176,191634,1,0,0:0:0:0:
189,61,191821,1,0,0:0:0:0:
81,211,192007,1,0,0:0:0:0:
262,137,192193,1,0,0:0:0:0:
289,253,192380,1,0,0:0:0:0:
170,166,192566,1,0,0:0:0:0:
64,304,192752,1,0,0:0:0:0:
155,99,192939,5,0,0:0:0:0:
215,235,193125,1,0,0:0:0:0:
81,37,193311,1,0,0:0:0:0:
13,190,193498,1,0,0:0:0:0:
217,40,193684,2,0,B|271:56|271:56|264:96|264:96|296:75|296:75|342:142,1,200,0|0,0:0|0:0,0:0:0:0:
193,178,194243,1,0,0:0:0:0:
192,280,194429,6,0,L|304:288,1,100,0|0,0:0|0:0,0:0:0:0:
424,136,194802,2,0,L|312:120,1,100,0|0,0:0|0:0,0:0:0:0:
291,287,195175,2,0,L|408:296,1,100,0|0,0:0|0:0,0:0:0:0:
325,121,195547,2,0,L|200:104,1,100,0|0,0:0|0:0,0:0:0:0:
48,176,195920,2,0,P|128:112|224:152,1,200,0|0,0:0|0:0,0:0:0:0:
152,216,196479,5,0,0:0:0:0:
152,216,196572,1,0,0:0:0:0:
152,216,196665,2,0,P|224:272|336:200,1,200,0|0,0:0|0:0,0:0:0:0:
192,88,197411,5,0,0:0:0:0:
159,100,197504,1,0,0:0:0:0:
135,124,197597,1,0,0:0:0:0:
127,158,197690,1,0,0:0:0:0:
139,191,197783,1,0,0:0:0:0:
161,218,197877,1,0,0:0:0:0:
183,245,197970,1,0,0:0:0:0:
198,276,198063,1,0,0:0:0:0:
216,304,198156,6,0,B|248:344,3,50,0|0|0|0,0:0|0:0|0:0|0:0,0:0:0:0:
296,304,198529,6,0,B|264:344,3,50,0|0|0|0,0:0|0:0|0:0|0:0,0:0:0:0:
312,280,198901,1,0,0:0:0:0:
326,248,198995,1,0,0:0:0:0:
346,219,199088,1,0,0:0:0:0:
369,193,199181,1,0,0:0:0:0:
389,164,199274,1,0,0:0:0:0:
396,130,199367,1,0,0:0:0:0:
384,98,199460,1,0,0:0:0:0:
356,78,199554,1,0,0:0:0:0:
320,80,199647,6,0,B|320:136|232:136|232:32|320:32|320:32|360:32,1,200,0|0,0:0|0:0,0:0:0:0:
456,80,200206,1,0,0:0:0:0:
304,120,200392,2,0,L|408:160,1,100,0|0,0:0|0:0,0:0:0:0:
208,160,200765,1,0,0:0:0:0:
344,216,200951,1,0,0:0:0:0:
120,208,201137,1,0,0:0:0:0:
272,272,201324,1,0,0:0:0:0:
40,264,201510,1,0,0:0:0:0:
192,320,201696,6,0,L|272:296,1,50,0|0,0:0|0:0,0:0:0:0:
160,192,202069,2,0,L|152:120,1,50,0|0,0:0|0:0,0:0:0:0:
368,136,202442,2,0,L|424:88,1,50,0|0,0:0|0:0,0:0:0:0:
240,48,202814,1,0,0:0:0:0:
256,192,203001,12,0,206355,0:0:0:0:
320,192,207100,6,0,P|274:216|212:230,2,110.000003356934
240,104,207659,1,0,0:0:0:0:
122,148,207845,1,0,0:0:0:0:
240,232,208032,1,0,0:0:0:0:
240,232,208125,1,0,0:0:0:0:
240,232,208218,1,0,0:0:0:0:
168,80,208404,5,0,0:0:0:0:
168,80,208498,1,0,0:0:0:0:
168,80,208591,1,0,0:0:0:0:
264,136,208777,2,0,P|336:128|400:144,1,110.000003356934,0|0,0:0|0:0,0:0:0:0:
261,256,209150,1,0,0:0:0:0:
120,144,209336,2,0,P|224:112|368:128,1,220.000006713867,0|0,0:0|0:0,0:0:0:0:
392,200,209895,5,0,0:0:0:0:
208,208,210268,5,0,0:0:0:0:
296,88,210640,5,0,0:0:0:0:
368,48,210827,2,0,P|416:80|464:120,1,110.000003356934,0|0,0:0|0:0,0:0:0:0:
344,152,211200,2,0,P|384:192|424:240,1,110.000003356934,0|0,0:0|0:0,0:0:0:0:
296,232,211572,1,0,0:0:0:0:
248,312,211759,2,0,P|216:280|224:184,2,110.000003356934,0|0|0,0:0|0:0|0:0,0:0:0:0:
392,312,212318,6,0,P|465:223|472:159,1,165.000005035401,0|0,0:0|0:0,0:0:0:0:
397,113,212690,2,0,P|393:194|348:262,1,165.000005035401,0|0,0:0|0:0,0:0:0:0:
296,207,213063,2,0,P|329:95|311:34,1,165.000005035401,0|0,0:0|0:0,0:0:0:0:
248,88,213436,5,0,0:0:0:0:
117,252,213622,1,0,0:0:0:0:
174,48,213808,1,0,0:0:0:0:
197,229,213995,1,0,0:0:0:0:
197,229,214088,1,0,0:0:0:0:
197,229,214181,1,0,0:0:0:0:
95,104,214367,5,0,0:0:0:0:
95,104,214460,1,0,0:0:0:0:
95,104,214554,1,0,0:0:0:0:
55,252,214740,1,0,0:0:0:0:
144,104,214926,2,0,P|187:63|252:37,1,110.000003356934,0|0,0:0|0:0,0:0:0:0:
256,120,215299,6,0,B|278:138|288:198|158:154|186:287,1,165.000005035401,0|0,0:0|0:0,0:0:0:0:
264,256,215672,2,0,B|263:275|302:321|339:204|405:271,1,165.000005035401,0|0,0:0|0:0,0:0:0:0:
432,208,216044,2,0,B|445:114|350:178|267:102,1,165.000005035401
368,64,216417,1,0,0:0:0:0:
328,224,216603,1,0,0:0:0:0:
200,72,216790,6,0,P|201:111|210:144,1,55.0000016784668
264,256,216976,2,0,P|229:263|193:258,1,55.0000016784668
102,131,217162,2,0,P|94:163|95:204,1,55.0000016784668,0|0,0:0|0:0,0:0:0:0:
120,272,217349,2,0,P|158:312|230:355,1,110.000003356934
200,224,217721,1,0,0:0:0:0:
272,120,217908,2,0,P|280:152|317:228,1,110.000003356934
368,304,218280,5,0,0:0:0:0:
237,344,218467,1,0,0:0:0:0:
163,191,218653,1,0,0:0:0:0:
259,292,218839,1,0,0:0:0:0:
405,215,219026,1,0,0:0:0:0:
281,241,219212,1,0,0:0:0:0:
201,102,219398,1,0,0:0:0:0:
303,189,219585,1,0,0:0:0:0:
443,128,219771,1,0,0:0:0:0:
325,138,219957,6,0,P|353:165|370:205,2,55.0000016784668
236,39,220330,2,0,P|192:32|152:48,2,55.0000016784668
361,151,220703,2,0,P|409:185|450:247,1,110.000003356934,0|0,0:0|0:0,0:0:0:0:
336,272,221075,1,0,0:0:0:0:
144,272,221262,1,0,0:0:0:0:
368,336,221634,5,0,0:0:0:0:
200,184,221821,1,0,0:0:0:0:
176,320,222193,5,0,0:0:0:0:
96,64,222566,5,0,0:0:0:0:
120,168,222752,2,0,P|152:226|209:270,1,110.000003356934,0|0,0:0|0:0,0:0:0:0:
190,116,223125,2,0,P|222:174|279:218,1,110.000003356934,0|0,0:0|0:0,0:0:0:0:
419,265,223498,2,0,P|387:207|330:163,1,110.000003356934,0|0,0:0|0:0,0:0:0:0:
489,213,223870,2,0,P|457:155|400:111,1,110.000003356934,0|0,0:0|0:0,0:0:0:0:
278,294,224243,5,0,0:0:0:0:
336,112,224429,1,0,0:0:0:0:
184,176,224616,1,0,0:0:0:0:
344,216,224802,1,0,0:0:0:0:
304,80,224988,6,0,P|247:87|183:106,1,110.000003356934
344,176,225361,1,0,0:0:0:0:
205,211,225547,1,0,0:0:0:0:
340,301,225734,6,0,B|292:325|292:325|248:306|209:320,1,110.000003356934,0|0,0:0|0:0,0:0:0:0:
157,277,226106,2,0,P|207:248|303:236,1,110.000003356934,0|0,0:0|0:0,0:0:0:0:
344,211,226479,2,0,B|319:177|319:177|270:172|214:152,1,110.000003356934,0|0,0:0|0:0,0:0:0:0:
282,78,226852,1,0,0:0:0:0:
152,96,227038,2,0,B|199:164|199:164|186:253|302:274,1,220.000006713867
400,272,227597,2,0,B|405:307|363:365|287:336,1,110.000003356934
296,256,227970,2,0,B|280:180|327:116,1,110.000003356934
208,160,228342,2,0,P|204:82|239:21,1,110.000003356934
344,80,228715,5,0,0:0:0:0:
384,176,228901,1,0,0:0:0:0:
264,120,229088,1,0,0:0:0:0:
296,224,229274,1,0,0:0:0:0:
176,168,229460,1,0,0:0:0:0:
208,272,229647,1,0,0:0:0:0:
104,224,229833,1,0,0:0:0:0:
136,328,230019,1,0,0:0:0:0:
32,272,230206,6,0,L|80:384,1,110.000003356934
136,192,230578,2,0,L|192:304,2,110.000003356934
136,192,231324,6,0,P|174:157|253:124,1,110.000003356934
256,272,231696,1,0,0:0:0:0:
242,167,232069,6,0,P|304:194|359:234,1,110.000003356934,0|0,0:0|0:0,0:0:0:0:
88,256,232628,5,0,0:0:0:0:
56,128,233001,5,0,0:0:0:0:
176,40,233373,5,0,0:0:0:0:
176,40,233467,1,0,0:0:0:0:
176,40,233560,1,0,0:0:0:0:
232,80,233932,6,0,B|296:40|336:112|288:144|288:144|248:168|256:184|256:208|256:208|256:256,1,220.000006713867,0|0,0:0|0:0,0:0:0:0:
256,280,234491,1,0,0:0:0:0:
256,192,234678,12,0,236168,0:0:0:0:
294,135,236355,6,0,P|318:142|336:160,2,50
217,248,236727,2,0,P|193:241|176:224,2,50
256,344,237286,6,0,P|312:336|360:304,1,100
384,184,237659,1,0,0:0:0:0:
304,72,238032,6,0,P|256:57|160:64,1,100
48,144,238591,5,0,0:0:0:0:
144,312,238963,5,0,0:0:0:0:
264,208,239336,5,0,0:0:0:0:
264,208,239429,1,0,0:0:0:0:
264,208,239522,1,0,0:0:0:0:
256,112,239895,6,0,B|256:72|232:12|132:-94|-8:104|0:248|168:168|208:256|255:332|256:344|256:344|255:332|304:256|344:168|512:248|520:104|377:-94|285:12|256:72|256:112,1,1100.00003356934
