osu file format v14

[General]
AudioFilename: audio.mp3
AudioLeadIn: 0
PreviewTime: 75202
Countdown: 1
SampleSet: Normal
StackLeniency: 0.7
Mode: 1
LetterboxInBreaks: 0
WidescreenStoryboard: 1

[Editor]
DistanceSpacing: 0.8
BeatDivisor: 4
GridSize: 32
TimelineZoom: 2.4

[Metadata]
Title:Revontulet
TitleUnicode:Revontulet
Artist:Sonata Arctica
ArtistUnicode:Sonata Arctica
Creator:_WWWWWW_WWWWWW_
Version:Ura Oni
Source:
Tags:melodic power metal instrumental silence 2001 _w6 argentine dream
BeatmapID:1781810
BeatmapSetID:764052

[Difficulty]
HPDrainRate:6
CircleSize:5
OverallDifficulty:6.5
ApproachRate:5
SliderMultiplier:1.4
SliderTickRate:1

[Events]
//Background and Video events
0,0,"revontulet.jpg",0,0
//Break Periods
//Storyboard Layer 0 (Background)
//Storyboard Layer 1 (Fail)
//Storyboard Layer 2 (Pass)
//Storyboard Layer 3 (Foreground)
//Storyboard Sound Samples

[TimingPoints]
290,338.983050847458,4,1,0,80,1,0
11137,-100,4,1,0,80,0,1
21645,338.983050847458,4,1,0,80,1,9
21994,447.761194029851,4,1,0,80,1,0
21994,-83.3333333333333,4,1,0,80,0,0
30725,447.761194029851,4,1,0,80,1,0
30725,-83.3333333333333,4,1,0,80,0,0
37665,447.761194029851,4,1,0,80,1,0
37665,-83.3333333333333,4,1,0,80,0,0
41023,447.761194029851,4,1,0,80,1,0
41023,-83.3333333333333,4,1,0,80,0,0
47963,447.761194029851,4,1,0,80,1,0
47963,-83.3333333333333,4,1,0,80,0,0
58485,447.761194029851,4,1,0,80,1,0
58485,-83.3333333333333,4,1,0,80,0,0
63858,447.761194029851,6,1,0,80,1,0
63858,-83.3333333333333,4,1,0,80,0,0
69231,447.761194029851,2,1,0,80,1,8
69231,-75.0187546886722,6,1,0,80,0,0
70126,338.983050847458,4,1,0,80,1,0
75549,-100,4,1,0,80,0,1
80973,-100,4,1,0,80,0,0

[HitObjects]
224,160,290,5,8,0:0:0:0:
224,160,346,1,8,0:0:0:0:
224,160,402,1,8,0:0:0:0:
224,160,459,1,8,0:0:0:0:
224,160,628,1,8,0:0:0:0:
224,160,685,1,8,0:0:0:0:
224,160,741,1,8,0:0:0:0:
224,160,798,1,8,0:0:0:0:
224,224,967,1,0,0:0:0:0:
224,224,1024,1,0,0:0:0:0:
224,224,1080,1,0,0:0:0:0:
224,224,1137,1,0,0:0:0:0:
224,224,1645,5,0,0:0:0:0:
224,224,1702,1,0,0:0:0:0:
224,224,1758,1,0,0:0:0:0:
224,224,1815,1,0,0:0:0:0:
224,224,1984,1,0,0:0:0:0:
224,224,2041,1,0,0:0:0:0:
224,224,2097,1,0,0:0:0:0:
224,224,2154,1,0,0:0:0:0:
224,160,2323,1,8,0:0:0:0:
224,160,2380,1,8,0:0:0:0:
224,160,2436,1,8,0:0:0:0:
224,160,2493,1,8,0:0:0:0:
288,160,2662,1,12,0:0:0:0:
224,160,3001,5,8,0:0:0:0:
224,160,3058,1,8,0:0:0:0:
224,160,3114,1,8,0:0:0:0:
224,160,3171,1,8,0:0:0:0:
224,224,3340,1,0,0:0:0:0:
224,224,3397,1,0,0:0:0:0:
224,224,3453,1,0,0:0:0:0:
224,224,3510,1,0,0:0:0:0:
224,160,3679,1,8,0:0:0:0:
224,160,3736,1,8,0:0:0:0:
224,160,3792,1,8,0:0:0:0:
224,160,3849,1,8,0:0:0:0:
224,224,4357,5,0,0:0:0:0:
224,224,4414,1,0,0:0:0:0:
224,224,4470,1,0,0:0:0:0:
224,224,4527,1,0,0:0:0:0:
224,160,4696,1,8,0:0:0:0:
224,160,4753,1,8,0:0:0:0:
224,160,4809,1,8,0:0:0:0:
224,160,4866,1,8,0:0:0:0:
224,224,5035,1,0,0:0:0:0:
224,224,5092,1,0,0:0:0:0:
224,224,5148,1,0,0:0:0:0:
224,224,5205,1,0,0:0:0:0:
288,224,5374,1,4,0:0:0:0:
224,160,5713,5,8,0:0:0:0:
224,160,5770,1,8,0:0:0:0:
224,160,5826,1,8,0:0:0:0:
224,160,5883,1,8,0:0:0:0:
224,160,6052,1,8,0:0:0:0:
224,160,6109,1,8,0:0:0:0:
224,160,6165,1,8,0:0:0:0:
224,160,6222,1,8,0:0:0:0:
224,224,6391,1,0,0:0:0:0:
224,224,6448,1,0,0:0:0:0:
224,224,6504,1,0,0:0:0:0:
224,224,6561,1,0,0:0:0:0:
224,224,7069,5,0,0:0:0:0:
224,224,7126,1,0,0:0:0:0:
224,224,7182,1,0,0:0:0:0:
224,224,7239,1,0,0:0:0:0:
224,224,7408,1,0,0:0:0:0:
224,224,7465,1,0,0:0:0:0:
224,224,7521,1,0,0:0:0:0:
224,224,7578,1,0,0:0:0:0:
224,160,7747,1,8,0:0:0:0:
224,160,7804,1,8,0:0:0:0:
224,160,7860,1,8,0:0:0:0:
224,160,7917,1,8,0:0:0:0:
288,160,8086,1,12,0:0:0:0:
224,160,8425,5,8,0:0:0:0:
224,160,8482,1,8,0:0:0:0:
224,160,8538,1,8,0:0:0:0:
224,160,8595,1,8,0:0:0:0:
224,224,8764,1,0,0:0:0:0:
224,224,8821,1,0,0:0:0:0:
224,224,8877,1,0,0:0:0:0:
224,224,8934,1,0,0:0:0:0:
224,160,9103,1,8,0:0:0:0:
224,160,9160,1,8,0:0:0:0:
224,160,9216,1,8,0:0:0:0:
224,160,9273,1,8,0:0:0:0:
224,224,9781,5,0,0:0:0:0:
224,224,9838,1,0,0:0:0:0:
224,224,9894,1,0,0:0:0:0:
224,224,9951,1,0,0:0:0:0:
224,160,10120,1,8,0:0:0:0:
224,160,10177,1,8,0:0:0:0:
224,160,10233,1,8,0:0:0:0:
224,160,10290,1,8,0:0:0:0:
224,224,10459,1,0,0:0:0:0:
224,224,10515,1,0,0:0:0:0:
224,224,10572,1,0,0:0:0:0:
224,224,10628,1,0,0:0:0:0:
288,224,10798,1,4,0:0:0:0:
224,224,11137,5,0,0:0:0:0:
224,224,11306,1,0,0:0:0:0:
224,224,11391,1,0,0:0:0:0:
224,160,11476,1,8,0:0:0:0:
224,160,11645,1,8,0:0:0:0:
224,224,11815,1,0,0:0:0:0:
224,224,11871,1,0,0:0:0:0:
224,224,11928,1,0,0:0:0:0:
224,224,11984,1,0,0:0:0:0:
224,160,12154,1,8,0:0:0:0:
224,224,12493,5,0,0:0:0:0:
224,224,12549,1,0,0:0:0:0:
224,224,12606,1,0,0:0:0:0:
224,224,12662,1,0,0:0:0:0:
224,224,12832,1,0,0:0:0:0:
224,224,12888,1,0,0:0:0:0:
224,224,12945,1,0,0:0:0:0:
224,224,13001,1,0,0:0:0:0:
224,160,13171,1,8,0:0:0:0:
224,160,13227,1,8,0:0:0:0:
224,160,13284,1,8,0:0:0:0:
224,160,13340,1,8,0:0:0:0:
288,160,13510,1,12,0:0:0:0:
224,160,13849,5,8,0:0:0:0:
224,224,14018,1,0,0:0:0:0:
224,224,14103,1,0,0:0:0:0:
224,160,14188,1,8,0:0:0:0:
224,160,14357,1,8,0:0:0:0:
224,224,14527,1,0,0:0:0:0:
224,224,14583,1,0,0:0:0:0:
224,224,14640,1,0,0:0:0:0:
224,224,14696,1,0,0:0:0:0:
224,160,14866,1,8,0:0:0:0:
224,160,15205,5,8,0:0:0:0:
224,160,15261,1,8,0:0:0:0:
224,160,15318,1,8,0:0:0:0:
224,160,15374,1,8,0:0:0:0:
224,224,15544,1,0,0:0:0:0:
224,224,15600,1,0,0:0:0:0:
224,224,15657,1,0,0:0:0:0:
224,224,15713,1,0,0:0:0:0:
224,160,15883,1,8,0:0:0:0:
224,160,15939,1,8,0:0:0:0:
224,160,15996,1,8,0:0:0:0:
224,160,16052,1,8,0:0:0:0:
288,160,16222,1,12,0:0:0:0:
224,224,16561,5,0,0:0:0:0:
224,224,16730,1,0,0:0:0:0:
224,224,16815,1,0,0:0:0:0:
224,160,16900,1,8,0:0:0:0:
224,160,17069,1,8,0:0:0:0:
224,224,17239,1,0,0:0:0:0:
224,224,17295,1,0,0:0:0:0:
224,224,17352,1,0,0:0:0:0:
224,224,17408,1,0,0:0:0:0:
224,160,17578,1,8,0:0:0:0:
224,224,17917,5,0,0:0:0:0:
224,224,17973,1,0,0:0:0:0:
224,224,18030,1,0,0:0:0:0:
224,224,18086,1,0,0:0:0:0:
224,224,18256,1,0,0:0:0:0:
224,224,18312,1,0,0:0:0:0:
224,224,18369,1,0,0:0:0:0:
224,224,18425,1,0,0:0:0:0:
224,160,18595,1,8,0:0:0:0:
224,160,18651,1,8,0:0:0:0:
224,160,18708,1,8,0:0:0:0:
224,160,18764,1,8,0:0:0:0:
288,160,18934,1,12,0:0:0:0:
224,160,19273,5,8,0:0:0:0:
224,224,19442,1,0,0:0:0:0:
224,224,19527,1,0,0:0:0:0:
224,160,19612,1,8,0:0:0:0:
224,160,19781,1,8,0:0:0:0:
224,224,19951,1,0,0:0:0:0:
224,224,20007,1,0,0:0:0:0:
224,224,20064,1,0,0:0:0:0:
224,224,20120,1,0,0:0:0:0:
224,160,20290,1,8,0:0:0:0:
224,160,20628,5,8,0:0:0:0:
224,160,20685,1,8,0:0:0:0:
224,160,20741,1,8,0:0:0:0:
224,160,20798,1,8,0:0:0:0:
224,224,20967,1,0,0:0:0:0:
224,224,21024,1,0,0:0:0:0:
224,224,21080,1,0,0:0:0:0:
224,224,21137,1,0,0:0:0:0:
224,160,21306,1,8,0:0:0:0:
224,160,21363,1,8,0:0:0:0:
224,160,21419,1,8,0:0:0:0:
224,160,21476,1,8,0:0:0:0:
288,160,21645,1,12,0:0:0:0:
224,160,21994,5,8,0:0:0:0:
224,160,22105,1,8,0:0:0:0:
224,224,22217,1,0,0:0:0:0:
224,224,22329,1,0,0:0:0:0:
224,160,22441,1,8,0:0:0:0:
224,160,22553,1,8,0:0:0:0:
224,224,22665,1,0,0:0:0:0:
224,160,22777,1,8,0:0:0:0:
224,224,22889,1,0,0:0:0:0:
224,224,23001,1,0,0:0:0:0:
224,224,23113,1,0,0:0:0:0:
224,224,23225,1,0,0:0:0:0:
288,160,23337,5,12,0:0:0:0:
224,224,23785,1,0,0:0:0:0:
224,160,23896,1,8,0:0:0:0:
224,224,24008,1,0,0:0:0:0:
224,160,24232,1,8,0:0:0:0:
224,160,24344,1,8,0:0:0:0:
224,224,24456,1,0,0:0:0:0:
224,160,24680,5,8,0:0:0:0:
224,160,24792,1,8,0:0:0:0:
224,224,24904,1,0,0:0:0:0:
224,224,25016,1,0,0:0:0:0:
224,160,25128,1,8,0:0:0:0:
224,160,25240,1,8,0:0:0:0:
224,224,25352,1,0,0:0:0:0:
288,224,25576,1,4,0:0:0:0:
288,160,25799,1,12,0:0:0:0:
288,224,26023,1,4,0:0:0:0:
288,224,26247,1,4,0:0:0:0:
224,160,26471,5,8,0:0:0:0:
224,160,26546,1,8,0:0:0:0:
224,160,26620,1,8,0:0:0:0:
224,160,26695,1,8,0:0:0:0:
224,160,26770,1,8,0:0:0:0:
224,160,26844,1,8,0:0:0:0:
224,224,26919,1,0,0:0:0:0:
224,160,27143,1,8,0:0:0:0:
224,224,27367,1,0,0:0:0:0:
224,160,27479,1,8,0:0:0:0:
224,224,27591,1,0,0:0:0:0:
224,160,27814,1,8,0:0:0:0:
224,160,27926,1,8,0:0:0:0:
224,224,28038,1,0,0:0:0:0:
224,160,28262,5,8,0:0:0:0:
224,160,28374,1,8,0:0:0:0:
224,224,28486,1,0,0:0:0:0:
224,224,28598,1,0,0:0:0:0:
224,160,28710,1,8,0:0:0:0:
224,160,28822,1,8,0:0:0:0:
224,224,28934,1,0,0:0:0:0:
288,224,29158,1,4,0:0:0:0:
288,160,29382,1,12,0:0:0:0:
288,224,29605,1,4,0:0:0:0:
288,224,29829,1,4,0:0:0:0:
224,160,30053,5,8,0:0:0:0:
224,224,30128,1,8,0:0:0:0:
224,224,30202,1,8,0:0:0:0:
224,160,30277,1,8,0:0:0:0:
224,160,30352,1,8,0:0:0:0:
224,160,30426,1,8,0:0:0:0:
224,224,30501,1,0,0:0:0:0:
224,224,30725,1,0,0:0:0:0:
224,160,30836,1,8,0:0:0:0:
224,224,30948,1,0,0:0:0:0:
224,160,31172,1,8,0:0:0:0:
224,160,31284,1,8,0:0:0:0:
224,224,31396,1,0,0:0:0:0:
224,160,31620,1,8,0:0:0:0:
224,160,31732,1,8,0:0:0:0:
224,224,31844,5,0,0:0:0:0:
224,224,31956,1,0,0:0:0:0:
224,160,32068,1,8,0:0:0:0:
224,160,32180,1,8,0:0:0:0:
224,224,32292,1,0,0:0:0:0:
288,224,32516,1,4,0:0:0:0:
288,160,32739,1,12,0:0:0:0:
288,224,32963,1,4,0:0:0:0:
288,224,33187,1,4,0:0:0:0:
224,160,33411,5,8,0:0:0:0:
224,224,33486,1,8,0:0:0:0:
224,224,33560,1,8,0:0:0:0:
224,160,33635,1,8,0:0:0:0:
224,160,33710,1,8,0:0:0:0:
224,160,33784,1,8,0:0:0:0:
224,224,33859,1,0,0:0:0:0:
224,160,34083,1,8,0:0:0:0:
224,224,34307,1,0,0:0:0:0:
224,160,34419,1,8,0:0:0:0:
224,224,34530,1,0,0:0:0:0:
224,160,34754,1,8,0:0:0:0:
224,160,34866,1,8,0:0:0:0:
224,224,34978,1,0,0:0:0:0:
224,160,35202,5,8,0:0:0:0:
224,160,35314,1,8,0:0:0:0:
224,224,35426,1,0,0:0:0:0:
224,224,35538,1,0,0:0:0:0:
224,160,35650,1,8,0:0:0:0:
224,160,35762,1,8,0:0:0:0:
224,224,35874,1,0,0:0:0:0:
288,224,36098,1,4,0:0:0:0:
288,160,36322,1,12,0:0:0:0:
288,224,36545,1,4,0:0:0:0:
288,224,36769,1,4,0:0:0:0:
224,160,36993,5,8,0:0:0:0:
224,224,37068,1,8,0:0:0:0:
224,224,37142,1,8,0:0:0:0:
224,160,37217,1,8,0:0:0:0:
224,160,37292,1,8,0:0:0:0:
224,160,37366,1,8,0:0:0:0:
224,224,37441,1,0,0:0:0:0:
288,160,37665,1,12,0:0:0:0:
288,160,38000,1,12,0:0:0:0:
288,224,38336,1,4,0:0:0:0:
288,160,38672,1,12,0:0:0:0:
288,224,39008,1,4,0:0:0:0:
224,224,39232,1,0,0:0:0:0:
224,224,39344,1,0,0:0:0:0:
288,160,39456,1,12,0:0:0:0:
288,160,39791,5,12,0:0:0:0:
288,224,40127,1,4,0:0:0:0:
288,160,40351,1,12,0:0:0:0:
288,224,40575,1,4,0:0:0:0:
288,160,41023,5,12,0:0:0:0:
288,160,41358,1,12,0:0:0:0:
288,224,41694,1,4,0:0:0:0:
288,160,42030,1,12,0:0:0:0:
288,224,42366,1,4,0:0:0:0:
224,224,42590,1,0,0:0:0:0:
224,224,42702,1,0,0:0:0:0:
288,160,42814,5,12,0:0:0:0:
288,160,43149,1,12,0:0:0:0:
288,224,43485,1,4,0:0:0:0:
288,160,43821,1,12,0:0:0:0:
288,224,44157,1,4,0:0:0:0:
224,160,44605,5,8,0:0:0:0:
224,224,44717,1,0,0:0:0:0:
224,160,44940,1,8,0:0:0:0:
224,224,45052,1,0,0:0:0:0:
224,160,45276,1,8,0:0:0:0:
224,160,45388,1,8,0:0:0:0:
224,224,45500,1,0,0:0:0:0:
224,160,45612,1,8,0:0:0:0:
224,160,45724,1,8,0:0:0:0:
224,160,45948,1,8,0:0:0:0:
224,160,46060,1,8,0:0:0:0:
224,224,46172,1,0,0:0:0:0:
224,160,46396,5,8,0:0:0:0:
224,224,46508,1,0,0:0:0:0:
224,160,46731,1,8,0:0:0:0:
224,224,46843,1,0,0:0:0:0:
224,160,47067,1,8,0:0:0:0:
224,224,47179,1,0,0:0:0:0:
224,160,47291,1,8,0:0:0:0:
224,224,47403,1,0,0:0:0:0:
224,160,47515,1,8,0:0:0:0:
224,224,47627,1,0,0:0:0:0:
224,224,47739,1,0,0:0:0:0:
224,160,47963,5,8,0:0:0:0:
224,224,48074,1,0,0:0:0:0:
224,160,48298,1,8,0:0:0:0:
224,224,48410,1,0,0:0:0:0:
224,160,48634,1,8,0:0:0:0:
224,160,48746,1,8,0:0:0:0:
224,224,48858,1,0,0:0:0:0:
224,160,48970,1,8,0:0:0:0:
224,160,49082,1,8,0:0:0:0:
224,160,49306,1,8,0:0:0:0:
224,160,49418,1,8,0:0:0:0:
224,224,49530,1,0,0:0:0:0:
224,160,49754,5,8,0:0:0:0:
224,224,49865,1,0,0:0:0:0:
224,160,50089,1,8,0:0:0:0:
224,224,50201,1,0,0:0:0:0:
224,160,50425,1,8,0:0:0:0:
224,160,50537,1,8,0:0:0:0:
224,224,50649,1,0,0:0:0:0:
224,160,50761,1,8,0:0:0:0:
224,160,50873,1,8,0:0:0:0:
224,160,50985,1,8,0:0:0:0:
224,224,51097,1,0,0:0:0:0:
224,160,51321,1,8,0:0:0:0:
224,224,51545,5,0,0:0:0:0:
224,160,51657,1,8,0:0:0:0:
224,224,51768,1,0,0:0:0:0:
224,160,51992,1,8,0:0:0:0:
224,160,52104,1,8,0:0:0:0:
224,224,52216,1,0,0:0:0:0:
224,160,52440,1,8,0:0:0:0:
224,160,52552,1,8,0:0:0:0:
224,224,52664,1,0,0:0:0:0:
224,224,52776,1,0,0:0:0:0:
224,160,52888,1,8,0:0:0:0:
224,160,53000,1,8,0:0:0:0:
224,224,53112,1,0,0:0:0:0:
288,224,53336,5,4,0:0:0:0:
288,160,53560,1,12,0:0:0:0:
288,224,53783,1,4,0:0:0:0:
288,224,54007,1,4,0:0:0:0:
224,160,54231,1,8,0:0:0:0:
224,224,54306,1,8,0:0:0:0:
224,224,54380,1,8,0:0:0:0:
224,160,54455,1,8,0:0:0:0:
224,160,54530,1,8,0:0:0:0:
224,160,54604,1,8,0:0:0:0:
224,224,54679,1,0,0:0:0:0:
224,160,54903,1,8,0:0:0:0:
224,224,55127,5,0,0:0:0:0:
224,160,55239,1,8,0:0:0:0:
224,224,55351,1,0,0:0:0:0:
224,160,55574,1,8,0:0:0:0:
224,160,55686,1,8,0:0:0:0:
224,224,55798,1,0,0:0:0:0:
224,160,56022,1,8,0:0:0:0:
224,160,56134,1,8,0:0:0:0:
224,224,56246,1,0,0:0:0:0:
224,224,56358,1,0,0:0:0:0:
224,160,56470,1,8,0:0:0:0:
224,160,56582,1,8,0:0:0:0:
224,224,56694,1,0,0:0:0:0:
288,224,56918,5,4,0:0:0:0:
288,160,57142,1,12,0:0:0:0:
288,224,57365,1,4,0:0:0:0:
288,224,57589,1,4,0:0:0:0:
224,160,57813,1,8,0:0:0:0:
224,224,57888,1,8,0:0:0:0:
224,224,57963,1,8,0:0:0:0:
224,160,58037,1,8,0:0:0:0:
224,160,58112,1,8,0:0:0:0:
224,160,58186,1,8,0:0:0:0:
224,224,58261,1,0,0:0:0:0:
224,224,58485,1,0,0:0:0:0:
224,160,58596,1,8,0:0:0:0:
224,224,58708,5,0,0:0:0:0:
224,160,58932,1,8,0:0:0:0:
224,160,59044,1,8,0:0:0:0:
224,224,59156,1,0,0:0:0:0:
224,160,59380,1,8,0:0:0:0:
224,160,59492,1,8,0:0:0:0:
224,224,59604,1,0,0:0:0:0:
224,224,59716,1,0,0:0:0:0:
224,160,59828,1,8,0:0:0:0:
224,160,59940,1,8,0:0:0:0:
224,224,60052,1,0,0:0:0:0:
288,224,60276,5,4,0:0:0:0:
288,160,60499,1,12,0:0:0:0:
288,224,60723,1,4,0:0:0:0:
288,224,60947,1,4,0:0:0:0:
224,160,61171,1,8,0:0:0:0:
224,224,61246,1,8,0:0:0:0:
224,224,61320,1,8,0:0:0:0:
224,160,61395,1,8,0:0:0:0:
224,160,61470,1,8,0:0:0:0:
224,160,61544,1,8,0:0:0:0:
224,224,61619,1,0,0:0:0:0:
224,160,61843,1,8,0:0:0:0:
224,224,62067,5,0,0:0:0:0:
224,160,62179,1,8,0:0:0:0:
224,224,62290,1,0,0:0:0:0:
224,160,62514,1,8,0:0:0:0:
224,160,62626,1,8,0:0:0:0:
224,224,62738,1,0,0:0:0:0:
224,160,62962,1,8,0:0:0:0:
224,160,63074,1,8,0:0:0:0:
224,224,63186,1,0,0:0:0:0:
224,224,63298,1,0,0:0:0:0:
224,160,63410,1,8,0:0:0:0:
224,160,63522,1,8,0:0:0:0:
224,224,63634,1,0,0:0:0:0:
288,224,63858,5,4,0:0:0:0:
288,160,64082,1,12,0:0:0:0:
288,224,64305,1,4,0:0:0:0:
288,224,64529,1,4,0:0:0:0:
224,160,64753,5,8,0:0:0:0:
224,224,64828,1,8,0:0:0:0:
224,224,64902,1,8,0:0:0:0:
224,160,64977,1,8,0:0:0:0:
224,160,65052,1,8,0:0:0:0:
224,160,65126,1,8,0:0:0:0:
224,224,65201,1,0,0:0:0:0:
224,160,65425,5,8,0:0:0:0:
224,224,65499,1,8,0:0:0:0:
224,224,65574,1,8,0:0:0:0:
224,160,65649,1,8,0:0:0:0:
224,160,65723,1,8,0:0:0:0:
224,160,65798,1,8,0:0:0:0:
224,224,65873,1,0,0:0:0:0:
224,160,66096,5,8,0:0:0:0:
224,224,66171,1,8,0:0:0:0:
224,224,66246,1,8,0:0:0:0:
224,160,66320,1,8,0:0:0:0:
224,224,66395,1,0,0:0:0:0:
224,224,66470,1,0,0:0:0:0:
224,160,66544,1,8,0:0:0:0:
256,192,66768,8,0,69231,0:0:0:0:
288,224,69455,5,4,0:0:0:0:
288,160,69679,1,12,0:0:0:0:
288,224,69902,1,4,0:0:0:0:
224,160,70126,5,8,0:0:0:0:
224,160,70182,1,8,0:0:0:0:
224,160,70238,1,8,0:0:0:0:
224,160,70295,1,8,0:0:0:0:
224,160,70464,1,8,0:0:0:0:
224,160,70521,1,8,0:0:0:0:
224,160,70577,1,8,0:0:0:0:
224,160,70634,1,8,0:0:0:0:
224,224,70803,1,0,0:0:0:0:
224,224,70860,1,0,0:0:0:0:
224,224,70916,1,0,0:0:0:0:
224,224,70973,1,0,0:0:0:0:
224,224,71481,5,0,0:0:0:0:
224,224,71538,1,0,0:0:0:0:
224,224,71594,1,0,0:0:0:0:
224,224,71651,1,0,0:0:0:0:
224,224,71820,1,0,0:0:0:0:
224,224,71877,1,0,0:0:0:0:
224,224,71933,1,0,0:0:0:0:
224,224,71990,1,0,0:0:0:0:
224,160,72159,1,8,0:0:0:0:
224,160,72216,1,8,0:0:0:0:
224,160,72272,1,8,0:0:0:0:
224,160,72329,1,8,0:0:0:0:
288,160,72498,1,12,0:0:0:0:
224,160,72837,5,8,0:0:0:0:
224,160,72894,1,8,0:0:0:0:
224,160,72950,1,8,0:0:0:0:
224,160,73007,1,8,0:0:0:0:
224,224,73176,1,0,0:0:0:0:
224,224,73233,1,0,0:0:0:0:
224,224,73289,1,0,0:0:0:0:
224,224,73346,1,0,0:0:0:0:
224,160,73515,1,8,0:0:0:0:
224,160,73572,1,8,0:0:0:0:
224,160,73628,1,8,0:0:0:0:
224,160,73685,1,8,0:0:0:0:
224,224,74193,5,0,0:0:0:0:
224,224,74250,1,0,0:0:0:0:
224,224,74306,1,0,0:0:0:0:
224,224,74363,1,0,0:0:0:0:
224,160,74532,1,8,0:0:0:0:
224,160,74589,1,8,0:0:0:0:
224,160,74645,1,8,0:0:0:0:
224,160,74702,1,8,0:0:0:0:
224,224,74871,1,0,0:0:0:0:
224,224,74928,1,0,0:0:0:0:
224,224,74984,1,0,0:0:0:0:
224,224,75041,1,0,0:0:0:0:
288,224,75210,1,4,0:0:0:0:
224,224,75549,5,0,0:0:0:0:
224,224,75719,1,0,0:0:0:0:
224,224,75803,1,0,0:0:0:0:
224,160,75888,1,8,0:0:0:0:
224,160,76058,1,8,0:0:0:0:
224,224,76227,1,0,0:0:0:0:
224,224,76284,1,0,0:0:0:0:
224,224,76340,1,0,0:0:0:0:
224,224,76397,1,0,0:0:0:0:
224,160,76566,1,8,0:0:0:0:
224,224,76905,5,0,0:0:0:0:
224,224,76962,1,0,0:0:0:0:
224,224,77018,1,0,0:0:0:0:
224,224,77075,1,0,0:0:0:0:
224,224,77244,1,0,0:0:0:0:
224,224,77301,1,0,0:0:0:0:
224,224,77357,1,0,0:0:0:0:
224,224,77414,1,0,0:0:0:0:
224,160,77583,1,8,0:0:0:0:
224,160,77640,1,8,0:0:0:0:
224,160,77696,1,8,0:0:0:0:
224,160,77753,1,8,0:0:0:0:
288,160,77922,1,12,0:0:0:0:
224,160,78261,5,8,0:0:0:0:
224,224,78431,1,0,0:0:0:0:
224,224,78515,1,0,0:0:0:0:
224,160,78600,1,8,0:0:0:0:
224,224,78770,1,0,0:0:0:0:
224,224,78939,1,0,0:0:0:0:
224,224,78996,1,0,0:0:0:0:
224,224,79052,1,0,0:0:0:0:
224,224,79109,1,0,0:0:0:0:
224,160,79278,1,8,0:0:0:0:
224,160,79617,5,8,0:0:0:0:
224,160,79674,1,8,0:0:0:0:
224,160,79730,1,8,0:0:0:0:
224,160,79787,1,8,0:0:0:0:
224,224,79956,1,0,0:0:0:0:
224,224,80013,1,0,0:0:0:0:
224,224,80069,1,0,0:0:0:0:
224,224,80126,1,0,0:0:0:0:
224,160,80295,1,8,0:0:0:0:
224,160,80351,1,8,0:0:0:0:
224,160,80408,1,8,0:0:0:0:
224,160,80464,1,8,0:0:0:0:
288,160,80634,1,12,0:0:0:0:
288,160,80973,5,12,0:0:0:0:
224,160,81142,1,8,0:0:0:0:
224,224,81312,1,0,0:0:0:0:
224,224,81481,1,0,0:0:0:0:
224,160,81651,5,8,0:0:0:0:
224,224,81820,1,0,0:0:0:0:
224,224,81990,1,0,0:0:0:0:
224,224,82159,1,0,0:0:0:0:
224,160,82329,5,8,0:0:0:0:
224,224,82498,1,0,0:0:0:0:
224,224,82668,1,8,0:0:0:0:
224,160,82837,1,8,0:0:0:0:
224,224,83007,5,0,0:0:0:0:
224,224,83063,1,0,0:0:0:0:
224,224,83120,1,0,0:0:0:0:
224,224,83176,1,0,0:0:0:0:
224,160,83346,5,8,0:0:0:0:
224,160,83402,1,8,0:0:0:0:
224,160,83459,1,8,0:0:0:0:
224,224,83515,1,8,0:0:0:0:
288,224,83685,5,4,0:0:0:0:
224,224,83854,1,0,0:0:0:0:
224,224,83939,1,0,0:0:0:0:
224,224,84024,1,8,0:0:0:0:
224,224,84109,1,8,0:0:0:0:
224,224,84193,1,8,0:0:0:0:
224,224,84278,1,8,0:0:0:0:
224,224,84363,1,0,0:0:0:0:
224,224,84448,1,0,0:0:0:0:
224,224,84532,1,0,0:0:0:0:
224,224,84617,1,0,0:0:0:0:
224,224,84702,1,8,0:0:0:0:
224,224,84787,1,8,0:0:0:0:
224,224,84871,1,0,0:0:0:0:
224,224,84956,1,0,0:0:0:0:
224,160,85041,1,8,0:0:0:0:
224,224,85210,1,0,0:0:0:0:
224,224,85295,1,0,0:0:0:0:
224,160,85380,1,8,0:0:0:0:
224,160,85464,1,8,0:0:0:0:
224,160,85549,1,8,0:0:0:0:
224,160,85634,1,8,0:0:0:0:
224,224,85719,1,0,0:0:0:0:
224,224,85803,1,0,0:0:0:0:
224,224,85888,1,0,0:0:0:0:
224,224,85973,1,0,0:0:0:0:
224,160,86058,1,8,0:0:0:0:
224,160,86142,1,8,0:0:0:0:
224,224,86227,1,0,0:0:0:0:
224,224,86312,1,0,0:0:0:0:
288,160,86397,5,12,0:0:0:0:
