osu file format v14

[General]
AudioFilename: audio.mp3
AudioLeadIn: 0
PreviewTime: 75202
Countdown: 1
SampleSet: Normal
StackLeniency: 0.7
Mode: 1
LetterboxInBreaks: 0
WidescreenStoryboard: 1

[Editor]
DistanceSpacing: 0.8
BeatDivisor: 4
GridSize: 32
TimelineZoom: 1.2

[Metadata]
Title:Revontulet
TitleUnicode:Revontulet
Artist:Sonata Arctica
ArtistUnicode:Sonata Arctica
Creator:_WWWWWW_WWWWWW_
Version:Kantan
Source:
Tags:melodic power metal instrumental silence 2001 _w6 argentine dream
BeatmapID:1894754
BeatmapSetID:764052

[Difficulty]
HPDrainRate:7.5
CircleSize:5
OverallDifficulty:4
ApproachRate:5
SliderMultiplier:1.4
SliderTickRate:1

[Events]
//Background and Video events
0,0,"revontulet.jpg",0,0
//Break Periods
//Storyboard Layer 0 (Background)
//Storyboard Layer 1 (Fail)
//Storyboard Layer 2 (Pass)
//Storyboard Layer 3 (Foreground)
//Storyboard Sound Samples

[TimingPoints]
290,338.983050847458,4,1,0,80,1,0
290,-133.333333333333,4,1,0,80,0,0
11137,-133.333333333333,4,1,0,80,0,1
21645,338.983050847458,4,1,0,80,1,9
21645,-133.333333333333,4,1,0,80,0,1
21994,447.761194029851,4,1,0,80,1,0
23337,-111.111111111111,4,1,0,80,0,0
30725,447.761194029851,4,1,0,80,1,0
30725,-111.111111111111,4,1,0,80,0,0
37665,447.761194029851,4,1,0,80,1,0
37665,-111.111111111111,4,1,0,80,0,0
41023,447.761194029851,4,1,0,80,1,0
41023,-111.111111111111,4,1,0,80,0,0
47963,447.761194029851,4,1,0,80,1,0
47963,-111.111111111111,4,1,0,80,0,0
58485,447.761194029851,4,1,0,80,1,0
58485,-111.111111111111,4,1,0,80,0,0
63858,447.761194029851,6,1,0,80,1,0
63858,-111.111111111111,4,1,0,80,0,0
69231,447.761194029851,2,1,0,80,1,8
69231,-100,4,1,0,80,0,0
70126,338.983050847458,4,1,0,80,1,0
70126,-133.333333333333,4,1,0,80,0,0
75549,-133.333333333333,4,1,0,80,0,1
80973,-133.333333333333,4,1,0,80,0,0

[HitObjects]
224,160,290,5,8,0:0:0:0:
224,160,967,5,8,0:0:0:0:
288,224,2662,5,4,0:0:0:0:
288,224,3001,1,4,0:0:0:0:
224,224,3679,1,0,0:0:0:0:
288,160,5374,1,12,0:0:0:0:
288,160,5713,1,12,0:0:0:0:
224,160,6391,5,8,0:0:0:0:
288,224,8086,5,4,0:0:0:0:
288,224,8425,1,4,0:0:0:0:
224,224,9103,1,0,0:0:0:0:
288,224,9781,1,4,0:0:0:0:
288,224,10120,1,4,0:0:0:0:
288,160,10459,1,12,0:0:0:0:
224,160,11137,5,8,0:0:0:0:
224,160,11476,1,8,0:0:0:0:
224,224,11815,1,0,0:0:0:0:
224,224,12493,5,0,0:0:0:0:
224,224,12832,1,0,0:0:0:0:
224,160,13171,1,8,0:0:0:0:
224,224,13849,5,0,0:0:0:0:
224,160,14188,1,8,0:0:0:0:
224,224,14527,1,0,0:0:0:0:
224,224,15205,5,0,0:0:0:0:
288,160,16222,1,12,0:0:0:0:
224,160,16561,5,8,0:0:0:0:
224,160,16900,1,8,0:0:0:0:
224,224,17239,1,0,0:0:0:0:
224,224,17917,5,0,0:0:0:0:
224,224,18256,1,0,0:0:0:0:
224,160,18595,1,8,0:0:0:0:
224,224,19273,5,0,0:0:0:0:
224,160,19612,1,8,0:0:0:0:
224,224,19951,1,0,0:0:0:0:
224,224,20628,5,0,0:0:0:0:
288,160,21645,1,12,0:0:0:0:
288,224,21994,1,4,0:0:0:0:
288,160,23337,1,12,0:0:0:0:
224,224,23785,1,0,0:0:0:0:
224,160,24232,1,8,0:0:0:0:
224,224,24680,1,0,0:0:0:0:
288,224,25576,1,4,0:0:0:0:
288,224,25799,1,4,0:0:0:0:
288,224,26023,1,4,0:0:0:0:
224,224,27367,1,0,0:0:0:0:
224,160,27814,1,8,0:0:0:0:
224,224,28262,1,0,0:0:0:0:
288,160,29158,1,12,0:0:0:0:
288,160,29382,1,12,0:0:0:0:
288,160,29605,1,12,0:0:0:0:
224,224,30725,1,0,0:0:0:0:
224,160,31172,1,8,0:0:0:0:
224,224,31620,1,0,0:0:0:0:
288,224,32516,1,4,0:0:0:0:
288,224,32739,1,4,0:0:0:0:
288,224,32963,1,4,0:0:0:0:
224,224,34307,1,0,0:0:0:0:
224,160,34754,1,8,0:0:0:0:
224,224,35202,1,0,0:0:0:0:
288,160,36098,1,12,0:0:0:0:
288,160,36322,1,12,0:0:0:0:
288,160,36545,1,12,0:0:0:0:
288,160,37665,1,12,0:0:0:0:
288,160,38336,5,12,0:0:0:0:
288,224,39456,1,4,0:0:0:0:
288,224,40127,1,4,0:0:0:0:
288,160,41023,1,12,0:0:0:0:
288,160,41694,5,12,0:0:0:0:
288,224,42814,1,4,0:0:0:0:
288,224,43485,1,4,0:0:0:0:
224,160,44605,1,8,0:0:0:0:
224,224,45500,1,0,0:0:0:0:
224,160,45948,1,8,0:0:0:0:
224,224,46396,1,0,0:0:0:0:
224,224,46843,1,0,0:0:0:0:
224,160,47291,1,8,0:0:0:0:
224,160,47963,1,8,0:0:0:0:
224,224,48858,1,0,0:0:0:0:
224,160,49306,1,8,0:0:0:0:
224,224,49754,1,0,0:0:0:0:
224,160,50649,1,8,0:0:0:0:
224,160,51097,1,8,0:0:0:0:
224,224,51545,1,0,0:0:0:0:
224,160,51992,1,8,0:0:0:0:
224,224,52440,1,0,0:0:0:0:
288,224,53336,1,4,0:0:0:0:
288,224,53560,1,4,0:0:0:0:
288,224,53783,1,4,0:0:0:0:
224,224,55127,1,0,0:0:0:0:
224,160,55574,1,8,0:0:0:0:
224,224,56022,1,0,0:0:0:0:
288,160,56918,1,12,0:0:0:0:
288,160,57142,1,12,0:0:0:0:
288,160,57365,1,12,0:0:0:0:
224,224,58485,1,0,0:0:0:0:
224,160,58932,1,8,0:0:0:0:
224,224,59380,1,0,0:0:0:0:
288,224,60276,1,4,0:0:0:0:
288,224,60499,1,4,0:0:0:0:
288,224,60723,1,4,0:0:0:0:
224,224,62067,1,0,0:0:0:0:
224,160,62514,1,8,0:0:0:0:
224,224,62962,1,0,0:0:0:0:
288,160,63858,1,12,0:0:0:0:
288,160,64082,1,12,0:0:0:0:
288,160,64305,1,12,0:0:0:0:
256,192,64753,2,0,L|256:160,4,31.4999990386963
256,192,65425,2,0,L|256:160,4,31.4999990386963
256,192,66096,2,0,L|256:160,4,31.4999990386963
256,192,66768,12,0,69231,0:0:0:0:
288,224,70126,5,4,0:0:0:0:
224,160,70803,1,8,0:0:0:0:
288,224,72498,5,4,0:0:0:0:
288,224,72837,1,4,0:0:0:0:
224,224,73515,1,0,0:0:0:0:
288,160,75210,1,12,0:0:0:0:
224,160,75549,5,8,0:0:0:0:
224,160,75888,1,8,0:0:0:0:
224,224,76227,1,0,0:0:0:0:
224,224,76905,5,0,0:0:0:0:
224,224,77244,1,0,0:0:0:0:
224,160,77583,1,8,0:0:0:0:
224,160,78261,5,8,0:0:0:0:
224,160,78600,1,8,0:0:0:0:
224,224,78939,1,0,0:0:0:0:
224,224,79617,5,0,0:0:0:0:
224,224,79956,1,0,0:0:0:0:
224,160,80295,1,8,0:0:0:0:
288,160,80973,5,12,0:0:0:0:
288,224,83007,1,4,0:0:0:0:
288,160,83685,1,12,0:0:0:0:
256,192,84024,2,0,L|256:160,24,26.2500010013581
288,160,86397,5,12,0:0:0:0:
