osu file format v14

[General]
AudioFilename: audio.mp3
AudioLeadIn: 0
PreviewTime: 75202
Countdown: 1
SampleSet: Normal
StackLeniency: 0.7
Mode: 1
LetterboxInBreaks: 0
WidescreenStoryboard: 1

[Editor]
DistanceSpacing: 0.8
BeatDivisor: 4
GridSize: 32
TimelineZoom: 2.4

[Metadata]
Title:Revontulet
TitleUnicode:Revontulet
Artist:Sonata Arctica
ArtistUnicode:Sonata Arctica
Creator:_WWWWWW_WWWWWW_
Version:Daitatsujin
Source:
Tags:melodic power metal instrumental silence 2001 _w6 argentine dream
BeatmapID:1606606
BeatmapSetID:764052

[Difficulty]
HPDrainRate:6
CircleSize:5
OverallDifficulty:7
ApproachRate:5
SliderMultiplier:1.4
SliderTickRate:1

[Events]
//Background and Video events
0,0,"revontulet.jpg",0,0
//Break Periods
//Storyboard Layer 0 (Background)
//Storyboard Layer 1 (Fail)
//Storyboard Layer 2 (Pass)
//Storyboard Layer 3 (Foreground)
//Storyboard Sound Samples

[TimingPoints]
290,338.983050847458,4,1,0,80,1,0
290,-86.9565217391304,4,1,0,80,0,0
11137,-86.9565217391304,4,1,0,80,0,1
21645,338.983050847458,4,1,0,80,1,9
21645,-86.9565217391304,4,1,0,80,0,1
21994,447.761194029851,4,1,0,80,1,0
21994,-66.6666666666667,4,1,0,80,0,0
23785,-66.6666666666667,4,1,0,80,0,0
30725,447.761194029851,4,1,0,80,1,0
30725,-66.6666666666667,4,1,0,80,0,0
37665,447.761194029851,4,1,0,80,1,0
37665,-66.6666666666667,4,1,0,80,0,0
41023,447.761194029851,4,1,0,80,1,0
41023,-66.6666666666667,4,1,0,80,0,0
47963,447.761194029851,4,1,0,80,1,0
47963,-66.6666666666667,4,1,0,80,0,0
58485,447.761194029851,4,1,0,80,1,0
58485,-66.6666666666667,4,1,0,80,0,0
63858,447.761194029851,6,1,0,80,1,0
63858,-66.6666666666667,4,1,0,80,0,0
69231,447.761194029851,2,1,0,80,1,8
69231,-75.0187546886722,6,1,0,80,0,0
70126,338.983050847458,4,1,0,80,1,0
70126,-86.9565217391304,4,1,0,80,0,0
75549,-86.9565217391304,4,1,0,80,0,1
80973,-86.9565217391304,4,1,0,80,0,0

[HitObjects]
224,160,290,5,8,0:0:0:0:
224,160,346,1,8,0:0:0:0:
224,160,402,1,8,0:0:0:0:
224,224,459,1,0,0:0:0:0:
224,160,628,1,8,0:0:0:0:
224,160,685,1,8,0:0:0:0:
224,224,741,1,0,0:0:0:0:
224,224,798,1,0,0:0:0:0:
224,160,967,1,8,0:0:0:0:
224,160,1024,1,8,0:0:0:0:
224,160,1080,1,8,0:0:0:0:
224,224,1137,1,0,0:0:0:0:
224,224,1645,5,0,0:0:0:0:
224,224,1702,1,0,0:0:0:0:
224,224,1758,1,0,0:0:0:0:
224,160,1815,1,8,0:0:0:0:
224,224,1984,1,0,0:0:0:0:
224,224,2041,1,0,0:0:0:0:
224,160,2097,1,8,0:0:0:0:
224,160,2154,1,8,0:0:0:0:
224,224,2323,1,0,0:0:0:0:
224,224,2380,1,0,0:0:0:0:
224,224,2436,1,0,0:0:0:0:
224,160,2493,1,8,0:0:0:0:
288,160,2662,1,12,0:0:0:0:
224,224,3001,5,0,0:0:0:0:
224,224,3058,1,0,0:0:0:0:
224,224,3114,1,0,0:0:0:0:
224,160,3171,1,8,0:0:0:0:
224,224,3340,1,0,0:0:0:0:
224,224,3397,1,0,0:0:0:0:
224,160,3453,1,8,0:0:0:0:
224,160,3510,1,8,0:0:0:0:
224,224,3679,1,0,0:0:0:0:
224,224,3736,1,0,0:0:0:0:
224,224,3792,1,0,0:0:0:0:
224,160,3849,1,8,0:0:0:0:
224,160,4357,5,8,0:0:0:0:
224,160,4414,1,8,0:0:0:0:
224,160,4470,1,8,0:0:0:0:
224,224,4527,1,0,0:0:0:0:
224,160,4696,1,8,0:0:0:0:
224,160,4753,1,8,0:0:0:0:
224,224,4809,1,0,0:0:0:0:
224,224,4866,1,0,0:0:0:0:
224,160,5035,1,8,0:0:0:0:
224,160,5092,1,8,0:0:0:0:
224,160,5148,1,8,0:0:0:0:
224,224,5205,1,0,0:0:0:0:
288,224,5374,1,4,0:0:0:0:
224,160,5713,5,8,0:0:0:0:
224,160,5770,1,8,0:0:0:0:
224,160,5826,1,8,0:0:0:0:
224,224,5883,1,0,0:0:0:0:
224,160,6052,1,8,0:0:0:0:
224,160,6109,1,8,0:0:0:0:
224,224,6165,1,0,0:0:0:0:
224,224,6222,1,0,0:0:0:0:
224,160,6391,1,8,0:0:0:0:
224,160,6448,1,8,0:0:0:0:
224,160,6504,1,8,0:0:0:0:
224,224,6561,1,0,0:0:0:0:
224,224,7069,5,0,0:0:0:0:
224,224,7126,1,0,0:0:0:0:
224,224,7182,1,0,0:0:0:0:
224,160,7239,1,8,0:0:0:0:
224,224,7408,1,0,0:0:0:0:
224,224,7465,1,0,0:0:0:0:
224,160,7521,1,8,0:0:0:0:
224,160,7578,1,8,0:0:0:0:
224,224,7747,1,0,0:0:0:0:
224,224,7804,1,0,0:0:0:0:
224,224,7860,1,0,0:0:0:0:
224,160,7917,1,8,0:0:0:0:
288,160,8086,1,12,0:0:0:0:
224,224,8425,5,0,0:0:0:0:
224,224,8482,1,0,0:0:0:0:
224,224,8538,1,0,0:0:0:0:
224,160,8595,1,8,0:0:0:0:
224,224,8764,1,0,0:0:0:0:
224,224,8821,1,0,0:0:0:0:
224,160,8877,1,8,0:0:0:0:
224,160,8934,1,8,0:0:0:0:
224,224,9103,1,0,0:0:0:0:
224,224,9160,1,0,0:0:0:0:
224,224,9216,1,0,0:0:0:0:
224,160,9273,1,8,0:0:0:0:
224,160,9781,5,8,0:0:0:0:
224,160,9838,1,8,0:0:0:0:
224,160,9894,1,8,0:0:0:0:
224,224,9951,1,0,0:0:0:0:
224,160,10120,1,8,0:0:0:0:
224,160,10177,1,8,0:0:0:0:
224,224,10233,1,0,0:0:0:0:
224,224,10290,1,0,0:0:0:0:
224,160,10459,1,8,0:0:0:0:
224,160,10515,1,8,0:0:0:0:
224,160,10572,1,8,0:0:0:0:
224,224,10628,1,0,0:0:0:0:
288,224,10798,1,4,0:0:0:0:
224,160,11137,5,8,0:0:0:0:
224,160,11193,1,0,0:0:0:0:
224,224,11250,1,0,0:0:0:0:
224,160,11306,1,8,0:0:0:0:
224,224,11391,1,0,0:0:0:0:
224,160,11476,1,8,0:0:0:0:
224,160,11532,1,8,0:0:0:0:
224,224,11589,1,0,0:0:0:0:
224,224,11645,1,0,0:0:0:0:
224,160,11815,1,8,0:0:0:0:
224,160,11871,1,8,0:0:0:0:
224,160,11928,1,8,0:0:0:0:
224,224,11984,1,0,0:0:0:0:
224,160,12154,1,8,0:0:0:0:
224,224,12493,5,0,0:0:0:0:
224,224,12549,1,0,0:0:0:0:
224,224,12606,1,0,0:0:0:0:
224,160,12662,1,8,0:0:0:0:
224,224,12832,1,0,0:0:0:0:
224,224,12888,1,0,0:0:0:0:
224,160,12945,1,8,0:0:0:0:
224,160,13001,1,8,0:0:0:0:
224,224,13171,1,0,0:0:0:0:
224,224,13227,1,0,0:0:0:0:
224,224,13284,1,0,0:0:0:0:
224,160,13340,1,8,0:0:0:0:
288,160,13510,1,12,0:0:0:0:
224,224,13849,5,0,0:0:0:0:
224,224,13905,1,8,0:0:0:0:
224,224,13962,1,8,0:0:0:0:
224,160,14018,1,0,0:0:0:0:
224,224,14103,1,8,0:0:0:0:
224,160,14188,1,0,0:0:0:0:
224,224,14244,1,0,0:0:0:0:
224,224,14301,1,8,0:0:0:0:
224,160,14357,1,8,0:0:0:0:
224,224,14527,1,0,0:0:0:0:
224,224,14583,1,0,0:0:0:0:
224,224,14640,1,0,0:0:0:0:
224,160,14696,1,8,0:0:0:0:
224,160,14866,1,8,0:0:0:0:
224,160,15205,5,8,0:0:0:0:
224,160,15261,1,8,0:0:0:0:
224,160,15318,1,8,0:0:0:0:
224,224,15374,1,0,0:0:0:0:
224,160,15544,1,8,0:0:0:0:
224,160,15600,1,8,0:0:0:0:
224,224,15657,1,0,0:0:0:0:
224,224,15713,1,0,0:0:0:0:
224,160,15883,1,8,0:0:0:0:
224,160,15939,1,8,0:0:0:0:
224,160,15996,1,8,0:0:0:0:
224,224,16052,1,0,0:0:0:0:
288,160,16222,1,12,0:0:0:0:
224,160,16561,5,8,0:0:0:0:
224,160,16617,1,0,0:0:0:0:
224,224,16674,1,0,0:0:0:0:
224,160,16730,1,8,0:0:0:0:
224,224,16815,1,0,0:0:0:0:
224,160,16900,1,8,0:0:0:0:
224,160,16956,1,8,0:0:0:0:
224,224,17013,1,0,0:0:0:0:
224,224,17069,1,0,0:0:0:0:
224,160,17239,1,8,0:0:0:0:
224,160,17295,1,8,0:0:0:0:
224,160,17352,1,8,0:0:0:0:
224,224,17408,1,0,0:0:0:0:
224,160,17578,1,8,0:0:0:0:
224,224,17917,5,0,0:0:0:0:
224,224,17973,1,0,0:0:0:0:
224,224,18030,1,0,0:0:0:0:
224,160,18086,1,8,0:0:0:0:
224,224,18256,1,0,0:0:0:0:
224,224,18312,1,0,0:0:0:0:
224,160,18369,1,8,0:0:0:0:
224,160,18425,1,8,0:0:0:0:
224,224,18595,1,0,0:0:0:0:
224,224,18651,1,0,0:0:0:0:
224,224,18708,1,0,0:0:0:0:
224,160,18764,1,8,0:0:0:0:
288,160,18934,1,12,0:0:0:0:
224,224,19273,5,0,0:0:0:0:
224,224,19329,1,8,0:0:0:0:
224,224,19386,1,8,0:0:0:0:
224,160,19442,1,0,0:0:0:0:
224,224,19527,1,8,0:0:0:0:
224,160,19612,1,0,0:0:0:0:
224,224,19668,1,0,0:0:0:0:
224,224,19725,1,8,0:0:0:0:
224,160,19781,1,8,0:0:0:0:
224,224,19951,1,0,0:0:0:0:
224,224,20007,1,0,0:0:0:0:
224,224,20064,1,0,0:0:0:0:
224,160,20120,1,8,0:0:0:0:
224,160,20290,1,8,0:0:0:0:
224,160,20628,5,8,0:0:0:0:
224,160,20685,1,8,0:0:0:0:
224,160,20741,1,8,0:0:0:0:
224,224,20798,1,0,0:0:0:0:
224,160,20967,1,8,0:0:0:0:
224,160,21024,1,8,0:0:0:0:
224,224,21080,1,0,0:0:0:0:
224,224,21137,1,0,0:0:0:0:
224,160,21306,1,8,0:0:0:0:
224,160,21363,1,8,0:0:0:0:
224,160,21419,1,8,0:0:0:0:
224,224,21476,1,0,0:0:0:0:
288,160,21645,1,12,0:0:0:0:
224,160,21994,5,8,0:0:0:0:
224,160,22105,1,8,0:0:0:0:
224,224,22217,1,0,0:0:0:0:
224,160,22329,1,8,0:0:0:0:
224,160,22441,1,8,0:0:0:0:
224,224,22553,1,0,0:0:0:0:
224,160,22665,1,8,0:0:0:0:
224,224,22777,1,0,0:0:0:0:
224,160,22889,1,8,0:0:0:0:
224,160,23001,1,8,0:0:0:0:
224,224,23113,1,0,0:0:0:0:
224,224,23225,1,0,0:0:0:0:
288,160,23337,1,12,0:0:0:0:
224,224,23785,5,0,0:0:0:0:
224,160,23896,1,8,0:0:0:0:
224,224,24008,1,0,0:0:0:0:
224,224,24120,1,0,0:0:0:0:
224,160,24232,1,8,0:0:0:0:
224,160,24344,1,8,0:0:0:0:
224,224,24456,1,0,0:0:0:0:
224,160,24568,1,8,0:0:0:0:
224,224,24680,1,0,0:0:0:0:
224,160,24792,1,8,0:0:0:0:
224,160,24904,1,8,0:0:0:0:
224,224,25016,1,0,0:0:0:0:
224,160,25128,1,8,0:0:0:0:
224,160,25240,1,8,0:0:0:0:
224,224,25352,1,0,0:0:0:0:
224,224,25464,1,0,0:0:0:0:
224,160,25576,5,8,0:0:0:0:
224,224,25688,1,0,0:0:0:0:
224,160,25799,1,8,0:0:0:0:
224,224,25911,1,0,0:0:0:0:
224,160,26023,1,8,0:0:0:0:
224,160,26135,1,8,0:0:0:0:
224,224,26247,1,0,0:0:0:0:
224,224,26359,1,0,0:0:0:0:
224,224,26471,1,8,0:0:0:0:
224,160,26546,1,0,0:0:0:0:
224,160,26620,1,0,0:0:0:0:
224,224,26695,1,8,0:0:0:0:
224,224,26770,1,8,0:0:0:0:
224,160,26844,1,0,0:0:0:0:
224,160,26919,1,8,0:0:0:0:
224,224,27031,1,0,0:0:0:0:
224,160,27143,1,8,0:0:0:0:
224,224,27255,1,0,0:0:0:0:
224,224,27367,5,0,0:0:0:0:
224,160,27479,1,8,0:0:0:0:
224,224,27591,1,0,0:0:0:0:
224,224,27702,1,0,0:0:0:0:
224,160,27814,1,8,0:0:0:0:
224,160,27926,1,8,0:0:0:0:
224,224,28038,1,0,0:0:0:0:
224,160,28150,1,8,0:0:0:0:
224,224,28262,1,0,0:0:0:0:
224,160,28374,1,8,0:0:0:0:
224,160,28486,1,8,0:0:0:0:
224,224,28598,1,0,0:0:0:0:
224,160,28710,1,8,0:0:0:0:
224,160,28822,1,8,0:0:0:0:
224,224,28934,1,0,0:0:0:0:
224,224,29046,1,0,0:0:0:0:
224,160,29158,5,8,0:0:0:0:
224,224,29270,1,0,0:0:0:0:
224,160,29382,1,8,0:0:0:0:
224,224,29494,1,0,0:0:0:0:
224,160,29605,1,8,0:0:0:0:
224,160,29717,1,8,0:0:0:0:
224,224,29829,1,0,0:0:0:0:
224,224,29941,1,0,0:0:0:0:
224,224,30053,1,8,0:0:0:0:
224,160,30128,1,8,0:0:0:0:
224,160,30202,1,0,0:0:0:0:
224,224,30277,1,8,0:0:0:0:
224,224,30352,1,8,0:0:0:0:
224,160,30426,1,0,0:0:0:0:
224,224,30501,1,0,0:0:0:0:
224,224,30725,5,0,0:0:0:0:
224,160,30836,1,8,0:0:0:0:
224,224,30948,1,0,0:0:0:0:
224,224,31060,1,0,0:0:0:0:
224,160,31172,1,8,0:0:0:0:
224,160,31284,1,8,0:0:0:0:
224,224,31396,1,0,0:0:0:0:
224,160,31508,1,8,0:0:0:0:
224,224,31620,1,0,0:0:0:0:
224,160,31732,1,8,0:0:0:0:
224,160,31844,1,8,0:0:0:0:
224,224,31956,1,0,0:0:0:0:
224,160,32068,1,8,0:0:0:0:
224,160,32180,1,8,0:0:0:0:
224,224,32292,1,0,0:0:0:0:
224,224,32404,1,0,0:0:0:0:
224,160,32516,5,8,0:0:0:0:
224,224,32627,1,0,0:0:0:0:
224,160,32739,1,8,0:0:0:0:
224,224,32851,1,0,0:0:0:0:
224,160,32963,1,8,0:0:0:0:
224,160,33075,1,8,0:0:0:0:
224,224,33187,1,0,0:0:0:0:
224,224,33299,1,0,0:0:0:0:
224,224,33411,1,8,0:0:0:0:
224,160,33486,1,0,0:0:0:0:
224,160,33560,1,0,0:0:0:0:
224,224,33635,1,8,0:0:0:0:
224,224,33710,1,8,0:0:0:0:
224,160,33784,1,0,0:0:0:0:
224,160,33859,1,8,0:0:0:0:
224,224,33971,1,8,0:0:0:0:
224,160,34083,1,0,0:0:0:0:
224,160,34195,1,0,0:0:0:0:
224,224,34307,5,0,0:0:0:0:
224,160,34419,1,8,0:0:0:0:
224,224,34530,1,0,0:0:0:0:
224,224,34642,1,0,0:0:0:0:
224,160,34754,1,8,0:0:0:0:
224,160,34866,1,8,0:0:0:0:
224,224,34978,1,0,0:0:0:0:
224,160,35090,1,8,0:0:0:0:
224,224,35202,1,0,0:0:0:0:
224,160,35314,1,8,0:0:0:0:
224,160,35426,1,8,0:0:0:0:
224,224,35538,1,0,0:0:0:0:
224,160,35650,1,8,0:0:0:0:
224,160,35762,1,8,0:0:0:0:
224,224,35874,1,0,0:0:0:0:
224,224,35986,1,0,0:0:0:0:
224,160,36098,5,8,0:0:0:0:
224,224,36210,1,0,0:0:0:0:
224,160,36322,1,8,0:0:0:0:
224,224,36433,1,0,0:0:0:0:
224,160,36545,1,8,0:0:0:0:
224,160,36657,1,8,0:0:0:0:
224,224,36769,1,0,0:0:0:0:
224,224,36881,1,0,0:0:0:0:
224,224,36993,1,8,0:0:0:0:
224,160,37068,1,8,0:0:0:0:
224,160,37142,1,0,0:0:0:0:
224,224,37217,1,8,0:0:0:0:
224,224,37292,1,8,0:0:0:0:
224,160,37366,1,0,0:0:0:0:
224,160,37441,1,8,0:0:0:0:
288,160,37665,5,12,0:0:0:0:
224,224,37888,1,0,0:0:0:0:
288,160,38000,1,12,0:0:0:0:
224,160,38224,1,8,0:0:0:0:
288,224,38336,1,4,0:0:0:0:
224,224,38560,1,0,0:0:0:0:
288,160,38672,1,12,0:0:0:0:
224,160,38896,1,8,0:0:0:0:
288,224,39008,1,4,0:0:0:0:
224,224,39232,5,0,0:0:0:0:
224,224,39344,1,0,0:0:0:0:
288,160,39456,1,12,0:0:0:0:
224,224,39679,1,0,0:0:0:0:
288,160,39791,1,12,0:0:0:0:
224,160,40015,1,8,0:0:0:0:
288,224,40127,1,4,0:0:0:0:
288,160,40351,1,12,0:0:0:0:
288,224,40575,1,4,0:0:0:0:
224,224,40799,5,0,0:0:0:0:
224,224,40911,1,0,0:0:0:0:
288,160,41023,1,12,0:0:0:0:
224,224,41246,1,0,0:0:0:0:
288,160,41358,1,12,0:0:0:0:
224,160,41582,1,8,0:0:0:0:
288,224,41694,1,4,0:0:0:0:
224,224,41918,1,0,0:0:0:0:
288,160,42030,1,12,0:0:0:0:
224,160,42254,1,8,0:0:0:0:
288,224,42366,1,4,0:0:0:0:
224,224,42590,5,0,0:0:0:0:
224,224,42702,1,0,0:0:0:0:
288,160,42814,1,12,0:0:0:0:
224,224,43037,1,0,0:0:0:0:
288,160,43149,1,12,0:0:0:0:
224,160,43373,1,8,0:0:0:0:
288,224,43485,1,4,0:0:0:0:
224,224,43709,1,0,0:0:0:0:
288,160,43821,1,12,0:0:0:0:
224,160,44045,1,8,0:0:0:0:
288,224,44157,1,4,0:0:0:0:
224,224,44381,5,0,0:0:0:0:
224,224,44493,1,0,0:0:0:0:
224,160,44605,1,8,0:0:0:0:
224,224,44717,1,0,0:0:0:0:
224,224,44828,1,0,0:0:0:0:
224,160,44940,1,8,0:0:0:0:
224,224,45052,1,0,0:0:0:0:
224,224,45164,1,0,0:0:0:0:
224,160,45276,1,8,0:0:0:0:
224,160,45388,1,8,0:0:0:0:
224,224,45500,1,0,0:0:0:0:
224,160,45612,1,8,0:0:0:0:
224,160,45724,1,8,0:0:0:0:
224,224,45836,1,0,0:0:0:0:
224,160,45948,1,8,0:0:0:0:
224,160,46060,1,8,0:0:0:0:
224,224,46172,1,0,0:0:0:0:
224,224,46284,1,0,0:0:0:0:
224,160,46396,5,8,0:0:0:0:
224,224,46508,1,0,0:0:0:0:
224,224,46620,1,0,0:0:0:0:
224,160,46731,1,8,0:0:0:0:
224,224,46843,1,0,0:0:0:0:
224,224,46955,1,0,0:0:0:0:
224,160,47067,1,8,0:0:0:0:
224,224,47179,1,0,0:0:0:0:
224,160,47291,1,8,0:0:0:0:
224,224,47403,1,0,0:0:0:0:
224,160,47515,1,8,0:0:0:0:
224,160,47627,1,8,0:0:0:0:
224,224,47739,1,0,0:0:0:0:
224,224,47851,1,0,0:0:0:0:
224,160,47963,5,8,0:0:0:0:
224,224,48074,1,0,0:0:0:0:
224,224,48186,1,0,0:0:0:0:
224,160,48298,1,8,0:0:0:0:
224,224,48410,1,0,0:0:0:0:
224,224,48522,1,0,0:0:0:0:
224,160,48634,1,8,0:0:0:0:
224,160,48746,1,8,0:0:0:0:
224,224,48858,1,0,0:0:0:0:
224,160,48970,1,8,0:0:0:0:
224,160,49082,1,8,0:0:0:0:
224,224,49194,1,0,0:0:0:0:
224,160,49306,1,8,0:0:0:0:
224,160,49418,1,8,0:0:0:0:
224,224,49530,1,0,0:0:0:0:
224,224,49642,1,0,0:0:0:0:
224,160,49754,5,8,0:0:0:0:
224,224,49865,1,0,0:0:0:0:
224,224,49977,1,0,0:0:0:0:
224,160,50089,1,8,0:0:0:0:
224,224,50201,1,0,0:0:0:0:
224,224,50313,1,0,0:0:0:0:
224,160,50425,1,8,0:0:0:0:
224,160,50537,1,8,0:0:0:0:
224,224,50649,1,0,0:0:0:0:
224,160,50761,1,8,0:0:0:0:
224,160,50873,1,8,0:0:0:0:
224,160,50985,1,8,0:0:0:0:
224,224,51097,1,0,0:0:0:0:
224,224,51209,1,0,0:0:0:0:
224,160,51321,1,8,0:0:0:0:
224,160,51433,1,8,0:0:0:0:
224,224,51545,5,0,0:0:0:0:
224,160,51657,1,8,0:0:0:0:
224,224,51768,1,0,0:0:0:0:
224,224,51880,1,0,0:0:0:0:
224,160,51992,1,8,0:0:0:0:
224,160,52104,1,8,0:0:0:0:
224,224,52216,1,0,0:0:0:0:
224,160,52328,1,8,0:0:0:0:
224,224,52440,1,0,0:0:0:0:
224,160,52552,1,8,0:0:0:0:
224,160,52664,1,8,0:0:0:0:
224,224,52776,1,0,0:0:0:0:
224,160,52888,1,8,0:0:0:0:
224,160,53000,1,8,0:0:0:0:
224,224,53112,1,0,0:0:0:0:
224,224,53224,1,0,0:0:0:0:
224,160,53336,5,8,0:0:0:0:
224,224,53448,1,0,0:0:0:0:
224,160,53560,1,8,0:0:0:0:
224,224,53671,1,0,0:0:0:0:
224,160,53783,1,8,0:0:0:0:
224,160,53895,1,8,0:0:0:0:
224,224,54007,1,0,0:0:0:0:
224,224,54119,1,0,0:0:0:0:
224,224,54231,1,8,0:0:0:0:
224,160,54306,1,0,0:0:0:0:
224,160,54380,1,0,0:0:0:0:
224,224,54455,1,8,0:0:0:0:
224,224,54530,1,8,0:0:0:0:
224,160,54604,1,0,0:0:0:0:
224,160,54679,1,8,0:0:0:0:
224,224,54791,1,0,0:0:0:0:
224,160,54903,1,8,0:0:0:0:
224,224,55015,1,0,0:0:0:0:
224,224,55127,5,0,0:0:0:0:
224,160,55239,1,8,0:0:0:0:
224,224,55351,1,0,0:0:0:0:
224,224,55463,1,0,0:0:0:0:
224,160,55574,1,8,0:0:0:0:
224,160,55686,1,8,0:0:0:0:
224,224,55798,1,0,0:0:0:0:
224,160,55910,1,8,0:0:0:0:
224,224,56022,1,0,0:0:0:0:
224,160,56134,1,8,0:0:0:0:
224,160,56246,1,8,0:0:0:0:
224,224,56358,1,0,0:0:0:0:
224,160,56470,1,8,0:0:0:0:
224,160,56582,1,8,0:0:0:0:
224,224,56694,1,0,0:0:0:0:
224,224,56806,1,0,0:0:0:0:
224,160,56918,5,8,0:0:0:0:
224,224,57030,1,0,0:0:0:0:
224,160,57142,1,8,0:0:0:0:
224,224,57254,1,0,0:0:0:0:
224,160,57365,1,8,0:0:0:0:
224,160,57477,1,8,0:0:0:0:
224,224,57589,1,0,0:0:0:0:
224,224,57701,1,0,0:0:0:0:
224,224,57813,1,8,0:0:0:0:
224,160,57888,1,8,0:0:0:0:
224,160,57963,1,0,0:0:0:0:
224,224,58037,1,8,0:0:0:0:
224,224,58112,1,8,0:0:0:0:
224,160,58186,1,0,0:0:0:0:
224,224,58261,1,0,0:0:0:0:
224,224,58485,5,0,0:0:0:0:
224,160,58596,1,8,0:0:0:0:
224,224,58708,1,0,0:0:0:0:
224,224,58820,1,0,0:0:0:0:
224,160,58932,1,8,0:0:0:0:
224,160,59044,1,8,0:0:0:0:
224,224,59156,1,0,0:0:0:0:
224,160,59268,1,8,0:0:0:0:
224,224,59380,1,0,0:0:0:0:
224,160,59492,1,8,0:0:0:0:
224,160,59604,1,8,0:0:0:0:
224,224,59716,1,0,0:0:0:0:
224,160,59828,1,8,0:0:0:0:
224,160,59940,1,8,0:0:0:0:
224,224,60052,1,0,0:0:0:0:
224,224,60164,1,0,0:0:0:0:
224,160,60276,5,8,0:0:0:0:
224,224,60387,1,0,0:0:0:0:
224,160,60499,1,8,0:0:0:0:
224,224,60611,1,0,0:0:0:0:
224,160,60723,1,8,0:0:0:0:
224,160,60835,1,8,0:0:0:0:
224,224,60947,1,0,0:0:0:0:
224,224,61059,1,0,0:0:0:0:
224,224,61171,1,8,0:0:0:0:
224,160,61246,1,0,0:0:0:0:
224,160,61320,1,0,0:0:0:0:
224,224,61395,1,8,0:0:0:0:
224,224,61470,1,8,0:0:0:0:
224,160,61544,1,0,0:0:0:0:
224,160,61619,1,8,0:0:0:0:
224,224,61731,1,8,0:0:0:0:
224,160,61843,1,0,0:0:0:0:
224,160,61955,1,0,0:0:0:0:
224,224,62067,5,0,0:0:0:0:
224,160,62179,1,8,0:0:0:0:
224,224,62290,1,0,0:0:0:0:
224,224,62402,1,0,0:0:0:0:
224,160,62514,1,8,0:0:0:0:
224,160,62626,1,8,0:0:0:0:
224,224,62738,1,0,0:0:0:0:
224,160,62850,1,8,0:0:0:0:
224,224,62962,1,0,0:0:0:0:
224,160,63074,1,8,0:0:0:0:
224,160,63186,1,8,0:0:0:0:
224,224,63298,1,0,0:0:0:0:
224,160,63410,1,8,0:0:0:0:
224,160,63522,1,8,0:0:0:0:
224,224,63634,1,0,0:0:0:0:
224,224,63746,1,0,0:0:0:0:
224,160,63858,5,8,0:0:0:0:
224,224,63970,1,0,0:0:0:0:
224,160,64082,1,8,0:0:0:0:
224,224,64193,1,0,0:0:0:0:
224,160,64305,1,8,0:0:0:0:
224,160,64417,1,8,0:0:0:0:
224,224,64529,1,0,0:0:0:0:
224,224,64641,1,0,0:0:0:0:
224,160,64753,5,8,0:0:0:0:
224,160,64828,1,8,0:0:0:0:
224,224,64902,1,0,0:0:0:0:
224,160,64977,1,8,0:0:0:0:
224,160,65052,1,8,0:0:0:0:
224,224,65126,1,0,0:0:0:0:
224,224,65201,1,0,0:0:0:0:
224,160,65425,5,8,0:0:0:0:
224,160,65499,1,8,0:0:0:0:
224,224,65574,1,0,0:0:0:0:
224,160,65649,1,8,0:0:0:0:
224,160,65723,1,8,0:0:0:0:
224,224,65798,1,0,0:0:0:0:
224,224,65873,1,0,0:0:0:0:
224,160,66096,5,8,0:0:0:0:
224,160,66171,1,8,0:0:0:0:
224,224,66246,1,0,0:0:0:0:
224,160,66320,1,8,0:0:0:0:
224,160,66395,1,8,0:0:0:0:
224,224,66470,1,0,0:0:0:0:
224,160,66544,1,8,0:0:0:0:
256,192,66768,8,0,69231,0:0:0:0:
288,224,69455,5,4,0:0:0:0:
288,160,69679,1,12,0:0:0:0:
288,224,69902,1,4,0:0:0:0:
224,160,70126,5,8,0:0:0:0:
224,160,70182,1,8,0:0:0:0:
224,160,70238,1,8,0:0:0:0:
224,224,70295,1,0,0:0:0:0:
224,160,70464,1,8,0:0:0:0:
224,160,70521,1,8,0:0:0:0:
224,224,70577,1,0,0:0:0:0:
224,224,70634,1,0,0:0:0:0:
224,160,70803,1,8,0:0:0:0:
224,160,70860,1,8,0:0:0:0:
224,160,70916,1,8,0:0:0:0:
224,224,70973,1,0,0:0:0:0:
224,224,71481,5,0,0:0:0:0:
224,224,71538,1,0,0:0:0:0:
224,224,71594,1,0,0:0:0:0:
224,160,71651,1,8,0:0:0:0:
224,224,71820,1,0,0:0:0:0:
224,224,71877,1,0,0:0:0:0:
224,160,71933,1,8,0:0:0:0:
224,160,71990,1,8,0:0:0:0:
224,224,72159,1,0,0:0:0:0:
224,224,72216,1,0,0:0:0:0:
224,224,72272,1,0,0:0:0:0:
224,160,72329,1,8,0:0:0:0:
288,160,72498,1,12,0:0:0:0:
224,224,72837,5,0,0:0:0:0:
224,224,72894,1,0,0:0:0:0:
224,224,72950,1,0,0:0:0:0:
224,160,73007,1,8,0:0:0:0:
224,224,73176,1,0,0:0:0:0:
224,224,73233,1,0,0:0:0:0:
224,160,73289,1,8,0:0:0:0:
224,160,73346,1,8,0:0:0:0:
224,224,73515,1,0,0:0:0:0:
224,224,73572,1,0,0:0:0:0:
224,224,73628,1,0,0:0:0:0:
224,160,73685,1,8,0:0:0:0:
224,160,74193,5,8,0:0:0:0:
224,160,74250,1,8,0:0:0:0:
224,160,74306,1,8,0:0:0:0:
224,224,74363,1,0,0:0:0:0:
224,160,74532,1,8,0:0:0:0:
224,160,74589,1,8,0:0:0:0:
224,224,74645,1,0,0:0:0:0:
224,224,74702,1,0,0:0:0:0:
224,160,74871,1,8,0:0:0:0:
224,160,74928,1,8,0:0:0:0:
224,160,74984,1,8,0:0:0:0:
224,224,75041,1,0,0:0:0:0:
288,224,75210,1,4,0:0:0:0:
224,160,75549,5,8,0:0:0:0:
224,160,75606,1,0,0:0:0:0:
224,224,75662,1,0,0:0:0:0:
224,160,75719,1,8,0:0:0:0:
224,224,75803,1,0,0:0:0:0:
224,160,75888,1,8,0:0:0:0:
224,160,75945,1,8,0:0:0:0:
224,224,76001,1,0,0:0:0:0:
224,224,76058,1,0,0:0:0:0:
224,160,76227,1,8,0:0:0:0:
224,160,76284,1,8,0:0:0:0:
224,160,76340,1,8,0:0:0:0:
224,224,76397,1,0,0:0:0:0:
224,160,76566,1,8,0:0:0:0:
224,224,76905,5,0,0:0:0:0:
224,224,76962,1,0,0:0:0:0:
224,224,77018,1,0,0:0:0:0:
224,160,77075,1,8,0:0:0:0:
224,224,77244,1,0,0:0:0:0:
224,224,77301,1,0,0:0:0:0:
224,160,77357,1,8,0:0:0:0:
224,160,77414,1,8,0:0:0:0:
224,224,77583,1,0,0:0:0:0:
224,224,77640,1,0,0:0:0:0:
224,224,77696,1,0,0:0:0:0:
224,160,77753,1,8,0:0:0:0:
288,160,77922,1,12,0:0:0:0:
224,224,78261,5,0,0:0:0:0:
224,224,78318,1,8,0:0:0:0:
224,224,78374,1,8,0:0:0:0:
224,160,78431,1,0,0:0:0:0:
224,224,78515,1,8,0:0:0:0:
224,160,78600,1,0,0:0:0:0:
224,224,78657,1,0,0:0:0:0:
224,224,78713,1,8,0:0:0:0:
224,160,78770,1,8,0:0:0:0:
224,224,78939,1,0,0:0:0:0:
224,224,78996,1,0,0:0:0:0:
224,224,79052,1,0,0:0:0:0:
224,160,79109,1,8,0:0:0:0:
224,160,79278,1,8,0:0:0:0:
224,160,79617,5,8,0:0:0:0:
224,160,79674,1,8,0:0:0:0:
224,160,79730,1,8,0:0:0:0:
224,224,79787,1,0,0:0:0:0:
224,160,79956,1,8,0:0:0:0:
224,160,80013,1,8,0:0:0:0:
224,224,80069,1,0,0:0:0:0:
224,224,80126,1,0,0:0:0:0:
224,160,80295,1,8,0:0:0:0:
224,160,80351,1,8,0:0:0:0:
224,160,80408,1,8,0:0:0:0:
224,224,80464,1,0,0:0:0:0:
288,160,80634,1,12,0:0:0:0:
288,160,80973,5,12,0:0:0:0:
224,160,81142,1,8,0:0:0:0:
224,224,81312,1,0,0:0:0:0:
224,224,81481,1,0,0:0:0:0:
224,160,81651,1,8,0:0:0:0:
224,224,81820,1,0,0:0:0:0:
224,224,81990,1,0,0:0:0:0:
224,224,82159,1,0,0:0:0:0:
224,160,82329,5,8,0:0:0:0:
224,224,82498,1,0,0:0:0:0:
224,224,82668,1,8,0:0:0:0:
224,224,82837,1,0,0:0:0:0:
224,224,83007,5,8,0:0:0:0:
224,224,83063,1,0,0:0:0:0:
224,224,83120,1,0,0:0:0:0:
224,160,83176,1,8,0:0:0:0:
224,160,83346,5,0,0:0:0:0:
224,160,83402,1,8,0:0:0:0:
224,160,83459,1,8,0:0:0:0:
224,224,83515,1,0,0:0:0:0:
224,224,83685,5,0,0:0:0:0:
224,224,83770,1,0,0:0:0:0:
224,160,83854,1,8,0:0:0:0:
224,160,83939,1,8,0:0:0:0:
224,224,84024,1,0,0:0:0:0:
224,224,84109,1,0,0:0:0:0:
224,160,84193,1,8,0:0:0:0:
224,160,84278,1,8,0:0:0:0:
224,224,84363,1,0,0:0:0:0:
224,160,84448,1,8,0:0:0:0:
224,160,84532,1,8,0:0:0:0:
224,160,84617,1,8,0:0:0:0:
224,224,84702,1,0,0:0:0:0:
224,160,84787,1,8,0:0:0:0:
224,160,84871,1,8,0:0:0:0:
224,160,84956,1,8,0:0:0:0:
224,224,85041,1,0,0:0:0:0:
224,160,85126,1,8,0:0:0:0:
224,224,85210,1,0,0:0:0:0:
224,224,85295,1,0,0:0:0:0:
224,160,85380,1,8,0:0:0:0:
224,224,85464,1,0,0:0:0:0:
224,160,85549,1,8,0:0:0:0:
224,160,85634,1,8,0:0:0:0:
224,224,85719,1,0,0:0:0:0:
224,160,85803,1,8,0:0:0:0:
224,224,85888,1,0,0:0:0:0:
224,224,85973,1,0,0:0:0:0:
224,160,86058,1,8,0:0:0:0:
224,160,86142,1,8,0:0:0:0:
224,224,86227,1,0,0:0:0:0:
224,224,86312,1,0,0:0:0:0:
288,160,86397,5,12,0:0:0:0:
